  0
SECTION
  2
HEADER
  9
$ACADVER
  1
AC1015
  9
$ACADMAINTVER
 70
    20
  9
$DWGCODEPAGE
  3
ANSI_1252
  9
$INSBASE
 10
0.0
 20
0.0
 30
0.0
  9
$EXTMIN
 10
356.6795179428713
 20
328.733238222658
 30
0.0
  9
$EXTMAX
 10
392.1125179428713
 20
354.0344928234552
 30
0.0
  9
$LIMMIN
 10
0.0
 20
0.0
  9
$LIMMAX
 10
900.0
 20
650.0
  9
$ORTHOMODE
 70
     1
  9
$REGENMODE
 70
     1
  9
$FILLMODE
 70
     1
  9
$QTEXTMODE
 70
     0
  9
$MIRRTEXT
 70
     1
  9
$LTSCALE
 40
12.0
  9
$ATTMODE
 70
     1
  9
$TEXTSIZE
 40
6.0
  9
$TRACEWID
 40
0.05
  9
$TEXTSTYLE
  7
TIME
  9
$CLAYER
  8
DIMENSI
  9
$CELTYPE
  6
BYLAYER
  9
$CECOLOR
 62
   256
  9
$CELTSCALE
 40
1.0
  9
$DISPSILH
 70
     0
  9
$DIMSCALE
 40
1.0
  9
$DIMASZ
 40
0.5
  9
$DIMEXO
 40
0.0
  9
$DIMDLI
 40
1.0
  9
$DIMRND
 40
0.0
  9
$DIMDLE
 40
0.0
  9
$DIMEXE
 40
0.0
  9
$DIMTP
 40
0.0
  9
$DIMTM
 40
0.0
  9
$DIMTXT
 40
0.25
  9
$DIMCEN
 40
0.0
  9
$DIMTSZ
 40
0.0
  9
$DIMTOL
 70
     0
  9
$DIMLIM
 70
     0
  9
$DIMTIH
 70
     1
  9
$DIMTOH
 70
     1
  9
$DIMSE1
 70
     0
  9
$DIMSE2
 70
     0
  9
$DIMTAD
 70
     1
  9
$DIMZIN
 70
     0
  9
$DIMBLK
  1

  9
$DIMASO
 70
     1
  9
$DIMSHO
 70
     1
  9
$DIMPOST
  1

  9
$DIMAPOST
  1

  9
$DIMALT
 70
     0
  9
$DIMALTD
 70
     2
  9
$DIMALTF
 40
25.4
  9
$DIMLFAC
 40
1.0
  9
$DIMTOFL
 70
     0
  9
$DIMTVP
 40
0.0
  9
$DIMTIX
 70
     1
  9
$DIMSOXD
 70
     0
  9
$DIMSAH
 70
     0
  9
$DIMBLK1
  1

  9
$DIMBLK2
  1

  9
$DIMSTYLE
  2
DIM-1
  9
$DIMCLRD
 70
   256
  9
$DIMCLRE
 70
   256
  9
$DIMCLRT
 70
   256
  9
$DIMTFAC
 40
1.0
  9
$DIMGAP
 40
0.2
  9
$DIMJUST
 70
     0
  9
$DIMSD1
 70
     0
  9
$DIMSD2
 70
     0
  9
$DIMTOLJ
 70
     1
  9
$DIMTZIN
 70
     0
  9
$DIMALTZ
 70
     0
  9
$DIMALTTZ
 70
     0
  9
$DIMUPT
 70
     0
  9
$DIMDEC
 70
     0
  9
$DIMTDEC
 70
     0
  9
$DIMALTU
 70
     2
  9
$DIMALTTD
 70
     2
  9
$DIMTXSTY
  7
TIME
  9
$DIMAUNIT
 70
     0
  9
$DIMADEC
 70
     0
  9
$DIMALTRND
 40
0.0
  9
$DIMAZIN
 70
     0
  9
$DIMDSEP
 70
    46
  9
$DIMATFIT
 70
     3
  9
$DIMFRAC
 70
     0
  9
$DIMLDRBLK
  1

  9
$DIMLUNIT
 70
     2
  9
$DIMLWD
 70
    -2
  9
$DIMLWE
 70
    -2
  9
$DIMTMOVE
 70
     0
  9
$LUNITS
 70
     2
  9
$LUPREC
 70
     1
  9
$SKETCHINC
 40
0.1
  9
$FILLETRAD
 40
6.0
  9
$AUNITS
 70
     0
  9
$AUPREC
 70
     0
  9
$MENU
  1
acad
  9
$ELEVATION
 40
0.0
  9
$PELEVATION
 40
0.0
  9
$THICKNESS
 40
0.0
  9
$LIMCHECK
 70
     0
  9
$CHAMFERA
 40
0.0
  9
$CHAMFERB
 40
0.0
  9
$CHAMFERC
 40
0.0
  9
$CHAMFERD
 40
0.0
  9
$SKPOLY
 70
     0
  9
$TDCREATE
 40
2450996.944109375
  9
$TDUCREATE
 40
2450997.235776042
  9
$TDUPDATE
 40
2454917.688070625
  9
$TDUUPDATE
 40
2454917.979737292
  9
$TDINDWG
 40
2.5724828125
  9
$TDUSRTIMER
 40
2.5724810764
  9
$USRTIMER
 70
     1
  9
$ANGBASE
 50
0.0
  9
$ANGDIR
 70
     0
  9
$PDMODE
 70
     0
  9
$PDSIZE
 40
0.0
  9
$PLINEWID
 40
2.0
  9
$SPLFRAME
 70
     0
  9
$SPLINETYPE
 70
     6
  9
$SPLINESEGS
 70
     8
  9
$HANDSEED
  5
C890
  9
$SURFTAB1
 70
     6
  9
$SURFTAB2
 70
     6
  9
$SURFTYPE
 70
     6
  9
$SURFU
 70
     6
  9
$SURFV
 70
     6
  9
$UCSBASE
  2

  9
$UCSNAME
  2

  9
$UCSORG
 10
0.0
 20
0.0
 30
0.0
  9
$UCSXDIR
 10
1.0
 20
0.0
 30
0.0
  9
$UCSYDIR
 10
0.0
 20
1.0
 30
0.0
  9
$UCSORTHOREF
  2

  9
$UCSORTHOVIEW
 70
     0
  9
$UCSORGTOP
 10
0.0
 20
0.0
 30
0.0
  9
$UCSORGBOTTOM
 10
0.0
 20
0.0
 30
0.0
  9
$UCSORGLEFT
 10
0.0
 20
0.0
 30
0.0
  9
$UCSORGRIGHT
 10
0.0
 20
0.0
 30
0.0
  9
$UCSORGFRONT
 10
0.0
 20
0.0
 30
0.0
  9
$UCSORGBACK
 10
0.0
 20
0.0
 30
0.0
  9
$PUCSBASE
  2

  9
$PUCSNAME
  2

  9
$PUCSORG
 10
0.0
 20
0.0
 30
0.0
  9
$PUCSXDIR
 10
1.0
 20
0.0
 30
0.0
  9
$PUCSYDIR
 10
0.0
 20
1.0
 30
0.0
  9
$PUCSORTHOREF
  2

  9
$PUCSORTHOVIEW
 70
     0
  9
$PUCSORGTOP
 10
0.0
 20
0.0
 30
0.0
  9
$PUCSORGBOTTOM
 10
0.0
 20
0.0
 30
0.0
  9
$PUCSORGLEFT
 10
0.0
 20
0.0
 30
0.0
  9
$PUCSORGRIGHT
 10
0.0
 20
0.0
 30
0.0
  9
$PUCSORGFRONT
 10
0.0
 20
0.0
 30
0.0
  9
$PUCSORGBACK
 10
0.0
 20
0.0
 30
0.0
  9
$USERI1
 70
     0
  9
$USERI2
 70
     0
  9
$USERI3
 70
     0
  9
$USERI4
 70
     0
  9
$USERI5
 70
     0
  9
$USERR1
 40
0.0
  9
$USERR2
 40
0.0
  9
$USERR3
 40
0.0
  9
$USERR4
 40
0.0
  9
$USERR5
 40
0.0
  9
$WORLDVIEW
 70
     1
  9
$SHADEDGE
 70
     3
  9
$SHADEDIF
 70
    70
  9
$TILEMODE
 70
     0
  9
$MAXACTVP
 70
    16
  9
$PINSBASE
 10
0.0
 20
0.0
 30
0.0
  9
$PLIMCHECK
 70
     0
  9
$PEXTMIN
 10
0.2225857245057341
 20
0.3042451189865005
 30
-0.0000000349181948
  9
$PEXTMAX
 10
35.78023232529813
 20
23.97910703663502
 30
0.0000000814935746
  9
$PLIMMIN
 10
-16.9757080078125
 20
-4.995333194732666
  9
$PLIMMAX
 10
1171.955932617187
 20
835.9563269615174
  9
$UNITMODE
 70
     0
  9
$VISRETAIN
 70
     0
  9
$PLINEGEN
 70
     0
  9
$PSLTSCALE
 70
     1
  9
$TREEDEPTH
 70
  3020
  9
$CMLSTYLE
  2
STANDARD
  9
$CMLJUST
 70
     0
  9
$CMLSCALE
 40
1.0
  9
$PROXYGRAPHICS
 70
     1
  9
$MEASUREMENT
 70
     0
  9
$CELWEIGHT
370
    -1
  9
$ENDCAPS
280
     0
  9
$JOINSTYLE
280
     0
  9
$LWDISPLAY
290
     0
  9
$INSUNITS
 70
     4
  9
$HYPERLINKBASE
  1

  9
$STYLESHEET
  1
ACAD.CTB
  9
$XEDIT
290
     1
  9
$CEPSNTYPE
380
     0
  9
$PSTYLEMODE
290
     1
  9
$FINGERPRINTGUID
  2
{8F98D705-052F-11D4-B487-00A0C98A01ED}
  9
$VERSIONGUID
  2
{FA798C0A-496D-4ADC-9BC2-11E855FF487F}
  9
$EXTNAMES
290
     1
  9
$PSVPSCALE
 40
0.0
  9
$OLESTARTUP
290
     0
  0
ENDSEC
  0
SECTION
  2
CLASSES
  0
CLASS
  1
DICTIONARYVAR
  2
AcDbDictionaryVar
  3
ObjectDBX Classes
 90
        0
280
     0
281
     0
  0
CLASS
  1
ACDBDICTIONARYWDFLT
  2
AcDbDictionaryWithDefault
  3
ObjectDBX Classes
 90
        0
280
     0
281
     0
  0
CLASS
  1
ACDBPLACEHOLDER
  2
AcDbPlaceHolder
  3
ObjectDBX Classes
 90
        0
280
     0
281
     0
  0
CLASS
  1
LAYOUT
  2
AcDbLayout
  3
ObjectDBX Classes
 90
        0
280
     0
281
     0
  0
CLASS
  1
ARCALIGNEDTEXT
  2
AcDbArcAlignedText
  3
ATEXT|AutoCAD Express Tool|expresstools@autodesk.com
 90
    32768
280
     0
281
     1
  0
CLASS
  1
PLOTSETTINGS
  2
AcDbPlotSettings
  3
ObjectDBX Classes
 90
        0
280
     0
281
     0
  0
CLASS
  1
TABLESTYLE
  2
AcDbTableStyle
  3
ObjectDBX Classes
 90
     4095
280
     0
281
     0
  0
CLASS
  1
SORTENTSTABLE
  2
AcDbSortentsTable
  3
ObjectDBX Classes
 90
        0
280
     0
281
     0
  0
CLASS
  1
MATERIAL
  2
AcDbMaterial
  3
ObjectDBX Classes
 90
     1024
280
     0
281
     0
  0
CLASS
  1
VISUALSTYLE
  2
AcDbVisualStyle
  3
ObjectDBX Classes
 90
     4095
280
     0
281
     0
  0
ENDSEC
  0
SECTION
  2
TABLES
  0
TABLE
  2
VPORT
  5
412C
330
0
100
AcDbSymbolTable
 70
     1
  0
VPORT
  5
C852
330
412C
100
AcDbSymbolTableRecord
100
AcDbViewportTableRecord
  2
*Active
 70
     0
 10
0.0
 20
0.0
 11
1.0
 21
1.0
 12
374.3659993218792
 22
341.3898483342373
 13
0.0
 23
0.0
 14
0.5
 24
0.5
 15
0.5
 25
0.5
 16
0.0
 26
0.0
 36
1.0
 17
0.0
 27
0.0
 37
0.0
 40
25.55428173464554
 41
1.644662921348314
 42
50.0
 43
0.0
 44
0.0
 50
0.0
 51
0.0
 71
     0
 72
   100
 73
     1
 74
     1
 75
     0
 76
     0
 77
     0
 78
     0
281
     0
 65
     1
110
0.0
120
0.0
130
0.0
111
1.0
121
0.0
131
0.0
112
0.0
122
1.0
132
0.0
 79
     0
146
0.0
  0
ENDTAB
  0
TABLE
  2
LTYPE
  5
4129
330
0
100
AcDbSymbolTable
 70
     7
  0
LTYPE
  5
4136
330
4129
100
AcDbSymbolTableRecord
100
AcDbLinetypeTableRecord
  2
BYBLOCK
 70
     0
  3

 72
    65
 73
     0
 40
0.0
  0
LTYPE
  5
4137
330
4129
100
AcDbSymbolTableRecord
100
AcDbLinetypeTableRecord
  2
BYLAYER
 70
     0
  3

 72
    65
 73
     0
 40
0.0
  0
LTYPE
  5
4138
330
4129
100
AcDbSymbolTableRecord
100
AcDbLinetypeTableRecord
  2
CONTINUOUS
 70
     0
  3
Solid line
 72
    65
 73
     0
 40
0.0
  0
LTYPE
  5
49C4
330
4129
100
AcDbSymbolTableRecord
100
AcDbLinetypeTableRecord
  2
CENTER
 70
     0
  3
Center ____ _ ____ _ ____ _ ____ _ ____ _ ____
 72
    65
 73
     4
 40
2.0
 49
1.25
 74
     0
 49
-0.25
 74
     0
 49
0.25
 74
     0
 49
-0.25
 74
     0
  0
LTYPE
  5
5AE2
330
4129
100
AcDbSymbolTableRecord
100
AcDbLinetypeTableRecord
  2
PHANTOM
 70
     0
  3
Phantom ______  __  __  ______  __  __  ______
 72
    65
 73
     6
 40
2.5
 49
1.25
 74
     0
 49
-0.25
 74
     0
 49
0.25
 74
     0
 49
-0.25
 74
     0
 49
0.25
 74
     0
 49
-0.25
 74
     0
  0
LTYPE
  5
6683
330
4129
100
AcDbSymbolTableRecord
100
AcDbLinetypeTableRecord
  2
HIDDEN
 70
     0
  3
Hidden __ __ __ __ __ __ __ __ __ __ __ __ __ _
 72
    65
 73
     2
 40
0.375
 49
0.25
 74
     0
 49
-0.125
 74
     0
  0
LTYPE
  5
7F75
330
4129
100
AcDbSymbolTableRecord
100
AcDbLinetypeTableRecord
  2
DASHDOT
 70
     0
  3
Dash dot __ . __ . __ . __ . __ . __ . __ . __
 72
    65
 73
     4
 40
1.0
 49
0.5
 74
     0
 49
-0.25
 74
     0
 49
0.0
 74
     0
 49
-0.25
 74
     0
  0
LTYPE
  5
B1BD
330
4129
100
AcDbSymbolTableRecord
100
AcDbLinetypeTableRecord
  2
DASHED
 70
     0
  3
Dashed __ __ __ __ __ __ __ __ __ __ __ __ __ _
 72
    65
 73
     2
 40
0.75
 49
0.5
 74
     0
 49
-0.25
 74
     0
  0
LTYPE
  5
B1BE
330
4129
100
AcDbSymbolTableRecord
100
AcDbLinetypeTableRecord
  2
DOT
 70
     0
  3
Dot . . . . . . . . . . . . . . . . . . . . . .
 72
    65
 73
     2
 40
0.25
 49
0.0
 74
     0
 49
-0.25
 74
     0
  0
ENDTAB
  0
TABLE
  2
LAYER
  5
4126
102
{ACAD_XDICTIONARY
360
B7C8
102
}
330
0
100
AcDbSymbolTable
 70
    23
  0
LAYER
  5
4133
330
4126
100
AcDbSymbolTableRecord
100
AcDbLayerTableRecord
  2
0
 70
     0
 62
     7
  6
CONTINUOUS
370
    -3
390
4999
  0
LAYER
  5
4193
330
4126
100
AcDbSymbolTableRecord
100
AcDbLayerTableRecord
  2
LW524J
 70
     0
 62
     7
  6
DASHDOT
370
    -3
390
4999
  0
LAYER
  5
4194
330
4126
100
AcDbSymbolTableRecord
100
AcDbLayerTableRecord
  2
DIMENSI
 70
     0
 62
     7
  6
CONTINUOUS
370
    -3
390
4999
  0
LAYER
  5
4686
330
4126
100
AcDbSymbolTableRecord
100
AcDbLayerTableRecord
  2
FITTING
 70
     0
 62
     7
  6
CONTINUOUS
370
    -3
390
4999
  0
LAYER
  5
49C5
330
4126
100
AcDbSymbolTableRecord
100
AcDbLayerTableRecord
  2
CENTER
 70
     0
 62
     7
  6
CENTER
370
    -3
390
4999
  0
LAYER
  5
4D3F
330
4126
100
AcDbSymbolTableRecord
100
AcDbLayerTableRecord
  2
DEFPOINTS
 70
     0
 62
     7
  6
CONTINUOUS
290
     0
370
    -3
390
4999
  0
LAYER
  5
83DB
330
4126
100
AcDbSymbolTableRecord
100
AcDbLayerTableRecord
  2
GR-KOP
 70
     0
 62
     7
  6
CONTINUOUS
370
    -3
390
4999
  0
LAYER
  5
8D51
330
4126
100
AcDbSymbolTableRecord
100
AcDbLayerTableRecord
  2
BODY
 70
     0
 62
     7
  6
CONTINUOUS
370
    -3
390
4999
  0
LAYER
  5
A7D0
330
4126
100
AcDbSymbolTableRecord
100
AcDbLayerTableRecord
  2
SANITARY
 70
     0
 62
     7
  6
PHANTOM
370
    -3
390
4999
  0
LAYER
  5
B1BF
330
4126
100
AcDbSymbolTableRecord
100
AcDbLayerTableRecord
  2
GAMBAR
 70
     0
 62
     7
  6
CONTINUOUS
370
    -3
390
4999
  0
LAYER
  5
B1C0
330
4126
100
AcDbSymbolTableRecord
100
AcDbLayerTableRecord
  2
ARSIR
 70
     0
 62
     7
  6
CONTINUOUS
370
    -3
390
4999
  0
LAYER
  5
B1C1
330
4126
100
AcDbSymbolTableRecord
100
AcDbLayerTableRecord
  2
BAYANG
 70
     0
 62
     7
  6
DASHED
370
    -3
390
4999
  0
LAYER
  5
B28F
330
4126
100
AcDbSymbolTableRecord
100
AcDbLayerTableRecord
  2
GR-TEXT
 70
     0
 62
     7
  6
CONTINUOUS
370
    -3
390
4999
  0
LAYER
  5
B3A4
330
4126
100
AcDbSymbolTableRecord
100
AcDbLayerTableRecord
  2
KOP
 70
     0
 62
    -7
  6
CONTINUOUS
370
    -3
390
4999
  0
LAYER
  5
B433
330
4126
100
AcDbSymbolTableRecord
100
AcDbLayerTableRecord
  2
GR-BAYANG
 70
     0
 62
     7
  6
DASHED
370
    -3
390
4999
  0
LAYER
  5
B6C4
330
4126
100
AcDbSymbolTableRecord
100
AcDbLayerTableRecord
  2
XP
 70
     0
 62
    -7
  6
CONTINUOUS
370
    -3
390
4999
  0
LAYER
  5
B704
330
4126
100
AcDbSymbolTableRecord
100
AcDbLayerTableRecord
  2
G__TOTO
 70
     0
 62
     7
  6
CONTINUOUS
370
    -3
390
4999
  0
LAYER
  5
B705
330
4126
100
AcDbSymbolTableRecord
100
AcDbLayerTableRecord
  2
DIVIDE
 70
     0
 62
     4
  6
CONTINUOUS
370
    -3
390
4999
  0
LAYER
  5
B70C
330
4126
100
AcDbSymbolTableRecord
100
AcDbLayerTableRecord
  2
DIM
 70
     0
 62
     7
  6
CONTINUOUS
370
    -3
390
4999
  0
LAYER
  5
B7C4
330
4126
100
AcDbSymbolTableRecord
100
AcDbLayerTableRecord
  2
LINE_TEX
 70
     0
 62
     6
  6
CONTINUOUS
370
    -3
390
4999
  0
LAYER
  5
B916
330
4126
100
AcDbSymbolTableRecord
100
AcDbLayerTableRecord
  2
FRAME 070
 70
     0
 62
     5
  6
CONTINUOUS
370
    -3
390
4999
  0
LAYER
  5
B917
330
4126
100
AcDbSymbolTableRecord
100
AcDbLayerTableRecord
  2
FRAME 050
 70
     0
 62
     6
  6
CONTINUOUS
370
    -3
390
4999
  0
LAYER
  5
B918
330
4126
100
AcDbSymbolTableRecord
100
AcDbLayerTableRecord
  2
FRAME 025
 70
     0
 62
     7
  6
CONTINUOUS
370
    -3
390
4999
  0
ENDTAB
  0
TABLE
  2
STYLE
  5
4127
330
0
100
AcDbSymbolTable
 70
    12
  0
STYLE
  5
4134
330
4127
100
AcDbSymbolTableRecord
100
AcDbTextStyleTableRecord
  2
STANDARD
 70
     0
 40
0.0
 41
1.0
 50
0.0
 71
     0
 42
0.2
  3
txt
  4

  0
STYLE
  5
424D
330
4127
100
AcDbSymbolTableRecord
100
AcDbTextStyleTableRecord
  2
ARIAL
 70
     0
 40
0.0
 41
1.0
 50
0.0
 71
     0
 42
4.0
  3
ARIAL.TTF
  4

1001
ACAD
1000
Arial
1071
       34
  0
STYLE
  5
56B8
330
4127
100
AcDbSymbolTableRecord
100
AcDbTextStyleTableRecord
  2
TIME
 70
     0
 40
0.0
 41
1.0
 50
0.0
 71
     0
 42
6.0
  3
TIMES.TTF
  4

1001
ACAD
1000
Times New Roman
1071
       18
  0
STYLE
  5
B290
330
4127
100
AcDbSymbolTableRecord
100
AcDbTextStyleTableRecord
  2
ROMANS
 70
     0
 40
0.0
 41
0.9
 50
0.0
 71
     0
 42
3.0
  3
romans.shx
  4

  0
STYLE
  5
B3A5
330
4127
100
AcDbSymbolTableRecord
100
AcDbTextStyleTableRecord
  2
ROMANT
 70
     0
 40
0.0
 41
1.0
 50
0.0
 71
     0
 42
0.6
  3
romant.shx
  4

  0
STYLE
  5
B3A6
330
4127
100
AcDbSymbolTableRecord
100
AcDbTextStyleTableRecord
  2
ROMAN
 70
     0
 40
0.0
 41
1.0
 50
0.0
 71
     0
 42
4.0
  3
TIMES.TTF
  4

1001
ACAD
1000
Times New Roman
1071
       18
  0
STYLE
  5
B64D
330
4127
100
AcDbSymbolTableRecord
100
AcDbTextStyleTableRecord
  2
TIMES_NEW_ROMANS
 70
     0
 40
0.0
 41
1.0
 50
0.0
 71
     0
 42
3.0
  3
TIMESI.TTF
  4

1001
ACAD
1000
Times New Roman
1071
 16777234
  0
STYLE
  5
B64E
330
4127
100
AcDbSymbolTableRecord
100
AcDbTextStyleTableRecord
  2
CLARENDON
 70
     0
 40
0.0
 41
1.0
 50
0.0
 71
     0
 42
0.2
  3
clar45w.ttf
  4

1001
ACAD
1000
Clarendon
1071
        2
  0
STYLE
  5
B64F
330
4127
100
AcDbSymbolTableRecord
100
AcDbTextStyleTableRecord
  2
ARIAL_REGULER
 70
     0
 40
0.0
 41
1.0
 50
0.0
 71
     0
 42
3.0
  3
ARIAL.TTF
  4

1001
ACAD
1000
Arial
1071
       34
  0
STYLE
  5
B70D
330
4127
100
AcDbSymbolTableRecord
100
AcDbTextStyleTableRecord
  2
BLACK
 70
     0
 40
0.4
 41
1.0
 50
0.0
 71
     0
 42
0.4
  3
ARIAL.TTF
  4

1001
ACAD
1000
Arial
1071
       34
  0
STYLE
  5
B7C5
330
4127
100
AcDbSymbolTableRecord
100
AcDbTextStyleTableRecord
  2
DUTCH
 70
     0
 40
0.0
 41
1.0
 50
0.0
 71
     0
 42
6.0
  3
dutcheb.ttf
  4

1001
ACAD
1000
Dutch801 XBd BT
1071
       18
  0
STYLE
  5
B919
330
4127
100
AcDbSymbolTableRecord
100
AcDbTextStyleTableRecord
  2
ISO Proportional
 70
     0
 40
0.0
 41
1.0
 50
0.0
 71
     0
 42
2.5
  3
isocp.shx
  4

  0
ENDTAB
  0
TABLE
  2
VIEW
  5
412A
330
0
100
AcDbSymbolTable
 70
     2
  0
ENDTAB
  0
TABLE
  2
UCS
  5
412B
330
0
100
AcDbSymbolTable
 70
     0
  0
ENDTAB
  0
TABLE
  2
APPID
  5
412D
330
0
100
AcDbSymbolTable
 70
    13
  0
APPID
  5
4135
330
412D
100
AcDbSymbolTableRecord
100
AcDbRegAppTableRecord
  2
ACAD
 70
     0
  0
APPID
  5
468B
330
412D
100
AcDbSymbolTableRecord
100
AcDbRegAppTableRecord
  2
AVE_RENDER
 70
     0
  0
APPID
  5
468C
330
412D
100
AcDbSymbolTableRecord
100
AcDbRegAppTableRecord
  2
AVE_MATERIAL
 70
     0
  0
APPID
  5
B7C6
330
412D
100
AcDbSymbolTableRecord
100
AcDbRegAppTableRecord
  2
ACAD_PSEXT
 70
     0
  0
APPID
  5
B7C7
330
412D
100
AcDbSymbolTableRecord
100
AcDbRegAppTableRecord
  2
DCO15
 70
     0
  0
APPID
  5
BB8F
330
412D
100
AcDbSymbolTableRecord
100
AcDbRegAppTableRecord
  2
ACAD_DSTYLE_DIMEXT_LENGTH
 70
     0
  0
APPID
  5
BB90
330
412D
100
AcDbSymbolTableRecord
100
AcDbRegAppTableRecord
  2
ACAD_DSTYLE_DIMEXT_ENABLED
 70
     0
  0
APPID
  5
BB91
330
412D
100
AcDbSymbolTableRecord
100
AcDbRegAppTableRecord
  2
ACAD_DSTYLE_DIMJOGGED_JOGANGLE_SYMBOL
 70
     0
  0
APPID
  5
BB92
330
412D
100
AcDbSymbolTableRecord
100
AcDbRegAppTableRecord
  2
ACAD_DSTYLE_DIMARC_LENGTH_SYMBOL
 70
     0
  0
APPID
  5
BBD4
330
412D
100
AcDbSymbolTableRecord
100
AcDbRegAppTableRecord
  2
ACAD_DSTYLE_DIMTEXT_FILL
 70
     0
  0
APPID
  5
BBD7
330
412D
100
AcDbSymbolTableRecord
100
AcDbRegAppTableRecord
  2
ACAD_DSTYLE_DIM_LINETYPE
 70
     0
  0
APPID
  5
BBD8
330
412D
100
AcDbSymbolTableRecord
100
AcDbRegAppTableRecord
  2
ACAD_DSTYLE_DIM_EXT1_LINETYPE
 70
     0
  0
APPID
  5
BBD9
330
412D
100
AcDbSymbolTableRecord
100
AcDbRegAppTableRecord
  2
ACAD_DSTYLE_DIM_EXT2_LINETYPE
 70
     0
  0
ENDTAB
  0
TABLE
  2
DIMSTYLE
  5
412E
330
0
100
AcDbSymbolTable
 70
     5
100
AcDbDimStyleTable
 71
     1
340
418F
  0
DIMSTYLE
105
418F
102
{ACAD_REACTORS
330
BBAD
330
B89C
330
B89F
330
B8A0
330
B8A2
330
BBB2
102
}
330
412E
100
AcDbSymbolTableRecord
100
AcDbDimStyleTableRecord
  2
DIM-1
 70
     0
 41
0.5
 42
0.0
 43
1.0
 44
0.0
 77
     1
140
0.25
141
0.0
147
0.2
174
     1
176
   256
177
   256
178
   256
271
     0
272
     0
340
56B8
1001
ACAD_DSTYLE_DIMJOGGED_JOGANGLE_SYMBOL
1070
   384
1040
0.7853981633974483
1001
ACAD_DSTYLE_DIMEXT_LENGTH
1070
   378
1040
3.0
  0
DIMSTYLE
105
B291
330
412E
100
AcDbSymbolTableRecord
100
AcDbDimStyleTableRecord
  2
DIM1
 70
     0
 41
1.0
 42
2.0
 43
1.0
 44
2.0
 73
     0
 74
     0
 77
     1
140
3.5
141
1.0
147
1.0
173
     1
174
     1
176
   256
177
   256
178
   256
271
     1
272
     1
340
424D
341
B28A
343
B28A
344
B28A
  0
DIMSTYLE
105
B91A
330
412E
100
AcDbSymbolTableRecord
100
AcDbDimStyleTableRecord
  2
ISO-25
 70
     0
 41
2.5
 42
0.625
 43
3.75
 44
1.25
 73
     0
 74
     0
 77
     1
 78
     8
140
2.5
141
2.5
143
0.03937007874016
147
0.625
171
     3
172
     1
271
     2
272
     2
274
     3
278
    44
283
     0
284
     8
340
4134
  0
DIMSTYLE
105
BAF4
330
412E
100
AcDbSymbolTableRecord
100
AcDbDimStyleTableRecord
  2
COPY_OF_STANDARD
 70
     0
  3
mm
  4
"
 41
3.0
 42
2.0
 43
9.5
 44
1.0
 73
     0
 74
     0
 77
     1
140
3.0
141
2.0
143
0.03937
144
6.0
170
     1
171
     3
271
     0
272
     0
273
     7
274
     3
340
4134
  0
DIMSTYLE
105
BB8E
330
412E
100
AcDbSymbolTableRecord
100
AcDbDimStyleTableRecord
  2
Standard
 70
     0
340
4134
  0
ENDTAB
  0
TABLE
  2
BLOCK_RECORD
  5
4125
330
0
100
AcDbSymbolTable
 70
    11
  0
BLOCK_RECORD
  5
413C
102
{ACAD_XDICTIONARY
360
B745
102
}
330
4125
100
AcDbSymbolTableRecord
100
AcDbBlockTableRecord
  2
*MODEL_SPACE
340
B78A
  0
BLOCK_RECORD
  5
B9FE
330
4125
100
AcDbSymbolTableRecord
100
AcDbBlockTableRecord
  2
*Paper_Space
340
B9FF
  0
BLOCK_RECORD
  5
4179
330
4125
100
AcDbSymbolTableRecord
100
AcDbBlockTableRecord
  2
*X0
340
0
102
{BLKREFS
331
4057
102
}
  0
BLOCK_RECORD
  5
417A
330
4125
100
AcDbSymbolTableRecord
100
AcDbBlockTableRecord
  2
*X1
340
0
102
{BLKREFS
331
4076
102
}
  0
BLOCK_RECORD
  5
4680
330
4125
100
AcDbSymbolTableRecord
100
AcDbBlockTableRecord
  2
AVE_RENDER
340
0
102
{BLKREFS
331
47CC
331
47CD
331
47CE
331
47CF
331
47D0
331
47D1
331
47D2
331
47D3
331
47F9
331
47FA
331
47FB
331
47FC
331
47FD
331
47FE
331
47FF
331
4800
331
4802
331
4803
331
4804
331
4805
331
4806
331
4807
331
4808
331
4809
331
480B
331
480C
331
480D
331
480E
331
480F
331
4810
331
4811
331
4812
102
}
  0
BLOCK_RECORD
  5
4683
330
4125
100
AcDbSymbolTableRecord
100
AcDbBlockTableRecord
  2
AVE_GLOBAL
340
0
102
{BLKREFS
331
47D4
331
4801
331
480A
331
4813
102
}
  0
BLOCK_RECORD
  5
B28A
330
4125
100
AcDbSymbolTableRecord
100
AcDbBlockTableRecord
  2
P
340
0
  0
BLOCK_RECORD
  5
B614
330
4125
100
AcDbSymbolTableRecord
100
AcDbBlockTableRecord
  2
TOTO_A1
340
0
1001
ACAD
1000
DesignCenter Data
1002
{
1070
     1
1070
     1
1002
}
  0
BLOCK_RECORD
  5
B6F6
330
4125
100
AcDbSymbolTableRecord
100
AcDbBlockTableRecord
  2
A$C74DC1801
340
0
102
{BLKREFS
331
B70B
331
B8B4
102
}
  0
BLOCK_RECORD
  5
B895
102
{ACAD_XDICTIONARY
360
B8B8
102
}
330
4125
100
AcDbSymbolTableRecord
100
AcDbBlockTableRecord
  2
A$C10F26692
340
0
  0
BLOCK_RECORD
  5
B91B
330
4125
100
AcDbSymbolTableRecord
100
AcDbBlockTableRecord
  2
ISO A0 title block.dwg
340
0
1001
ACAD
1000
DesignCenter Data
1002
{
1070
     1
1070
     4
1002
}
  0
BLOCK_RECORD
  5
BBB3
330
4125
100
AcDbSymbolTableRecord
100
AcDbBlockTableRecord
  2
*D9
340
0
  0
BLOCK_RECORD
  5
C762
102
{ACAD_XDICTIONARY
360
C766
102
}
330
4125
100
AcDbSymbolTableRecord
100
AcDbBlockTableRecord
  2
A$C72CE1C7D
340
0
  0
ENDTAB
  0
ENDSEC
  0
SECTION
  2
BLOCKS
  0
BLOCK
  5
41A6
330
413C
100
AcDbEntity
  8
0
100
AcDbBlockBegin
  2
*MODEL_SPACE
 70
     0
 10
0.0
 20
0.0
 30
0.0
  3
*MODEL_SPACE
  1

  0
ENDBLK
  5
41A7
330
413C
100
AcDbEntity
  8
0
100
AcDbBlockEnd
  0
BLOCK
  5
BA00
330
B9FE
100
AcDbEntity
 67
     1
  8
0
100
AcDbBlockBegin
  2
*Paper_Space
 70
     0
 10
0.0
 20
0.0
 30
0.0
  3
*Paper_Space
  1

  0
ENDBLK
  5
BA01
330
B9FE
100
AcDbEntity
 67
     1
  8
0
100
AcDbBlockEnd
  0
BLOCK
  5
4056
330
4179
100
AcDbEntity
  8
0
100
AcDbBlockBegin
  2
*X0
 70
     1
 10
0.0
 20
0.0
 30
0.0
  3
*X0
  1

  0
ENDBLK
  5
4058
330
4179
100
AcDbEntity
  8
0
100
AcDbBlockEnd
  0
BLOCK
  5
4075
330
417A
100
AcDbEntity
  8
0
100
AcDbBlockBegin
  2
*X1
 70
     1
 10
0.0
 20
0.0
 30
0.0
  3
*X1
  1

  0
ENDBLK
  5
4077
330
417A
100
AcDbEntity
  8
0
100
AcDbBlockEnd
  0
BLOCK
  5
4681
330
4680
100
AcDbEntity
  8
0
100
AcDbBlockBegin
  2
AVE_RENDER
 70
     0
 10
0.0
 20
0.0
 30
0.0
  3
AVE_RENDER
  1
AVE_RENDER
  0
ENDBLK
  5
4682
330
4680
100
AcDbEntity
  8
0
100
AcDbBlockEnd
  0
BLOCK
  5
4684
330
4683
100
AcDbEntity
  8
0
100
AcDbBlockBegin
  2
AVE_GLOBAL
 70
     0
 10
0.0
 20
0.0
 30
0.0
  3
AVE_GLOBAL
  1
AVE_GLOBAL
  0
ENDBLK
  5
4685
330
4683
100
AcDbEntity
  8
0
100
AcDbBlockEnd
  0
BLOCK
  5
B28D
330
B28A
100
AcDbEntity
  8
0
100
AcDbBlockBegin
  2
P
 70
     0
 10
0.0
 20
0.0
 30
0.0
  3
P
  1

  0
LWPOLYLINE
  5
B28B
330
B28A
100
AcDbEntity
  8
DIMENSI
  6
Continuous
100
AcDbPolyline
 90
        2
 70
     0
 10
0.0
 20
0.0
 40
0.0
 41
2.0
 10
-3.0
 20
0.0
 40
2.0
 41
2.0
  0
LINE
  5
B28C
330
B28A
100
AcDbEntity
  8
DIMENSI
  6
Continuous
100
AcDbLine
 10
-1.5
 20
0.0
 30
0.0
 11
-5.270512589623136
 21
0.0
 31
0.0
  0
ENDBLK
  5
B28E
330
B28A
100
AcDbEntity
  8
0
100
AcDbBlockEnd
  0
BLOCK
  5
B64B
330
B614
100
AcDbEntity
  8
0
100
AcDbBlockBegin
  2
TOTO_A1
 70
     0
 10
0.0
 20
0.0
 30
0.0
  3
TOTO_A1
  1

  0
LWPOLYLINE
  5
B615
330
B614
100
AcDbEntity
  8
KOP
100
AcDbPolyline
 90
        2
 70
     0
 43
0.35
 10
826.7395337845911
 20
28.78171285809026
 10
28.73953378459134
 20
28.78171285809037
  0
LWPOLYLINE
  5
B616
330
B614
100
AcDbEntity
  8
KOP
100
AcDbPolyline
 90
        2
 70
     0
 43
0.35
 10
626.7395337845911
 20
34.78171285809024
 10
28.73953378459134
 20
34.78171285809048
  0
LWPOLYLINE
  5
B617
330
B614
100
AcDbEntity
  8
KOP
100
AcDbPolyline
 90
        2
 70
     0
 43
0.35
 10
626.7395337845912
 20
40.78171285809037
 10
28.73953378459134
 20
40.78171285809037
  0
LWPOLYLINE
  5
B618
330
B614
100
AcDbEntity
  8
KOP
100
AcDbPolyline
 90
        2
 70
     0
 43
0.35
 10
626.7395337845912
 20
22.78171285809026
 10
28.73953378459134
 20
22.78171285809048
  0
LWPOLYLINE
  5
B619
330
B614
100
AcDbEntity
  8
KOP
100
AcDbPolyline
 90
        2
 70
     0
 43
0.6
 10
826.7395337845911
 20
46.78171285809026
 10
21.73953378459131
 20
46.78171285809036
  0
TEXT
  5
B61A
330
B614
100
AcDbEntity
  8
KOP
100
AcDbText
 10
27.08054082888951
 20
18.58805594513865
 30
0.0
 40
4.0
  1
REVISION
 50
90.0
  7
ARIAL_REGULER
100
AcDbText
  0
LWPOLYLINE
  5
B61B
330
B614
100
AcDbEntity
  8
KOP
100
AcDbPolyline
 90
        2
 70
     0
 43
0.35
 10
273.7395337845914
 20
16.78171285809035
 10
273.7395337845911
 20
46.78171285809036
  0
LWPOLYLINE
  5
B61C
330
B614
100
AcDbEntity
  8
KOP
100
AcDbPolyline
 90
        2
 70
     0
 43
0.6
 10
266.7395337845911
 20
46.78171285809036
 10
266.7395337845913
 20
16.78171285809035
  0
LWPOLYLINE
  5
B61D
330
B614
100
AcDbEntity
  8
KOP
100
AcDbPolyline
 90
        2
 70
     0
 43
0.35
 10
386.7395337845913
 20
16.7817128580906
 10
386.7395337845912
 20
46.78171285809059
  0
LWPOLYLINE
  5
B61E
330
B614
100
AcDbEntity
  8
KOP
100
AcDbPolyline
 90
        2
 70
     0
 43
0.35
 10
393.7395337845913
 20
16.7817128580906
 10
393.7395337845913
 20
46.78171285809059
  0
LWPOLYLINE
  5
B61F
330
B614
100
AcDbEntity
  8
KOP
100
AcDbPolyline
 90
        2
 70
     0
 43
0.35
 10
506.7395337845913
 20
16.78171285809082
 10
506.7395337845911
 20
46.78171285809082
  0
LWPOLYLINE
  5
B620
330
B614
100
AcDbEntity
  8
KOP
100
AcDbPolyline
 90
        2
 70
     0
 43
0.35
 10
513.7395337845913
 20
16.78171285809082
 10
513.7395337845913
 20
46.78171285809082
  0
LWPOLYLINE
  5
B621
330
B614
100
AcDbEntity
  8
KOP
100
AcDbPolyline
 90
        2
 70
     0
 43
0.35
 10
826.7395337845911
 20
22.78171285809026
 10
726.7395337845912
 20
22.78171285809026
  0
LWPOLYLINE
  5
B622
330
B614
100
AcDbEntity
  8
KOP
100
AcDbPolyline
 90
        2
 70
     0
 43
0.35
 10
826.7395337845911
 20
40.78171285809026
 10
726.7395337845911
 20
40.78171285809026
  0
SPLINE
  5
B623
330
B614
100
AcDbEntity
  8
KOP
100
AcDbSpline
210
0.0
220
0.0
230
1.0
 70
     8
 71
     3
 72
    37
 73
    33
 74
    31
 42
0.0000000001
 43
0.0000000001
 44
0.0000000001
 40
0.0
 40
0.0
 40
0.0
 40
0.0
 40
12.25140694376211
 40
12.98969709808861
 40
13.90296136145375
 40
22.53844741955009
 40
22.92984612364868
 40
24.53942697173451
 40
27.61691112404813
 40
31.77740940139807
 40
32.60266975170452
 40
33.25546193519381
 40
41.95721519751262
 40
44.00749903222501
 40
46.0577828669374
 40
47.50183879766593
 40
48.52506539856242
 40
49.81534868470296
 40
50.83962848200667
 40
52.12472194170395
 40
54.06626477044591
 40
57.58697289322173
 40
59.03859362783754
 40
60.00706281099785
 40
61.62982917808918
 40
62.23044130930614
 40
63.55212987418546
 40
66.74370339421627
 40
69.9670736076947
 40
71.49962249572862
 40
74.92920748474849
 40
76.25143304941151
 40
76.25143304941151
 40
76.25143304941151
 40
76.25143304941151
 10
628.2912246544887
 20
18.14006757585207
 30
0.0
 10
630.4908403725851
 20
20.62171386530509
 30
0.0
 10
632.823008591421
 20
23.25290828669384
 30
0.0
 10
636.8738489961506
 20
28.38737660338102
 30
0.0
 10
636.1803715898845
 20
23.17519023737868
 30
0.0
 10
635.9097642590154
 20
21.84188484870072
 30
0.0
 10
636.091873687113
 20
17.54850792263412
 30
0.0
 10
634.895185804601
 20
20.67186684573509
 30
0.0
 10
633.1651860412553
 20
22.15006320752803
 30
0.0
 10
631.3604281487016
 20
23.21871870770281
 30
0.0
 10
628.6385717089595
 20
24.46177824212617
 30
0.0
 10
633.5820117409455
 20
24.07242641727365
 30
0.0
 10
634.3538018160967
 20
23.71526640362785
 30
0.0
 10
641.5936104590266
 20
23.27534990714659
 30
0.0
 10
638.0575053802449
 20
24.12317696489159
 30
0.0
 10
637.5760771010017
 20
22.07125872254817
 30
0.0
 10
638.7669883710286
 20
21.36038952533276
 30
0.0
 10
639.7375830490423
 20
20.96880451142728
 30
0.0
 10
640.7720708115634
 20
20.0721989151658
 30
0.0
 10
640.0618416221614
 20
18.43364539844735
 30
0.0
 10
636.2570718567147
 20
18.65833176645395
 30
0.0
 10
641.2935933139316
 20
19.63867476823932
 30
0.0
 10
641.7940226331203
 20
21.22016893050625
 30
0.0
 10
641.9543517047931
 20
23.29361871208829
 30
0.0
 10
641.9725630734606
 20
21.10782218702953
 30
0.0
 10
641.9862741979154
 20
20.16185629832836
 30
0.0
 10
641.8080170755942
 20
17.38030872962678
 30
0.0
 10
644.1982976447607
 20
24.83648448352206
 30
0.0
 10
642.0612382808331
 20
18.00815606656523
 30
0.0
 10
645.8363813868506
 20
18.96795648490875
 30
0.0
 10
645.2655022012181
 20
23.21006609128275
 30
0.0
 10
643.7051052653097
 20
22.19398432213528
 30
0.0
 10
643.2709135616694
 20
21.91125224016842
 30
0.0
 11
628.2912246544887
 21
18.14006757585207
 31
0.0
 11
636.1822236412557
 21
27.51178604646907
 31
0.0
 11
636.704457966082
 21
28.03365160573572
 31
0.0
 11
636.704457966082
 21
27.12038734237057
 31
0.0
 11
636.0516657825927
 21
18.50961026798573
 31
0.0
 11
636.0516657825927
 21
18.11821156388714
 31
0.0
 11
635.2632503800972
 21
19.5214762073641
 31
0.0
 11
633.339932987387
 21
21.92392473223196
 31
0.0
 11
629.7150677280066
 21
23.96600645615217
 31
0.0
 11
629.0015052876125
 21
24.38059455227505
 31
0.0
 11
629.6542974711018
 21
24.38059455227505
 31
0.0
 11
638.309893615895
 21
23.48551622245294
 31
0.0
 11
640.3600967947785
 21
23.46733028890992
 31
0.0
 11
638.309893615895
 21
23.48551622245294
 31
0.0
 11
637.8891680045027
 21
22.10410842929741
 31
0.0
 11
638.6705151556347
 21
21.44343505598806
 31
0.0
 11
639.8124852915938
 21
20.8428227292153
 31
0.0
 11
640.4906546534414
 21
20.07520601508269
 31
0.0
 11
639.9684203286152
 21
18.9010099027871
 31
0.0
 11
638.039426719613
 21
18.68061885880387
 31
0.0
 11
641.1948694276745
 21
20.24221003511148
 31
0.0
 11
641.795906201413
 21
21.56355690621706
 31
0.0
 11
641.9161146891743
 21
22.52453686344892
 31
0.0
 11
641.9762182249217
 21
20.90288392673483
 31
0.0
 11
641.9762182249217
 21
20.30227179551786
 31
0.0
 11
642.006269992795
 21
18.9809249244123
 31
0.0
 11
643.2709135616694
 21
21.91125224016842
 31
0.0
 11
643.201599894708
 21
18.68862735527841
 31
0.0
 11
644.7001762455216
 21
19.00952455843855
 31
0.0
 11
644.486093909691
 21
22.43242127765105
 31
0.0
 11
643.2709135616694
 21
21.91125224016842
 31
0.0
  0
LWPOLYLINE
  5
B624
330
B614
100
AcDbEntity
  8
KOP
100
AcDbPolyline
 90
        2
 70
     0
 43
0.35
 10
726.7395337845912
 20
36.78171285809026
 10
626.7395337845912
 20
36.78171285809026
  0
LWPOLYLINE
  5
B625
330
B614
100
AcDbEntity
  8
KOP
100
AcDbPolyline
 90
        6
 70
     0
 43
0.35
 10
726.0661387906679
 20
44.78171285809025
 10
656.5188678629822
 20
44.78171285809025
 42
0.2446984432290268
 10
654.0614117301153
 20
43.5024421671435
 10
651.6516764632803
 20
40.06098354903713
 42
-0.2446984432290263
 10
649.1942203304132
 20
38.78171285809026
 10
627.7559214820686
 20
38.78171285809026
  0
TEXT
  5
B626
330
B614
100
AcDbEntity
  8
KOP
100
AcDbText
 10
628.489578090013
 20
39.6902614008385
 30
0.0
 40
5.0
  1
TOTO
  7
CLARENDON
100
AcDbText
  0
TEXT
  5
B627
330
B614
100
AcDbEntity
  8
KOP
100
AcDbText
 10
629.6671243280062
 20
31.06037562076698
 30
0.0
 40
3.5
  1
DRAWN
  7
ARIAL_REGULER
100
AcDbText
  0
LWPOLYLINE
  5
B628
330
B614
100
AcDbEntity
  8
KOP
100
AcDbPolyline
 90
        2
 70
     0
 43
0.6
 10
626.7395337845912
 20
16.78171285808991
 10
626.7395337845911
 20
46.78171285809026
  0
TEXT
  5
B629
330
B614
100
AcDbEntity
  8
KOP
100
AcDbText
 10
678.3533533023041
 20
31.06037562076698
 30
0.0
 40
3.5
  1
CHECKED
 41
0.9
  7
ARIAL_REGULER
100
AcDbText
  0
TEXT
  5
B62A
330
B614
100
AcDbEntity
  8
KOP
100
AcDbText
 10
653.6288540222775
 20
38.79063253876211
 30
0.0
 40
3.0
  1
P.T. SURYA TOTO INDONESIA
  7
CLARENDON
100
AcDbText
  0
TEXT
  5
B62B
330
B614
100
AcDbEntity
  8
KOP
100
AcDbText
 10
655.0537059585577
 20
31.06037562076698
 30
0.0
 40
3.5
  1
DESIGN
  7
ARIAL_REGULER
100
AcDbText
  0
LWPOLYLINE
  5
B62C
330
B614
100
AcDbEntity
  8
KOP
100
AcDbPolyline
 90
        2
 70
     0
 43
0.35
 10
651.7395337845912
 20
16.78171285809002
 10
651.7395337845912
 20
36.78171285809026
  0
TEXT
  5
B62D
330
B614
100
AcDbEntity
  8
KOP
100
AcDbText
 39
0.2
 10
645.1196372626026
 20
17.85525003108068
 30
0.0
 40
2.299999999999998
  1
02116
 41
0.4628095972126849
 51
12.0
  7
ROMANS
 72
     5
 11
650.0364382691811
 21
17.85525003108068
 31
0.0
100
AcDbText
  0
SPLINE
  5
B62E
330
B614
100
AcDbEntity
  8
KOP
100
AcDbSpline
210
0.0
220
0.0
230
1.0
 70
     9
 71
     3
 72
    11
 73
     7
 74
     5
 42
0.0000000001
 43
0.0000000001
 44
0.0000000001
 12
1.0
 22
0.0
 32
0.0
 40
0.0
 40
0.0
 40
0.0
 40
0.0
 40
0.9738417385562708
 40
1.953264855795699
 40
2.645773201282497
 40
3.533730746898505
 40
3.533730746898505
 40
3.533730746898505
 40
3.533730746898505
 10
641.9428636433615
 20
23.02037942578964
 30
0.0
 10
642.2674775562136
 20
23.02037942578964
 30
0.0
 10
640.3138388177508
 20
23.6150203528725
 30
0.0
 10
642.0131336414012
 20
24.00051664586853
 30
0.0
 10
642.9822226883502
 20
23.49658041844457
 30
0.0
 10
642.3167487284215
 20
23.19168158504148
 30
0.0
 10
641.9428636433615
 20
23.02037942578964
 30
0.0
 11
641.9428636433615
 21
23.02037942578964
 31
0.0
 11
641.1168836650199
 21
23.53625228525515
 31
0.0
 11
642.0461114995974
 21
23.84577655575673
 31
0.0
 11
642.6655972012397
 21
23.53625228525515
 31
0.0
 11
641.9428636433615
 21
23.02037942578964
 31
0.0
  0
LWPOLYLINE
  5
B62F
330
B614
100
AcDbEntity
  8
KOP
100
AcDbPolyline
 90
        2
 70
     1
 43
0.0
 10
656.5188678629822
 20
44.78171285809025
 10
656.5188678629822
 20
44.78171285809025
  0
LWPOLYLINE
  5
B630
330
B614
100
AcDbEntity
  8
KOP
100
AcDbPolyline
 90
        2
 70
     1
 43
0.0
 10
654.0614117301153
 20
43.50244216714361
 10
654.0614117301153
 20
43.5024421671435
  0
LWPOLYLINE
  5
B631
330
B614
100
AcDbEntity
  8
KOP
100
AcDbPolyline
 90
        2
 70
     1
 43
0.0
 10
651.6516764632803
 20
40.06098354903713
 10
651.6516764632803
 20
40.06098354903713
  0
LWPOLYLINE
  5
B632
330
B614
100
AcDbEntity
  8
KOP
100
AcDbPolyline
 90
        2
 70
     0
 43
0.35
 10
676.7395337845912
 20
16.78171285809002
 10
676.7395337845912
 20
36.78171285809026
  0
LWPOLYLINE
  5
B633
330
B614
100
AcDbEntity
  8
KOP
100
AcDbPolyline
 90
        2
 70
     0
 43
0.6
 10
726.7395337845912
 20
16.78171285809014
 10
726.7395337845911
 20
46.78171285809026
  0
TEXT
  5
B634
330
B614
100
AcDbEntity
  8
KOP
100
AcDbText
 10
703.3232029032191
 20
31.06037562076698
 30
0.0
 40
3.5
  1
APPROVED
 41
0.8
  7
ARIAL_REGULER
100
AcDbText
  0
LWPOLYLINE
  5
B635
330
B614
100
AcDbEntity
  8
KOP
100
AcDbPolyline
 90
        2
 70
     0
 43
0.35
 10
701.7395337845912
 20
16.78171285809002
 10
701.7395337845912
 20
36.78171285809026
  0
TEXT
  5
B636
330
B614
100
AcDbEntity
  8
KOP
100
AcDbText
 10
805.1777554764257
 20
24.32031551528905
 30
0.0
 40
3.0
  1
NUMBER
  7
ARIAL_REGULER
100
AcDbText
  0
TEXT
  5
B637
330
B614
100
AcDbEntity
  8
KOP
100
AcDbText
 10
817.6137502108902
 20
32.35077780047276
 30
0.0
 40
5.0
  1
A1
  7
ARIAL_REGULER
100
AcDbText
  0
TEXT
  5
B638
330
B614
100
AcDbEntity
  8
KOP
100
AcDbText
 10
728.4371914193582
 20
42.32031551528904
 30
0.0
 40
3.0
  1
FOR
  7
ARIAL_REGULER
100
AcDbText
  0
TEXT
  5
B639
330
B614
100
AcDbEntity
  8
KOP
100
AcDbText
 10
733.2174038716852
 20
24.32031551528905
 30
0.0
 40
3.0
  1
DATE
  7
ARIAL_REGULER
100
AcDbText
  0
TEXT
  5
B63A
330
B614
100
AcDbEntity
  8
KOP
100
AcDbText
 10
729.701554010947
 20
32.35077780047276
 30
0.0
 40
5.0
  1
TYPE
  7
ARIAL_REGULER
100
AcDbText
  0
LWPOLYLINE
  5
B63B
330
B614
100
AcDbEntity
  8
KOP
100
AcDbPolyline
 90
        2
 70
     0
 43
0.35
 10
751.7395337845912
 20
16.78171285809014
 10
751.7395337845912
 20
40.78171285809026
  0
TEXT
  5
B63C
330
B614
100
AcDbEntity
  8
KOP
100
AcDbText
 10
757.5228683533348
 20
24.32031551528905
 30
0.0
 40
3.0
  1
SCALE
  7
ARIAL_REGULER
100
AcDbText
  0
LWPOLYLINE
  5
B63D
330
B614
100
AcDbEntity
  8
KOP
100
AcDbPolyline
 90
        2
 70
     0
 43
0.35
 10
816.7395337845912
 20
28.78171285809026
 10
816.7395337845912
 20
46.78171285809026
  0
TEXT
  5
B63E
330
B614
100
AcDbEntity
  8
KOP
100
AcDbText
 10
778.4899563241577
 20
24.32031551528905
 30
0.0
 40
3.0
  1
DIMENSION
 41
0.9
  7
ARIAL_REGULER
100
AcDbText
  0
LWPOLYLINE
  5
B63F
330
B614
100
AcDbEntity
  8
KOP
100
AcDbPolyline
 90
        2
 70
     0
 43
0.35
 10
776.7395337845912
 20
16.78171285809014
 10
776.7395337845912
 20
28.78171285809026
  0
TEXT
  5
B640
330
B614
100
AcDbEntity
  8
KOP
100
AcDbText
 10
786.2736630532544
 20
18.56801705402972
 30
0.0
 40
3.0
  1
mm
  7
ARIAL_REGULER
100
AcDbText
  0
LWPOLYLINE
  5
B641
330
B614
100
AcDbEntity
  8
KOP
100
AcDbPolyline
 90
        2
 70
     0
 43
0.35
 10
801.7395337845911
 20
16.78171285809026
 10
801.7395337845911
 20
28.78171285809026
  0
LWPOLYLINE
  5
B642
330
B614
100
AcDbEntity
  8
KOP
100
AcDbPolyline
 90
        3
 70
     0
 43
0.35
 10
826.7395337845915
 20
576.7817128580902
 10
626.7395337845908
 20
576.7817128580904
 10
626.7395337845908
 20
581.78171285809
  0
TEXT
  5
B643
330
B614
100
AcDbEntity
  8
KOP
100
AcDbText
 10
630.3663422449804
 20
577.759721284536
 30
0.0
 40
3.0
  1
Cad File
  7
TIMES_NEW_ROMANS
100
AcDbText
  0
LWPOLYLINE
  5
B644
330
B614
100
AcDbEntity
  8
KOP
100
AcDbPolyline
 90
        2
 70
     0
 43
0.35
 10
651.7395337845908
 20
576.7817128580904
 10
651.7395337845908
 20
581.78171285809
  0
LWPOLYLINE
  5
B645
330
B614
100
AcDbEntity
  8
KOP
100
AcDbPolyline
 90
        2
 70
     0
 43
0.6
 10
153.7395337845909
 20
46.78171285808992
 10
153.7395337845913
 20
16.78171285808991
  0
LWPOLYLINE
  5
B646
330
B614
100
AcDbEntity
  8
KOP
100
AcDbPolyline
 90
        2
 70
     0
 43
0.6
 10
146.739533784591
 20
46.78171285808992
 10
146.7395337845913
 20
16.78171285808991
  0
LWPOLYLINE
  5
B647
330
B614
100
AcDbEntity
  8
KOP
100
AcDbPolyline
 90
        4
 70
     1
 43
0.5
 10
21.73953378459134
 20
16.78171285809035
 10
21.73953378459145
 20
581.7817128580903
 10
826.7395337845915
 20
581.7817128580903
 10
826.7395337845911
 20
16.78171285809026
  0
LWPOLYLINE
  5
B648
330
B614
100
AcDbEntity
  8
KOP
100
AcDbPolyline
 90
        2
 70
     0
 43
0.0
 10
28.73953378459134
 20
16.78171285809035
 10
28.73953378459134
 20
46.78171285809036
  0
LWPOLYLINE
  5
B649
330
B614
100
AcDbEntity
  8
KOP
100
AcDbPolyline
 90
        2
 70
     0
 43
0.0
 10
23.17072987604706
 20
14.80671285809035
 10
20.75953378459132
 20
14.80671285809035
  0
LWPOLYLINE
  5
B64A
330
B614
100
AcDbEntity
  8
KOP
100
AcDbPolyline
 90
        2
 70
     0
 43
0.0
 10
826.0568031955795
 20
583.7567128580903
 10
827.7195337845915
 20
583.7567128580903
  0
ENDBLK
  5
B64C
330
B614
100
AcDbEntity
  8
0
100
AcDbBlockEnd
  0
BLOCK
  5
B702
330
B6F6
100
AcDbEntity
  8
0
100
AcDbBlockBegin
  2
A$C74DC1801
 70
     0
 10
0.0
 20
0.0
 30
0.0
  3
A$C74DC1801
  1

  0
LWPOLYLINE
  5
B6F7
330
B6F6
100
AcDbEntity
  8
G__TOTO
100
AcDbPolyline
 90
        7
 70
     1
 43
0.0
 10
37.9123211538341
 20
23.73162294462236
 10
37.9123211538341
 20
23.73162294462236
 42
0.331883
 10
37.82668915383402
 20
6.373072944622205
 42
0.4729860000000001
 10
64.75835615383411
 20
6.365232944622332
 10
64.75835615383411
 20
6.365232944622332
 42
0.331879
 10
64.68393115383404
 20
23.72368594462226
 10
64.68393115383404
 20
23.72368594462226
 42
0.468582
  0
HATCH
  5
B6F8
330
B6F6
100
AcDbEntity
  8
G__TOTO
100
AcDbHatch
 10
0.0
 20
0.0
 30
0.0
210
0.0
220
0.0
230
1.0
  2
SOLID
 70
     1
 71
     0
 91
       10
 92
        7
 72
     1
 73
     1
 93
       20
 10
18.53316830636113
 20
25.64512690726723
 42
0.0
 10
21.08924420219011
 20
25.64512690726723
 42
-0.4142752124674323
 10
26.80593530322191
 20
19.92723241900728
 42
0.0
 10
26.80561126091433
 20
18.38770741058532
 42
0.0
 10
30.19296838640961
 20
18.38770741058532
 42
0.0
 10
30.19520892030833
 20
29.03248395772914
 42
0.0
 10
0.0002185510645631
 20
29.03248395772914
 42
0.0
 10
-0.0000019816554726
 20
18.38770741058532
 42
0.0
 10
3.386681374428674
 20
18.38770741058532
 42
0.0
 10
3.387005923266556
 20
19.92963894019905
 42
-0.4141519149660894
 10
9.103697024299107
 20
25.64512690726723
 42
0.0
 10
11.66233392741882
 20
25.64512690726723
 42
0.0
 10
11.65816177148881
 20
6.483784833212553
 42
-0.4141497897727592
 10
9.528785548528716
 20
4.354872206299546
 42
0.0
 10
5.899612067634492
 20
4.354872206299546
 42
0.0
 10
5.898874510644191
 20
0.9675151558371908
 42
0.0
 10
24.28588120613003
 20
0.9675151558371908
 42
0.0
 10
24.28661876312041
 20
4.354872206299546
 42
0.0
 10
20.6583725752954
 20
4.354872206299546
 42
-0.4142773378492039
 10
18.52899635233612
 20
6.484712126259638
 42
0.0
 97
        0
 92
        7
 72
     1
 73
     1
 93
       20
 10
90.93278059410906
 20
25.64512690726723
 42
0.0
 10
93.48885648993805
 20
25.64512690726723
 42
-0.4142752124674332
 10
99.20554759097059
 20
19.92723241900728
 42
0.0
 10
99.20522354866321
 20
18.38770741058532
 42
0.0
 10
102.5925806741583
 20
18.38770741058532
 42
0.0
 10
102.5948212080568
 20
29.03248395772914
 42
0.0
 10
72.3998308388133
 20
29.03248395772914
 42
0.0
 10
72.39961030609331
 20
18.38770741058532
 42
0.0
 10
75.78629366217744
 20
18.38770741058532
 42
0.0
 10
75.78661821101523
 20
19.92963894019905
 42
-0.414151914966089
 10
81.50330931204711
 20
25.64512690726723
 42
0.0
 10
84.0619462151678
 20
25.64512690726723
 42
0.0
 10
84.05777405923723
 20
6.483784833212553
 42
-0.41414978977276
 10
81.92839783627695
 20
4.354872206299546
 42
0.0
 10
78.29922435538242
 20
4.354872206299546
 42
0.0
 10
78.29848679839253
 20
0.9675151558371908
 42
0.0
 10
96.6854934938788
 20
0.9675151558371908
 42
0.0
 10
96.68623105086922
 20
4.354872206299546
 42
0.0
 10
93.05798486304381
 20
4.354872206299546
 42
-0.4142773378492051
 10
90.92860864008505
 20
6.484712126259638
 42
0.0
 97
        0
 92
       16
 93
        4
 72
     2
 10
51.29488215383403
 20
11.21940294462217
 40
7.832046
 50
199.1202649999999
 51
340.867675
 73
     1
 72
     2
 10
40.40886015383413
 20
14.99590494462222
 40
19.354522
 50
340.867675
 51
379.193527
 73
     1
 72
     2
 10
51.29567815383413
 20
18.78571694462243
 40
7.826925
 50
19.193527
 51
160.7944129999999
 73
     1
 72
     2
 10
62.18169815383413
 20
14.99361394462221
 40
19.354522
 50
160.7944129999999
 51
199.1202649999999
 73
     1
 97
        0
 92
        1
 93
        4
 72
     2
 10
49.50506915383403
 20
14.99494794462234
 40
14.516242
 50
142.997119
 51
216.4375859999999
 73
     1
 72
     2
 10
51.29573915383411
 20
17.41948994462222
 40
17.419491
 50
219.356321
 51
320.61032
 73
     1
 72
     2
 10
53.08549015383403
 20
14.99457094462241
 40
14.516242
 50
323.5257889999999
 51
396.965523
 73
     1
 72
     2
 10
51.29482115383414
 20
12.58050894462235
 40
17.419491
 50
39.769149
 51
140.196876
 73
     1
 97
        0
 92
        1
 93
        4
 72
     2
 10
121.903335153834
 20
14.99494794462234
 40
14.516242
 50
142.997119
 51
216.4375859999999
 73
     1
 72
     2
 10
123.6940051538339
 20
17.41948994462222
 40
17.419491
 50
219.356321
 51
320.61032
 73
     1
 72
     2
 10
125.483756153834
 20
14.99457094462241
 40
14.516242
 50
323.5257889999999
 51
396.965523
 73
     1
 72
     2
 10
123.693087153834
 20
12.58050894462235
 40
17.419491
 50
39.769149
 51
140.196876
 73
     1
 97
        0
 92
       16
 93
        4
 72
     2
 10
123.693148153834
 20
11.21940294462217
 40
7.832046
 50
199.1202649999999
 51
340.867675
 73
     1
 72
     2
 10
112.8071261538341
 20
14.99590494462222
 40
19.354522
 50
340.867675
 51
379.193527
 73
     1
 72
     2
 10
123.6939441538341
 20
18.78571694462243
 40
7.826925
 50
19.193527
 51
160.7944129999999
 73
     1
 72
     2
 10
134.5799641538339
 20
14.99361394462221
 40
19.354522
 50
160.7944129999999
 51
199.1202649999999
 73
     1
 97
        0
 92
        0
 93
       67
 72
     1
 10
144.6053441538341
 20
27.94836994462218
 11
144.6280441538339
 21
27.94805894462217
 72
     1
 10
144.6280441538339
 20
27.94805894462217
 11
144.6746891538341
 21
27.94650394462223
 72
     1
 10
144.6746891538341
 20
27.94650394462223
 11
144.719779153834
 21
27.94308394462234
 72
     1
 10
144.719779153834
 20
27.94308394462234
 11
144.763935153834
 21
27.93810794462217
 72
     1
 10
144.763935153834
 20
27.93810794462217
 11
144.806537153834
 21
27.9312669446224
 72
     1
 10
144.806537153834
 20
27.9312669446224
 11
144.848207153834
 21
27.92255994462232
 72
     1
 10
144.848207153834
 20
27.92255994462232
 11
144.888632153834
 21
27.91260894462232
 72
     1
 10
144.888632153834
 20
27.91260894462232
 11
144.927502153834
 21
27.90048094462235
 72
     1
 10
144.927502153834
 20
27.90048094462235
 11
144.9654401538341
 21
27.88679894462234
 72
     1
 10
144.9654401538341
 20
27.88679894462234
 11
145.0021341538341
 21
27.87156194462227
 72
     1
 10
145.0021341538341
 20
27.87156194462227
 11
145.0375841538338
 21
27.85445894462236
 72
     1
 10
145.0375841538338
 20
27.85445894462236
 11
145.071790153834
 21
27.83580094462218
 72
     1
 10
145.071790153834
 20
27.83580094462218
 11
145.1044411538338
 21
27.81527694462238
 72
     1
 10
145.1044411538338
 20
27.81527694462238
 11
145.1361591538339
 21
27.7931989446223
 72
     1
 10
145.1361591538339
 20
27.7931989446223
 11
145.1666341538339
 21
27.76925494462239
 72
     1
 10
145.1666341538339
 20
27.76925494462239
 11
145.1921331538341
 21
27.74624294462239
 72
     1
 10
145.1921331538341
 20
27.74624294462239
 11
145.220430153834
 21
27.7176349446222
 72
     1
 10
145.220430153834
 20
27.7176349446222
 11
145.246240153834
 21
27.68747094462219
 72
     1
 10
145.246240153834
 20
27.68747094462219
 11
145.2698741538339
 21
27.65606394462236
 72
     1
 10
145.2698741538339
 20
27.65606394462236
 11
145.2913301538339
 21
27.62310194462235
 72
     1
 10
145.2913301538339
 20
27.62310194462235
 11
145.310610153834
 21
27.58889594462222
 72
     1
 10
145.310610153834
 20
27.58889594462222
 11
145.3274021538339
 21
27.55313494462223
 72
     1
 10
145.3274021538339
 20
27.55313494462223
 11
145.342017153834
 21
27.5158189446223
 72
     1
 10
145.342017153834
 20
27.5158189446223
 11
145.354456153834
 21
27.47725994462234
 72
     1
 10
145.354456153834
 20
27.47725994462234
 11
145.364407153834
 21
27.43745594462234
 72
     1
 10
145.364407153834
 20
27.43745594462234
 11
145.372492153834
 21
27.39578694462227
 72
     1
 10
145.372492153834
 20
27.39578694462227
 11
145.3780891538339
 21
27.35318494462218
 72
     1
 10
145.3780891538339
 20
27.35318494462218
 11
145.381510153834
 21
27.30871694462232
 72
     1
 10
145.381510153834
 20
27.30871694462232
 11
145.382443153834
 21
27.26300594462236
 72
     1
 10
145.382443153834
 20
27.26300594462236
 11
145.3821321538339
 21
27.22973194462224
 72
     1
 10
145.3821321538339
 20
27.22973194462224
 11
145.380888153834
 21
27.18184394462217
 72
     1
 10
145.380888153834
 20
27.18184394462217
 11
145.3780891538339
 21
27.13550994462218
 72
     1
 10
145.3780891538339
 20
27.13550994462218
 11
145.3737361538339
 21
27.09073194462234
 72
     1
 10
145.3737361538339
 20
27.09073194462234
 11
145.3684491538338
 21
27.04719694462232
 72
     1
 10
145.3684491538338
 20
27.04719694462232
 11
145.361919153834
 21
27.00490594462223
 72
     1
 10
145.361919153834
 20
27.00490594462223
 11
145.3538341538338
 21
26.96447994462233
 72
     1
 10
145.3538341538338
 20
26.96447994462233
 11
145.3448161538339
 21
26.92498794462232
 72
     1
 10
145.3448161538339
 20
26.92498794462232
 11
145.334243153834
 21
26.88736094462218
 72
     1
 10
145.334243153834
 20
26.88736094462218
 11
145.322427153834
 21
26.85097794462218
 72
     1
 10
145.322427153834
 20
26.85097794462218
 11
145.3093661538341
 21
26.81583894462232
 72
     1
 10
145.3093661538341
 20
26.81583894462232
 11
145.295062153834
 21
26.78256594462219
 72
     1
 10
145.295062153834
 20
26.78256594462219
 11
145.2795141538341
 21
26.75022594462223
 72
     1
 10
145.2795141538341
 20
26.75022594462223
 11
145.262410153834
 21
26.7197519446223
 72
     1
 10
145.262410153834
 20
26.7197519446223
 11
145.2443751538339
 21
26.69052094462232
 72
     1
 10
145.2443751538339
 20
26.69052094462232
 11
145.224784153834
 21
26.66253394462251
 72
     1
 10
145.224784153834
 20
26.66253394462251
 11
145.204260153834
 21
26.63610194462239
 72
     1
 10
145.204260153834
 20
26.63610194462239
 11
145.1821821538341
 21
26.61122494462232
 72
     1
 10
145.1821821538341
 20
26.61122494462232
 11
145.1588601538341
 21
26.58790294462221
 72
     1
 10
145.1588601538341
 20
26.58790294462221
 11
145.1342931538341
 21
26.56551394462224
 72
     1
 10
145.1342931538341
 20
26.56551394462224
 11
145.1084831538341
 21
26.54498994462232
 72
     1
 10
145.1084831538341
 20
26.54498994462232
 11
145.0811191538341
 21
26.52570994462235
 72
     1
 10
145.0811191538341
 20
26.52570994462235
 11
145.0528211538339
 21
26.50798494462219
 72
     1
 10
145.0528211538339
 20
26.50798494462219
 11
145.0229681538339
 21
26.4915039446223
 72
     1
 10
145.0229681538339
 20
26.4915039446223
 11
144.9921831538341
 21
26.47657794462236
 72
     1
 10
144.9921831538341
 20
26.47657794462236
 11
144.9598431538341
 21
26.46289494462223
 72
     1
 10
144.9598431538341
 20
26.46289494462223
 11
144.9262591538339
 21
26.45076794462237
 72
     1
 10
144.9262591538339
 20
26.45076794462237
 11
144.8914311538341
 21
26.44019494462236
 72
     1
 10
144.8914311538341
 20
26.44019494462236
 11
144.855359153834
 21
26.43086594462227
 72
     1
 10
144.855359153834
 20
26.43086594462227
 11
144.8177321538341
 21
26.42309194462232
 72
     1
 10
144.8177321538341
 20
26.42309194462232
 11
144.7791731538339
 21
26.41656194462234
 72
     1
 10
144.7791731538339
 20
26.41656194462234
 11
144.739058153834
 21
26.41158594462218
 72
     1
 10
144.739058153834
 20
26.41158594462218
 11
144.6980111538339
 21
26.40816594462228
 72
     1
 10
144.6980111538339
 20
26.40816594462228
 11
144.655409153834
 21
26.4059889446222
 72
     1
 10
144.655409153834
 20
26.4059889446222
 11
144.611563153834
 21
26.40505594462217
 72
     1
 10
144.611563153834
 20
26.40505594462217
 11
143.1005901538341
 21
26.40505594462217
 72
     1
 10
143.1005901538341
 20
26.40505594462217
 11
143.1005901538341
 21
27.94836994462218
 72
     1
 10
143.1005901538341
 20
27.94836994462218
 11
144.6053441538341
 21
27.94836994462218
 97
        0
 92
        0
 93
      207
 72
     1
 10
145.508694153834
 20
26.08818394462217
 11
145.467336153834
 21
26.11896894462232
 72
     1
 10
145.467336153834
 20
26.11896894462232
 11
145.423179153834
 21
26.15068794462218
 72
     1
 10
145.423179153834
 20
26.15068794462218
 11
145.376534153834
 21
26.18302794462227
 72
     1
 10
145.376534153834
 20
26.18302794462227
 11
145.403899153834
 21
26.20292994462237
 72
     1
 10
145.403899153834
 20
26.20292994462237
 11
145.441837153834
 21
26.23184894462236
 72
     1
 10
145.441837153834
 20
26.23184894462236
 11
145.478219153834
 21
26.26076894462221
 72
     1
 10
145.478219153834
 20
26.26076894462221
 11
145.5133581538341
 21
26.29031094462232
 72
     1
 10
145.5133581538341
 20
26.29031094462232
 11
145.5472531538338
 21
26.32016294462232
 72
     1
 10
145.5472531538338
 20
26.32016294462232
 11
145.579905153834
 21
26.35032694462234
 72
     1
 10
145.579905153834
 20
26.35032694462234
 11
145.611001153834
 21
26.38080094462235
 72
     1
 10
145.611001153834
 20
26.38080094462235
 11
145.640854153834
 21
26.41189694462218
 72
     1
 10
145.640854153834
 20
26.41189694462218
 11
145.6694621538341
 21
26.44330494462235
 72
     1
 10
145.6694621538341
 20
26.44330494462235
 11
145.6968271538341
 21
26.47502294462219
 72
     1
 10
145.6968271538341
 20
26.47502294462219
 11
145.722637153834
 21
26.50705194462239
 72
     1
 10
145.722637153834
 20
26.50705194462239
 11
145.7472031538341
 21
26.53970394462227
 72
     1
 10
145.7472031538341
 20
26.53970394462227
 11
145.770525153834
 21
26.57235494462236
 72
     1
 10
145.770525153834
 20
26.57235494462236
 11
145.7922931538341
 21
26.60562794462236
 72
     1
 10
145.7922931538341
 20
26.60562794462236
 11
145.812817153834
 21
26.63921194462226
 72
     1
 10
145.812817153834
 20
26.63921194462226
 11
145.8320961538341
 21
26.67341794462219
 72
     1
 10
145.8320961538341
 20
26.67341794462219
 11
145.850132153834
 21
26.70762394462224
 72
     1
 10
145.850132153834
 20
26.70762394462224
 11
145.866613153834
 21
26.7424519446222
 72
     1
 10
145.866613153834
 20
26.7424519446222
 11
145.8818511538341
 21
26.77759094462226
 72
     1
 10
145.8818511538341
 20
26.77759094462226
 11
145.8958441538339
 21
26.81304094462234
 72
     1
 10
145.8958441538339
 20
26.81304094462234
 11
145.9085931538337
 21
26.8491129446223
 72
     1
 10
145.9085931538337
 20
26.8491129446223
 11
145.9197881538341
 21
26.8851839446223
 72
     1
 10
145.9197881538341
 20
26.8851839446223
 11
145.9297391538341
 21
26.92187794462232
 72
     1
 10
145.9297391538341
 20
26.92187794462232
 11
145.938446153834
 21
26.95888294462235
 72
     1
 10
145.938446153834
 20
26.95888294462235
 11
145.945598153834
 21
26.99650994462218
 72
     1
 10
145.945598153834
 20
26.99650994462218
 11
145.9518171538339
 21
27.03413594462222
 72
     1
 10
145.9518171538339
 20
27.03413594462222
 11
145.9561711538341
 21
27.07238494462217
 72
     1
 10
145.9561711538341
 20
27.07238494462217
 11
145.9595911538339
 21
27.11094394462236
 72
     1
 10
145.9595911538339
 20
27.11094394462236
 11
145.9617681538341
 21
27.14981494462232
 72
     1
 10
145.9617681538341
 20
27.14981494462232
 11
145.962390153834
 21
27.18899594462219
 72
     1
 10
145.962390153834
 20
27.18899594462219
 11
145.9620791538339
 21
27.22568994462221
 72
     1
 10
145.9620791538339
 20
27.22568994462221
 11
145.960835153834
 21
27.27637694462237
 72
     1
 10
145.960835153834
 20
27.27637694462237
 11
145.9586591538339
 21
27.32613094462237
 72
     1
 10
145.9586591538339
 20
27.32613094462237
 11
145.9555491538339
 21
27.37433094462221
 72
     1
 10
145.9555491538339
 20
27.37433094462221
 11
145.951506153834
 21
27.42190794462227
 72
     1
 10
145.951506153834
 20
27.42190794462227
 11
145.9462201538341
 21
27.46793094462214
 72
     1
 10
145.9462201538341
 20
27.46793094462214
 11
145.940001153834
 21
27.51333094462234
 72
     1
 10
145.940001153834
 20
27.51333094462234
 11
145.932849153834
 21
27.55717694462237
 72
     1
 10
145.932849153834
 20
27.55717694462237
 11
145.9247641538341
 21
27.60008994462237
 72
     1
 10
145.9247641538341
 20
27.60008994462237
 11
145.9157461538341
 21
27.64175994462219
 72
     1
 10
145.9157461538341
 20
27.64175994462219
 11
145.9057951538341
 21
27.68249594462236
 72
     1
 10
145.9057951538341
 20
27.68249594462236
 11
145.894600153834
 21
27.72198794462235
 72
     1
 10
145.894600153834
 20
27.72198794462235
 11
145.8824721538339
 21
27.7602369446222
 72
     1
 10
145.8824721538339
 20
27.7602369446222
 11
145.8694121538341
 21
27.79755194462234
 72
     1
 10
145.8694121538341
 20
27.79755194462234
 11
145.8554191538341
 21
27.83393494462222
 72
     1
 10
145.8554191538341
 20
27.83393494462222
 11
145.8404921538341
 21
27.86876294462218
 72
     1
 10
145.8404921538341
 20
27.86876294462218
 11
145.824322153834
 21
27.90265794462232
 72
     1
 10
145.824322153834
 20
27.90265794462232
 11
145.8075301538341
 21
27.9356199446222
 72
     1
 10
145.8075301538341
 20
27.9356199446222
 11
145.789494153834
 21
27.96733894462237
 72
     1
 10
145.789494153834
 20
27.96733894462237
 11
145.770525153834
 21
27.99781294462241
 72
     1
 10
145.770525153834
 20
27.99781294462241
 11
145.7506241538339
 21
28.02735494462218
 72
     1
 10
145.7506241538339
 20
28.02735494462218
 11
145.729478153834
 21
28.05565194462235
 72
     1
 10
145.729478153834
 20
28.05565194462235
 11
145.707711153834
 21
28.08270594462237
 72
     1
 10
145.707711153834
 20
28.08270594462237
 11
145.6846991538339
 21
28.10882694462236
 72
     1
 10
145.6846991538339
 20
28.10882694462236
 11
145.664176153834
 21
28.13028394462219
 72
     1
 10
145.664176153834
 20
28.13028394462219
 11
145.6399211538339
 21
28.1532949446223
 72
     1
 10
145.6399211538339
 20
28.1532949446223
 11
145.614733153834
 21
28.1756849446224
 72
     1
 10
145.614733153834
 20
28.1756849446224
 11
145.5886121538341
 21
28.19714094462222
 72
     1
 10
145.5886121538341
 20
28.19714094462222
 11
145.5612471538339
 21
28.21766494462234
 72
     1
 10
145.5612471538339
 20
28.21766494462234
 11
145.5326381538339
 21
28.23756594462236
 72
     1
 10
145.5326381538339
 20
28.23756594462236
 11
145.503097153834
 21
28.25653494462221
 72
     1
 10
145.503097153834
 20
28.25653494462221
 11
145.472622153834
 21
28.27457094462237
 72
     1
 10
145.472622153834
 20
28.27457094462237
 11
145.4409041538339
 21
28.29198494462231
 72
     1
 10
145.4409041538339
 20
28.29198494462231
 11
145.408253153834
 21
28.30846594462217
 72
     1
 10
145.408253153834
 20
28.30846594462217
 11
145.374357153834
 21
28.32401394462237
 72
     1
 10
145.374357153834
 20
28.32401394462237
 11
145.339530153834
 21
28.33894094462221
 72
     1
 10
145.339530153834
 20
28.33894094462221
 11
145.3034581538338
 21
28.35262294462222
 72
     1
 10
145.3034581538338
 20
28.35262294462222
 11
145.2664531538341
 21
28.36568294462232
 72
     1
 10
145.2664531538341
 20
28.36568294462232
 11
145.2282041538341
 21
28.3781219446222
 72
     1
 10
145.2282041538341
 20
28.3781219446222
 11
145.189023153834
 21
28.38931694462223
 72
     1
 10
145.189023153834
 20
28.38931694462223
 11
145.148598153834
 21
28.39988894462237
 72
     1
 10
145.148598153834
 20
28.39988894462237
 11
145.107240153834
 21
28.40952894462214
 72
     1
 10
145.107240153834
 20
28.40952894462214
 11
145.0649481538339
 21
28.41854694462222
 72
     1
 10
145.0649481538339
 20
28.41854694462222
 11
145.0211031538341
 21
28.42632094462237
 72
     1
 10
145.0211031538341
 20
28.42632094462237
 11
144.9766351538339
 21
28.43378494462217
 72
     1
 10
144.9766351538339
 20
28.43378494462217
 11
144.9309231538339
 21
28.44000394462227
 72
     1
 10
144.9309231538339
 20
28.44000394462227
 11
144.8842781538339
 21
28.44528994462223
 72
     1
 10
144.8842781538339
 20
28.44528994462223
 11
144.836390153834
 21
28.44995494462239
 72
     1
 10
144.836390153834
 20
28.44995494462239
 11
144.7872581538339
 21
28.45399694462241
 72
     1
 10
144.7872581538339
 20
28.45399694462241
 11
144.737193153834
 21
28.45679594462217
 72
     1
 10
144.737193153834
 20
28.45679594462217
 11
144.686194153834
 21
28.45897294462236
 72
     1
 10
144.686194153834
 20
28.45897294462236
 11
144.633952153834
 21
28.46021594462218
 72
     1
 10
144.633952153834
 20
28.46021594462218
 11
144.5807781538339
 21
28.46052694462219
 72
     1
 10
144.5807781538339
 20
28.46052694462219
 11
142.520953153834
 21
28.46052694462219
 72
     1
 10
142.520953153834
 20
28.46052694462219
 11
142.520953153834
 21
23.96087994462232
 72
     1
 10
142.520953153834
 20
23.96087994462232
 11
143.1005901538341
 21
23.96087994462232
 72
     1
 10
143.1005901538341
 20
23.96087994462232
 11
143.1005901538341
 21
25.89289894462218
 72
     1
 10
143.1005901538341
 20
25.89289894462218
 11
144.611563153834
 21
25.89289894462218
 72
     1
 10
144.611563153834
 20
25.89289894462218
 11
144.645769153834
 21
25.89227694462238
 72
     1
 10
144.645769153834
 20
25.89227694462238
 11
144.686194153834
 21
25.8900999446222
 72
     1
 10
144.686194153834
 20
25.8900999446222
 11
144.725687153834
 21
25.88636794462217
 72
     1
 10
144.725687153834
 20
25.88636794462217
 11
144.763624153834
 21
25.88108194462233
 72
     1
 10
144.763624153834
 20
25.88108194462233
 11
144.800318153834
 21
25.87424094462232
 72
     1
 10
144.800318153834
 20
25.87424094462232
 11
144.835768153834
 21
25.86553394462236
 72
     1
 10
144.835768153834
 20
25.86553394462236
 11
144.8699741538341
 21
25.85558294462225
 72
     1
 10
144.8699741538341
 20
25.85558294462225
 11
144.9029361538341
 21
25.84376594462219
 72
     1
 10
144.9029361538341
 20
25.84376594462219
 11
144.934655153834
 21
25.83039494462218
 72
     1
 10
144.934655153834
 20
25.83039494462218
 11
144.9648181538341
 21
25.81515794462224
 72
     1
 10
144.9648181538341
 20
25.81515794462224
 11
144.994049153834
 21
25.79867694462222
 72
     1
 10
144.994049153834
 20
25.79867694462222
 11
145.0217241538338
 21
25.78032994462251
 72
     1
 10
145.0217241538338
 20
25.78032994462251
 11
145.0481561538341
 21
25.76073894462217
 72
     1
 10
145.0481561538341
 20
25.76073894462217
 11
145.0733441538339
 21
25.73928294462223
 72
     1
 10
145.0733441538339
 20
25.73928294462223
 11
145.097289153834
 21
25.71627094462234
 72
     1
 10
145.097289153834
 20
25.71627094462234
 11
145.119989153834
 21
25.69139394462217
 72
     1
 10
145.119989153834
 20
25.69139394462217
 11
145.1414461538341
 21
25.6652729446223
 72
     1
 10
145.1414461538341
 20
25.6652729446223
 11
145.1613471538339
 21
25.63728594462236
 72
     1
 10
145.1613471538339
 20
25.63728594462236
 11
145.180316153834
 21
25.60774494462235
 72
     1
 10
145.180316153834
 20
25.60774494462235
 11
145.1977301538339
 21
25.5766479446223
 72
     1
 10
145.1977301538339
 20
25.5766479446223
 11
145.2142111538341
 21
25.54399694462232
 72
     1
 10
145.2142111538341
 20
25.54399694462232
 11
145.2291371538341
 21
25.50979094462229
 72
     1
 10
145.2291371538341
 20
25.50979094462229
 11
145.242820153834
 21
25.47371894462219
 72
     1
 10
145.242820153834
 20
25.47371894462219
 11
145.2552581538338
 21
25.43640394462226
 72
     1
 10
145.2552581538338
 20
25.43640394462226
 11
145.2664531538341
 21
25.39722194462218
 72
     1
 10
145.2664531538341
 20
25.39722194462218
 11
145.2760931538341
 21
25.35648594462236
 72
     1
 10
145.2760931538341
 20
25.35648594462236
 11
145.284800153834
 21
25.31388394462235
 72
     1
 10
145.284800153834
 20
25.31388394462235
 11
145.2919521538341
 21
25.27003794462234
 72
     1
 10
145.2919521538341
 20
25.27003794462234
 11
145.298171153834
 21
25.22432594462236
 72
     1
 10
145.298171153834
 20
25.22432594462236
 11
145.3028361538341
 21
25.17737094462232
 72
     1
 10
145.3028361538341
 20
25.17737094462232
 11
145.306256153834
 21
25.12854994462212
 72
     1
 10
145.306256153834
 20
25.12854994462212
 11
145.3084331538339
 21
25.07817294462233
 72
     1
 10
145.3084331538339
 20
25.07817294462233
 11
145.307189153834
 21
25.05018694462228
 72
     1
 10
145.307189153834
 20
25.05018694462228
 11
145.3047021538339
 21
24.99701194462227
 72
     1
 10
145.3047021538339
 20
24.99701194462227
 11
145.3025251538341
 21
24.9453919446222
 72
     1
 10
145.3025251538341
 20
24.9453919446222
 11
145.3009701538339
 21
24.89532694462218
 72
     1
 10
145.3009701538339
 20
24.89532694462218
 11
145.300037153834
 21
24.84681594462222
 72
     1
 10
145.300037153834
 20
24.84681594462222
 11
145.299726153834
 21
24.7998609446222
 72
     1
 10
145.299726153834
 20
24.7998609446222
 11
145.299726153834
 21
24.75414894462221
 72
     1
 10
145.299726153834
 20
24.75414894462221
 11
145.300037153834
 21
24.70999194462218
 72
     1
 10
145.300037153834
 20
24.70999194462218
 11
145.301281153834
 21
24.66738994462218
 72
     1
 10
145.301281153834
 20
24.66738994462218
 11
145.3025251538341
 21
24.62634294462235
 72
     1
 10
145.3025251538341
 20
24.62634294462235
 11
145.3047021538339
 21
24.58684994462226
 72
     1
 10
145.3047021538339
 20
24.58684994462226
 11
145.307189153834
 21
24.54860194462219
 72
     1
 10
145.307189153834
 20
24.54860194462219
 11
145.309988153834
 21
24.5122189446223
 72
     1
 10
145.309988153834
 20
24.5122189446223
 11
145.3137201538339
 21
24.47707994462234
 72
     1
 10
145.3137201538339
 20
24.47707994462234
 11
145.3174511538341
 21
24.44349594462221
 72
     1
 10
145.3174511538341
 20
24.44349594462221
 11
145.322116153834
 21
24.41115594462235
 72
     1
 10
145.322116153834
 20
24.41115594462235
 11
145.3270911538338
 21
24.38068094462221
 72
     1
 10
145.3270911538338
 20
24.38068094462221
 11
145.328957153834
 21
24.36886494462237
 72
     1
 10
145.328957153834
 20
24.36886494462237
 11
145.3367311538341
 21
24.32595194462237
 72
     1
 10
145.3367311538341
 20
24.32595194462237
 11
145.345127153834
 21
24.28366094462229
 72
     1
 10
145.345127153834
 20
24.28366094462229
 11
145.354456153834
 21
24.2416809446223
 72
     1
 10
145.354456153834
 20
24.2416809446223
 11
145.364096153834
 21
24.20001094462236
 72
     1
 10
145.364096153834
 20
24.20001094462236
 11
145.3746681538341
 21
24.1589639446223
 72
     1
 10
145.3746681538341
 20
24.1589639446223
 11
145.3861741538339
 21
24.11853894462217
 72
     1
 10
145.3861741538339
 20
24.11853894462217
 11
145.397991153834
 21
24.07842494462227
 72
     1
 10
145.397991153834
 20
24.07842494462227
 11
145.410740153834
 21
24.03862094462237
 72
     1
 10
145.410740153834
 20
24.03862094462237
 11
145.4241121538339
 21
23.99943994462228
 72
     1
 10
145.4241121538339
 20
23.99943994462228
 11
145.4381051538339
 21
23.96087994462232
 72
     1
 10
145.4381051538339
 20
23.96087994462232
 11
146.134975153834
 21
23.96087994462232
 72
     1
 10
146.134975153834
 20
23.96087994462232
 11
146.134975153834
 21
24.10889894462218
 72
     1
 10
146.134975153834
 20
24.10889894462218
 11
146.106677153834
 21
24.13315394462232
 72
     1
 10
146.106677153834
 20
24.13315394462232
 11
146.076203153834
 21
24.16238494462231
 72
     1
 10
146.076203153834
 20
24.16238494462231
 11
146.0485271538338
 21
24.19316994462235
 72
     1
 10
146.0485271538338
 20
24.19316994462235
 11
146.023650153834
 21
24.22519894462221
 72
     1
 10
146.023650153834
 20
24.22519894462221
 11
146.0015721538341
 21
24.25909494462235
 72
     1
 10
146.0015721538341
 20
24.25909494462235
 11
145.981981153834
 21
24.2942329446223
 72
     1
 10
145.981981153834
 20
24.2942329446223
 11
145.9651891538339
 21
24.33061594462219
 72
     1
 10
145.9651891538339
 20
24.33061594462219
 11
145.9511951538341
 21
24.36886494462237
 72
     1
 10
145.9511951538341
 20
24.36886494462237
 11
145.9396901538339
 21
24.40835694462236
 72
     1
 10
145.9396901538339
 20
24.40835694462236
 11
145.9312941538341
 21
24.44909294462217
 72
     1
 10
145.9312941538341
 20
24.44909294462217
 11
145.9253851538341
 21
24.49169494462228
 72
     1
 10
145.9253851538341
 20
24.49169494462228
 11
145.9247641538341
 21
24.50071294462236
 72
     1
 10
145.9247641538341
 20
24.50071294462236
 11
145.921032153834
 21
24.55886394462219
 72
     1
 10
145.921032153834
 20
24.55886394462219
 11
145.9173001538341
 21
24.61545894462223
 72
     1
 10
145.9173001538341
 20
24.61545894462223
 11
145.9138801538339
 21
24.67049994462218
 72
     1
 10
145.9138801538339
 20
24.67049994462218
 11
145.910459153834
 21
24.72398594462219
 72
     1
 10
145.910459153834
 20
24.72398594462219
 11
145.9073501538341
 21
24.77622694462218
 72
     1
 10
145.9073501538341
 20
24.77622694462218
 11
145.904240153834
 21
24.82660394462232
 72
     1
 10
145.904240153834
 20
24.82660394462232
 11
145.901130153834
 21
24.8757359446223
 72
     1
 10
145.901130153834
 20
24.8757359446223
 11
145.898643153834
 21
24.92331294462235
 72
     1
 10
145.898643153834
 20
24.92331294462235
 11
145.8958441538339
 21
24.96933594462234
 72
     1
 10
145.8958441538339
 20
24.96933594462234
 11
145.8933561538341
 21
25.01380394462228
 72
     1
 10
145.8933561538341
 20
25.01380394462228
 11
145.891179153834
 21
25.0567169446224
 72
     1
 10
145.891179153834
 20
25.0567169446224
 11
145.8890031538341
 21
25.09807494462234
 72
     1
 10
145.8890031538341
 20
25.09807494462234
 11
145.887137153834
 21
25.13818894462235
 72
     1
 10
145.887137153834
 20
25.13818894462235
 11
145.885271153834
 21
25.17643794462242
 72
     1
 10
145.885271153834
 20
25.17643794462242
 11
145.8834051538341
 21
25.21344294462232
 72
     1
 10
145.8834051538341
 20
25.21344294462232
 11
145.882161153834
 21
25.24889294462218
 72
     1
 10
145.882161153834
 20
25.24889294462218
 11
145.880607153834
 21
25.28278794462232
 72
     1
 10
145.880607153834
 20
25.28278794462232
 11
145.8793631538341
 21
25.31543894462219
 72
     1
 10
145.8793631538341
 20
25.31543894462219
 11
145.8784301538341
 21
25.34622394462235
 72
     1
 10
145.8784301538341
 20
25.34622394462235
 11
145.8774971538341
 21
25.37576594462223
 72
     1
 10
145.8774971538341
 20
25.37576594462223
 11
145.876564153834
 21
25.40344194462238
 72
     1
 10
145.876564153834
 20
25.40344194462238
 11
145.8759421538339
 21
25.42987394462226
 72
     1
 10
145.8759421538339
 20
25.42987394462226
 11
145.8719001538339
 21
25.47247594462236
 72
     1
 10
145.8719001538339
 20
25.47247594462236
 11
145.8653691538339
 21
25.52502794462236
 72
     1
 10
145.8653691538339
 20
25.52502794462236
 11
145.8579061538341
 21
25.57416094462235
 72
     1
 10
145.8579061538341
 20
25.57416094462235
 11
145.8495101538341
 21
25.62018294462234
 72
     1
 10
145.8495101538341
 20
25.62018294462234
 11
145.840181153834
 21
25.66278494462232
 72
     1
 10
145.840181153834
 20
25.66278494462232
 11
145.829609153834
 21
25.70196694462242
 72
     1
 10
145.829609153834
 20
25.70196694462242
 11
145.8181031538338
 21
25.73772794462218
 72
     1
 10
145.8181031538338
 20
25.73772794462218
 11
145.8056641538341
 21
25.77006794462238
 72
     1
 10
145.8056641538341
 20
25.77006794462238
 11
145.7919821538339
 21
25.79929894462235
 72
     1
 10
145.7919821538339
 20
25.79929894462235
 11
145.777367153834
 21
25.82479794462232
 72
     1
 10
145.777367153834
 20
25.82479794462232
 11
145.7643061538341
 21
25.84469894462221
 72
     1
 10
145.7643061538341
 20
25.84469894462221
 11
145.7462701538339
 21
25.86864394462236
 72
     1
 10
145.7462701538339
 20
25.86864394462236
 11
145.7257471538341
 21
25.89352094462219
 72
     1
 10
145.7257471538341
 20
25.89352094462219
 11
145.702735153834
 21
25.91901994462228
 72
     1
 10
145.702735153834
 20
25.91901994462228
 11
145.6769251538339
 21
25.94545194462239
 72
     1
 10
145.6769251538339
 20
25.94545194462239
 11
145.6486281538341
 21
25.97250494462219
 72
     1
 10
145.6486281538341
 20
25.97250494462219
 11
145.617531153834
 21
26.00018094462232
 72
     1
 10
145.617531153834
 20
26.00018094462232
 11
145.583947153834
 21
26.0287899446222
 72
     1
 10
145.583947153834
 20
26.0287899446222
 11
145.547564153834
 21
26.05833094462218
 72
     1
 10
145.547564153834
 20
26.05833094462218
 11
145.508694153834
 21
26.08818394462217
 97
        0
 92
       16
 93
        1
 72
     2
 10
143.9999981538341
 20
25.99999994462223
 40
3.5
 50
0.0
 51
360.0
 73
     1
 97
        0
 92
        1
 93
        1
 72
     2
 10
143.9999981538341
 20
25.99999994462223
 40
4.0
 50
0.0
 51
360.0
 73
     1
 97
        0
 75
     0
 76
     1
 47
0.5016490000000001
 98
        2
 10
14.360458153834
 20
14.55321394462234
 10
89.17606215383404
 20
16.05816194462227
  0
LWPOLYLINE
  5
B6F9
330
B6F6
100
AcDbEntity
  8
G__TOTO
100
AcDbPolyline
 90
       27
 70
     0
 43
0.0
 10
11.65816215383409
 20
6.483784944622357
 10
11.66233415383401
 20
25.64512694462234
 10
9.103697153834033
 20
25.64512694462234
 42
0.414152
 10
3.387006153834121
 20
19.92963894462218
 10
3.387006153834121
 20
19.92963894462218
 10
3.386681153834118
 20
18.38770694462221
 10
-0.0000018461658726
 20
18.38770694462221
 10
0.0002181538341262
 20
29.03248394462218
 10
30.19520915383411
 20
29.03248394462218
 10
30.19296815383404
 20
18.38770694462221
 10
26.80561115383401
 20
18.38770694462221
 10
26.80593515383411
 20
19.92723194462232
 10
26.80593515383411
 20
19.92723194462232
 42
0.4142750000000003
 10
21.08924415383403
 20
25.64512694462234
 10
21.08924415383403
 20
25.64512694462234
 10
18.53316815383412
 20
25.64512694462234
 10
18.52899615383412
 20
6.484711944622173
 10
18.52899615383412
 20
6.484711944622173
 42
0.4142770000000002
 10
20.65837215383412
 20
4.354871944622344
 10
20.65837215383412
 20
4.354871944622344
 10
24.28661915383412
 20
4.354871944622344
 10
24.2858811538341
 20
0.9675149446222803
 10
5.898874153834128
 20
0.9675149446222803
 10
5.899612153834112
 20
4.354871944622344
 10
9.528785153834023
 20
4.354871944622344
 10
9.528785153834023
 20
4.354871944622344
 42
0.4142140000000003
 10
11.65816215383409
 20
6.484248944622322
  0
CIRCLE
  5
B6FA
330
B6F6
100
AcDbEntity
  8
G__TOTO
100
AcDbCircle
 10
143.9999981538341
 20
25.99999994462223
 30
0.0
 40
3.5
  0
CIRCLE
  5
B6FB
330
B6F6
100
AcDbEntity
  8
G__TOTO
100
AcDbCircle
 10
143.9999981538341
 20
25.99999994462223
 30
0.0
 40
4.0
  0
LWPOLYLINE
  5
B6FC
330
B6F6
100
AcDbEntity
  8
G__TOTO
100
AcDbPolyline
 90
        6
 70
     0
 43
0.0
 10
116.2931711538341
 20
8.653999944622341
 42
0.7116310000000004
 10
131.0925851538341
 20
8.65244194462241
 42
0.168805
 10
131.0857981538338
 20
21.35889694462238
 42
0.7106690000000003
 10
116.302632153834
 20
21.36045294462235
 10
116.302632153834
 20
21.36045294462235
 42
0.168805
 10
116.2931711538341
 20
8.653999944622341
  0
LWPOLYLINE
  5
B6FD
330
B6F6
100
AcDbEntity
  8
G__TOTO
100
AcDbPolyline
 90
        7
 70
     1
 43
0.0
 10
110.310588153834
 20
23.73162294462236
 10
110.310588153834
 20
23.73162294462236
 42
0.331883
 10
110.224955153834
 20
6.373072944622205
 42
0.4729860000000001
 10
137.156622153834
 20
6.365232944622332
 10
137.156622153834
 20
6.365232944622332
 42
0.331879
 10
137.0821971538337
 20
23.72368594462226
 10
137.0821971538337
 20
23.72368594462226
 42
0.468582
  0
LWPOLYLINE
  5
B6FE
330
B6F6
100
AcDbEntity
  8
G__TOTO
100
AcDbPolyline
 90
        6
 70
     0
 43
0.0
 10
43.89490515383411
 20
8.653999944622341
 42
0.7116310000000004
 10
58.69431915383414
 20
8.65244194462241
 42
0.168805
 10
58.68753215383399
 20
21.35889694462238
 42
0.7106690000000003
 10
43.90436615383413
 20
21.36045294462235
 10
43.90436615383413
 20
21.36045294462235
 42
0.168805
 10
43.89490515383411
 20
8.653999944622341
  0
LWPOLYLINE
  5
B6FF
330
B6F6
100
AcDbEntity
  8
G__TOTO
100
AcDbPolyline
 90
       27
 70
     0
 43
0.0
 10
84.05777415383402
 20
6.483784944622357
 10
84.06194615383412
 20
25.64512694462234
 10
81.50330915383412
 20
25.64512694462234
 42
0.414152
 10
75.78661815383412
 20
19.92963894462218
 10
75.78661815383412
 20
19.92963894462218
 10
75.78629415383403
 20
18.38770694462221
 10
72.39961015383411
 20
18.38770694462221
 10
72.39983115383409
 20
29.03248394462218
 10
102.594821153834
 20
29.03248394462218
 10
102.592581153834
 20
18.38770694462221
 10
99.20522315383406
 20
18.38770694462221
 10
99.20554715383413
 20
19.92723194462232
 10
99.20554715383413
 20
19.92723194462232
 42
0.4142750000000003
 10
93.48885615383403
 20
25.64512694462234
 10
93.48885615383403
 20
25.64512694462234
 10
90.93278015383408
 20
25.64512694462234
 10
90.92860815383414
 20
6.484711944622173
 10
90.92860815383414
 20
6.484711944622173
 42
0.4142770000000002
 10
93.05798515383413
 20
4.354871944622344
 10
93.05798515383413
 20
4.354871944622344
 10
96.68623115383406
 20
4.354871944622344
 10
96.68549315383414
 20
0.9675149446222803
 10
78.29848715383412
 20
0.9675149446222803
 10
78.29922415383411
 20
4.354871944622344
 10
81.92839815383406
 20
4.354871944622344
 10
81.92839815383406
 20
4.354871944622344
 42
0.4142140000000003
 10
84.05777415383402
 20
6.484248944622322
  0
LWPOLYLINE
  5
B700
330
B6F6
100
AcDbEntity
  8
G__TOTO
100
AcDbPolyline
 90
       67
 70
     1
 43
0.0
 10
144.6053441538341
 20
27.94836994462218
 10
144.6280441538339
 20
27.94805894462217
 10
144.6746891538341
 20
27.94650394462223
 10
144.719779153834
 20
27.94308394462234
 10
144.763935153834
 20
27.93810794462217
 10
144.806537153834
 20
27.9312669446224
 10
144.848207153834
 20
27.92255994462232
 10
144.888632153834
 20
27.91260894462232
 10
144.927502153834
 20
27.90048094462235
 10
144.9654401538341
 20
27.88679894462234
 10
145.0021341538341
 20
27.87156194462227
 10
145.0375841538338
 20
27.85445894462236
 10
145.071790153834
 20
27.83580094462218
 10
145.1044411538338
 20
27.81527694462238
 10
145.1361591538339
 20
27.7931989446223
 10
145.1666341538339
 20
27.76925494462239
 10
145.1921331538341
 20
27.74624294462239
 10
145.220430153834
 20
27.7176349446222
 10
145.246240153834
 20
27.68747094462219
 10
145.2698741538339
 20
27.65606394462236
 10
145.2913301538339
 20
27.62310194462235
 10
145.310610153834
 20
27.58889594462222
 10
145.3274021538339
 20
27.55313494462223
 10
145.342017153834
 20
27.5158189446223
 10
145.354456153834
 20
27.47725994462234
 10
145.364407153834
 20
27.43745594462234
 10
145.372492153834
 20
27.39578694462227
 10
145.3780891538339
 20
27.35318494462218
 10
145.381510153834
 20
27.30871694462232
 10
145.382443153834
 20
27.26300594462236
 10
145.3821321538339
 20
27.22973194462224
 10
145.380888153834
 20
27.18184394462217
 10
145.3780891538339
 20
27.13550994462218
 10
145.3737361538339
 20
27.09073194462234
 10
145.3684491538338
 20
27.04719694462232
 10
145.361919153834
 20
27.00490594462223
 10
145.3538341538338
 20
26.96447994462233
 10
145.3448161538339
 20
26.92498794462232
 10
145.334243153834
 20
26.88736094462218
 10
145.322427153834
 20
26.85097794462218
 10
145.3093661538341
 20
26.81583894462232
 10
145.295062153834
 20
26.78256594462219
 10
145.2795141538341
 20
26.75022594462223
 10
145.262410153834
 20
26.7197519446223
 10
145.2443751538339
 20
26.69052094462232
 10
145.224784153834
 20
26.66253394462251
 10
145.204260153834
 20
26.63610194462239
 10
145.1821821538341
 20
26.61122494462232
 10
145.1588601538341
 20
26.58790294462221
 10
145.1342931538341
 20
26.56551394462224
 10
145.1084831538341
 20
26.54498994462232
 10
145.0811191538341
 20
26.52570994462235
 10
145.0528211538339
 20
26.50798494462219
 10
145.0229681538339
 20
26.4915039446223
 10
144.9921831538341
 20
26.47657794462236
 10
144.9598431538341
 20
26.46289494462223
 10
144.9262591538339
 20
26.45076794462237
 10
144.8914311538341
 20
26.44019494462236
 10
144.855359153834
 20
26.43086594462227
 10
144.8177321538341
 20
26.42309194462232
 10
144.7791731538339
 20
26.41656194462234
 10
144.739058153834
 20
26.41158594462218
 10
144.6980111538339
 20
26.40816594462228
 10
144.655409153834
 20
26.4059889446222
 10
144.611563153834
 20
26.40505594462217
 10
143.1005901538341
 20
26.40505594462217
 10
143.1005901538341
 20
27.94836994462218
  0
LWPOLYLINE
  5
B701
330
B6F6
100
AcDbEntity
  8
G__TOTO
100
AcDbPolyline
 90
      207
 70
     1
 43
0.0
 10
145.508694153834
 20
26.08818394462217
 10
145.467336153834
 20
26.11896894462232
 10
145.423179153834
 20
26.15068794462218
 10
145.376534153834
 20
26.18302794462227
 10
145.403899153834
 20
26.20292994462237
 10
145.441837153834
 20
26.23184894462236
 10
145.478219153834
 20
26.26076894462221
 10
145.5133581538341
 20
26.29031094462232
 10
145.5472531538338
 20
26.32016294462232
 10
145.579905153834
 20
26.35032694462234
 10
145.611001153834
 20
26.38080094462235
 10
145.640854153834
 20
26.41189694462218
 10
145.6694621538341
 20
26.44330494462235
 10
145.6968271538341
 20
26.47502294462219
 10
145.722637153834
 20
26.50705194462239
 10
145.7472031538341
 20
26.53970394462227
 10
145.770525153834
 20
26.57235494462236
 10
145.7922931538341
 20
26.60562794462236
 10
145.812817153834
 20
26.63921194462226
 10
145.8320961538341
 20
26.67341794462219
 10
145.850132153834
 20
26.70762394462224
 10
145.866613153834
 20
26.7424519446222
 10
145.8818511538341
 20
26.77759094462226
 10
145.8958441538339
 20
26.81304094462234
 10
145.9085931538337
 20
26.8491129446223
 10
145.9197881538341
 20
26.8851839446223
 10
145.9297391538341
 20
26.92187794462232
 10
145.938446153834
 20
26.95888294462235
 10
145.945598153834
 20
26.99650994462218
 10
145.9518171538339
 20
27.03413594462222
 10
145.9561711538341
 20
27.07238494462217
 10
145.9595911538339
 20
27.11094394462236
 10
145.9617681538341
 20
27.14981494462232
 10
145.962390153834
 20
27.18899594462219
 10
145.9620791538339
 20
27.22568994462221
 10
145.960835153834
 20
27.27637694462237
 10
145.9586591538339
 20
27.32613094462237
 10
145.9555491538339
 20
27.37433094462221
 10
145.951506153834
 20
27.42190794462227
 10
145.9462201538341
 20
27.46793094462214
 10
145.940001153834
 20
27.51333094462234
 10
145.932849153834
 20
27.55717694462237
 10
145.9247641538341
 20
27.60008994462237
 10
145.9157461538341
 20
27.64175994462219
 10
145.9057951538341
 20
27.68249594462236
 10
145.894600153834
 20
27.72198794462235
 10
145.8824721538339
 20
27.7602369446222
 10
145.8694121538341
 20
27.79755194462234
 10
145.8554191538341
 20
27.83393494462222
 10
145.8404921538341
 20
27.86876294462218
 10
145.824322153834
 20
27.90265794462232
 10
145.8075301538341
 20
27.9356199446222
 10
145.789494153834
 20
27.96733894462237
 10
145.770525153834
 20
27.99781294462241
 10
145.7506241538339
 20
28.02735494462218
 10
145.729478153834
 20
28.05565194462235
 10
145.707711153834
 20
28.08270594462237
 10
145.6846991538339
 20
28.10882694462236
 10
145.664176153834
 20
28.13028394462219
 10
145.6399211538339
 20
28.1532949446223
 10
145.614733153834
 20
28.1756849446224
 10
145.5886121538341
 20
28.19714094462222
 10
145.5612471538339
 20
28.21766494462234
 10
145.5326381538339
 20
28.23756594462236
 10
145.503097153834
 20
28.25653494462221
 10
145.472622153834
 20
28.27457094462237
 10
145.4409041538339
 20
28.29198494462231
 10
145.408253153834
 20
28.30846594462217
 10
145.374357153834
 20
28.32401394462237
 10
145.339530153834
 20
28.33894094462221
 10
145.3034581538338
 20
28.35262294462222
 10
145.2664531538341
 20
28.36568294462232
 10
145.2282041538341
 20
28.3781219446222
 10
145.189023153834
 20
28.38931694462223
 10
145.148598153834
 20
28.39988894462237
 10
145.107240153834
 20
28.40952894462214
 10
145.0649481538339
 20
28.41854694462222
 10
145.0211031538341
 20
28.42632094462237
 10
144.9766351538339
 20
28.43378494462217
 10
144.9309231538339
 20
28.44000394462227
 10
144.8842781538339
 20
28.44528994462223
 10
144.836390153834
 20
28.44995494462239
 10
144.7872581538339
 20
28.45399694462241
 10
144.737193153834
 20
28.45679594462217
 10
144.686194153834
 20
28.45897294462236
 10
144.633952153834
 20
28.46021594462218
 10
144.5807781538339
 20
28.46052694462219
 10
142.520953153834
 20
28.46052694462219
 10
142.520953153834
 20
23.96087994462232
 10
143.1005901538341
 20
23.96087994462232
 10
143.1005901538341
 20
25.89289894462218
 10
144.611563153834
 20
25.89289894462218
 10
144.645769153834
 20
25.89227694462238
 10
144.686194153834
 20
25.8900999446222
 10
144.725687153834
 20
25.88636794462217
 10
144.763624153834
 20
25.88108194462233
 10
144.800318153834
 20
25.87424094462232
 10
144.835768153834
 20
25.86553394462236
 10
144.8699741538341
 20
25.85558294462225
 10
144.9029361538341
 20
25.84376594462219
 10
144.934655153834
 20
25.83039494462218
 10
144.9648181538341
 20
25.81515794462224
 10
144.994049153834
 20
25.79867694462222
 10
145.0217241538338
 20
25.78032994462251
 10
145.0481561538341
 20
25.76073894462217
 10
145.0733441538339
 20
25.73928294462223
 10
145.097289153834
 20
25.71627094462234
 10
145.119989153834
 20
25.69139394462217
 10
145.1414461538341
 20
25.6652729446223
 10
145.1613471538339
 20
25.63728594462236
 10
145.180316153834
 20
25.60774494462235
 10
145.1977301538339
 20
25.5766479446223
 10
145.2142111538341
 20
25.54399694462232
 10
145.2291371538341
 20
25.50979094462229
 10
145.242820153834
 20
25.47371894462219
 10
145.2552581538338
 20
25.43640394462226
 10
145.2664531538341
 20
25.39722194462218
 10
145.2760931538341
 20
25.35648594462236
 10
145.284800153834
 20
25.31388394462235
 10
145.2919521538341
 20
25.27003794462234
 10
145.298171153834
 20
25.22432594462236
 10
145.3028361538341
 20
25.17737094462232
 10
145.306256153834
 20
25.12854994462212
 10
145.3084331538339
 20
25.07817294462233
 10
145.307189153834
 20
25.05018694462228
 10
145.3047021538339
 20
24.99701194462227
 10
145.3025251538341
 20
24.9453919446222
 10
145.3009701538339
 20
24.89532694462218
 10
145.300037153834
 20
24.84681594462222
 10
145.299726153834
 20
24.7998609446222
 10
145.299726153834
 20
24.75414894462221
 10
145.300037153834
 20
24.70999194462218
 10
145.301281153834
 20
24.66738994462218
 10
145.3025251538341
 20
24.62634294462235
 10
145.3047021538339
 20
24.58684994462226
 10
145.307189153834
 20
24.54860194462219
 10
145.309988153834
 20
24.5122189446223
 10
145.3137201538339
 20
24.47707994462234
 10
145.3174511538341
 20
24.44349594462221
 10
145.322116153834
 20
24.41115594462235
 10
145.3270911538338
 20
24.38068094462221
 10
145.328957153834
 20
24.36886494462237
 10
145.3367311538341
 20
24.32595194462237
 10
145.345127153834
 20
24.28366094462229
 10
145.354456153834
 20
24.2416809446223
 10
145.364096153834
 20
24.20001094462236
 10
145.3746681538341
 20
24.1589639446223
 10
145.3861741538339
 20
24.11853894462217
 10
145.397991153834
 20
24.07842494462227
 10
145.410740153834
 20
24.03862094462237
 10
145.4241121538339
 20
23.99943994462228
 10
145.4381051538339
 20
23.96087994462232
 10
146.134975153834
 20
23.96087994462232
 10
146.134975153834
 20
24.10889894462218
 10
146.106677153834
 20
24.13315394462232
 10
146.076203153834
 20
24.16238494462231
 10
146.0485271538338
 20
24.19316994462235
 10
146.023650153834
 20
24.22519894462221
 10
146.0015721538341
 20
24.25909494462235
 10
145.981981153834
 20
24.2942329446223
 10
145.9651891538339
 20
24.33061594462219
 10
145.9511951538341
 20
24.36886494462237
 10
145.9396901538339
 20
24.40835694462236
 10
145.9312941538341
 20
24.44909294462217
 10
145.9253851538341
 20
24.49169494462228
 10
145.9247641538341
 20
24.50071294462236
 10
145.921032153834
 20
24.55886394462219
 10
145.9173001538341
 20
24.61545894462223
 10
145.9138801538339
 20
24.67049994462218
 10
145.910459153834
 20
24.72398594462219
 10
145.9073501538341
 20
24.77622694462218
 10
145.904240153834
 20
24.82660394462232
 10
145.901130153834
 20
24.8757359446223
 10
145.898643153834
 20
24.92331294462235
 10
145.8958441538339
 20
24.96933594462234
 10
145.8933561538341
 20
25.01380394462228
 10
145.891179153834
 20
25.0567169446224
 10
145.8890031538341
 20
25.09807494462234
 10
145.887137153834
 20
25.13818894462235
 10
145.885271153834
 20
25.17643794462242
 10
145.8834051538341
 20
25.21344294462232
 10
145.882161153834
 20
25.24889294462218
 10
145.880607153834
 20
25.28278794462232
 10
145.8793631538341
 20
25.31543894462219
 10
145.8784301538341
 20
25.34622394462235
 10
145.8774971538341
 20
25.37576594462223
 10
145.876564153834
 20
25.40344194462238
 10
145.8759421538339
 20
25.42987394462226
 10
145.8719001538339
 20
25.47247594462236
 10
145.8653691538339
 20
25.52502794462236
 10
145.8579061538341
 20
25.57416094462235
 10
145.8495101538341
 20
25.62018294462234
 10
145.840181153834
 20
25.66278494462232
 10
145.829609153834
 20
25.70196694462242
 10
145.8181031538338
 20
25.73772794462218
 10
145.8056641538341
 20
25.77006794462238
 10
145.7919821538339
 20
25.79929894462235
 10
145.777367153834
 20
25.82479794462232
 10
145.7643061538341
 20
25.84469894462221
 10
145.7462701538339
 20
25.86864394462236
 10
145.7257471538341
 20
25.89352094462219
 10
145.702735153834
 20
25.91901994462228
 10
145.6769251538339
 20
25.94545194462239
 10
145.6486281538341
 20
25.97250494462219
 10
145.617531153834
 20
26.00018094462232
 10
145.583947153834
 20
26.0287899446222
 10
145.547564153834
 20
26.05833094462218
  0
ENDBLK
  5
B703
330
B6F6
100
AcDbEntity
  8
0
100
AcDbBlockEnd
  0
BLOCK
  5
B8B9
330
B895
100
AcDbEntity
  8
0
100
AcDbBlockBegin
  2
A$C10F26692
 70
     0
 10
0.0
 20
0.0
 30
0.0
  3
A$C10F26692
  1

  0
LINE
  5
B896
330
B895
100
AcDbEntity
  8
CENTER
100
AcDbLine
 10
208.4999990606972
 20
301.500001213447
 30
0.0
 11
698.4999990606971
 21
301.500001213447
 31
0.0
  0
LINE
  5
B897
330
B895
100
AcDbEntity
  8
CENTER
100
AcDbLine
 10
453.4999990606971
 20
546.5000012134469
 30
0.0
 11
453.4999990606971
 21
56.50000121344726
 31
0.0
  0
POINT
  5
B898
330
B895
100
AcDbEntity
  8
CENTER
100
AcDbPoint
 10
453.4999990606971
 20
301.500001213447
 30
0.0
  0
POINT
  5
B899
330
B895
100
AcDbEntity
  8
CENTER
100
AcDbPoint
 10
453.4999990606971
 20
301.500001213447
 30
0.0
  0
TEXT
  5
B89A
330
B895
100
AcDbEntity
  8
DIMENSI
100
AcDbText
 10
451.9602889663012
 20
43.02464962690248
 30
0.0
 40
4.32
  1
Center Line
 50
90.0
  7
ARIAL
100
AcDbText
  0
TEXT
  5
B89B
330
B895
100
AcDbEntity
  8
DIMENSI
100
AcDbText
 10
684.9733463397521
 20
303.6528454379213
 30
0.0
 40
4.32
  1
Center Line
  7
ARIAL
100
AcDbText
  0
LEADER
  5
B89C
330
B895
100
AcDbEntity
  8
DIMENSI
100
AcDbLeader
  3
DIM-1
 73
     0
 74
     0
 75
     1
 40
5.364095169430425
 41
41.44484498918528
 76
     3
 10
477.9409477955702
 20
376.6219595771514
 30
0.0
 10
498.5285984100013
 20
396.497018948418
 30
0.0
 10
499.0285984100013
 20
396.497018948418
 30
0.0
340
B89D
1001
ACAD
1000
DSTYLE
1002
{
1070
     5
1000

1070
   342
1005
0
1002
}
  0
MTEXT
  5
B89D
102
{ACAD_REACTORS
330
B89C
102
}
330
B895
100
AcDbEntity
  8
DIMENSI
100
AcDbMText
 10
499.2285984100012
 20
396.697018948418
 30
0.0
 40
4.0
 41
0.0
 71
     7
 72
     1
  1
Cut-out Template
  7
TIME
 73
     1
 44
1.0
1001
ACAD
1000
MTEXTBEGIN
1070
    73
1070
     1
1070
    44
1040
1.0
1070
    74
1070
     0
1000
MTEXTEND
  0
MTEXT
  5
B89E
102
{ACAD_REACTORS
330
B89F
102
}
330
B895
100
AcDbEntity
  8
DIMENSI
100
AcDbMText
 10
600.6030356828038
 20
498.7490052412077
 30
0.0
 40
4.0
 41
0.0
 71
     7
 72
     1
  1
Top line of Bowl
  7
TIME
 73
     1
 44
1.0
1001
ACAD
1000
MTEXTBEGIN
1070
    73
1070
     1
1070
    44
1040
1.0
1070
    74
1070
     0
1000
MTEXTEND
  0
LEADER
  5
B89F
330
B895
100
AcDbEntity
  8
DIMENSI
100
AcDbLeader
  3
DIM-1
 73
     0
 74
     0
 75
     1
 40
5.364095169430425
 41
40.21917808219177
 76
     3
 10
582.6925303725545
 20
485.8798930288677
 30
0.0
 10
599.9030356828037
 20
498.5490052412077
 30
0.0
 10
600.4030356828037
 20
498.5490052412077
 30
0.0
340
B89E
1001
ACAD
1000
DSTYLE
1002
{
1070
     5
1000

1070
   342
1005
0
1002
}
  0
LEADER
  5
B8A0
330
B895
100
AcDbEntity
  8
DIMENSI
100
AcDbLeader
  3
DIM-1
 73
     0
 74
     0
 75
     1
 40
4.18168709444845
 41
42.26676279740447
 76
     3
 10
512.2242794289022
 20
423.5647500161859
 30
0.0
 10
528.6232048853439
 20
437.5169464871009
 30
0.0
 10
529.1232048853439
 20
437.5169464871009
 30
0.0
340
B8A1
1001
ACAD
1000
DSTYLE
1002
{
1070
     5
1000

1070
   342
1005
0
1002
}
  0
MTEXT
  5
B8A1
102
{ACAD_REACTORS
330
B8A0
102
}
330
B895
100
AcDbEntity
  8
DIMENSI
100
AcDbMText
 10
529.323204885344
 20
437.7169464871009
 30
0.0
 40
4.0
 41
0.0
 71
     7
 72
     1
  1
Base line of Bowl
  7
TIME
 73
     1
 44
1.0
1001
ACAD
1000
MTEXTBEGIN
1070
    73
1070
     1
1070
    44
1040
1.0
1070
    74
1070
     0
1000
MTEXTEND
  0
LEADER
  5
B8A2
330
B895
100
AcDbEntity
  8
DIMENSI
100
AcDbLeader
  3
DIM-1
 73
     0
 74
     0
 75
     1
 40
4.190338860850757
 41
64.12400865176639
 76
     3
 10
554.5309243097416
 20
365.0384385068784
 30
0.0
 10
574.5083251415479
 20
385.1149917039078
 30
0.0
 10
575.0083251415479
 20
385.1149917039078
 30
0.0
340
B8A3
1001
ACAD
1000
DSTYLE
1002
{
1070
     5
1000

1070
   342
1005
0
1002
}
  0
MTEXT
  5
B8A3
102
{ACAD_REACTORS
330
B8A2
102
}
330
B895
100
AcDbEntity
  8
DIMENSI
100
AcDbMText
 10
575.208325141548
 20
385.3149917039078
 30
0.0
 40
4.0
 41
0.0
 71
     7
 72
     1
  1
Cut-out Holes for Tie hook
  7
TIME
 73
     1
 44
1.0
1001
ACAD
1000
MTEXTBEGIN
1070
    73
1070
     1
1070
    44
1040
1.0
1070
    74
1070
     0
1000
MTEXTEND
  0
CIRCLE
  5
B8A4
330
B895
100
AcDbEntity
  8
LW524J
100
AcDbCircle
 10
453.4999990606971
 20
301.500001213447
 30
0.0
 40
225.0
  0
CIRCLE
  5
B8A5
330
B895
100
AcDbEntity
  8
0
100
AcDbCircle
 10
358.7384105362385
 20
357.3598863077908
 30
0.0
 40
10.0
  0
LINE
  5
B8A6
330
B895
100
AcDbEntity
  8
CENTER
100
AcDbLine
 10
343.7384105362385
 20
357.3598863077908
 30
0.0
 11
373.7384105362386
 21
357.3598863077908
 31
0.0
  0
LINE
  5
B8A7
330
B895
100
AcDbEntity
  8
GR-KOP
100
AcDbLine
 10
498.499999060697
 20
241.6219595771515
 30
0.0
 11
498.499999060697
 21
376.6219595771514
 31
0.0
  0
LINE
  5
B8A8
330
B895
100
AcDbEntity
  8
0
100
AcDbLine
 10
408.4999990606972
 20
241.6219595771515
 30
0.0
 11
408.4999990606972
 21
376.6219595771514
 31
0.0
  0
LINE
  5
B8A9
330
B895
100
AcDbEntity
  8
0
100
AcDbLine
 10
408.4999990606972
 20
241.6219595771515
 30
0.0
 11
498.499999060697
 21
241.6219595771515
 31
0.0
  0
CIRCLE
  5
B8AA
330
B895
100
AcDbEntity
  8
0
100
AcDbCircle
 10
453.4999990606971
 20
191.5000012134471
 30
0.0
 40
10.0
  0
LINE
  5
B8AB
330
B895
100
AcDbEntity
  8
CENTER
100
AcDbLine
 10
438.4999990606971
 20
191.5000012134471
 30
0.0
 11
468.4999990606971
 21
191.5000012134471
 31
0.0
  0
LINE
  5
B8AC
330
B895
100
AcDbEntity
  8
0
100
AcDbLine
 10
408.4999990606972
 20
376.6219595771514
 30
0.0
 11
498.499999060697
 21
376.6219595771514
 31
0.0
  0
LINE
  5
B8AD
330
B895
100
AcDbEntity
  8
CENTER
100
AcDbLine
 10
358.7384105362385
 20
372.3598863077908
 30
0.0
 11
358.7384105362385
 21
342.3598863077908
 31
0.0
  0
LINE
  5
B8AE
330
B895
100
AcDbEntity
  8
CENTER
100
AcDbLine
 10
548.2615875851559
 20
372.3598863077908
 30
0.0
 11
548.2615875851559
 21
342.3598863077908
 31
0.0
  0
LINE
  5
B8AF
330
B895
100
AcDbEntity
  8
CENTER
100
AcDbLine
 10
533.2615875851558
 20
357.3598863077908
 30
0.0
 11
563.2615875851558
 21
357.3598863077908
 31
0.0
  0
CIRCLE
  5
B8B0
330
B895
100
AcDbEntity
  8
0
100
AcDbCircle
 10
548.2615875851559
 20
357.3598863077908
 30
0.0
 40
10.0
  0
ARC
  5
B8B1
330
B895
100
AcDbEntity
  8
LW524J
100
AcDbCircle
 10
453.4999990606971
 20
301.500001213447
 30
0.0
 40
135.0
100
AcDbArc
 50
90.0
 51
270.0
  0
ARC
  5
B8B2
330
B895
100
AcDbEntity
  8
LW524J
100
AcDbCircle
 10
453.4999990606971
 20
301.500001213447
 30
0.0
 40
135.0
100
AcDbArc
 50
270.0
 51
90.0
  0
TEXT
  5
B8B3
330
B895
100
AcDbEntity
  8
DIM
  6
Continuous
 62
     7
100
AcDbText
 10
710.3056387540824
 20
63.45950302918083
 30
0.0
 40
4.0
  1
LT524G/LT524
  7
BLACK
 72
     1
 11
729.0996360255694
 21
63.45950302918083
 31
0.0
100
AcDbText
  0
INSERT
  5
B8B4
330
B895
100
AcDbEntity
  8
DIVIDE
100
AcDbBlockReference
  2
A$C74DC1801
 10
163.6077214620721
 20
488.3068936530299
 30
0.0
  0
TEXT
  5
B8B5
330
B895
100
AcDbEntity
  8
DIM
  6
Continuous
 62
     7
100
AcDbText
 10
709.8218606193001
 20
48.98358559537557
 30
0.0
 40
4.0
  1
# 0GU112
  7
BLACK
100
AcDbText
  0
TEXT
  5
B8B6
330
B895
100
AcDbEntity
  8
DIM
  6
Continuous
 62
     7
100
AcDbText
 10
709.9300337966107
 20
55.83202151177122
 30
0.0
 40
4.0
  1
REV Oct. 2004
  7
BLACK
100
AcDbText
  0
LWPOLYLINE
  5
B8B7
330
B895
100
AcDbEntity
  8
LINE_TEX
100
AcDbPolyline
 90
        4
 70
     1
 43
0.0
 10
-0.0000009393027653
 20
603.000001213447
 10
906.9999990606971
 20
603.000001213447
 10
906.9999990606971
 20
0.0000012134470353
 10
-0.0000009393027653
 20
0.0000012134470353
  0
ENDBLK
  5
B8BA
330
B895
100
AcDbEntity
  8
0
100
AcDbBlockEnd
  0
BLOCK
  5
B9DF
330
B91B
100
AcDbEntity
  8
0
100
AcDbBlockBegin
  2
ISO A0 title block.dwg
 70
     2
 10
0.0
 20
0.0
 30
0.0
  3
ISO A0 title block.dwg
  1

  0
LINE
  5
BA09
330
B91B
100
AcDbEntity
  8
FRAME 070
100
AcDbLine
 10
1168.0
 20
820.0
 30
0.0
 11
20.0
 21
820.0
 31
0.0
  0
LINE
  5
BA0A
330
B91B
100
AcDbEntity
  8
FRAME 070
100
AcDbLine
 10
20.0
 20
20.0
 30
0.0
 11
1168.0
 21
20.0
 31
0.0
  0
LINE
  5
BA0B
330
B91B
100
AcDbEntity
  8
FRAME 070
100
AcDbLine
 10
20.0
 20
820.0
 30
0.0
 11
20.0
 21
20.0
 31
0.0
  0
TEXT
  5
BA0C
330
B91B
100
AcDbEntity
  8
FRAME 050
100
AcDbText
 10
15.9
 20
43.0
 30
0.0
 40
4.0
  1
P
  7
ISO Proportional
 72
     4
 11
17.5
 21
45.0
 31
0.0
100
AcDbText
  0
TEXT
  5
BA0D
330
B91B
100
AcDbEntity
  8
FRAME 050
100
AcDbText
 10
54.875
 20
15.5
 30
0.0
 40
4.0
  1
1
  7
ISO Proportional
 72
     4
 11
55.875
 21
17.5
 31
0.0
100
AcDbText
  0
LINE
  5
BA0E
330
B91B
100
AcDbEntity
  8
FRAME 050
100
AcDbLine
 10
15.0
 20
70.0
 30
0.0
 11
20.0
 21
70.0
 31
0.0
  0
TEXT
  5
BA0F
330
B91B
100
AcDbEntity
  8
FRAME 050
100
AcDbText
 10
15.9
 20
93.0
 30
0.0
 40
4.0
  1
O
  7
ISO Proportional
 72
     4
 11
17.5
 21
95.0
 31
0.0
100
AcDbText
  0
LINE
  5
BA10
330
B91B
100
AcDbEntity
  8
FRAME 050
100
AcDbLine
 10
15.0
 20
120.0
 30
0.0
 11
20.0
 21
120.0
 31
0.0
  0
TEXT
  5
BA11
330
B91B
100
AcDbEntity
  8
FRAME 050
100
AcDbText
 10
15.9
 20
143.0
 30
0.0
 40
4.0
  1
N
  7
ISO Proportional
 72
     4
 11
17.5
 21
145.0
 31
0.0
100
AcDbText
  0
LINE
  5
BA12
330
B91B
100
AcDbEntity
  8
FRAME 050
100
AcDbLine
 10
91.75
 20
15.0
 30
0.0
 11
91.75
 21
20.0
 31
0.0
  0
TEXT
  5
BA13
330
B91B
100
AcDbEntity
  8
FRAME 050
100
AcDbText
 10
126.1556692913386
 20
15.39960629921259
 30
0.0
 40
4.0
  1
2
  7
ISO Proportional
 72
     4
 11
127.625
 21
17.5
 31
0.0
100
AcDbText
  0
LINE
  5
BA14
330
B91B
100
AcDbEntity
  8
FRAME 050
100
AcDbLine
 10
163.5
 20
15.0
 30
0.0
 11
163.5
 21
20.0
 31
0.0
  0
TEXT
  5
BA15
330
B91B
100
AcDbEntity
  8
FRAME 050
100
AcDbText
 10
197.8921572875254
 20
15.58284271247461
 30
0.0
 40
4.0
  1
3
  7
ISO Proportional
 72
     4
 11
199.375
 21
17.5
 31
0.0
100
AcDbText
  0
TEXT
  5
BA16
330
B91B
100
AcDbEntity
  8
FRAME 050
100
AcDbText
 10
15.7
 20
193.0
 30
0.0
 40
4.0
  1
M
  7
ISO Proportional
 72
     4
 11
17.5
 21
195.0
 31
0.0
100
AcDbText
  0
LINE
  5
BA17
330
B91B
100
AcDbEntity
  8
FRAME 050
100
AcDbLine
 10
15.0
 20
170.0
 30
0.0
 11
20.0
 21
170.0
 31
0.0
  0
LINE
  5
BA18
330
B91B
100
AcDbEntity
  8
FRAME 050
100
AcDbLine
 10
15.0
 20
220.0
 30
0.0
 11
20.0
 21
220.0
 31
0.0
  0
TEXT
  5
BA19
330
B91B
100
AcDbEntity
  8
FRAME 050
100
AcDbText
 10
16.1
 20
243.0
 30
0.0
 40
4.0
  1
L
  7
ISO Proportional
 72
     4
 11
17.5
 21
245.0
 31
0.0
100
AcDbText
  0
LINE
  5
BA1A
330
B91B
100
AcDbEntity
  8
FRAME 050
100
AcDbLine
 10
15.0
 20
270.0
 30
0.0
 11
20.0
 21
270.0
 31
0.0
  0
TEXT
  5
BA1B
330
B91B
100
AcDbEntity
  8
FRAME 050
100
AcDbText
 10
15.89
 20
293.0
 30
0.0
 40
4.0
  1
K
  7
ISO Proportional
 72
     4
 11
17.5
 21
295.0
 31
0.0
100
AcDbText
  0
LINE
  5
BA1C
330
B91B
100
AcDbEntity
  8
FRAME 050
100
AcDbLine
 10
15.0
 20
320.0
 30
0.0
 11
20.0
 21
320.0
 31
0.0
  0
TEXT
  5
BA1D
330
B91B
100
AcDbEntity
  8
FRAME 050
100
AcDbText
 10
16.21715728752538
 20
343.0828427124747
 30
0.0
 40
4.0
  1
J
  7
ISO Proportional
 72
     4
 11
17.5
 21
345.0
 31
0.0
100
AcDbText
  0
LINE
  5
BA1E
330
B91B
100
AcDbEntity
  8
FRAME 050
100
AcDbLine
 10
15.0
 20
370.0
 30
0.0
 11
20.0
 21
370.0
 31
0.0
  0
TEXT
  5
BA1F
330
B91B
100
AcDbEntity
  8
FRAME 050
100
AcDbText
 10
16.9
 20
393.0
 30
0.0
 40
4.0
  1
I
  7
ISO Proportional
 72
     4
 11
17.5
 21
395.0
 31
0.0
100
AcDbText
  0
LINE
  5
BA20
330
B91B
100
AcDbEntity
  8
FRAME 050
100
AcDbLine
 10
17.5
 20
420.0
 30
0.0
 11
22.5
 21
422.4999999999999
 31
0.0
  0
LINE
  5
BA21
330
B91B
100
AcDbEntity
  8
FRAME 050
100
AcDbLine
 10
22.5
 20
417.4999999999999
 30
0.0
 11
17.5
 21
420.0
 31
0.0
  0
LINE
  5
BA22
330
B91B
100
AcDbEntity
  8
FRAME 050
100
AcDbLine
 10
15.0
 20
420.0
 30
0.0
 11
25.0
 21
420.0
 31
0.0
  0
LINE
  5
BA23
330
B91B
100
AcDbEntity
  8
FRAME 050
100
AcDbLine
 10
22.5
 20
422.4999999999999
 30
0.0
 11
22.5
 21
417.4999999999999
 31
0.0
  0
TEXT
  5
BA24
330
B91B
100
AcDbEntity
  8
FRAME 050
100
AcDbText
 10
15.9
 20
443.0
 30
0.0
 40
4.0
  1
H
  7
ISO Proportional
 72
     4
 11
17.5
 21
445.0
 31
0.0
100
AcDbText
  0
LINE
  5
BA25
330
B91B
100
AcDbEntity
  8
FRAME 050
100
AcDbLine
 10
15.0
 20
470.0
 30
0.0
 11
20.0
 21
470.0
 31
0.0
  0
TEXT
  5
BA26
330
B91B
100
AcDbEntity
  8
FRAME 050
100
AcDbText
 10
16.00355339059327
 20
493.0
 30
0.0
 40
4.0
  1
G
  7
ISO Proportional
 72
     4
 11
17.5
 21
495.0
 31
0.0
100
AcDbText
  0
LINE
  5
BA27
330
B91B
100
AcDbEntity
  8
FRAME 050
100
AcDbLine
 10
15.0
 20
520.0
 30
0.0
 11
20.0
 21
520.0
 31
0.0
  0
TEXT
  5
BA28
330
B91B
100
AcDbEntity
  8
FRAME 050
100
AcDbText
 10
16.1
 20
543.0
 30
0.0
 40
4.0
  1
F
  7
ISO Proportional
 72
     4
 11
17.5
 21
545.0
 31
0.0
100
AcDbText
  0
LINE
  5
BA29
330
B91B
100
AcDbEntity
  8
FRAME 050
100
AcDbLine
 10
15.0
 20
570.0
 30
0.0
 11
20.0
 21
570.0
 31
0.0
  0
TEXT
  5
BA2A
330
B91B
100
AcDbEntity
  8
FRAME 050
100
AcDbText
 10
16.1
 20
593.0
 30
0.0
 40
4.0
  1
E
  7
ISO Proportional
 72
     4
 11
17.5
 21
595.0
 31
0.0
100
AcDbText
  0
LINE
  5
BA2B
330
B91B
100
AcDbEntity
  8
FRAME 050
100
AcDbLine
 10
15.0
 20
620.0
 30
0.0
 11
20.0
 21
620.0
 31
0.0
  0
TEXT
  5
BA2C
330
B91B
100
AcDbEntity
  8
FRAME 050
100
AcDbText
 10
15.7860912703474
 20
643.0
 30
0.0
 40
4.0
  1
D
  7
ISO Proportional
 72
     4
 11
17.5
 21
645.0
 31
0.0
100
AcDbText
  0
LINE
  5
BA2D
330
B91B
100
AcDbEntity
  8
FRAME 050
100
AcDbLine
 10
15.0
 20
670.0
 30
0.0
 11
20.0
 21
670.0
 31
0.0
  0
TEXT
  5
BA2E
330
B91B
100
AcDbEntity
  8
FRAME 050
100
AcDbText
 10
16.19319805153395
 20
693.0
 30
0.0
 40
4.0
  1
C
  7
ISO Proportional
 72
     4
 11
17.5
 21
695.0
 31
0.0
100
AcDbText
  0
LINE
  5
BA2F
330
B91B
100
AcDbEntity
  8
FRAME 050
100
AcDbLine
 10
15.0
 20
720.0
 30
0.0
 11
20.0
 21
720.0
 31
0.0
  0
TEXT
  5
BA30
330
B91B
100
AcDbEntity
  8
FRAME 050
100
AcDbText
 10
15.9
 20
743.0
 30
0.0
 40
4.0
  1
B
  7
ISO Proportional
 72
     4
 11
17.5
 21
745.0
 31
0.0
100
AcDbText
  0
LINE
  5
BA31
330
B91B
100
AcDbEntity
  8
FRAME 050
100
AcDbLine
 10
15.0
 20
770.0
 30
0.0
 11
20.0
 21
770.0
 31
0.0
  0
TEXT
  5
BA32
330
B91B
100
AcDbEntity
  8
FRAME 050
100
AcDbText
 10
15.7
 20
793.0
 30
0.0
 40
4.0
  1
A
  7
ISO Proportional
 72
     4
 11
17.5
 21
795.0
 31
0.0
100
AcDbText
  0
TEXT
  5
BA33
330
B91B
100
AcDbEntity
  8
FRAME 050
100
AcDbText
 10
54.875
 20
820.5
 30
0.0
 40
4.0
  1
1
  7
ISO Proportional
 72
     4
 11
55.875
 21
822.4999999999999
 31
0.0
100
AcDbText
  0
LINE
  5
BA34
330
B91B
100
AcDbEntity
  8
FRAME 050
100
AcDbLine
 10
91.75
 20
820.0
 30
0.0
 11
91.75
 21
825.0
 31
0.0
  0
TEXT
  5
BA35
330
B91B
100
AcDbEntity
  8
FRAME 050
100
AcDbText
 10
126.1556692913386
 20
820.3996062992125
 30
0.0
 40
4.0
  1
2
  7
ISO Proportional
 72
     4
 11
127.625
 21
822.4999999999999
 31
0.0
100
AcDbText
  0
LINE
  5
BA36
330
B91B
100
AcDbEntity
  8
FRAME 050
100
AcDbLine
 10
163.5
 20
820.0
 30
0.0
 11
163.5
 21
825.0
 31
0.0
  0
TEXT
  5
BA37
330
B91B
100
AcDbEntity
  8
FRAME 050
100
AcDbText
 10
197.8921572875254
 20
820.5828427124746
 30
0.0
 40
4.0
  1
3
  7
ISO Proportional
 72
     4
 11
199.375
 21
822.4999999999999
 31
0.0
100
AcDbText
  0
LINE
  5
BA38
330
B91B
100
AcDbEntity
  8
FRAME 070
100
AcDbLine
 10
1168.0
 20
20.0
 30
0.0
 11
1168.0
 21
820.0
 31
0.0
  0
LINE
  5
BA39
330
B91B
100
AcDbEntity
  8
FRAME 050
100
AcDbLine
 10
235.25
 20
15.0
 30
0.0
 11
235.25
 21
20.0
 31
0.0
  0
TEXT
  5
BA3A
330
B91B
100
AcDbEntity
  8
FRAME 050
100
AcDbText
 10
269.525
 20
15.5
 30
0.0
 40
4.0
  1
4
  7
ISO Proportional
 72
     4
 11
271.125
 21
17.5
 31
0.0
100
AcDbText
  0
LINE
  5
BA3B
330
B91B
100
AcDbEntity
  8
FRAME 050
100
AcDbLine
 10
307.0
 20
15.0
 30
0.0
 11
307.0
 21
20.0
 31
0.0
  0
TEXT
  5
BA3C
330
B91B
100
AcDbEntity
  8
FRAME 050
100
AcDbText
 10
341.3921572875254
 20
15.58284271247462
 30
0.0
 40
4.0
  1
5
  7
ISO Proportional
 72
     4
 11
342.875
 21
17.5
 31
0.0
100
AcDbText
  0
LINE
  5
BA3D
330
B91B
100
AcDbEntity
  8
FRAME 050
100
AcDbLine
 10
378.75
 20
15.0
 30
0.0
 11
378.75
 21
20.0
 31
0.0
  0
TEXT
  5
BA3E
330
B91B
100
AcDbEntity
  8
FRAME 050
100
AcDbText
 10
413.2454724409448
 20
15.41023622047244
 30
0.0
 40
4.0
  1
6
  7
ISO Proportional
 72
     4
 11
414.625
 21
17.5
 31
0.0
100
AcDbText
  0
LINE
  5
BA3F
330
B91B
100
AcDbEntity
  8
FRAME 050
100
AcDbLine
 10
450.4999999999999
 20
15.0
 30
0.0
 11
450.4999999999999
 21
20.0
 31
0.0
  0
LINE
  5
BA40
330
B91B
100
AcDbEntity
  8
FRAME 050
100
AcDbLine
 10
544.0
 20
15.0
 30
0.0
 11
644.0
 21
15.0
 31
0.0
  0
TEXT
  5
BA41
330
B91B
100
AcDbEntity
  8
FRAME 050
100
AcDbText
 10
484.975
 20
15.5
 30
0.0
 40
4.0
  1
7
  7
ISO Proportional
 72
     4
 11
486.375
 21
17.5
 31
0.0
100
AcDbText
  0
LINE
  5
BA42
330
B91B
100
AcDbEntity
  8
FRAME 050
100
AcDbLine
 10
522.25
 20
15.0
 30
0.0
 11
522.25
 21
20.0
 31
0.0
  0
LINE
  5
BA43
330
B91B
100
AcDbEntity
  8
FRAME 050
100
AcDbLine
 10
544.0
 20
15.0
 30
0.0
 11
544.0
 21
20.0
 31
0.0
  0
LINE
  5
BA44
330
B91B
100
AcDbEntity
  8
FRAME 050
100
AcDbLine
 10
554.0
 20
15.0
 30
0.0
 11
554.0
 21
20.0
 31
0.0
  0
LINE
  5
BA45
330
B91B
100
AcDbEntity
  8
FRAME 050
100
AcDbLine
 10
564.0
 20
15.0
 30
0.0
 11
564.0
 21
20.0
 31
0.0
  0
LINE
  5
BA46
330
B91B
100
AcDbEntity
  8
FRAME 050
100
AcDbLine
 10
574.0
 20
15.0
 30
0.0
 11
574.0
 21
20.0
 31
0.0
  0
LINE
  5
BA47
330
B91B
100
AcDbEntity
  8
FRAME 050
100
AcDbLine
 10
584.0
 20
15.0
 30
0.0
 11
584.0
 21
20.0
 31
0.0
  0
LINE
  5
BA48
330
B91B
100
AcDbEntity
  8
FRAME 050
100
AcDbLine
 10
596.4999999999999
 20
22.5
 30
0.0
 11
594.0
 21
17.5
 31
0.0
  0
LINE
  5
BA49
330
B91B
100
AcDbEntity
  8
FRAME 050
100
AcDbLine
 10
594.0
 20
17.5
 30
0.0
 11
591.5
 21
22.5
 31
0.0
  0
LINE
  5
BA4A
330
B91B
100
AcDbEntity
  8
FRAME 050
100
AcDbLine
 10
594.0
 20
20.0
 30
0.0
 11
594.0
 21
25.0
 31
0.0
  0
LINE
  5
BA4B
330
B91B
100
AcDbEntity
  8
FRAME 050
100
AcDbLine
 10
594.0
 20
20.0
 30
0.0
 11
594.0
 21
15.0
 31
0.0
  0
LINE
  5
BA4C
330
B91B
100
AcDbEntity
  8
FRAME 050
100
AcDbLine
 10
591.5
 20
22.5
 30
0.0
 11
596.4999999999999
 21
22.5
 31
0.0
  0
LINE
  5
BA4D
330
B91B
100
AcDbEntity
  8
FRAME 050
100
AcDbLine
 10
604.0
 20
15.0
 30
0.0
 11
604.0
 21
20.0
 31
0.0
  0
LINE
  5
BA4E
330
B91B
100
AcDbEntity
  8
FRAME 050
100
AcDbLine
 10
614.0
 20
15.0
 30
0.0
 11
614.0
 21
20.0
 31
0.0
  0
LINE
  5
BA4F
330
B91B
100
AcDbEntity
  8
FRAME 050
100
AcDbLine
 10
624.0
 20
15.0
 30
0.0
 11
624.0
 21
20.0
 31
0.0
  0
LINE
  5
BA50
330
B91B
100
AcDbEntity
  8
FRAME 050
100
AcDbLine
 10
634.0
 20
15.0
 30
0.0
 11
634.0
 21
20.0
 31
0.0
  0
LINE
  5
BA51
330
B91B
100
AcDbEntity
  8
FRAME 050
100
AcDbLine
 10
644.0
 20
15.0
 30
0.0
 11
644.0
 21
20.0
 31
0.0
  0
LINE
  5
BA52
330
B91B
100
AcDbEntity
  8
FRAME 050
100
AcDbLine
 10
665.7499999999999
 20
15.0
 30
0.0
 11
665.7499999999999
 21
20.0
 31
0.0
  0
TEXT
  5
BA53
330
B91B
100
AcDbEntity
  8
FRAME 050
100
AcDbText
 10
699.2234251968503
 20
15.5
 30
0.0
 40
4.0
  1
10
  7
ISO Proportional
 72
     4
 11
701.625
 21
17.5
 31
0.0
100
AcDbText
  0
LINE
  5
BA54
330
B91B
100
AcDbEntity
  8
FRAME 050
100
AcDbLine
 10
737.5
 20
15.0
 30
0.0
 11
737.5
 21
20.0
 31
0.0
  0
TEXT
  5
BA55
330
B91B
100
AcDbEntity
  8
FRAME 050
100
AcDbText
 10
771.375
 20
15.5
 30
0.0
 40
4.0
  1
11
  7
ISO Proportional
 72
     4
 11
773.375
 21
17.5
 31
0.0
100
AcDbText
  0
LINE
  5
BA56
330
B91B
100
AcDbEntity
  8
FRAME 050
100
AcDbLine
 10
809.2499999999999
 20
15.0
 30
0.0
 11
809.2499999999999
 21
20.0
 31
0.0
  0
TEXT
  5
BA57
330
B91B
100
AcDbEntity
  8
FRAME 050
100
AcDbText
 10
842.6048818897637
 20
15.39960629921259
 30
0.0
 40
4.0
  1
12
  7
ISO Proportional
 72
     4
 11
845.1249999999999
 21
17.5
 31
0.0
100
AcDbText
  0
LINE
  5
BA58
330
B91B
100
AcDbEntity
  8
FRAME 050
100
AcDbLine
 10
881.0
 20
15.0
 30
0.0
 11
881.0
 21
20.0
 31
0.0
  0
TEXT
  5
BA59
330
B91B
100
AcDbEntity
  8
FRAME 050
100
AcDbText
 10
914.3921572875253
 20
15.58284271247461
 30
0.0
 40
4.0
  1
13
  7
ISO Proportional
 72
     4
 11
916.8750000000001
 21
17.5
 31
0.0
100
AcDbText
  0
LINE
  5
BA5A
330
B91B
100
AcDbEntity
  8
FRAME 050
100
AcDbLine
 10
952.7499999999999
 20
15.0
 30
0.0
 11
952.7499999999999
 21
20.0
 31
0.0
  0
TEXT
  5
BA5B
330
B91B
100
AcDbEntity
  8
FRAME 050
100
AcDbText
 10
986.025
 20
15.5
 30
0.0
 40
4.0
  1
14
  7
ISO Proportional
 72
     4
 11
988.625
 21
17.5
 31
0.0
100
AcDbText
  0
TEXT
  5
BA5C
330
B91B
100
AcDbEntity
  8
FRAME 025
100
AcDbText
 10
1120.0
 20
51.75
 30
0.0
 40
2.5
  1
Article No./Reference
  7
ISO Proportional
 11
1120.0
 21
53.0
 31
0.0
100
AcDbText
 73
     2
  0
LINE
  5
BA5D
330
B91B
100
AcDbEntity
  8
FRAME 070
100
AcDbLine
 10
998.0
 20
56.0
 30
0.0
 11
1168.0
 21
56.0
 31
0.0
  0
LINE
  5
BA5E
330
B91B
100
AcDbEntity
  8
FRAME 070
100
AcDbLine
 10
998.0
 20
50.0
 30
0.0
 11
1168.0
 21
50.0
 31
0.0
  0
LINE
  5
BA5F
330
B91B
100
AcDbEntity
  8
FRAME 070
100
AcDbLine
 10
998.0
 20
40.0
 30
0.0
 11
1168.0
 21
40.0
 31
0.0
  0
LINE
  5
BA60
330
B91B
100
AcDbEntity
  8
FRAME 070
100
AcDbLine
 10
1073.0
 20
30.0
 30
0.0
 11
1168.0
 21
30.0
 31
0.0
  0
LINE
  5
BA61
330
B91B
100
AcDbEntity
  8
FRAME 070
100
AcDbLine
 10
1118.0
 20
50.0
 30
0.0
 11
1118.0
 21
56.0
 31
0.0
  0
LINE
  5
BA62
330
B91B
100
AcDbEntity
  8
FRAME 070
100
AcDbLine
 10
1030.0
 20
50.0
 30
0.0
 11
1030.0
 21
56.0
 31
0.0
  0
LINE
  5
BA63
330
B91B
100
AcDbEntity
  8
FRAME 070
100
AcDbLine
 10
998.0
 20
50.0
 30
0.0
 11
998.0
 21
56.0
 31
0.0
  0
LINE
  5
BA64
330
B91B
100
AcDbEntity
  8
FRAME 070
100
AcDbLine
 10
1013.0
 20
50.0
 30
0.0
 11
1013.0
 21
56.0
 31
0.0
  0
ATTDEF
  5
BA65
330
B91B
100
AcDbEntity
  8
FRAME 025
100
AcDbText
 10
1057.0
 20
41.74999999999999
 30
0.0
 40
2.5
  1

  7
ISO Proportional
 11
1057.0
 21
43.0
 31
0.0
100
AcDbAttributeDefinition
  3
Approved by - Date
  2
APPROVED_BY_DATE
 70
     8
 74
     2
  0
TEXT
  5
BA66
330
B91B
100
AcDbEntity
  8
FRAME 025
100
AcDbText
 10
1032.0
 20
51.75
 30
0.0
 40
2.5
  1
Title/Name, designation, material, dimension etc
  7
ISO Proportional
 11
1032.0
 21
53.0
 31
0.0
100
AcDbText
 73
     2
  0
TEXT
  5
BA67
330
B91B
100
AcDbEntity
  8
FRAME 025
100
AcDbText
 10
1057.0
 20
45.75
 30
0.0
 40
2.5
  1
Approved by - date
  7
ISO Proportional
 11
1057.0
 21
47.0
 31
0.0
100
AcDbText
 73
     2
  0
ATTDEF
  5
BA68
330
B91B
100
AcDbEntity
  8
FRAME 050
100
AcDbText
 10
1035.5
 20
30.0
 30
0.0
 40
5.0
  1

  7
ISO Proportional
 72
     4
 11
1035.5
 21
30.0
 31
0.0
100
AcDbAttributeDefinition
  3
Owner
  2
OWNER
 70
     8
  0
LINE
  5
BA69
330
B91B
100
AcDbEntity
  8
FRAME 070
100
AcDbLine
 10
998.0
 20
20.0
 30
0.0
 11
998.0
 21
50.0
 31
0.0
  0
LINE
  5
BA6A
330
B91B
100
AcDbEntity
  8
FRAME 050
100
AcDbLine
 10
1024.5
 20
15.0
 30
0.0
 11
1024.5
 21
20.0
 31
0.0
  0
ATTDEF
  5
BA6B
330
B91B
100
AcDbEntity
  8
FRAME 025
100
AcDbText
 10
1000.0
 20
41.74999999999999
 30
0.0
 40
2.5
  1

  7
ISO Proportional
 11
1000.0
 21
43.0
 31
0.0
100
AcDbAttributeDefinition
  3
Designed by
  2
DESIGNED_BY
 70
     8
 74
     2
  0
TEXT
  5
BA6C
330
B91B
100
AcDbEntity
  8
FRAME 025
100
AcDbText
 10
1000.0
 20
45.75
 30
0.0
 40
2.5
  1
Designed by
  7
ISO Proportional
 11
1000.0
 21
47.0
 31
0.0
100
AcDbText
 73
     2
  0
TEXT
  5
BA6D
330
B91B
100
AcDbEntity
  8
FRAME 025
100
AcDbText
 10
1000.0
 20
51.75
 30
0.0
 40
2.5
  1
Itemref
  7
ISO Proportional
 11
1000.0
 21
53.0
 31
0.0
100
AcDbText
 73
     2
  0
LINE
  5
BA6E
330
B91B
100
AcDbEntity
  8
FRAME 070
100
AcDbLine
 10
1030.0
 20
40.0
 30
0.0
 11
1030.0
 21
50.0
 31
0.0
  0
TEXT
  5
BA6F
330
B91B
100
AcDbEntity
  8
FRAME 025
100
AcDbText
 10
1015.0
 20
51.75
 30
0.0
 40
2.5
  1
Quantity
  7
ISO Proportional
 11
1015.0
 21
53.0
 31
0.0
100
AcDbText
 73
     2
  0
TEXT
  5
BA70
330
B91B
100
AcDbEntity
  8
FRAME 050
100
AcDbText
 10
1057.892157287525
 20
15.58284271247462
 30
0.0
 40
4.0
  1
15
  7
ISO Proportional
 72
     4
 11
1060.375
 21
17.5
 31
0.0
100
AcDbText
  0
ATTDEF
  5
BA71
330
B91B
100
AcDbEntity
  8
FRAME 025
100
AcDbText
 10
1032.0
 20
41.74999999999999
 30
0.0
 40
2.5
  1

  7
ISO Proportional
 11
1032.0
 21
43.0
 31
0.0
100
AcDbAttributeDefinition
  3
Checked by
  2
CHECKED_BY
 70
     8
 74
     2
  0
TEXT
  5
BA72
330
B91B
100
AcDbEntity
  8
FRAME 025
100
AcDbText
 10
1032.0
 20
45.75
 30
0.0
 40
2.5
  1
Checked by
  7
ISO Proportional
 11
1032.0
 21
47.0
 31
0.0
100
AcDbText
 73
     2
  0
LINE
  5
BA73
330
B91B
100
AcDbEntity
  8
FRAME 070
100
AcDbLine
 10
1055.0
 20
40.0
 30
0.0
 11
1055.0
 21
50.0
 31
0.0
  0
ATTDEF
  5
BA74
330
B91B
100
AcDbEntity
  8
FRAME 025
100
AcDbText
 10
1095.0
 20
41.74999999999999
 30
0.0
 40
2.5
  1

  7
ISO Proportional
 11
1095.0
 21
43.0
 31
0.0
100
AcDbAttributeDefinition
  3
File name
  2
FILENAME
 70
     8
 74
     2
  0
ATTDEF
  5
BA75
330
B91B
100
AcDbEntity
  8
FRAME 050
100
AcDbText
 10
1103.0
 20
25.0
 30
0.0
 40
3.0
  1

  7
ISO Proportional
 72
     4
 11
1103.0
 21
25.0
 31
0.0
100
AcDbAttributeDefinition
  3
Drawing number
  2
DRAWING_NUMBER
 70
     8
  0
TEXT
  5
BA76
330
B91B
100
AcDbEntity
  8
FRAME 025
100
AcDbText
 10
1095.0
 20
45.75
 30
0.0
 40
2.5
  1
Filename
  7
ISO Proportional
 11
1095.0
 21
47.0
 31
0.0
100
AcDbText
 73
     2
  0
LINE
  5
BA77
330
B91B
100
AcDbEntity
  8
FRAME 070
100
AcDbLine
 10
1073.0
 20
20.0
 30
0.0
 11
1073.0
 21
40.0
 31
0.0
  0
LINE
  5
BA78
330
B91B
100
AcDbEntity
  8
FRAME 070
100
AcDbLine
 10
1093.0
 20
40.0
 30
0.0
 11
1093.0
 21
50.0
 31
0.0
  0
LINE
  5
BA79
330
B91B
100
AcDbEntity
  8
FRAME 050
100
AcDbLine
 10
1096.25
 20
15.0
 30
0.0
 11
1096.25
 21
20.0
 31
0.0
  0
ATTDEF
  5
BA7A
330
B91B
100
AcDbEntity
  8
FRAME 025
100
AcDbText
 10
1120.0
 20
41.74999999999999
 30
0.0
 40
2.5
  1

  7
ISO Proportional
 11
1120.0
 21
43.0
 31
0.0
100
AcDbAttributeDefinition
  3
Date
  2
DATE
 70
     8
 74
     2
  0
LINE
  5
BA7B
330
B91B
100
AcDbEntity
  8
FRAME 070
100
AcDbLine
 10
1118.0
 20
40.0
 30
0.0
 11
1118.0
 21
50.0
 31
0.0
  0
ATTDEF
  5
BA7C
330
B91B
100
AcDbEntity
  8
FRAME 050
100
AcDbText
 10
1120.5
 20
35.0
 30
0.0
 40
5.0
  1

  7
ISO Proportional
 72
     4
 11
1120.5
 21
35.0
 31
0.0
100
AcDbAttributeDefinition
  3
Title / Name
  2
TITLE
 70
     8
  0
TEXT
  5
BA7D
330
B91B
100
AcDbEntity
  8
FRAME 025
100
AcDbText
 10
1120.0
 20
45.75
 30
0.0
 40
2.5
  1
Date
  7
ISO Proportional
 11
1120.0
 21
47.0
 31
0.0
100
AcDbText
 73
     2
  0
ATTDEF
  5
BA7E
330
B91B
100
AcDbEntity
  8
FRAME 025
100
AcDbText
 10
1135.0
 20
21.75
 30
0.0
 40
2.5
  1

  7
ISO Proportional
 11
1135.0
 21
23.0
 31
0.0
100
AcDbAttributeDefinition
  3
Edition
  2
EDITION
 70
     8
 74
     2
  0
LINE
  5
BA7F
330
B91B
100
AcDbEntity
  8
FRAME 070
100
AcDbLine
 10
1133.0
 20
20.0
 30
0.0
 11
1133.0
 21
30.0
 31
0.0
  0
TEXT
  5
BA80
330
B91B
100
AcDbEntity
  8
FRAME 050
100
AcDbText
 10
1129.625787401575
 20
15.41023622047244
 30
0.0
 40
4.0
  1
16
  7
ISO Proportional
 72
     4
 11
1132.125
 21
17.5
 31
0.0
100
AcDbText
  0
TEXT
  5
BA81
330
B91B
100
AcDbEntity
  8
FRAME 025
100
AcDbText
 10
1135.0
 20
25.75
 30
0.0
 40
2.5
  1
Edition
  7
ISO Proportional
 11
1135.0
 21
27.0
 31
0.0
100
AcDbText
 73
     2
  0
LINE
  5
BA82
330
B91B
100
AcDbEntity
  8
FRAME 070
100
AcDbLine
 10
1148.0
 20
20.0
 30
0.0
 11
1148.0
 21
30.0
 31
0.0
  0
ATTDEF
  5
BA83
330
B91B
100
AcDbEntity
  8
FRAME 025
100
AcDbText
 10
1150.0
 20
21.75
 30
0.0
 40
2.5
  1
1/?
  7
ISO Proportional
 11
1150.0
 21
23.0
 31
0.0
100
AcDbAttributeDefinition
  3
Sheet
  2
SHEET
 70
     8
 74
     2
  0
TEXT
  5
BA84
330
B91B
100
AcDbEntity
  8
FRAME 025
100
AcDbText
 10
1150.0
 20
25.75
 30
0.0
 40
2.5
  1
Sheet
  7
ISO Proportional
 11
1150.0
 21
27.0
 31
0.0
100
AcDbText
 73
     2
  0
ATTDEF
  5
BA85
330
B91B
100
AcDbEntity
  8
FRAME 025
100
AcDbText
 10
1150.0
 20
41.74999999999999
 30
0.0
 40
2.5
  1

  7
ISO Proportional
 11
1150.0
 21
43.0
 31
0.0
100
AcDbAttributeDefinition
  3
Scale
  2
SCALE
 70
     8
 74
     2
  0
LINE
  5
BA86
330
B91B
100
AcDbEntity
  8
FRAME 070
100
AcDbLine
 10
1148.0
 20
40.0
 30
0.0
 11
1148.0
 21
50.0
 31
0.0
  0
TEXT
  5
BA87
330
B91B
100
AcDbEntity
  8
FRAME 025
100
AcDbText
 10
1150.0
 20
45.75
 30
0.0
 40
2.5
  1
Scale
  7
ISO Proportional
 11
1150.0
 21
47.0
 31
0.0
100
AcDbText
 73
     2
  0
TEXT
  5
BA88
330
B91B
100
AcDbEntity
  8
FRAME 050
100
AcDbText
 10
1168.9
 20
43.0
 30
0.0
 40
4.0
  1
P
  7
ISO Proportional
 72
     4
 11
1170.5
 21
45.0
 31
0.0
100
AcDbText
  0
LINE
  5
BA89
330
B91B
100
AcDbEntity
  8
FRAME 050
100
AcDbLine
 10
1168.0
 20
70.0
 30
0.0
 11
1173.0
 21
70.0
 31
0.0
  0
TEXT
  5
BA8A
330
B91B
100
AcDbEntity
  8
FRAME 050
100
AcDbText
 10
1168.9
 20
93.0
 30
0.0
 40
4.0
  1
O
  7
ISO Proportional
 72
     4
 11
1170.5
 21
95.0
 31
0.0
100
AcDbText
  0
LINE
  5
BA8B
330
B91B
100
AcDbEntity
  8
FRAME 050
100
AcDbLine
 10
1168.0
 20
120.0
 30
0.0
 11
1173.0
 21
120.0
 31
0.0
  0
TEXT
  5
BA8C
330
B91B
100
AcDbEntity
  8
FRAME 050
100
AcDbText
 10
1168.9
 20
143.0
 30
0.0
 40
4.0
  1
N
  7
ISO Proportional
 72
     4
 11
1170.5
 21
145.0
 31
0.0
100
AcDbText
  0
LINE
  5
BA8D
330
B91B
100
AcDbEntity
  8
FRAME 050
100
AcDbLine
 10
235.25
 20
820.0
 30
0.0
 11
235.25
 21
825.0
 31
0.0
  0
TEXT
  5
BA8E
330
B91B
100
AcDbEntity
  8
FRAME 050
100
AcDbText
 10
269.525
 20
820.5
 30
0.0
 40
4.0
  1
4
  7
ISO Proportional
 72
     4
 11
271.125
 21
822.4999999999999
 31
0.0
100
AcDbText
  0
LINE
  5
BA8F
330
B91B
100
AcDbEntity
  8
FRAME 050
100
AcDbLine
 10
307.0
 20
820.0
 30
0.0
 11
307.0
 21
825.0
 31
0.0
  0
TEXT
  5
BA90
330
B91B
100
AcDbEntity
  8
FRAME 050
100
AcDbText
 10
341.3921572875254
 20
820.5828427124746
 30
0.0
 40
4.0
  1
5
  7
ISO Proportional
 72
     4
 11
342.875
 21
822.4999999999999
 31
0.0
100
AcDbText
  0
LINE
  5
BA91
330
B91B
100
AcDbEntity
  8
FRAME 050
100
AcDbLine
 10
378.75
 20
820.0
 30
0.0
 11
378.75
 21
825.0
 31
0.0
  0
TEXT
  5
BA92
330
B91B
100
AcDbEntity
  8
FRAME 050
100
AcDbText
 10
413.2454724409448
 20
820.4102362204725
 30
0.0
 40
4.0
  1
6
  7
ISO Proportional
 72
     4
 11
414.625
 21
822.4999999999999
 31
0.0
100
AcDbText
  0
LINE
  5
BA93
330
B91B
100
AcDbEntity
  8
FRAME 050
100
AcDbLine
 10
450.4999999999999
 20
820.0
 30
0.0
 11
450.4999999999999
 21
825.0
 31
0.0
  0
TEXT
  5
BA94
330
B91B
100
AcDbEntity
  8
FRAME 050
100
AcDbText
 10
484.975
 20
820.5
 30
0.0
 40
4.0
  1
7
  7
ISO Proportional
 72
     4
 11
486.375
 21
822.4999999999999
 31
0.0
100
AcDbText
  0
LINE
  5
BA95
330
B91B
100
AcDbEntity
  8
FRAME 050
100
AcDbLine
 10
522.25
 20
820.0
 30
0.0
 11
522.25
 21
825.0
 31
0.0
  0
TEXT
  5
BA96
330
B91B
100
AcDbEntity
  8
FRAME 050
100
AcDbText
 10
556.725
 20
820.5
 30
0.0
 40
4.0
  1
8
  7
ISO Proportional
 72
     4
 11
558.1249999999999
 21
822.4999999999999
 31
0.0
100
AcDbText
  0
LINE
  5
BA97
330
B91B
100
AcDbEntity
  8
FRAME 050
100
AcDbLine
 10
594.0
 20
815.0
 30
0.0
 11
594.0
 21
825.0
 31
0.0
  0
TEXT
  5
BA98
330
B91B
100
AcDbEntity
  8
FRAME 050
100
AcDbText
 10
628.4076670934825
 20
820.5961825830808
 30
0.0
 40
4.0
  1
9
  7
ISO Proportional
 72
     4
 11
629.875
 21
822.4999999999999
 31
0.0
100
AcDbText
  0
LINE
  5
BA99
330
B91B
100
AcDbEntity
  8
FRAME 050
100
AcDbLine
 10
665.7499999999999
 20
820.0
 30
0.0
 11
665.7499999999999
 21
825.0
 31
0.0
  0
TEXT
  5
BA9A
330
B91B
100
AcDbEntity
  8
FRAME 050
100
AcDbText
 10
699.2234251968503
 20
820.5
 30
0.0
 40
4.0
  1
10
  7
ISO Proportional
 72
     4
 11
701.625
 21
822.4999999999999
 31
0.0
100
AcDbText
  0
TEXT
  5
BA9B
330
B91B
100
AcDbEntity
  8
FRAME 050
100
AcDbText
 10
1168.7
 20
193.0
 30
0.0
 40
4.0
  1
M
  7
ISO Proportional
 72
     4
 11
1170.5
 21
195.0
 31
0.0
100
AcDbText
  0
LINE
  5
BA9C
330
B91B
100
AcDbEntity
  8
FRAME 050
100
AcDbLine
 10
1168.0
 20
170.0
 30
0.0
 11
1173.0
 21
170.0
 31
0.0
  0
LINE
  5
BA9D
330
B91B
100
AcDbEntity
  8
FRAME 050
100
AcDbLine
 10
1168.0
 20
220.0
 30
0.0
 11
1173.0
 21
220.0
 31
0.0
  0
TEXT
  5
BA9E
330
B91B
100
AcDbEntity
  8
FRAME 050
100
AcDbText
 10
1169.1
 20
243.0
 30
0.0
 40
4.0
  1
L
  7
ISO Proportional
 72
     4
 11
1170.5
 21
245.0
 31
0.0
100
AcDbText
  0
LINE
  5
BA9F
330
B91B
100
AcDbEntity
  8
FRAME 050
100
AcDbLine
 10
1168.0
 20
270.0
 30
0.0
 11
1173.0
 21
270.0
 31
0.0
  0
TEXT
  5
BAA0
330
B91B
100
AcDbEntity
  8
FRAME 050
100
AcDbText
 10
1168.89
 20
293.0
 30
0.0
 40
4.0
  1
K
  7
ISO Proportional
 72
     4
 11
1170.5
 21
295.0
 31
0.0
100
AcDbText
  0
LINE
  5
BAA1
330
B91B
100
AcDbEntity
  8
FRAME 050
100
AcDbLine
 10
1168.0
 20
320.0
 30
0.0
 11
1173.0
 21
320.0
 31
0.0
  0
TEXT
  5
BAA2
330
B91B
100
AcDbEntity
  8
FRAME 050
100
AcDbText
 10
1169.217157287525
 20
343.0828427124747
 30
0.0
 40
4.0
  1
J
  7
ISO Proportional
 72
     4
 11
1170.5
 21
345.0
 31
0.0
100
AcDbText
  0
LINE
  5
BAA3
330
B91B
100
AcDbEntity
  8
FRAME 050
100
AcDbLine
 10
1168.0
 20
370.0
 30
0.0
 11
1173.0
 21
370.0
 31
0.0
  0
TEXT
  5
BAA4
330
B91B
100
AcDbEntity
  8
FRAME 050
100
AcDbText
 10
1169.9
 20
393.0
 30
0.0
 40
4.0
  1
I
  7
ISO Proportional
 72
     4
 11
1170.5
 21
395.0
 31
0.0
100
AcDbText
  0
LINE
  5
BAA5
330
B91B
100
AcDbEntity
  8
FRAME 050
100
AcDbLine
 10
1163.0
 20
420.0
 30
0.0
 11
1173.0
 21
420.0
 31
0.0
  0
TEXT
  5
BAA6
330
B91B
100
AcDbEntity
  8
FRAME 050
100
AcDbText
 10
1168.9
 20
443.0
 30
0.0
 40
4.0
  1
H
  7
ISO Proportional
 72
     4
 11
1170.5
 21
445.0
 31
0.0
100
AcDbText
  0
LINE
  5
BAA7
330
B91B
100
AcDbEntity
  8
FRAME 050
100
AcDbLine
 10
1168.0
 20
470.0
 30
0.0
 11
1173.0
 21
470.0
 31
0.0
  0
TEXT
  5
BAA8
330
B91B
100
AcDbEntity
  8
FRAME 050
100
AcDbText
 10
1169.003553390593
 20
493.0
 30
0.0
 40
4.0
  1
G
  7
ISO Proportional
 72
     4
 11
1170.5
 21
495.0
 31
0.0
100
AcDbText
  0
LINE
  5
BAA9
330
B91B
100
AcDbEntity
  8
FRAME 050
100
AcDbLine
 10
737.5
 20
820.0
 30
0.0
 11
737.5
 21
825.0
 31
0.0
  0
TEXT
  5
BAAA
330
B91B
100
AcDbEntity
  8
FRAME 050
100
AcDbText
 10
771.375
 20
820.5
 30
0.0
 40
4.0
  1
11
  7
ISO Proportional
 72
     4
 11
773.375
 21
822.4999999999999
 31
0.0
100
AcDbText
  0
LINE
  5
BAAB
330
B91B
100
AcDbEntity
  8
FRAME 050
100
AcDbLine
 10
809.2499999999999
 20
820.0
 30
0.0
 11
809.2499999999999
 21
825.0
 31
0.0
  0
TEXT
  5
BAAC
330
B91B
100
AcDbEntity
  8
FRAME 050
100
AcDbText
 10
842.6048818897637
 20
820.3996062992125
 30
0.0
 40
4.0
  1
12
  7
ISO Proportional
 72
     4
 11
845.1249999999999
 21
822.4999999999999
 31
0.0
100
AcDbText
  0
LINE
  5
BAAD
330
B91B
100
AcDbEntity
  8
FRAME 050
100
AcDbLine
 10
881.0
 20
820.0
 30
0.0
 11
881.0
 21
825.0
 31
0.0
  0
TEXT
  5
BAAE
330
B91B
100
AcDbEntity
  8
FRAME 050
100
AcDbText
 10
914.3921572875253
 20
820.5828427124746
 30
0.0
 40
4.0
  1
13
  7
ISO Proportional
 72
     4
 11
916.8750000000001
 21
822.4999999999999
 31
0.0
100
AcDbText
  0
LINE
  5
BAAF
330
B91B
100
AcDbEntity
  8
FRAME 050
100
AcDbLine
 10
952.7499999999999
 20
820.0
 30
0.0
 11
952.7499999999999
 21
825.0
 31
0.0
  0
TEXT
  5
BAB0
330
B91B
100
AcDbEntity
  8
FRAME 050
100
AcDbText
 10
986.025
 20
820.5
 30
0.0
 40
4.0
  1
14
  7
ISO Proportional
 72
     4
 11
988.625
 21
822.4999999999999
 31
0.0
100
AcDbText
  0
LINE
  5
BAB1
330
B91B
100
AcDbEntity
  8
FRAME 050
100
AcDbLine
 10
1168.0
 20
520.0
 30
0.0
 11
1173.0
 21
520.0
 31
0.0
  0
TEXT
  5
BAB2
330
B91B
100
AcDbEntity
  8
FRAME 050
100
AcDbText
 10
1169.1
 20
543.0
 30
0.0
 40
4.0
  1
F
  7
ISO Proportional
 72
     4
 11
1170.5
 21
545.0
 31
0.0
100
AcDbText
  0
LINE
  5
BAB3
330
B91B
100
AcDbEntity
  8
FRAME 050
100
AcDbLine
 10
1168.0
 20
570.0
 30
0.0
 11
1173.0
 21
570.0
 31
0.0
  0
TEXT
  5
BAB4
330
B91B
100
AcDbEntity
  8
FRAME 050
100
AcDbText
 10
1169.1
 20
593.0
 30
0.0
 40
4.0
  1
E
  7
ISO Proportional
 72
     4
 11
1170.5
 21
595.0
 31
0.0
100
AcDbText
  0
LINE
  5
BAB5
330
B91B
100
AcDbEntity
  8
FRAME 050
100
AcDbLine
 10
1168.0
 20
620.0
 30
0.0
 11
1173.0
 21
620.0
 31
0.0
  0
TEXT
  5
BAB6
330
B91B
100
AcDbEntity
  8
FRAME 050
100
AcDbText
 10
1168.786091270347
 20
643.0
 30
0.0
 40
4.0
  1
D
  7
ISO Proportional
 72
     4
 11
1170.5
 21
645.0
 31
0.0
100
AcDbText
  0
LINE
  5
BAB7
330
B91B
100
AcDbEntity
  8
FRAME 050
100
AcDbLine
 10
1168.0
 20
670.0
 30
0.0
 11
1173.0
 21
670.0
 31
0.0
  0
TEXT
  5
BAB8
330
B91B
100
AcDbEntity
  8
FRAME 050
100
AcDbText
 10
1169.193198051534
 20
693.0
 30
0.0
 40
4.0
  1
C
  7
ISO Proportional
 72
     4
 11
1170.5
 21
695.0
 31
0.0
100
AcDbText
  0
LINE
  5
BAB9
330
B91B
100
AcDbEntity
  8
FRAME 070
100
AcDbLine
 10
998.0
 20
814.0
 30
0.0
 11
1168.0
 21
814.0
 31
0.0
  0
TEXT
  5
BABA
330
B91B
100
AcDbEntity
  8
FRAME 025
100
AcDbText
 10
1012.0
 20
815.75
 30
0.0
 40
2.5
  1
Revision note
  7
ISO Proportional
 11
1012.0
 21
817.0
 31
0.0
100
AcDbText
 73
     2
  0
LINE
  5
BABB
330
B91B
100
AcDbEntity
  8
FRAME 050
100
AcDbLine
 10
1024.5
 20
820.0
 30
0.0
 11
1024.5
 21
825.0
 31
0.0
  0
TEXT
  5
BABC
330
B91B
100
AcDbEntity
  8
FRAME 025
100
AcDbText
 10
1000.0
 20
815.75
 30
0.0
 40
2.5
  1
RevNo
  7
ISO Proportional
 11
1000.0
 21
817.0
 31
0.0
100
AcDbText
 73
     2
  0
LINE
  5
BABD
330
B91B
100
AcDbEntity
  8
FRAME 070
100
AcDbLine
 10
998.0
 20
814.0
 30
0.0
 11
998.0
 21
820.0
 31
0.0
  0
LINE
  5
BABE
330
B91B
100
AcDbEntity
  8
FRAME 070
100
AcDbLine
 10
1010.0
 20
814.0
 30
0.0
 11
1010.0
 21
820.0
 31
0.0
  0
TEXT
  5
BABF
330
B91B
100
AcDbEntity
  8
FRAME 050
100
AcDbText
 10
1057.892157287525
 20
820.5828427124746
 30
0.0
 40
4.0
  1
15
  7
ISO Proportional
 72
     4
 11
1060.375
 21
822.4999999999999
 31
0.0
100
AcDbText
  0
LINE
  5
BAC0
330
B91B
100
AcDbEntity
  8
FRAME 050
100
AcDbLine
 10
1096.25
 20
820.0
 30
0.0
 11
1096.25
 21
825.0
 31
0.0
  0
LINE
  5
BAC1
330
B91B
100
AcDbEntity
  8
FRAME 070
100
AcDbLine
 10
1119.0
 20
814.0
 30
0.0
 11
1119.0
 21
820.0
 31
0.0
  0
TEXT
  5
BAC2
330
B91B
100
AcDbEntity
  8
FRAME 025
100
AcDbText
 10
1121.0
 20
815.75
 30
0.0
 40
2.5
  1
Date
  7
ISO Proportional
 11
1121.0
 21
817.0
 31
0.0
100
AcDbText
 73
     2
  0
LINE
  5
BAC3
330
B91B
100
AcDbEntity
  8
FRAME 050
100
AcDbLine
 10
1168.0
 20
720.0
 30
0.0
 11
1173.0
 21
720.0
 31
0.0
  0
TEXT
  5
BAC4
330
B91B
100
AcDbEntity
  8
FRAME 050
100
AcDbText
 10
1168.9
 20
743.0
 30
0.0
 40
4.0
  1
B
  7
ISO Proportional
 72
     4
 11
1170.5
 21
745.0
 31
0.0
100
AcDbText
  0
LINE
  5
BAC5
330
B91B
100
AcDbEntity
  8
FRAME 050
100
AcDbLine
 10
1168.0
 20
770.0
 30
0.0
 11
1173.0
 21
770.0
 31
0.0
  0
TEXT
  5
BAC6
330
B91B
100
AcDbEntity
  8
FRAME 050
100
AcDbText
 10
1168.7
 20
793.0
 30
0.0
 40
4.0
  1
A
  7
ISO Proportional
 72
     4
 11
1170.5
 21
795.0
 31
0.0
100
AcDbText
  0
TEXT
  5
BAC7
330
B91B
100
AcDbEntity
  8
FRAME 025
100
AcDbText
 10
1155.082993918505
 20
815.75
 30
0.0
 40
2.5
  1
Checked
  7
ISO Proportional
 11
1155.082993918505
 21
817.0
 31
0.0
100
AcDbText
 73
     2
  0
TEXT
  5
BAC8
330
B91B
100
AcDbEntity
  8
FRAME 050
100
AcDbText
 10
1129.625787401575
 20
820.4102362204725
 30
0.0
 40
4.0
  1
16
  7
ISO Proportional
 72
     4
 11
1132.125
 21
822.4999999999999
 31
0.0
100
AcDbText
  0
TEXT
  5
BAC9
330
B91B
100
AcDbEntity
  8
FRAME 025
100
AcDbText
 10
1139.360997972835
 20
815.75
 30
0.0
 40
2.5
  1
Signature
  7
ISO Proportional
 11
1139.360997972835
 21
817.0
 31
0.0
100
AcDbText
 73
     2
  0
LINE
  5
BACA
330
B91B
100
AcDbEntity
  8
FRAME 070
100
AcDbLine
 10
1139.0
 20
814.0
 30
0.0
 11
1139.0
 21
820.0
 31
0.0
  0
LINE
  5
BACB
330
B91B
100
AcDbEntity
  8
FRAME 070
100
AcDbLine
 10
1154.0
 20
814.0
 30
0.0
 11
1154.0
 21
820.0
 31
0.0
  0
ENDBLK
  5
B9E0
330
B91B
100
AcDbEntity
  8
0
100
AcDbBlockEnd
  0
BLOCK
  5
BBBE
330
BBB3
100
AcDbEntity
  8
0
100
AcDbBlockBegin
  2
*D9
 70
     1
 10
0.0
 20
0.0
 30
0.0
  3
*D9
  1

  0
LINE
  5
C720
330
BBB3
100
AcDbEntity
  8
0
370
    -2
100
AcDbLine
 10
373.9829447925627
 20
352.3610707488271
 30
0.0
 11
367.3429242378777
 21
352.3610707488271
 31
0.0
  0
LINE
  5
C721
330
BBB3
100
AcDbEntity
  8
0
370
    -2
100
AcDbLine
 10
373.9829447925627
 20
351.0817428234552
 30
0.0
 11
367.3429242378777
 21
351.0817428234552
 31
0.0
  0
LINE
  5
C722
330
BBB3
100
AcDbEntity
  8
0
370
    -2
100
AcDbLine
 10
367.3429242378777
 20
352.8610707488271
 30
0.0
 11
367.3429242378777
 21
353.3610707488271
 31
0.0
  0
LINE
  5
C723
330
BBB3
100
AcDbEntity
  8
0
370
    -2
100
AcDbLine
 10
367.3429242378777
 20
350.5817428234552
 30
0.0
 11
367.3429242378777
 21
350.0817428234551
 31
0.0
  0
SOLID
  5
C724
330
BBB3
100
AcDbEntity
  8
0
100
AcDbTrace
 10
367.2595909045444
 20
352.8610707488271
 30
0.0
 11
367.4262575712111
 21
352.8610707488271
 31
0.0
 12
367.3429242378777
 22
352.3610707488271
 32
0.0
 13
367.3429242378777
 23
352.3610707488271
 33
0.0
  0
SOLID
  5
C725
330
BBB3
100
AcDbEntity
  8
0
100
AcDbTrace
 10
367.2595909045444
 20
350.5817428234552
 30
0.0
 11
367.4262575712111
 21
350.5817428234552
 31
0.0
 12
367.3429242378777
 22
351.0817428234552
 32
0.0
 13
367.3429242378777
 23
351.0817428234552
 33
0.0
  0
MTEXT
  5
C726
330
BBB3
100
AcDbEntity
  8
0
100
AcDbMText
 10
367.3429242378777
 20
351.7214067861412
 30
0.0
 40
0.25
 41
0.0
 71
     5
 72
     1
  1
\A1;1
  7
TIME
 73
     1
 44
1.0
1001
ACAD
1000
MTEXTBEGIN
1070
    73
1070
     1
1070
    44
1040
1.0
1070
    74
1070
     0
1000
MTEXTEND
  0
POINT
  5
C727
330
BBB3
100
AcDbEntity
  8
DEFPOINTS
 62
     0
100
AcDbPoint
 10
373.9829447925627
 20
352.3610707488271
 30
0.0
  0
POINT
  5
C728
330
BBB3
100
AcDbEntity
  8
DEFPOINTS
 62
     0
100
AcDbPoint
 10
373.9829447925627
 20
351.0817428234552
 30
0.0
  0
POINT
  5
C729
330
BBB3
100
AcDbEntity
  8
DEFPOINTS
 62
     0
100
AcDbPoint
 10
367.3429242378777
 20
351.0817428234552
 30
0.0
  0
ENDBLK
  5
BBBF
330
BBB3
100
AcDbEntity
  8
0
100
AcDbBlockEnd
  0
BLOCK
  5
C767
330
C762
100
AcDbEntity
  8
0
100
AcDbBlockBegin
  2
A$C72CE1C7D
 70
     0
 10
0.0
 20
0.0
 30
0.0
  3
A$C72CE1C7D
  1

  0
TEXT
  5
C763
330
C762
100
AcDbEntity
  8
DIM
  6
Continuous
 62
     7
100
AcDbText
 10
0.1283483697629819
 20
0.5684951455199841
 30
0.0
 40
0.23622
  1
70# OFFSET UNCOATED SHEET
  7
BLACK
100
AcDbText
  0
TEXT
  5
C764
330
C762
100
AcDbEntity
  8
DIM
  6
Continuous
 62
     7
100
AcDbText
 10
0.1283483697629819
 20
0.1433440466449216
 30
0.0
 40
0.23622
  1
BRIGHTNESS FACTOR- 86%%% OR HIGHER
  7
BLACK
100
AcDbText
  0
TEXT
  5
C765
330
C762
100
AcDbEntity
  8
DIM
  6
Continuous
 62
     7
100
AcDbText
 10
0.1283483697629819
 20
1.040534156030924
 30
0.0
 40
0.23622
  1
SHT. 900mm x 600mm (36inX24in)
  7
BLACK
100
AcDbText
  0
ENDBLK
  5
C768
330
C762
100
AcDbEntity
  8
0
100
AcDbBlockEnd
  0
ENDSEC
  0
SECTION
  2
ENTITIES
  0
INSERT
  5
4057
330
413C
100
AcDbEntity
  8
0
  6
Continuous
100
AcDbBlockReference
  2
*X0
 10
0.0
 20
0.0
 30
0.0
1001
ACAD
1000
HATCH
1002
{
1070
    16
1000
AR-CONC
1040
0.9
1040
0.0
1002
}
  0
INSERT
  5
4076
330
413C
100
AcDbEntity
  8
0
  6
Continuous
100
AcDbBlockReference
  2
*X1
 10
0.0
 20
0.0
 30
0.0
1001
ACAD
1000
HATCH
1002
{
1070
    16
1000
AR-CONC
1040
0.9
1040
0.0
1002
}
  0
INSERT
  5
47CC
330
413C
100
AcDbEntity
  8
FITTING
  6
Continuous
 62
     1
100
AcDbBlockReference
  2
AVE_RENDER
 10
0.0
 20
19.59960506862988
 30
0.0
1001
AVE_RENDER
1002
{
1070
     7
1000
Pref
1070
    30
1070
    20
1070
     1
1070
     0
1000

1070
    10
1070
     1
1070
    10
1040
1.0
1070
     1
1040
0.3
1040
0.7
1040
0.0
1040
10.0
1010
-1.0
1020
-1.0
1030
-1.0
1040
0.3
1070
    49
1070
     0
1070
     0
1010
1.0
1020
1.0
1030
1.0
1040
45.0
1070
     1
1070
     0
1000
WCS
1040
0.0
1070
     0
1040
10.0
1002
}
  0
INSERT
  5
47CD
330
413C
100
AcDbEntity
  8
FITTING
  6
Continuous
 62
     3
100
AcDbBlockReference
  2
AVE_RENDER
 10
0.0
 20
19.59960506862988
 30
0.0
1001
AVE_RENDER
1002
{
1070
     0
1000
Full Opt
1070
     0
1070
     1
1070
     1
1070
     1
1070
     0
1070
     0
1070
     0
1070
     1
1070
     1
1040
0.0001
1040
0.0001
1002
}
  0
INSERT
  5
47CE
330
413C
100
AcDbEntity
  8
FITTING
  6
Continuous
 62
     4
100
AcDbBlockReference
  2
AVE_RENDER
 10
0.0
 20
19.59960506862988
 30
0.0
1001
AVE_RENDER
1002
{
1070
     0
1000
Quick Opt
1070
     0
1070
     1
1070
     1
1070
     1
1070
     0
1070
     0
1070
     1
1002
}
  0
INSERT
  5
47CF
330
413C
100
AcDbEntity
  8
FITTING
  6
Continuous
 62
     5
100
AcDbBlockReference
  2
AVE_RENDER
 10
0.0
 20
19.59960506862988
 30
0.0
1001
AVE_RENDER
1002
{
1070
     1
1000
Scanl Opt
1070
     2
1070
     0
1070
     2
1040
2.0
1040
4.0
1070
     0
1070
     1
1070
     0
1040
0.03
1002
}
  0
INSERT
  5
47D0
330
413C
100
AcDbEntity
  8
FITTING
  6
Continuous
 62
     6
100
AcDbBlockReference
  2
AVE_RENDER
 10
0.0
 20
19.59960506862988
 30
0.0
1001
AVE_RENDER
1002
{
1070
     2
1000
Raytr Opt
1070
     2
1070
     0
1070
     2
1040
2.0
1040
4.0
1070
     0
1070
     1
1070
     1
1040
0.03
1070
     3
1040
0.03
1002
}
  0
INSERT
  5
47D1
330
413C
100
AcDbEntity
  8
FITTING
  6
Continuous
 62
     7
100
AcDbBlockReference
  2
AVE_RENDER
 10
0.0
 20
19.59960506862988
 30
0.0
1001
AVE_RENDER
1002
{
1070
     0
1000
RFile Opt
1070
     1
1070
   640
1070
   480
1070
 10000
1070
     1
1070
     8
1070
     8
1070
     0
1070
     0
1070
     0
1070
     0
1070
     0
1070
     0
1070
     0
1002
}
  0
INSERT
  5
47D2
330
413C
100
AcDbEntity
  8
FITTING
  6
Continuous
 62
     8
100
AcDbBlockReference
  2
AVE_RENDER
 10
0.0
 20
19.59960506862988
 30
0.0
1001
AVE_RENDER
1002
{
1070
     0
1000
Fog Opt
1070
     0
1070
     0
1040
0.0
1040
1.0
1040
0.0
1040
1.0
1010
0.5
1020
0.5
1030
0.5
1002
}
  0
INSERT
  5
47D3
330
413C
100
AcDbEntity
  8
FITTING
  6
Continuous
 62
     9
100
AcDbBlockReference
  2
AVE_RENDER
 10
0.0
 20
19.59960506862988
 30
0.0
1001
AVE_RENDER
1002
{
1070
     0
1000
BG Opt
1070
     0
1070
     1
1010
0.0
1020
0.0
1030
0.0
1010
1.0
1020
0.0
1030
0.0
1010
0.0
1020
1.0
1030
0.0
1010
0.0
1020
0.0
1030
1.0
1040
0.5
1040
0.33
1040
0.0
1000

1070
     1
1000

1070
     1
1070
     1
1040
1.0
1040
1.0
1040
0.0
1040
0.0
1070
     0
1002
}
  0
INSERT
  5
47D4
330
413C
100
AcDbEntity
  8
FITTING
  6
Continuous
 62
     1
100
AcDbBlockReference
  2
AVE_GLOBAL
 10
0.0
 20
19.59960506862988
 30
0.0
1001
AVE_MATERIAL
1002
{
1000
*GLOBAL*
1000
1
1000
Global finish.
1002
{
1002
}
1002
{
1070
    63
1002
{
1002
{
1010
-1.0
1020
-1.0
1030
-1.0
1002
}
1040
0.1000000014901161
1000

1040
0.0
1002
{
1002
}
1040
0.0
1002
{
1002
}
1040
0.0
1002
}
1002
{
1002
{
1010
-1.0
1020
-1.0
1030
-1.0
1002
}
1040
0.6999999880790711
1000

1040
0.0
1002
{
1002
}
1040
0.0
1002
{
1002
}
1040
0.0
1002
}
1002
{
1002
{
1010
-1.0
1020
-1.0
1030
-1.0
1002
}
1040
0.2000000029802322
1000

1040
0.0
1002
{
1002
}
1040
0.0
1002
{
1002
}
1040
0.0
1002
}
1002
{
1070
     0
1002
{
1070
     1
1002
{
1040
1.0
1040
1.0
1000

1040
0.0
1002
{
1002
}
1040
0.0
1002
{
1002
}
1040
0.0
1002
}
1002
}
1040
1.0
1040
0.0
1040
0.0
1002
}
1002
{
1040
1.0
1040
1.0
1000

1040
0.0
1002
{
1002
}
1040
0.0
1002
{
1002
}
1040
0.0
1002
}
1002
{
1040
0.5
1040
1.0
1000

1040
0.0
1002
{
1002
}
1040
0.0
1002
{
1002
}
1040
0.0
1002
}
1002
{
1070
     0
1040
0.0
1002
{
1002
}
1040
1.0
1002
{
1002
}
1040
0.0
1002
}
1002
{
1040
0.0
1002
{
1002
{
1010
0.0
1020
0.0
1030
0.0
1002
}
1040
1.0
1000

1040
0.0
1002
{
1002
}
1040
0.0
1002
{
1002
}
1040
0.0
1002
}
1002
}
1002
{
1002
{
1070
     1
1002
{
1040
0.0
1040
1.0
1000

1040
0.0
1002
{
1002
}
1040
0.0
1002
{
1002
}
1040
0.0
1002
}
1002
}
1040
0.0
1002
{
1002
}
1010
1.0
1020
0.0
1030
0.0
1010
0.0
1020
1.0
1030
0.0
1010
0.0
1020
0.0
1030
1.0
1070
     0
1002
}
1002
{
1002
{
1040
1.0
1040
1.0
1002
{
1070
     1
1002
{
1040
1.0
1040
1.0
1000

1040
0.0
1002
{
1002
}
1040
0.0
1002
{
1002
}
1040
0.0
1002
}
1002
}
1002
}
1070
     0
1040
0.0
1002
{
1002
}
1002
}
1002
{
1002
}
1002
}
1002
{
1071
        3
1070
     3
1070
     0
1002
{
1070
     2
1070
     0
1070
     0
1040
0.0
1002
}
1070
     0
1070
     2
1002
{
1002
}
1002
}
1002
{
1040
8030.0
1040
190.3000030517578
1040
0.3050000071525574
1040
228.0
1040
545.0
1040
14.0
1040
17.39999961853027
1040
0.4560000002384186
1002
}
1002
}
  0
INSERT
  5
47F9
330
413C
100
AcDbEntity
  8
FITTING
  6
Continuous
 62
     1
100
AcDbBlockReference
  2
AVE_RENDER
 10
3682.088061575761
 20
593.8472691243321
 30
0.0
 41
0.12
 42
0.12
 43
0.12
1001
AVE_RENDER
1002
{
1070
     7
1000
Pref
1070
    30
1070
    20
1070
     1
1070
     0
1000

1070
    10
1070
     1
1070
    10
1040
1.0
1070
     1
1040
0.3
1040
0.7
1040
0.0
1040
10.0
1010
-1.0
1020
-1.0
1030
-1.0
1040
0.3
1070
    49
1070
     0
1070
     0
1010
1.0
1020
1.0
1030
1.0
1040
45.0
1070
     1
1070
     0
1000
WCS
1040
0.0
1070
     0
1040
10.0
1002
}
  0
INSERT
  5
47FA
330
413C
100
AcDbEntity
  8
FITTING
  6
Continuous
 62
     3
100
AcDbBlockReference
  2
AVE_RENDER
 10
3682.088061575761
 20
593.8472691243321
 30
0.0
 41
0.12
 42
0.12
 43
0.12
1001
AVE_RENDER
1002
{
1070
     0
1000
Full Opt
1070
     0
1070
     1
1070
     1
1070
     1
1070
     0
1070
     0
1070
     0
1070
     1
1070
     1
1040
0.0001
1040
0.0001
1002
}
  0
INSERT
  5
47FB
330
413C
100
AcDbEntity
  8
FITTING
  6
Continuous
 62
     4
100
AcDbBlockReference
  2
AVE_RENDER
 10
3682.088061575761
 20
593.8472691243321
 30
0.0
 41
0.12
 42
0.12
 43
0.12
1001
AVE_RENDER
1002
{
1070
     0
1000
Quick Opt
1070
     0
1070
     1
1070
     1
1070
     1
1070
     0
1070
     0
1070
     1
1002
}
  0
INSERT
  5
47FC
330
413C
100
AcDbEntity
  8
FITTING
  6
Continuous
 62
     5
100
AcDbBlockReference
  2
AVE_RENDER
 10
3682.088061575761
 20
593.8472691243321
 30
0.0
 41
0.12
 42
0.12
 43
0.12
1001
AVE_RENDER
1002
{
1070
     1
1000
Scanl Opt
1070
     2
1070
     0
1070
     2
1040
2.0
1040
4.0
1070
     0
1070
     1
1070
     0
1040
0.03
1002
}
  0
INSERT
  5
47FD
330
413C
100
AcDbEntity
  8
FITTING
  6
Continuous
 62
     6
100
AcDbBlockReference
  2
AVE_RENDER
 10
3682.088061575761
 20
593.8472691243321
 30
0.0
 41
0.12
 42
0.12
 43
0.12
1001
AVE_RENDER
1002
{
1070
     2
1000
Raytr Opt
1070
     2
1070
     0
1070
     2
1040
2.0
1040
4.0
1070
     0
1070
     1
1070
     1
1040
0.03
1070
     3
1040
0.03
1002
}
  0
INSERT
  5
47FE
330
413C
100
AcDbEntity
  8
FITTING
  6
Continuous
 62
     7
100
AcDbBlockReference
  2
AVE_RENDER
 10
3682.088061575761
 20
593.8472691243321
 30
0.0
 41
0.12
 42
0.12
 43
0.12
1001
AVE_RENDER
1002
{
1070
     0
1000
RFile Opt
1070
     1
1070
   640
1070
   480
1070
 10000
1070
     1
1070
     8
1070
     8
1070
     0
1070
     0
1070
     0
1070
     0
1070
     0
1070
     0
1070
     0
1002
}
  0
INSERT
  5
47FF
330
413C
100
AcDbEntity
  8
FITTING
  6
Continuous
 62
     8
100
AcDbBlockReference
  2
AVE_RENDER
 10
3682.088061575761
 20
593.8472691243321
 30
0.0
 41
0.12
 42
0.12
 43
0.12
1001
AVE_RENDER
1002
{
1070
     0
1000
Fog Opt
1070
     0
1070
     0
1040
0.0
1040
1.0
1040
0.0
1040
1.0
1010
0.5
1020
0.5
1030
0.5
1002
}
  0
INSERT
  5
4800
330
413C
100
AcDbEntity
  8
FITTING
  6
Continuous
 62
     9
100
AcDbBlockReference
  2
AVE_RENDER
 10
3682.088061575761
 20
593.8472691243321
 30
0.0
 41
0.12
 42
0.12
 43
0.12
1001
AVE_RENDER
1002
{
1070
     0
1000
BG Opt
1070
     0
1070
     1
1010
0.0
1020
0.0
1030
0.0
1010
1.0
1020
0.0
1030
0.0
1010
0.0
1020
1.0
1030
0.0
1010
0.0
1020
0.0
1030
1.0
1040
0.5
1040
0.33
1040
0.0
1000

1070
     1
1000

1070
     1
1070
     1
1040
1.0
1040
1.0
1040
0.0
1040
0.0
1070
     0
1002
}
  0
INSERT
  5
4801
330
413C
100
AcDbEntity
  8
FITTING
  6
Continuous
 62
     1
100
AcDbBlockReference
  2
AVE_GLOBAL
 10
3682.088061575761
 20
593.8472691243321
 30
0.0
 41
0.12
 42
0.12
 43
0.12
1001
AVE_MATERIAL
1002
{
1000
*GLOBAL*
1000
1
1000
Global finish.
1002
{
1002
}
1002
{
1070
    63
1002
{
1002
{
1010
-1.0
1020
-1.0
1030
-1.0
1002
}
1040
0.1000000014901161
1000

1040
0.0
1002
{
1002
}
1040
0.0
1002
{
1002
}
1040
0.0
1002
}
1002
{
1002
{
1010
-1.0
1020
-1.0
1030
-1.0
1002
}
1040
0.6999999880790711
1000

1040
0.0
1002
{
1002
}
1040
0.0
1002
{
1002
}
1040
0.0
1002
}
1002
{
1002
{
1010
-1.0
1020
-1.0
1030
-1.0
1002
}
1040
0.2000000029802322
1000

1040
0.0
1002
{
1002
}
1040
0.0
1002
{
1002
}
1040
0.0
1002
}
1002
{
1070
     0
1002
{
1070
     1
1002
{
1040
1.0
1040
1.0
1000

1040
0.0
1002
{
1002
}
1040
0.0
1002
{
1002
}
1040
0.0
1002
}
1002
}
1040
1.0
1040
0.0
1040
0.0
1002
}
1002
{
1040
1.0
1040
1.0
1000

1040
0.0
1002
{
1002
}
1040
0.0
1002
{
1002
}
1040
0.0
1002
}
1002
{
1040
0.5
1040
1.0
1000

1040
0.0
1002
{
1002
}
1040
0.0
1002
{
1002
}
1040
0.0
1002
}
1002
{
1070
     0
1040
0.0
1002
{
1002
}
1040
1.0
1002
{
1002
}
1040
0.0
1002
}
1002
{
1040
0.0
1002
{
1002
{
1010
0.0
1020
0.0
1030
0.0
1002
}
1040
1.0
1000

1040
0.0
1002
{
1002
}
1040
0.0
1002
{
1002
}
1040
0.0
1002
}
1002
}
1002
{
1002
{
1070
     1
1002
{
1040
0.0
1040
1.0
1000

1040
0.0
1002
{
1002
}
1040
0.0
1002
{
1002
}
1040
0.0
1002
}
1002
}
1040
0.0
1002
{
1002
}
1010
1.0
1020
0.0
1030
0.0
1010
0.0
1020
1.0
1030
0.0
1010
0.0
1020
0.0
1030
1.0
1070
     0
1002
}
1002
{
1002
{
1040
1.0
1040
1.0
1002
{
1070
     1
1002
{
1040
1.0
1040
1.0
1000

1040
0.0
1002
{
1002
}
1040
0.0
1002
{
1002
}
1040
0.0
1002
}
1002
}
1002
}
1070
     0
1040
0.0
1002
{
1002
}
1002
}
1002
{
1002
}
1002
}
1002
{
1071
        3
1070
     3
1070
     0
1002
{
1070
     2
1070
     0
1070
     0
1040
0.0
1002
}
1070
     0
1070
     2
1002
{
1002
}
1002
}
1002
{
1040
8030.0
1040
190.3000030517578
1040
0.3050000071525574
1040
228.0
1040
545.0
1040
14.0
1040
17.39999961853027
1040
0.4560000002384186
1002
}
1002
}
  0
INSERT
  5
4802
330
413C
100
AcDbEntity
  8
FITTING
  6
Continuous
 62
     1
100
AcDbBlockReference
  2
AVE_RENDER
 10
446.1167712545513
 20
3847.849301821458
 30
0.0
 41
1.199999999999999
 42
1.199999999999999
 43
1.199999999999999
1001
AVE_RENDER
1002
{
1070
     7
1000
Pref
1070
    30
1070
    20
1070
     1
1070
     0
1000

1070
    10
1070
     1
1070
    10
1040
1.0
1070
     1
1040
0.3
1040
0.7
1040
0.0
1040
10.0
1010
-1.0
1020
-1.0
1030
-1.0
1040
0.3
1070
    49
1070
     0
1070
     0
1010
1.0
1020
1.0
1030
1.0
1040
45.0
1070
     1
1070
     0
1000
WCS
1040
0.0
1070
     0
1040
10.0
1002
}
  0
INSERT
  5
4803
330
413C
100
AcDbEntity
  8
FITTING
  6
Continuous
 62
     3
100
AcDbBlockReference
  2
AVE_RENDER
 10
446.1167712545513
 20
3847.849301821458
 30
0.0
 41
1.199999999999999
 42
1.199999999999999
 43
1.199999999999999
1001
AVE_RENDER
1002
{
1070
     0
1000
Full Opt
1070
     0
1070
     1
1070
     1
1070
     1
1070
     0
1070
     0
1070
     0
1070
     1
1070
     1
1040
0.0001
1040
0.0001
1002
}
  0
INSERT
  5
4804
330
413C
100
AcDbEntity
  8
FITTING
  6
Continuous
 62
     4
100
AcDbBlockReference
  2
AVE_RENDER
 10
446.1167712545513
 20
3847.849301821458
 30
0.0
 41
1.199999999999999
 42
1.199999999999999
 43
1.199999999999999
1001
AVE_RENDER
1002
{
1070
     0
1000
Quick Opt
1070
     0
1070
     1
1070
     1
1070
     1
1070
     0
1070
     0
1070
     1
1002
}
  0
INSERT
  5
4805
330
413C
100
AcDbEntity
  8
FITTING
  6
Continuous
 62
     5
100
AcDbBlockReference
  2
AVE_RENDER
 10
446.1167712545513
 20
3847.849301821458
 30
0.0
 41
1.199999999999999
 42
1.199999999999999
 43
1.199999999999999
1001
AVE_RENDER
1002
{
1070
     1
1000
Scanl Opt
1070
     2
1070
     0
1070
     2
1040
2.0
1040
4.0
1070
     0
1070
     1
1070
     0
1040
0.03
1002
}
  0
INSERT
  5
4806
330
413C
100
AcDbEntity
  8
FITTING
  6
Continuous
 62
     6
100
AcDbBlockReference
  2
AVE_RENDER
 10
446.1167712545513
 20
3847.849301821458
 30
0.0
 41
1.199999999999999
 42
1.199999999999999
 43
1.199999999999999
1001
AVE_RENDER
1002
{
1070
     2
1000
Raytr Opt
1070
     2
1070
     0
1070
     2
1040
2.0
1040
4.0
1070
     0
1070
     1
1070
     1
1040
0.03
1070
     3
1040
0.03
1002
}
  0
INSERT
  5
4807
330
413C
100
AcDbEntity
  8
FITTING
  6
Continuous
 62
     7
100
AcDbBlockReference
  2
AVE_RENDER
 10
446.1167712545513
 20
3847.849301821458
 30
0.0
 41
1.199999999999999
 42
1.199999999999999
 43
1.199999999999999
1001
AVE_RENDER
1002
{
1070
     0
1000
RFile Opt
1070
     1
1070
   640
1070
   480
1070
 10000
1070
     1
1070
     8
1070
     8
1070
     0
1070
     0
1070
     0
1070
     0
1070
     0
1070
     0
1070
     0
1002
}
  0
INSERT
  5
4808
330
413C
100
AcDbEntity
  8
FITTING
  6
Continuous
 62
     8
100
AcDbBlockReference
  2
AVE_RENDER
 10
446.1167712545513
 20
3847.849301821458
 30
0.0
 41
1.199999999999999
 42
1.199999999999999
 43
1.199999999999999
1001
AVE_RENDER
1002
{
1070
     0
1000
Fog Opt
1070
     0
1070
     0
1040
0.0
1040
1.0
1040
0.0
1040
1.0
1010
0.5
1020
0.5
1030
0.5
1002
}
  0
INSERT
  5
4809
330
413C
100
AcDbEntity
  8
FITTING
  6
Continuous
 62
     9
100
AcDbBlockReference
  2
AVE_RENDER
 10
446.1167712545513
 20
3847.849301821458
 30
0.0
 41
1.199999999999999
 42
1.199999999999999
 43
1.199999999999999
1001
AVE_RENDER
1002
{
1070
     0
1000
BG Opt
1070
     0
1070
     1
1010
0.0
1020
0.0
1030
0.0
1010
1.0
1020
0.0
1030
0.0
1010
0.0
1020
1.0
1030
0.0
1010
0.0
1020
0.0
1030
1.0
1040
0.5
1040
0.33
1040
0.0
1000

1070
     1
1000

1070
     1
1070
     1
1040
1.0
1040
1.0
1040
0.0
1040
0.0
1070
     0
1002
}
  0
INSERT
  5
480A
330
413C
100
AcDbEntity
  8
FITTING
  6
Continuous
 62
     1
100
AcDbBlockReference
  2
AVE_GLOBAL
 10
446.1167712545513
 20
3847.849301821458
 30
0.0
 41
1.199999999999999
 42
1.199999999999999
 43
1.199999999999999
1001
AVE_MATERIAL
1002
{
1000
*GLOBAL*
1000
1
1000
Global finish.
1002
{
1002
}
1002
{
1070
    63
1002
{
1002
{
1010
-1.0
1020
-1.0
1030
-1.0
1002
}
1040
0.1000000014901161
1000

1040
0.0
1002
{
1002
}
1040
0.0
1002
{
1002
}
1040
0.0
1002
}
1002
{
1002
{
1010
-1.0
1020
-1.0
1030
-1.0
1002
}
1040
0.6999999880790711
1000

1040
0.0
1002
{
1002
}
1040
0.0
1002
{
1002
}
1040
0.0
1002
}
1002
{
1002
{
1010
-1.0
1020
-1.0
1030
-1.0
1002
}
1040
0.2000000029802322
1000

1040
0.0
1002
{
1002
}
1040
0.0
1002
{
1002
}
1040
0.0
1002
}
1002
{
1070
     0
1002
{
1070
     1
1002
{
1040
1.0
1040
1.0
1000

1040
0.0
1002
{
1002
}
1040
0.0
1002
{
1002
}
1040
0.0
1002
}
1002
}
1040
1.0
1040
0.0
1040
0.0
1002
}
1002
{
1040
1.0
1040
1.0
1000

1040
0.0
1002
{
1002
}
1040
0.0
1002
{
1002
}
1040
0.0
1002
}
1002
{
1040
0.5
1040
1.0
1000

1040
0.0
1002
{
1002
}
1040
0.0
1002
{
1002
}
1040
0.0
1002
}
1002
{
1070
     0
1040
0.0
1002
{
1002
}
1040
1.0
1002
{
1002
}
1040
0.0
1002
}
1002
{
1040
0.0
1002
{
1002
{
1010
0.0
1020
0.0
1030
0.0
1002
}
1040
1.0
1000

1040
0.0
1002
{
1002
}
1040
0.0
1002
{
1002
}
1040
0.0
1002
}
1002
}
1002
{
1002
{
1070
     1
1002
{
1040
0.0
1040
1.0
1000

1040
0.0
1002
{
1002
}
1040
0.0
1002
{
1002
}
1040
0.0
1002
}
1002
}
1040
0.0
1002
{
1002
}
1010
1.0
1020
0.0
1030
0.0
1010
0.0
1020
1.0
1030
0.0
1010
0.0
1020
0.0
1030
1.0
1070
     0
1002
}
1002
{
1002
{
1040
1.0
1040
1.0
1002
{
1070
     1
1002
{
1040
1.0
1040
1.0
1000

1040
0.0
1002
{
1002
}
1040
0.0
1002
{
1002
}
1040
0.0
1002
}
1002
}
1002
}
1070
     0
1040
0.0
1002
{
1002
}
1002
}
1002
{
1002
}
1002
}
1002
{
1071
        3
1070
     3
1070
     0
1002
{
1070
     2
1070
     0
1070
     0
1040
0.0
1002
}
1070
     0
1070
     2
1002
{
1002
}
1002
}
1002
{
1040
8030.0
1040
190.3000030517578
1040
0.3050000071525574
1040
228.0
1040
545.0
1040
14.0
1040
17.39999961853027
1040
0.4560000002384186
1002
}
1002
}
  0
INSERT
  5
480B
330
413C
100
AcDbEntity
  8
FITTING
  6
Continuous
 62
     1
100
AcDbBlockReference
  2
AVE_RENDER
 10
446.1167712545513
 20
3065.726399917873
 30
0.0
 41
1.199999999999999
 42
1.199999999999999
 43
1.199999999999999
1001
AVE_RENDER
1002
{
1070
     7
1000
Pref
1070
    30
1070
    20
1070
     1
1070
     0
1000

1070
    10
1070
     1
1070
    10
1040
1.0
1070
     1
1040
0.3
1040
0.7
1040
0.0
1040
10.0
1010
-1.0
1020
-1.0
1030
-1.0
1040
0.3
1070
    49
1070
     0
1070
     0
1010
1.0
1020
1.0
1030
1.0
1040
45.0
1070
     1
1070
     0
1000
WCS
1040
0.0
1070
     0
1040
10.0
1002
}
  0
INSERT
  5
480C
330
413C
100
AcDbEntity
  8
FITTING
  6
Continuous
 62
     3
100
AcDbBlockReference
  2
AVE_RENDER
 10
446.1167712545513
 20
3065.726399917873
 30
0.0
 41
1.199999999999999
 42
1.199999999999999
 43
1.199999999999999
1001
AVE_RENDER
1002
{
1070
     0
1000
Full Opt
1070
     0
1070
     1
1070
     1
1070
     1
1070
     0
1070
     0
1070
     0
1070
     1
1070
     1
1040
0.0001
1040
0.0001
1002
}
  0
INSERT
  5
480D
330
413C
100
AcDbEntity
  8
FITTING
  6
Continuous
 62
     4
100
AcDbBlockReference
  2
AVE_RENDER
 10
446.1167712545513
 20
3065.726399917873
 30
0.0
 41
1.199999999999999
 42
1.199999999999999
 43
1.199999999999999
1001
AVE_RENDER
1002
{
1070
     0
1000
Quick Opt
1070
     0
1070
     1
1070
     1
1070
     1
1070
     0
1070
     0
1070
     1
1002
}
  0
INSERT
  5
480E
330
413C
100
AcDbEntity
  8
FITTING
  6
Continuous
 62
     5
100
AcDbBlockReference
  2
AVE_RENDER
 10
446.1167712545513
 20
3065.726399917873
 30
0.0
 41
1.199999999999999
 42
1.199999999999999
 43
1.199999999999999
1001
AVE_RENDER
1002
{
1070
     1
1000
Scanl Opt
1070
     2
1070
     0
1070
     2
1040
2.0
1040
4.0
1070
     0
1070
     1
1070
     0
1040
0.03
1002
}
  0
INSERT
  5
480F
330
413C
100
AcDbEntity
  8
FITTING
  6
Continuous
 62
     6
100
AcDbBlockReference
  2
AVE_RENDER
 10
446.1167712545513
 20
3065.726399917873
 30
0.0
 41
1.199999999999999
 42
1.199999999999999
 43
1.199999999999999
1001
AVE_RENDER
1002
{
1070
     2
1000
Raytr Opt
1070
     2
1070
     0
1070
     2
1040
2.0
1040
4.0
1070
     0
1070
     1
1070
     1
1040
0.03
1070
     3
1040
0.03
1002
}
  0
INSERT
  5
4810
330
413C
100
AcDbEntity
  8
FITTING
  6
Continuous
 62
     7
100
AcDbBlockReference
  2
AVE_RENDER
 10
446.1167712545513
 20
3065.726399917873
 30
0.0
 41
1.199999999999999
 42
1.199999999999999
 43
1.199999999999999
1001
AVE_RENDER
1002
{
1070
     0
1000
RFile Opt
1070
     1
1070
   640
1070
   480
1070
 10000
1070
     1
1070
     8
1070
     8
1070
     0
1070
     0
1070
     0
1070
     0
1070
     0
1070
     0
1070
     0
1002
}
  0
INSERT
  5
4811
330
413C
100
AcDbEntity
  8
FITTING
  6
Continuous
 62
     8
100
AcDbBlockReference
  2
AVE_RENDER
 10
446.1167712545513
 20
3065.726399917873
 30
0.0
 41
1.199999999999999
 42
1.199999999999999
 43
1.199999999999999
1001
AVE_RENDER
1002
{
1070
     0
1000
Fog Opt
1070
     0
1070
     0
1040
0.0
1040
1.0
1040
0.0
1040
1.0
1010
0.5
1020
0.5
1030
0.5
1002
}
  0
INSERT
  5
4812
330
413C
100
AcDbEntity
  8
FITTING
  6
Continuous
 62
     9
100
AcDbBlockReference
  2
AVE_RENDER
 10
446.1167712545513
 20
3065.726399917873
 30
0.0
 41
1.199999999999999
 42
1.199999999999999
 43
1.199999999999999
1001
AVE_RENDER
1002
{
1070
     0
1000
BG Opt
1070
     0
1070
     1
1010
0.0
1020
0.0
1030
0.0
1010
1.0
1020
0.0
1030
0.0
1010
0.0
1020
1.0
1030
0.0
1010
0.0
1020
0.0
1030
1.0
1040
0.5
1040
0.33
1040
0.0
1000

1070
     1
1000

1070
     1
1070
     1
1040
1.0
1040
1.0
1040
0.0
1040
0.0
1070
     0
1002
}
  0
INSERT
  5
4813
330
413C
100
AcDbEntity
  8
FITTING
  6
Continuous
 62
     1
100
AcDbBlockReference
  2
AVE_GLOBAL
 10
446.1167712545513
 20
3065.726399917873
 30
0.0
 41
1.199999999999999
 42
1.199999999999999
 43
1.199999999999999
1001
AVE_MATERIAL
1002
{
1000
*GLOBAL*
1000
1
1000
Global finish.
1002
{
1002
}
1002
{
1070
    63
1002
{
1002
{
1010
-1.0
1020
-1.0
1030
-1.0
1002
}
1040
0.1000000014901161
1000

1040
0.0
1002
{
1002
}
1040
0.0
1002
{
1002
}
1040
0.0
1002
}
1002
{
1002
{
1010
-1.0
1020
-1.0
1030
-1.0
1002
}
1040
0.6999999880790711
1000

1040
0.0
1002
{
1002
}
1040
0.0
1002
{
1002
}
1040
0.0
1002
}
1002
{
1002
{
1010
-1.0
1020
-1.0
1030
-1.0
1002
}
1040
0.2000000029802322
1000

1040
0.0
1002
{
1002
}
1040
0.0
1002
{
1002
}
1040
0.0
1002
}
1002
{
1070
     0
1002
{
1070
     1
1002
{
1040
1.0
1040
1.0
1000

1040
0.0
1002
{
1002
}
1040
0.0
1002
{
1002
}
1040
0.0
1002
}
1002
}
1040
1.0
1040
0.0
1040
0.0
1002
}
1002
{
1040
1.0
1040
1.0
1000

1040
0.0
1002
{
1002
}
1040
0.0
1002
{
1002
}
1040
0.0
1002
}
1002
{
1040
0.5
1040
1.0
1000

1040
0.0
1002
{
1002
}
1040
0.0
1002
{
1002
}
1040
0.0
1002
}
1002
{
1070
     0
1040
0.0
1002
{
1002
}
1040
1.0
1002
{
1002
}
1040
0.0
1002
}
1002
{
1040
0.0
1002
{
1002
{
1010
0.0
1020
0.0
1030
0.0
1002
}
1040
1.0
1000

1040
0.0
1002
{
1002
}
1040
0.0
1002
{
1002
}
1040
0.0
1002
}
1002
}
1002
{
1002
{
1070
     1
1002
{
1040
0.0
1040
1.0
1000

1040
0.0
1002
{
1002
}
1040
0.0
1002
{
1002
}
1040
0.0
1002
}
1002
}
1040
0.0
1002
{
1002
}
1010
1.0
1020
0.0
1030
0.0
1010
0.0
1020
1.0
1030
0.0
1010
0.0
1020
0.0
1030
1.0
1070
     0
1002
}
1002
{
1002
{
1040
1.0
1040
1.0
1002
{
1070
     1
1002
{
1040
1.0
1040
1.0
1000

1040
0.0
1002
{
1002
}
1040
0.0
1002
{
1002
}
1040
0.0
1002
}
1002
}
1002
}
1070
     0
1040
0.0
1002
{
1002
}
1002
}
1002
{
1002
}
1002
}
1002
{
1071
        3
1070
     3
1070
     0
1002
{
1070
     2
1070
     0
1070
     0
1040
0.0
1002
}
1070
     0
1070
     2
1002
{
1002
}
1002
}
1002
{
1040
8030.0
1040
190.3000030517578
1040
0.3050000071525574
1040
228.0
1040
545.0
1040
14.0
1040
17.39999961853027
1040
0.4560000002384186
1002
}
1002
}
  0
LINE
  5
A07C
330
413C
100
AcDbEntity
  8
CENTER
100
AcDbLine
 10
364.3372947925627
 20
342.2234928234552
 30
0.0
 11
383.6285947925627
 21
342.2234928234552
 31
0.0
  0
LINE
  5
A340
330
413C
100
AcDbEntity
  8
CENTER
100
AcDbLine
 10
373.9829447925627
 20
351.8691428234551
 30
0.0
 11
373.9829447925627
 21
332.5778428234552
 31
0.0
  0
POINT
  5
A366
330
413C
100
AcDbEntity
  8
CENTER
100
AcDbPoint
 10
373.9829447925627
 20
342.2234928234552
 30
0.0
  0
POINT
  5
A367
330
413C
100
AcDbEntity
  8
CENTER
100
AcDbPoint
 10
373.9829447925627
 20
342.2234928234552
 30
0.0
  0
TEXT
  5
A3E8
330
413C
100
AcDbEntity
  8
DIMENSI
100
AcDbText
 10
373.9223264061463
 20
332.0473182314929
 30
0.0
 40
0.1700784
  1
Center Line
 50
90.0
  7
ARIAL
100
AcDbText
  0
TEXT
  5
A3E9
330
413C
100
AcDbEntity
  8
DIMENSI
100
AcDbText
 10
383.0960504749392
 20
342.3082503005727
 30
0.0
 40
0.1700784
  1
Center Line
  7
ARIAL
100
AcDbText
  0
CIRCLE
  5
AD22
330
413C
100
AcDbEntity
  8
LW524J
 48
0.25
100
AcDbCircle
 10
373.9829447925627
 20
342.2234928234552
 30
0.0
 40
8.858249999999999
  0
CIRCLE
  5
AD42
330
413C
100
AcDbEntity
  8
0
100
AcDbCircle
 10
370.5829447925627
 20
344.4226964996194
 30
0.0
 40
0.3937
  0
LINE
  5
AD43
330
413C
100
AcDbEntity
  8
CENTER
100
AcDbLine
 10
369.9923947925627
 20
344.4226964996194
 30
0.0
 11
371.1734947925628
 21
344.4226964996194
 31
0.0
  0
LINE
  5
AF57
330
413C
100
AcDbEntity
  8
0
  6
HIDDEN
 48
0.25
100
AcDbLine
 10
375.7545947925627
 20
339.8660943242342
 30
0.0
 11
375.7545947925627
 21
345.1810443242341
 31
0.0
  0
LINE
  5
AF58
330
413C
100
AcDbEntity
  8
0
  6
HIDDEN
 48
0.25
100
AcDbLine
 10
372.2112947925627
 20
339.8660943242342
 30
0.0
 11
372.2112947925627
 21
345.1810443242341
 31
0.0
  0
LINE
  5
AF59
330
413C
100
AcDbEntity
  8
0
  6
HIDDEN
 48
0.25
100
AcDbLine
 10
372.2112947925627
 20
339.8660943242342
 30
0.0
 11
375.7545947925627
 21
339.8660943242342
 31
0.0
  0
CIRCLE
  5
AFFC
330
413C
100
AcDbEntity
  8
0
100
AcDbCircle
 10
373.9829447925627
 20
338.1742340259401
 30
0.0
 40
0.3937
  0
LINE
  5
AFFD
330
413C
100
AcDbEntity
  8
CENTER
100
AcDbLine
 10
373.3923947925627
 20
338.1742340259401
 30
0.0
 11
374.5734947925627
 21
338.1742340259401
 31
0.0
  0
LINE
  5
AFFE
330
413C
100
AcDbEntity
  8
0
  6
HIDDEN
 48
0.25
100
AcDbLine
 10
372.2112947925627
 20
345.1810443242341
 30
0.0
 11
375.7545947925627
 21
345.1810443242341
 31
0.0
  0
LINE
  5
AFFF
330
413C
100
AcDbEntity
  8
CENTER
100
AcDbLine
 10
370.5829447925627
 20
345.0132464996195
 30
0.0
 11
370.5829447925627
 21
343.8321464996195
 31
0.0
  0
LINE
  5
B013
330
413C
100
AcDbEntity
  8
CENTER
100
AcDbLine
 10
377.3829447925626
 20
345.0132464996195
 30
0.0
 11
377.3829447925626
 21
343.8321464996195
 31
0.0
  0
LINE
  5
B014
330
413C
100
AcDbEntity
  8
CENTER
100
AcDbLine
 10
376.7923947925626
 20
344.4226964996194
 30
0.0
 11
377.9734947925626
 21
344.4226964996194
 31
0.0
  0
CIRCLE
  5
B015
330
413C
100
AcDbEntity
  8
0
100
AcDbCircle
 10
377.3829447925626
 20
344.4226964996194
 30
0.0
 40
0.3937
  0
ARC
  5
B098
330
413C
100
AcDbEntity
  8
LW524J
100
AcDbCircle
 10
373.9829447925627
 20
342.2234928234552
 30
0.0
 40
5.31495
100
AcDbArc
 50
90.0
 51
270.0
  0
ARC
  5
B09B
330
413C
100
AcDbEntity
  8
LW524J
100
AcDbCircle
 10
373.9829447925627
 20
342.2234928234552
 30
0.0
 40
5.31495
100
AcDbArc
 50
270.0
 51
90.0
  0
TEXT
  5
B398
330
413C
100
AcDbEntity
  8
DIM
  6
Continuous
 62
     7
100
AcDbText
 10
384.0933828272913
 20
332.8518384099406
 30
0.0
 40
0.15748
  1
LT524G/LT524
  7
BLACK
 72
     1
 11
384.8333024998698
 21
332.8518384099406
 31
0.0
100
AcDbText
  0
INSERT
  5
B70B
330
413C
100
AcDbEntity
  8
DIVIDE
100
AcDbBlockReference
  2
A$C74DC1801
 10
358.0629897557046
 20
350.3857703352772
 30
0.0
 41
0.0393700000000195
 42
0.0393700000000195
 43
0.03937
  0
TEXT
  5
B71E
330
413C
100
AcDbEntity
  8
DIM
  6
Continuous
 62
     7
100
AcDbText
 10
384.0743364821249
 20
332.2819215405717
 30
0.0
 40
0.15748
  1
# 0GU112-1
  7
BLACK
100
AcDbText
  0
TEXT
  5
B71F
330
413C
100
AcDbEntity
  8
DIM
  6
Continuous
 62
     7
100
AcDbText
 10
384.0785952601157
 20
332.5515444626002
 30
0.0
 40
0.15748
  1
REV 1 DEC. 2008
  7
BLACK
100
AcDbText
  0
LWPOLYLINE
  5
B7D1
330
413C
100
AcDbEntity
  8
LINE_TEX
100
AcDbPolyline
 90
        4
 70
     1
 43
0.0
 10
356.6795179428713
 20
354.0344928234552
 10
392.1125179428713
 20
354.0344928234552
 10
392.1125179428713
 20
330.4124928234551
 10
356.6795179428713
 20
330.4124928234551
  0
TEXT
  5
BBA6
330
413C
100
AcDbEntity
  8
DIM
  6
Continuous
 62
     7
100
AcDbText
 10
366.1015238467191
 20
331.8251386987524
 30
0.0
 40
0.23622
  1
70# OFFSET UNCOATED SHEET
  7
BLACK
100
AcDbText
  0
TEXT
  5
BBA7
330
413C
100
AcDbEntity
  8
DIM
  6
Continuous
 62
     7
100
AcDbText
 10
366.1015238467191
 20
331.3999875998774
 30
0.0
 40
0.23622
  1
BRIGHTNESS FACTOR- 86%%% OR HIGHER
  7
BLACK
100
AcDbText
  0
LINE
  5
BBA8
330
413C
100
AcDbEntity
  8
0
100
AcDbLine
 10
362.6133347106091
 20
352.3610707488271
 30
0.0
 11
385.3525548745163
 21
352.3610707488271
 31
0.0
  0
LINE
  5
BBA9
330
413C
100
AcDbEntity
  8
0
100
AcDbLine
 10
385.3525548745163
 20
352.3610707488271
 30
0.0
 11
385.3525548745163
 21
353.2193671591266
 31
0.0
  0
LINE
  5
BBAA
330
413C
100
AcDbEntity
  8
0
100
AcDbLine
 10
385.3525548745163
 20
353.2193671591266
 30
0.0
 11
362.6133347106091
 21
353.2193671591266
 31
0.0
  0
LINE
  5
BBAB
330
413C
100
AcDbEntity
  8
0
100
AcDbLine
 10
362.6133347106091
 20
353.2193671591266
 30
0.0
 11
362.6133347106091
 21
352.3610707488271
 31
0.0
  0
MTEXT
  5
BBAC
330
413C
100
AcDbEntity
  8
DIMENSI
100
AcDbMText
 10
365.0955448551518
 20
353.4222437684959
 30
0.0
 40
0.25
 41
0.0
 71
     7
 72
     1
  1
Wall or Backsplash
  7
ARIAL
 73
     1
 44
1.0
1001
ACAD
1000
MTEXTBEGIN
1070
    73
1070
     1
1070
    44
1040
1.0
1070
    74
1070
     0
1000
MTEXTEND
  0
DIMENSION
  5
BBAD
330
413C
100
AcDbEntity
  8
0
100
AcDbDimension
  2
*D9
 10
367.3429242378777
 20
351.0817428234552
 30
0.0
 11
367.3429242378777
 21
351.7214067861412
 31
0.0
 70
    32
 71
     5
 42
1.279327925371944
  3
DIM-1
100
AcDbAlignedDimension
 13
373.9829447925627
 23
352.3610707488271
 33
0.0
 14
373.9829447925627
 24
351.0817428234552
 34
0.0
 50
90.0
100
AcDbRotatedDimension
  0
MTEXT
  5
BBAE
330
413C
100
AcDbEntity
  8
DIMENSI
100
AcDbMText
 10
367.4993426087186
 20
351.5208016119891
 30
0.0
 40
0.25
 41
0.0
 71
     7
 72
     1
  1
(MAX)
  7
ARIAL
 73
     1
 44
1.0
1001
ACAD
1000
MTEXTBEGIN
1070
    73
1070
     1
1070
    44
1040
1.0
1070
    74
1070
     0
1000
MTEXTEND
  0
MTEXT
  5
BBB0
330
413C
100
AcDbEntity
  8
DIM
  6
Continuous
 62
     7
100
AcDbMText
 10
365.6741217737483
 20
348.024737372405
 30
0.0
 40
0.25
 41
0.0
 71
     9
 72
     1
  1
RIM OF LAVATORY\PBORDE DEL LAVABO\PBORD DU LAVABO
  7
BLACK
 73
     1
 44
1.0
1001
ACAD
1000
MTEXTBEGIN
1070
    73
1070
     1
1070
    44
1040
1.0
1070
    74
1070
     0
1000
MTEXTEND
  0
MTEXT
  5
BBB1
330
413C
100
AcDbEntity
  8
DIM
  6
Continuous
 62
     7
100
AcDbMText
 10
366.9193889652896
 20
335.0271655242722
 30
0.0
 40
0.25
 41
0.0
 71
     9
 72
     1
  1
CUT ALONG THIS LINE\PCORTE A LO LARGO DE ESTA LINEA\PDECOUPER AU LONG DE CETTE LIGNE
  7
BLACK
 73
     1
 44
1.0
1001
ACAD
1000
MTEXTBEGIN
1070
    73
1070
     1
1070
    44
1040
1.0
1070
    74
1070
     0
1000
MTEXTEND
  0
LEADER
  5
BBB2
330
413C
100
AcDbEntity
  8
DIMENSI
100
AcDbLeader
  3
DIM-1
 76
     3
 10
372.2112947925627
 20
340.2597943242342
 30
0.0
 10
368.2127456841081
 20
335.5614388254496
 30
0.0
 10
367.0277560631717
 20
335.5596690046898
 30
0.0
1001
ACAD
1000
DSTYLE
1002
{
1070
    77
1070
     0
1002
}
  0
LEADER
  5
C72C
330
413C
100
AcDbEntity
  8
DIMENSI
100
AcDbLeader
  3
DIM-1
 76
     3
 10
367.4236332747187
 20
348.199838146069
 30
0.0
 10
366.2304281256538
 20
348.7874464926556
 30
0.0
 10
365.8326930759649
 20
348.7874464926556
 30
0.0
1001
ACAD
1000
DSTYLE
1002
{
1070
   147
1040
0.2
1070
    77
1070
     0
1002
}
  0
TEXT
  5
C75F
330
413C
100
AcDbEntity
  8
DIM
  6
Continuous
 62
     7
100
AcDbText
 10
384.0888224361803
 20
329.2283207540024
 30
0.0
 40
0.23622
  1
70# OFFSET UNCOATED SHEET
  7
BLACK
100
AcDbText
  0
TEXT
  5
C760
330
413C
100
AcDbEntity
  8
DIM
  6
Continuous
 62
     7
100
AcDbText
 10
384.0888224361803
 20
328.8031696551273
 30
0.0
 40
0.23622
  1
BRIGHTNESS FACTOR- 86%%% OR HIGHER
  7
BLACK
100
AcDbText
  0
TEXT
  5
C761
330
413C
100
AcDbEntity
  8
DIM
  6
Continuous
 62
     7
100
AcDbText
 10
384.0888224361803
 20
329.7003597645133
 30
0.0
 40
0.23622
  1
SHT. 900mm x 600mm (36inX24in)
  7
BLACK
100
AcDbText
  0
VIEWPORT
  5
BA06
102
{ACAD_XDICTIONARY
360
C886
102
}
330
B9FE
100
AcDbEntity
 67
     1
  8
0
100
AcDbViewport
 10
19.84309305531905
 20
12.8271579031442
 30
0.0
 40
44.10365772102905
 41
26.81622911816626
 68
     1
 69
     1
 12
19.84309305531905
 22
12.8271579031442
 13
0.0
 23
0.0
 14
0.5
 24
0.5
 15
0.5
 25
0.5
 16
0.0
 26
0.0
 36
1.0
 17
0.0
 27
0.0
 37
0.0
 42
50.0
 43
0.0
 44
0.0
 45
26.81622911816626
 50
0.0
 51
0.0
 72
   100
 90
    32800
  1

281
     0
 71
     1
 74
     0
110
0.0
120
0.0
130
0.0
111
1.0
121
0.0
131
0.0
112
0.0
122
1.0
132
0.0
 79
     0
146
0.0
  0
VIEWPORT
  5
C72F
102
{ACAD_XDICTIONARY
360
C888
102
}
330
B9FE
100
AcDbEntity
 67
     1
  8
DIMENSI
100
AcDbViewport
 10
17.98044700733618
 20
12.12690400558728
 30
0.0
 40
35.43300001581737
 41
23.62200001054488
 68
     2
 69
     2
 12
374.3960179428713
 22
342.2234928234552
 13
0.0
 23
0.0
 14
0.5
 24
0.5
 15
0.5
 25
0.5
 16
0.0
 26
0.0
 36
1.0
 17
0.0
 27
0.0
 37
0.0
 42
50.0
 43
0.0
 44
0.0
 45
23.62199999999996
 50
0.0
 51
0.0
 72
   100
 90
    32800
  1

281
     0
 71
     1
 74
     0
110
0.0
120
0.0
130
0.0
111
1.0
121
0.0
131
0.0
112
0.0
122
1.0
132
0.0
 79
     0
146
0.0
  0
ENDSEC
  0
SECTION
  2
OBJECTS
  0
DICTIONARY
  5
4130
330
0
100
AcDbDictionary
281
     1
  3
ACAD_2007HEADERVARS_RT
350
C87B
  3
ACAD_COLOR
350
B7B9
  3
ACAD_GROUP
350
4131
  3
ACAD_LAYOUT
350
499A
  3
ACAD_MATERIAL
350
B7B8
  3
ACAD_MLINESTYLE
350
4132
  3
ACAD_PLOTSETTINGS
350
499B
  3
ACAD_PLOTSTYLENAME
350
4998
  3
ACAD_TABLESTYLE
350
B7BA
  3
ACAD_VISUALSTYLE
350
C857
  3
ACDBVARIABLEDICTIONARY
350
4501
  3
ASE_INDEX_DICTIONARY
350
C7A7
  3
DWGPROPS
350
C87A
  0
DICTIONARY
  5
B7C8
330
4126
100
AcDbDictionary
280
     1
281
     1
  3
ACAD_LAYERSTATES
360
B7C9
  0
DICTIONARY
  5
B745
330
413C
100
AcDbDictionary
280
     1
281
     1
  3
ACAD_LAYOUTSELFREF
360
B77E
  3
ACAD_SORTENTS
360
C7DF
  0
DICTIONARY
  5
B8B8
330
B895
100
AcDbDictionary
280
     1
281
     1
  0
DICTIONARY
  5
C766
330
C762
100
AcDbDictionary
280
     1
281
     1
  0
DICTIONARY
  5
C886
330
BA06
100
AcDbDictionary
280
     1
281
     1
  3
ACAD_XREC_ROUNDTRIP
360
C887
  0
DICTIONARY
  5
C888
330
C72F
100
AcDbDictionary
280
     1
281
     1
  3
ACAD_XREC_ROUNDTRIP
360
C889
  0
DICTIONARY
  5
C87B
102
{ACAD_REACTORS
330
4130
102
}
330
4130
100
AcDbDictionary
281
     1
  3
DIMFXL
350
C87C
  0
DICTIONARY
  5
B7B9
102
{ACAD_REACTORS
330
4130
102
}
330
4130
100
AcDbDictionary
281
     1
  0
DICTIONARY
  5
4131
102
{ACAD_REACTORS
330
4130
102
}
330
4130
100
AcDbDictionary
281
     1
  0
DICTIONARY
  5
499A
102
{ACAD_REACTORS
330
4130
102
}
330
4130
100
AcDbDictionary
281
     1
  3
AO
350
B9FF
  3
Model
350
B78A
  0
DICTIONARY
  5
B7B8
102
{ACAD_REACTORS
330
4130
102
}
330
4130
100
AcDbDictionary
281
     1
  3
ByBlock
350
C855
  3
ByLayer
350
C854
  3
Global
350
C856
  0
DICTIONARY
  5
4132
102
{ACAD_REACTORS
330
4130
102
}
330
4130
100
AcDbDictionary
281
     1
  3
STANDARD
350
413F
  0
DICTIONARY
  5
499B
102
{ACAD_REACTORS
330
4130
102
}
330
4130
100
AcDbDictionary
281
     1
  3
TEM_USA
350
B3F6
  3
TEMP
350
B39C
  0
ACDBDICTIONARYWDFLT
  5
4998
102
{ACAD_REACTORS
330
4130
102
}
330
4130
100
AcDbDictionary
281
     1
  3
Normal
350
4999
100
AcDbDictionaryWithDefault
340
4999
  0
DICTIONARY
  5
B7BA
102
{ACAD_REACTORS
330
4130
102
}
330
4130
100
AcDbDictionary
281
     1
  3
Standard
350
B7BB
  0
DICTIONARY
  5
C857
102
{ACAD_REACTORS
330
4130
102
}
330
4130
100
AcDbDictionary
281
     1
  3
2dWireframe
350
C85D
  3
3D Hidden
350
C85F
  3
3dWireframe
350
C85E
  3
Basic
350
C85C
  3
Brighten
350
C863
  3
ColorChange
350
C867
  3
Conceptual
350
C860
  3
Dim
350
C862
  3
Facepattern
350
C866
  3
Flat
350
C858
  3
FlatWithEdges
350
C859
  3
Gouraud
350
C85A
  3
GouraudWithEdges
350
C85B
  3
Linepattern
350
C865
  3
Realistic
350
C861
  3
Thicken
350
C864
  0
DICTIONARY
  5
4501
102
{ACAD_REACTORS
330
4130
102
}
330
4130
100
AcDbDictionary
281
     1
  3
CTABLESTYLE
350
B800
  3
DIMASSOC
350
B720
  3
INDEXCTL
350
C879
  3
PROJECTNAME
350
C735
  3
SORTENTS
350
4502
  0
DICTIONARY
  5
C7A7
102
{ACAD_REACTORS
330
4130
102
}
330
4130
100
AcDbDictionary
281
     1
  3
ASEBlockHierarchyIndexRecord
350
C7A8
1001
DCO15
1040
1569580626.347
  0
XRECORD
  5
C87A
102
{ACAD_REACTORS
330
4130
102
}
330
4130
100
AcDbXrecord
280
     1
  1
DWGPROPS COOKIE
  2

  3

  4

  6

  7

  8
nnguyen
  9

300
=
301
=
302
=
303
=
304
=
305
=
306
=
307
=
308
=
309
=
 40
2.572482453703703
 41
2450996.944109375
 42
2454917.688070625
  1

 90
        0
  0
DICTIONARY
  5
B7C9
102
{ACAD_REACTORS
330
B7C8
102
}
330
B7C8
100
AcDbDictionary
281
     1
  0
XRECORD
  5
B77E
102
{ACAD_REACTORS
330
B745
102
}
330
B745
100
AcDbXrecord
280
     1
340
413C
  0
SORTENTSTABLE
  5
C7DF
102
{ACAD_REACTORS
330
B745
102
}
330
B745
100
AcDbSortentsTable
330
413C
331
4811
  5
4811
331
BBAA
  5
C72C
331
47FB
  5
47FB
331
BBB0
  5
C7E0
331
B09B
  5
BBA8
331
4812
  5
4812
331
BBAB
  5
C75F
331
47FC
  5
47FC
331
B398
  5
BBA9
331
BBB1
  5
C7E1
331
B70B
  5
BBAA
331
47CC
  5
47CC
331
4813
  5
4813
331
BBAC
  5
C760
331
AFFC
  5
B09B
331
47FD
  5
47FD
331
BBB2
  5
C7EE
331
47CD
  5
47CD
331
BBAD
  5
C761
331
47FE
  5
47FE
331
AFFD
  5
B398
331
47CE
  5
47CE
331
BBAE
  5
C7DE
331
AFFE
  5
B70B
331
47FF
  5
47FF
331
4076
  5
4076
331
47CF
  5
47CF
331
AFFF
  5
B71E
331
4800
  5
4800
331
47D0
  5
47D0
331
4057
  5
4057
331
4801
  5
4801
331
AF58
  5
B015
331
47D1
  5
47D1
331
AD22
  5
AFFE
331
4802
  5
4802
331
4808
  5
4808
331
A07C
  5
A07C
331
AF59
  5
B098
331
47D2
  5
47D2
331
4803
  5
4803
331
4809
  5
4809
331
47D3
  5
47D3
331
B013
  5
B71F
331
4804
  5
4804
331
A366
  5
AF58
331
480A
  5
480A
331
47D4
  5
47D4
331
A367
  5
AF59
331
B014
  5
B7D1
331
4805
  5
4805
331
C75F
  5
C815
331
B7D1
  5
BBAD
331
480B
  5
480B
331
B015
  5
BBA6
331
4806
  5
4806
331
A3E8
  5
AFFC
331
AF57
  5
B014
331
C760
  5
C816
331
480C
  5
480C
331
A340
  5
A340
331
A3E9
  5
AFFD
331
4807
  5
4807
331
C761
  5
C82C
331
480D
  5
480D
331
BBA6
  5
BBAE
331
B71E
  5
BBAB
331
C72C
  5
C814
331
480E
  5
480E
331
B71F
  5
BBAC
331
BBA7
  5
BBB0
331
B098
  5
BBA7
331
480F
  5
480F
331
BBA8
  5
BBB1
331
47F9
  5
47F9
331
AD42
  5
AFFF
331
4810
  5
4810
331
BBA9
  5
BBB2
331
47FA
  5
47FA
331
AD43
  5
B013
  0
XRECORD
  5
C887
102
{ACAD_REACTORS
330
C886
102
}
330
C886
100
AcDbXrecord
280
     1
102
SHADEPLOT
 70
     0
  0
XRECORD
  5
C889
102
{ACAD_REACTORS
330
C888
102
}
330
C888
100
AcDbXrecord
280
     1
102
SHADEPLOT
 70
     0
  0
XRECORD
  5
C87C
102
{ACAD_REACTORS
330
C87B
102
}
330
C87B
100
AcDbXrecord
280
     1
 40
3.0
  0
LAYOUT
  5
B9FF
102
{ACAD_XDICTIONARY
360
BADD
102
}
102
{ACAD_REACTORS
330
499A
102
}
330
499A
100
AcDbPlotSettings
  1

  2
\\totosrv3\RD-03-HPDJ500
  4
User272
  6

 40
4.995333194732666
 41
16.97562789916992
 42
4.99530029296875
 43
16.9757080078125
 44
840.9516601562499
 45
1188.931640625
 46
0.0
 47
0.0
 48
0.0
 49
0.0
140
0.0
141
0.0
142
1.0
143
1.0
 70
   688
 72
     1
 73
     1
 74
     5
  7

 75
    16
147
1.0
148
0.0
149
0.0
100
AcDbLayout
  1
AO
 70
     1
 71
     1
 10
-16.9757080078125
 20
-4.995333194732666
 11
1171.955932617187
 21
835.9563269615174
 12
0.0
 22
0.0
 32
0.0
 14
0.2225857245057341
 24
0.3042451189865005
 34
-0.0000000349181948
 15
35.78023232529813
 25
23.97910703663502
 35
0.0000000814935746
146
0.0
 13
0.0
 23
0.0
 33
0.0
 16
1.0
 26
0.0
 36
0.0
 17
0.0
 27
1.0
 37
0.0
 76
     0
330
B9FE
331
BA06
1001
ACAD_PSEXT
1000
\\totosrv3\RD-03-HPDJ500
1000
HP DesignJet 500 42+HPGL2 Card
1000
R & D/Quality Engineering
1000
IP 172.16.4.69, HP DesignJet 500, S/N
1070
     0
  0
LAYOUT
  5
B78A
102
{ACAD_XDICTIONARY
360
C881
102
}
102
{ACAD_REACTORS
330
499A
102
}
330
499A
100
AcDbPlotSettings
  1

  2
C:\Program Files\AutoCAD 2002\plotters\DWF ePlot (optimized for plotting).pc3
  4

  6

 40
0.0
 41
0.0
 42
0.0
 43
0.0
 44
0.0
 45
0.0
 46
0.0
 47
0.0
 48
0.0
 49
0.0
140
0.0
141
0.0
142
1.0
143
1.0
 70
  1712
 72
     0
 73
     0
 74
     0
  7

 75
     0
147
1.0
148
0.0
149
0.0
100
AcDbLayout
  1
Model
 70
     1
 71
     0
 10
0.0
 20
0.0
 11
12.0
 21
9.0
 12
0.0
 22
0.0
 32
0.0
 14
0.0
 24
0.0
 34
0.0
 15
0.0
 25
0.0
 35
0.0
146
0.0
 13
0.0
 23
0.0
 33
0.0
 16
1.0
 26
0.0
 36
0.0
 17
0.0
 27
1.0
 37
0.0
 76
     0
330
413C
  0
MATERIAL
  5
C855
102
{ACAD_XDICTIONARY
360
C88C
102
}
102
{ACAD_REACTORS
330
B7B8
102
}
330
B7B8
100
AcDbMaterial
  1
ByBlock
  0
MATERIAL
  5
C854
102
{ACAD_XDICTIONARY
360
C88A
102
}
102
{ACAD_REACTORS
330
B7B8
102
}
330
B7B8
100
AcDbMaterial
  1
ByLayer
  0
MATERIAL
  5
C856
102
{ACAD_XDICTIONARY
360
C88E
102
}
102
{ACAD_REACTORS
330
B7B8
102
}
330
B7B8
100
AcDbMaterial
  1
Global
  0
MLINESTYLE
  5
413F
102
{ACAD_REACTORS
330
4132
102
}
330
4132
100
AcDbMlineStyle
  2
STANDARD
 70
     0
  3

 62
     0
 51
90.0
 52
90.0
 71
     2
 49
0.5
 62
   256
  6
BYLAYER
 49
-0.5
 62
   256
  6
BYLAYER
  0
PLOTSETTINGS
  5
B3F6
102
{ACAD_XDICTIONARY
360
C87F
102
}
102
{ACAD_REACTORS
330
499B
102
}
330
499B
100
AcDbPlotSettings
  1
TEM USA
  2
HP DesignJet 750C_ (D_A1) by HP.pc3
  4
User271
  6

 40
4.995333194732666
 41
16.93330574035644
 42
4.99530029296875
 43
16.933349609375
 44
593.9366455078125
 45
840.8246459960937
 46
13.66
 47
6.36
 48
83.09340806257706
 49
36.81110837509005
140
877.3253448255792
141
593.4273663427242
142
1.0
143
1.0
 70
  1684
 72
     1
 73
     1
 74
     4
  7

 75
    16
147
1.0
148
-83.09340806257706
149
-36.81110837509005
  0
PLOTSETTINGS
  5
B39C
102
{ACAD_XDICTIONARY
360
C87D
102
}
102
{ACAD_REACTORS
330
499B
102
}
330
499B
100
AcDbPlotSettings
  1
TEMP
  2
HP DesignJet 750C_ (D_A1) by HP.pc3
  4
User271
  6

 40
4.995333194732666
 41
16.93330574035644
 42
4.99530029296875
 43
16.933349609375
 44
593.9366455078125
 45
840.8246459960937
 46
37.58
 47
48.35
 48
110.6031832336987
 49
79.02638645857769
140
820.8640723843576
141
587.8211227189367
142
1.0
143
1.0
 70
  1684
 72
     1
 73
     1
 74
     4
  7

 75
    16
147
1.0
148
-110.6031832336987
149
-79.02638645857769
  0
ACDBPLACEHOLDER
  5
4999
102
{ACAD_REACTORS
330
4998
102
}
330
4998
  0
TABLESTYLE
  5
B7BB
102
{ACAD_XDICTIONARY
360
C883
102
}
102
{ACAD_REACTORS
330
B7BA
102
}
330
B7BA
100
AcDbTableStyle
  3
Standard
 70
     0
 71
     0
 40
0.06
 41
0.06
280
     0
281
     0
  7
STANDARD
140
0.18
170
     2
 62
     0
 63
     7
283
     0
274
    -2
284
     1
 64
     0
275
    -2
285
     1
 65
     0
276
    -2
286
     1
 66
     0
277
    -2
287
     1
 67
     0
278
    -2
288
     1
 68
     0
279
    -2
289
     1
 69
     0
  7
STANDARD
140
0.25
170
     5
 62
     0
 63
     7
283
     0
274
    -2
284
     1
 64
     0
275
    -2
285
     1
 65
     0
276
    -2
286
     1
 66
     0
277
    -2
287
     1
 67
     0
278
    -2
288
     1
 68
     0
279
    -2
289
     1
 69
     0
  7
STANDARD
140
0.18
170
     5
 62
     0
 63
     7
283
     0
274
    -2
284
     1
 64
     0
275
    -2
285
     1
 65
     0
276
    -2
286
     1
 66
     0
277
    -2
287
     1
 67
     0
278
    -2
288
     1
 68
     0
279
    -2
289
     1
 69
     0
  0
VISUALSTYLE
  5
C85D
102
{ACAD_REACTORS
330
C857
102
}
330
C857
100
AcDbVisualStyle
  2
2dWireframe
 70
     4
 71
     0
 72
     2
 73
     0
 90
        0
 40
-0.6
 41
-30.0
 62
     5
 63
     7
 74
     1
 91
        4
 64
     7
 65
   257
 75
     1
175
     1
 42
1.0
 92
        0
 66
   257
 43
1.0
 76
     1
 77
     6
 78
     2
 67
     7
 79
     5
170
     0
171
     0
290
     0
174
     0
 93
        1
 44
0.0
173
     0
291
     0
 45
0.0
1001
ACAD
1000
AcDbSavedByObjectVersion
1070
     0
  0
VISUALSTYLE
  5
C85F
102
{ACAD_REACTORS
330
C857
102
}
330
C857
100
AcDbVisualStyle
  2
3D Hidden
 70
     6
 71
     1
 72
     2
 73
     2
 90
        0
 40
-0.6
 41
-30.0
 62
     5
 63
     7
 74
     2
 91
        2
 64
     7
 65
   257
 75
     2
175
     1
 42
40.0
 92
        0
 66
   257
 43
1.0
 76
     1
 77
     6
 78
     2
 67
     7
 79
     3
170
     0
171
     0
290
     0
174
     0
 93
        1
 44
0.0
173
     0
291
     0
 45
0.0
1001
ACAD
1000
AcDbSavedByObjectVersion
1070
     0
  0
VISUALSTYLE
  5
C85E
102
{ACAD_REACTORS
330
C857
102
}
330
C857
100
AcDbVisualStyle
  2
3dWireframe
 70
     5
 71
     0
 72
     2
 73
     0
 90
        0
 40
-0.6
 41
-30.0
 62
     5
 63
     7
 74
     1
 91
        4
 64
     7
 65
   257
 75
     1
175
     1
 42
1.0
 92
        0
 66
   257
 43
1.0
 76
     1
 77
     6
 78
     2
 67
     7
 79
     5
170
     0
171
     0
290
     0
174
     0
 93
        1
 44
0.0
173
     0
291
     0
 45
0.0
1001
ACAD
1000
AcDbSavedByObjectVersion
1070
     0
  0
VISUALSTYLE
  5
C85C
102
{ACAD_REACTORS
330
C857
102
}
330
C857
100
AcDbVisualStyle
  2
Basic
 70
     7
 71
     1
 72
     0
 73
     1
 90
        0
 40
-0.6
 41
-30.0
 62
     5
 63
     7
 74
     0
 91
        4
 64
     7
 65
   257
 75
     1
175
     1
 42
1.0
 92
        8
 66
     7
 43
1.0
 76
     1
 77
     6
 78
     2
 67
     7
 79
     5
170
     0
171
     0
290
     0
174
     0
 93
        1
 44
0.0
173
     0
291
     1
 45
0.0
1001
ACAD
1000
AcDbSavedByObjectVersion
1070
     0
  0
VISUALSTYLE
  5
C863
102
{ACAD_REACTORS
330
C857
102
}
330
C857
100
AcDbVisualStyle
  2
Brighten
 70
    12
 71
     2
 72
     2
 73
     0
 90
        0
 40
-0.6
 41
-30.0
 62
     5
 63
     7
 74
     1
 91
        4
 64
     7
 65
   257
 75
     1
175
     1
 42
1.0
 92
        8
 66
     7
 43
1.0
 76
     1
 77
     6
 78
     2
 67
     7
 79
     5
170
     0
171
     0
290
     0
174
     0
 93
        1
 44
50.0
173
     0
291
     1
 45
0.0
1001
ACAD
1000
AcDbSavedByObjectVersion
1070
     0
  0
VISUALSTYLE
  5
C867
102
{ACAD_REACTORS
330
C857
102
}
330
C857
100
AcDbVisualStyle
  2
ColorChange
 70
    16
 71
     2
 72
     2
 73
     3
 90
        0
 40
-0.6
 41
-30.0
 62
     5
 63
     8
 74
     1
 91
        4
 64
     7
 65
   257
 75
     1
175
     1
 42
1.0
 92
        8
 66
     8
 43
1.0
 76
     1
 77
     6
 78
     2
 67
     7
 79
     5
170
     0
171
     0
290
     0
174
     0
 93
        1
 44
0.0
173
     0
291
     1
 45
0.0
1001
ACAD
1000
AcDbSavedByObjectVersion
1070
     0
  0
VISUALSTYLE
  5
C860
102
{ACAD_REACTORS
330
C857
102
}
330
C857
100
AcDbVisualStyle
  2
Conceptual
 70
     9
 71
     3
 72
     2
 73
     0
 90
        0
 40
-0.6
 41
-30.0
 62
     5
 63
     7
 74
     2
 91
        2
 64
     7
 65
   257
 75
     1
175
     1
 42
40.0
 92
        8
 66
     7
 43
1.0
 76
     1
 77
     6
 78
     2
 67
     7
 79
     3
170
     0
171
     0
290
     0
174
     0
 93
        1
 44
0.0
173
     0
291
     0
 45
0.0
1001
ACAD
1000
AcDbSavedByObjectVersion
1070
     0
  0
VISUALSTYLE
  5
C862
102
{ACAD_REACTORS
330
C857
102
}
330
C857
100
AcDbVisualStyle
  2
Dim
 70
    11
 71
     2
 72
     2
 73
     0
 90
        0
 40
-0.6
 41
-30.0
 62
     5
 63
     7
 74
     1
 91
        4
 64
     7
 65
   257
 75
     1
175
     1
 42
1.0
 92
        8
 66
     7
 43
1.0
 76
     1
 77
     6
 78
     2
 67
     7
 79
     5
170
     0
171
     0
290
     0
174
     0
 93
        1
 44
-50.0
173
     0
291
     1
 45
0.0
1001
ACAD
1000
AcDbSavedByObjectVersion
1070
     0
  0
VISUALSTYLE
  5
C866
102
{ACAD_REACTORS
330
C857
102
}
330
C857
100
AcDbVisualStyle
  2
Facepattern
 70
    15
 71
     2
 72
     2
 73
     0
 90
        0
 40
-0.6
 41
-30.0
 62
     5
 63
     7
 74
     1
 91
        4
 64
     7
 65
   257
 75
     1
175
     1
 42
1.0
 92
        8
 66
     7
 43
1.0
 76
     1
 77
     6
 78
     2
 67
     7
 79
     5
170
     0
171
     0
290
     0
174
     0
 93
        1
 44
0.0
173
     0
291
     1
 45
0.0
1001
ACAD
1000
AcDbSavedByObjectVersion
1070
     0
  0
VISUALSTYLE
  5
C858
102
{ACAD_REACTORS
330
C857
102
}
330
C857
100
AcDbVisualStyle
  2
Flat
 70
     0
 71
     2
 72
     1
 73
     1
 90
        2
 40
-0.6
 41
30.0
 62
     5
 63
     7
 74
     0
 91
        4
 64
     7
 65
   257
 75
     1
175
     1
 42
1.0
 92
        8
 66
     7
 43
1.0
 76
     1
 77
     6
 78
     2
 67
     7
 79
     5
170
     0
171
     0
290
     0
174
     0
 93
       13
 44
0.0
173
     0
291
     1
 45
0.0
1001
ACAD
1000
AcDbSavedByObjectVersion
1070
     0
  0
VISUALSTYLE
  5
C859
102
{ACAD_REACTORS
330
C857
102
}
330
C857
100
AcDbVisualStyle
  2
FlatWithEdges
 70
     1
 71
     2
 72
     1
 73
     1
 90
        2
 40
-0.6
 41
30.0
 62
     5
 63
     7
 74
     1
 91
        4
 64
     7
 65
   257
 75
     1
175
     1
 42
1.0
 92
        0
 66
   257
 43
1.0
 76
     1
 77
     6
 78
     2
 67
     7
 79
     5
170
     0
171
     0
290
     0
174
     0
 93
       13
 44
0.0
173
     0
291
     1
 45
0.0
1001
ACAD
1000
AcDbSavedByObjectVersion
1070
     0
  0
VISUALSTYLE
  5
C85A
102
{ACAD_REACTORS
330
C857
102
}
330
C857
100
AcDbVisualStyle
  2
Gouraud
 70
     2
 71
     2
 72
     2
 73
     1
 90
        2
 40
-0.6
 41
30.0
 62
     5
 63
     7
 74
     0
 91
        4
 64
     7
 65
   257
 75
     1
175
     1
 42
1.0
 92
        0
 66
     7
 43
1.0
 76
     1
 77
     6
 78
     2
 67
     7
 79
     5
170
     0
171
     0
290
     0
174
     0
 93
       13
 44
0.0
173
     0
291
     1
 45
0.0
1001
ACAD
1000
AcDbSavedByObjectVersion
1070
     0
  0
VISUALSTYLE
  5
C85B
102
{ACAD_REACTORS
330
C857
102
}
330
C857
100
AcDbVisualStyle
  2
GouraudWithEdges
 70
     3
 71
     2
 72
     2
 73
     1
 90
        2
 40
-0.6
 41
30.0
 62
     5
 63
     7
 74
     1
 91
        4
 64
     7
 65
   257
 75
     1
175
     1
 42
1.0
 92
        0
 66
   257
 43
1.0
 76
     1
 77
     6
 78
     2
 67
     7
 79
     5
170
     0
171
     0
290
     0
174
     0
 93
       13
 44
0.0
173
     0
291
     1
 45
0.0
1001
ACAD
1000
AcDbSavedByObjectVersion
1070
     0
  0
VISUALSTYLE
  5
C865
102
{ACAD_REACTORS
330
C857
102
}
330
C857
100
AcDbVisualStyle
  2
Linepattern
 70
    14
 71
     2
 72
     2
 73
     0
 90
        0
 40
-0.6
 41
-30.0
 62
     5
 63
     7
 74
     1
 91
        4
 64
     7
 65
   257
 75
     7
175
     7
 42
1.0
 92
        8
 66
     7
 43
1.0
 76
     1
 77
     6
 78
     2
 67
     7
 79
     5
170
     0
171
     0
290
     0
174
     0
 93
        1
 44
0.0
173
     0
291
     1
 45
0.0
1001
ACAD
1000
AcDbSavedByObjectVersion
1070
     0
  0
VISUALSTYLE
  5
C861
102
{ACAD_REACTORS
330
C857
102
}
330
C857
100
AcDbVisualStyle
  2
Realistic
 70
     8
 71
     2
 72
     2
 73
     0
 90
        0
 40
-0.6
 41
-30.0
 62
     5
 63
     7
 74
     1
 91
        0
 64
     7
 65
   257
 75
     1
175
     1
 42
1.0
 92
        8
 66
     8
 43
1.0
 76
     1
 77
     6
 78
     2
 67
     7
 79
     5
170
     0
171
     0
290
     0
174
     0
 93
       13
 44
0.0
173
     0
291
     0
 45
0.0
1001
ACAD
1000
AcDbSavedByObjectVersion
1070
     0
  0
VISUALSTYLE
  5
C864
102
{ACAD_REACTORS
330
C857
102
}
330
C857
100
AcDbVisualStyle
  2
Thicken
 70
    13
 71
     2
 72
     2
 73
     0
 90
        0
 40
-0.6
 41
-30.0
 62
     5
 63
     7
 74
     1
 91
        4
 64
     7
 65
   257
 75
     1
175
     1
 42
1.0
 92
       12
 66
     7
 43
1.0
 76
     1
 77
     6
 78
     2
 67
     7
 79
     5
170
     0
171
     0
290
     0
174
     0
 93
        1
 44
0.0
173
     0
291
     1
 45
0.0
1001
ACAD
1000
AcDbSavedByObjectVersion
1070
     0
  0
DICTIONARYVAR
  5
B800
102
{ACAD_REACTORS
330
4501
102
}
330
4501
100
DictionaryVariables
280
     0
  1
STANDARD
  0
DICTIONARYVAR
  5
B720
102
{ACAD_REACTORS
330
4501
102
}
330
4501
100
DictionaryVariables
280
     0
  1
1
  0
DICTIONARYVAR
  5
C879
102
{ACAD_REACTORS
330
4501
102
}
330
4501
100
DictionaryVariables
280
     0
  1
0
  0
DICTIONARYVAR
  5
C735
102
{ACAD_REACTORS
330
4501
102
}
330
4501
100
DictionaryVariables
280
     0
  1

  0
DICTIONARYVAR
  5
4502
102
{ACAD_REACTORS
330
4501
102
}
330
4501
100
DictionaryVariables
280
     0
  1
96
  0
XRECORD
  5
C7A8
102
{ACAD_REACTORS
330
C7A7
102
}
330
C7A7
100
AcDbXrecord
280
     1
330
4057
330
4076
330
47CC
330
47CD
330
47CE
330
47CF
330
47D0
330
47D1
330
47D2
330
47D3
330
47D4
330
47F9
330
47FA
330
47FB
330
47FC
330
47FD
330
47FE
330
47FF
330
4800
330
4801
330
4802
330
4803
330
4804
330
4805
330
4806
330
4807
330
4808
330
4809
330
480A
330
480B
330
480C
330
480D
330
480E
330
480F
330
4810
330
4811
330
4812
330
4813
330
B70B
330
B8B4
  0
DICTIONARY
  5
BADD
330
B9FF
100
AcDbDictionary
280
     1
281
     1
  3
ACAD_XREC_ROUNDTRIP
360
C885
  3
ADSK_XREC_LAYOUTTHUMBNAIL
360
BADE
  0
DICTIONARY
  5
C881
330
B78A
100
AcDbDictionary
280
     1
281
     1
  3
ACAD_XREC_ROUNDTRIP
360
C882
  0
DICTIONARY
  5
C88C
330
C855
100
AcDbDictionary
280
     1
281
     1
  3
ACAD_XREC_ROUNDTRIP
360
C88D
  0
DICTIONARY
  5
C88A
330
C854
100
AcDbDictionary
280
     1
281
     1
  3
ACAD_XREC_ROUNDTRIP
360
C88B
  0
DICTIONARY
  5
C88E
330
C856
100
AcDbDictionary
280
     1
281
     1
  3
ACAD_XREC_ROUNDTRIP
360
C88F
  0
DICTIONARY
  5
C87F
330
B3F6
100
AcDbDictionary
280
     1
281
     1
  3
ACAD_XREC_ROUNDTRIP
360
C880
  0
DICTIONARY
  5
C87D
330
B39C
100
AcDbDictionary
280
     1
281
     1
  3
ACAD_XREC_ROUNDTRIP
360
C87E
  0
DICTIONARY
  5
C883
330
B7BB
100
AcDbDictionary
280
     1
281
     1
  3
ACAD_XREC_ROUNDTRIP
360
C884
  0
XRECORD
  5
C885
102
{ACAD_REACTORS
330
BADD
102
}
330
BADD
100
AcDbXrecord
280
     1
102
SHADEPLOT
 70
     0
102
SHADEPLOTRESLEVEL
 70
     2
102
SHADEPLOTCUSTOMDPI
 70
   300
  0
XRECORD
  5
BADE
102
{ACAD_REACTORS
330
BADD
102
}
330
BADD
100
AcDbXrecord
280
     1
310
28000000B40000007F00000001000800000000004C590000000000000000000000010000000000000000000000000000FFFFFF000000000000000000000000000000000000000000000000000000000000000000330000006600000099000000CC000000FF00000000330000333300006633000099330000CC330000FF3300
310
0000660000336600006666000099660000CC660000FF66000000990000339900006699000099990000CC990000FF99000000CC000033CC000066CC000099CC0000CCCC0000FFCC000000FF000033FF000066FF000099FF0000CCFF0000FFFF000000003300330033006600330099003300CC003300FF003300003333003333
310
33006633330099333300CC333300FF33330000663300336633006666330099663300CC663300FF66330000993300339933006699330099993300CC993300FF99330000CC330033CC330066CC330099CC3300CCCC3300FFCC330000FF330033FF330066FF330099FF3300CCFF3300FFFF330000006600330066006600660099
310
006600CC006600FF00660000336600333366006633660099336600CC336600FF33660000666600336666006666660099666600CC666600FF66660000996600339966006699660099996600CC996600FF99660000CC660033CC660066CC660099CC6600CCCC6600FFCC660000FF660033FF660066FF660099FF6600CCFF6600
310
FFFF660000009900330099006600990099009900CC009900FF00990000339900333399006633990099339900CC339900FF33990000669900336699006666990099669900CC669900FF66990000999900339999006699990099999900CC999900FF99990000CC990033CC990066CC990099CC9900CCCC9900FFCC990000FF99
310
0033FF990066FF990099FF9900CCFF9900FFFF99000000CC003300CC006600CC009900CC00CC00CC00FF00CC000033CC003333CC006633CC009933CC00CC33CC00FF33CC000066CC003366CC006666CC009966CC00CC66CC00FF66CC000099CC003399CC006699CC009999CC00CC99CC00FF99CC0000CCCC0033CCCC0066CC
310
CC0099CCCC00CCCCCC00FFCCCC0000FFCC0033FFCC0066FFCC0099FFCC00CCFFCC00FFFFCC000000FF003300FF006600FF009900FF00CC00FF00FF00FF000033FF003333FF006633FF009933FF00CC33FF00FF33FF000066FF003366FF006666FF009966FF00CC66FF00FF66FF000099FF003399FF006699FF009999FF00CC
310
99FF00FF99FF0000CCFF0033CCFF0066CCFF0099CCFF00CCCCFF00FFCCFF0000FFFF0033FFFF0066FFFF0099FFFF00CCFFFF00FFFFFF00000000000D0D0D001A1A1A00282828003535350043434300505050005D5D5D006B6B6B00787878008686860093939300A1A1A100AEAEAE00BBBBBB00C9C9C900D6D6D600E4E4E400
310
F1F1F100FFFFFF0000000000000000000000000000000000000000000000000000000000000000000000000000000000E2E2E2E2E2E2E2E2E2E2E2E2E2E2E2E2E2E2E2E2E2E2E2E2E2E2E2E2E2E2E2E2E2E2E2E2E2E2E2E2E2E2E2E2E2E2E2E2E2E2E2E2E2E2E2E2E2E2E2E2E2E2E2E2E2E2E2E2E2E2E2E2E2E2E2E2E2E2E2
310
E2E2E2E2E2E2E2E2E2E2E2E2E2E2E2E2E2E2E2E2E2E2E2E2E2E2E2E2E2E2E2E2E2E2E2E2E2E2E2E2E2E2E2E2E2E2E2E2E2E2E2E2E2E2E2E2E2E2E2E2E2E2E2E2E2E2E2E2E2E2E2E2E2E2E2E2E2E2E2E2E2E2E2E2E2E2E2E2E2E2E2E2E2E2E2E2E2E2E2E2E2E2E2E2F5F5F5F5F5F5E2E2E2E2E2E2E2E2E2E2E2E2E2E2E2E2E2
310
E2E2E2E2E2E2E2E2E2E2E2E2E2E2E2E2E2E2E2E2E2E2E2E2E2E2E2E2E2E2E2E2E2E2E2E2E2E2E2E2E2E2E2E2E2E2E2E2E2E2E2E2E2E2E2E2E2E2E2E2E2E2E2E2E2E2E2E2E2E2E2E2E2E2E2E2E2E2E2E2E2E2E2E2E2E2E2E2E2E2E2E2E2E2E2E2E2E2E2E2E2E2E2E2E2E2E2E2E2E2E2E2E2E2E2E2E2E2E2E2E2E2E2E2E2E2E2
310
E2E2E2E2E2E2E2E2E2E2E2E2E2E2E2E2E2E2E2E2E2E2E2E2E2E2E2E2E2E2F5F5F5F5F5F5E2E2E2E2E2E2E2E2E2E2E2E2E2E2E2E2E2E2E2E2E2E2E2E2E2E2E2E2E2E2E2E2E2E2E2E2E2E2E2E2E2E2E2E2E2E2E2E2E2E2E2E2E2E2E2E2E2E2E2E2E2E2E2E2E2E2E2E2E2E2E2E2E2E2E2E2E2E2E2E2E2E2E2E2E2E2E2E2E2E2E2
310
E2E2E2E2E2E2E2E2E2E2E2E2E2E2E2E2E2E2E2E2E2E2E2E2E2E2E2E2E2E2E2E2E2E2E2E2E2E2E2E2E2E2E2E2E2E2E2E2E2E2E2E2E2E2E2E2E2E2E2E2E2E2E2E2E2E2E2E2E2E2E2E2E2E2E2E2E2E2E2E2E2E2E2F5F5F5F5F5F5E2E2E2E2E2E2E2E2E2E2E2E2E2E2E2E2E2E2E2E2E2E2E2E2E2E2E2E2E2E2E2E2E2E2E2E2E2E2
310
E2E2E2E2E2E2E2E2E2E2E2E2E2E2E2E2E2E2E2E2E2E2E2E2E2E2E2E2E2E2E2E2E2E2E2E2E2E2E2E2E2E2E2E2E2E2E2E2E2E2E2E2E2E2E2E2E2E2E2E2E2E2E2E2E2E2E2E2E2E2E2E2E2E2E2E2E2E2E2E2E2E2E2E2E2E2E2E2E2E2E2E2E2E2E2E2E2E2E2E2E2E2E2E2E2E2E2E2E2E2E2E2E2E2E2E2E2E2E2E2E2E2E2E2E2E2E2
310
E2E2E2E2E2E2E2E2E2F5F5F5F5F5F5E2E2E2E2E2E2E2E2E2E2E2E2E2E2E2E2E2E2E2E2E2E2E2E2E2E2E2E2E2E2E2E2E2E2E2E2E2E2E2E2E2E2E2E2E2E2E2E2E2E2E2E2E2E2E2E2E2E2E2E2E2E2E2E2E2E2E2E2E2E2E2E2E2E2E2E2E2E2E2E2E2E2E2E2E2E2E2E2E2E2E2E2E2E2E2E2E2E2E2E2E2E2E2E2E2E2E2E2E2E2E2E2
310
E2E2E2E2E2E2E2E2E2E2E2E2E2E2E2E2E2E2E2E2E2E2E2E2E2E2E2E2E2E2E2E2E2E2E2E2E2E2E2E2E2E2E2E2E2E2E2E2E2E2E2E2E2E2E2E2E2E2E2E2E2E2F5F5F5F5F5F5E2E2E2E2E2E2E2E2E2E2E2E2E2E2E2E2E2E2E2E2E2E2E2E2E2E2E2E2E2E2E2E2E2E2E2E2E2E2E2E2E2E2E2E2E2E2E2E2E2E2E2E2E2E2E2E2E2E2E2
310
E2E2E2E2E2E2E2E2E2E2E2E2E2E2E2E2E2E2E2E2E2E2E2E2E2E2E2E2E2E2E2E2E2E2E2E2E2E2E2E2E2E2E2E2E2E2E2E2E2E2E2E2E2E2E2E2E2E2E2E2E2E2E2E2E2E2E2E2E2E2E2E2E2E2E2E2E2E2E2E2E2E2E2E2E2E2E2E2E2E2E2E2E2E2E2E2E2E2E2E2E2E2E2E2E2E2E2E2E2E2E2E2E2E2E2E2E2E2E2E2E2E2E2E2E2E2E2
310
E2E2E2E2E2E2E2E2E2E2E2E2E2E2E2E2E2E2E2E2E2E2E2E2E2E2E2E2E2E2E2E2E2E2E2E2E2E2E2E2E2E2E2E2E2E2E2E2E2E2E2E2E2E2E2E2E2E2E2E2E2E2E2E2E2E2E2E2E2E2E2E2E2E2E2E2E2E2E2E2E2E2E2E2E2E2E2E2E2E2E2E2E2E2E2E2E2E2E2E2E2E2E2E2E2E2E2E2E2E2E2E2E2E2E2E2E2E2E2E2E2E2E2E2E2E2E2
310
E2E2E2E2E2E2E2E2E2E2E2E2E2E2E2E2E2E2E2E2E2E2E2E2E2E2E2E2E2E2E2E2E2E2E2E2E2E2E2E2E2E2E2E2E2E2E2E2E2E2E2E2E2E2E2E2E2E2E2E2E2E2E2E2E2E2E2E2E2E2E2E2E2E2E2E2E2E2E2E2E2E2E2E2E2E2E2E2E2E2E2E2E2E2E2E2E2E2E2E2E2E2E2E2E2E2E2E2E2E2E2E2E2E2E2E2E2E2E2E2E2E2E2E2E2E2E2
310
E2E2E2E2E2E2E2E2E2E2E2E2E2E2E2E2E2E2E2E2E2E2E2E2E2E2E2E2E2E2E2E2E2E2E2E2E2E2E2E2E2E2E2E2E2E2E2E2E2E2E2E2E2E2E2E2E2E2E2E2E2E2E2E2E2E2E2E2E2E2E2E2E2E2E2E2E2E2E2E2E2E2E2E2E2E2E2E2E2E2E2E2E2E2E2E2E2E2E2E2E2E2E2E2E2E2E2E2E2E2E2E2E2E2E2E2E2E2E2E2E2E2E2E2E2E2E2
310
E2E2E2E2E2E2E2E2E2E2E2E2E2E2E2E2E2E2E2E2E2E2E2E2E2E2E2E2E2E2E2E2E2E2E2E2E2E2E2E2E2E2E2E2E2E2E2E2E2E2E2E2E2E2E2E2E2E2E2E2E2E2E2E2E2E2E2E2E2E2E2E2E2E2E2E2E2E2E2E2E2E2E2E2E2E2E2E2E2E2E2E2E2E2E2E2E2E2E2E2E2E2E2E2E2E2E2E2E2E2E2E2E2E2E2E2E2E2E2E2E2E2E2E2E2E2E2
310
E2E2E2E2E2E2E2E2E2E2E2E2E2E2E2E2E2E2E2E2E2E2E2E2E2E2E2E2E2E2E2E2E2E2E2E2E2E2E2E2E2E2E2E2E2E2E2E2E2E2E2E2E2E2E2E2E2E2E2E2E2E2E2E2E2E2E2E2E2E2E2E2E2E2E2E2E2E2E2E2E2E2E2E2E2E2E2E2E2E2E2E2E2E2E2E2E2E2E2E2E2E2E2E2E2E2E2E2E2E2E2E2E2E2E2E2E2E2E2E2E2E2E2E2E2E2E2
310
E2E2E2E2E2E2E2E2E2E2E2E2E2E2E2E2E2E2E2E2E2E2E2E2E2E2E2E2E2E2E2E2E2E2E2E2E2E2E2E2E2E2E2E2E2E2E2E2E2E2E2E2E2E2E2E2E2E2E2E2E2E2E2E2E2E2E2E2E2E2E2E2E2E2E2E2E2E2E2E2E2E2E2E2E2E2E2E2E2E2E2E2E2E2E2E2E2E2E2E2E2E2E2E2E2E2E2E2E2E2E2E2E2E2E2E2E2E2E2E2E2E2E2E2E2E2E2
310
E2E2E2E2E2E2E2E2E2E2E2E2E2E2E2E2E2E2E2E2E2E2E2E2E2E2E2E2E2E2E2E2E2E2E2E2E2E2E2E2E2E2E2E2E2E2E2E2E2E2E2E2E2E2E2E2E2E2E2E2E2E2E2E2E2E2E2E2E2E2E2E2E2E2E2E2E2E2E2E2E2E2E2E2E2E2E2E2E2E2E2E2E2E2E2E2E2E2E2E2E2E2E2E2E2E2E2E2E2E2E2E2E2E2E2E2E2E2E2E2E2E2E2E2E2E2E2
310
E2E2E2E2E2E2E2E2E2E2E2E2E2E2E2E2E2E2E2E2E2E2E2E2E2E2E2E2E2E2E2E2E2E2E2E2E2E2E2E2E2E2E2E2E2E2E2E2E2E2E2E2E2E2E2E2E2E2E2E2E2E2E2E2E2E2E2E2E2E2E2E2E2E2E2E2E2E2E2E2E2E2E2E2E2E2E2E2E2E2E2E2E2E2E2E2E2E2E2E2E2E2E2E2E2E2E2E2E2E2E2E2E2E2E2E2E2E2E2E2E2E2E2E2E2E2E2
310
E2E2E2E2E2E2E2E2E2E2E2E2E2E2E2E2E2E2E2E2E2E2E2E2E2E2E2E2E2E2E2E2E2E2E2E2E2E2E2E2E2E2E2E2E2E2E2E2E2E2E2E2E2E2E2E2E2E2E2E2E2E2E2E2E2E2E2E2E2E2E2E2E2E2E2E2E2E2E2E2E2E2E2E2E2E2E2E2E2E2E2E2E2E2E2E2E2E2E2E2E2E2E2E2E2E2E2E2E2E2E2E2E2E2E2E2E2E2E2E2E2E2E2E2E2E2E2
310
E2E2E2E2E2E2E2E2E2E2E2E2E2E2E2E2E2E2E2E2E2E2E2E2E2E2E2E2E2E2E2E2E2E2E2E2E2E2E2E2E2E2E2E2E2E2E2E2E2E2E2E2E2E2E2E2E2E2E2E2E2E2E2E2E2E2E2E2E2E2E2E2E2E2E2E2E2E2E2E2E2E2E2E2E2E2E2E2E2E2E2E2E2E2E2E2E2E2E2E2E2E2E2E2E2E2E2E2E2E2E2E2E2E2E2E2E2E2E2E2E2E2E2E2E2E2E2
310
E2E2E2E2E2E2E2E2E2E2E2E2E2E2E2E2E2E2E2E2E2E2E2E2E2E2E2E2E2E2E2E2E2E2E2E2E2E2E2E2E2E2E2E2E2E2E2E2E2E2E2E2E2E2E2E2E2E2E2E2E2E2E2E2E2E2E2E2E2E2E2E2E2E2E2E2E2E2E2E2E2E2E2E2E2E2E2E2E2E2E2E2E2E2E2E2E2E2E2E2E2E2E2E2E2E2E2E2E2E2E2E2E2E2E2E2E2E2E2E2E2E2E2E2E2E2E2
310
E2E2E2E2E2E2E2E2E2E2E2E2E2E2E2E2E2E2E2E2E2E2E2E2E2E2E2E2E2E2E2E2E2E2E2E2E2E2E2E2E2E2E2E2E2E2E2E2E2E2E2E2E2E2E2E2E2E2E2E2E2E2E2E2E2E2E2E2E2E2E2E2E2E2E2E2E2E2E2E2E2E2E2E2E2E2E2E2E2E2E2E2E2E2E2E2E2E2E2E2E2E2E2E2E2E2E2E2E2E2E2E2E2E2E2E2E2E2E2E2E2E2E2E2E2E2E2
310
E2E2E2E2E2E2E2E2E2E2E2E2E2E2E2E2E2E2E2E2E2E2E2E2E2E2E2E2E2E2E2E2E2E2E2E2E2E2E2E2E2E2E2E2E2E2E2E2E2E2E2E2E2E2E2E2E2E2E2E2E2E2E2E2E2E2E2E2E2E2E2E2E2E2E2E2E2E2E2E2E2E2E2E2E2E2E2E2E2E2E2E2E2E2E2E2E2E2E2E2E2E2E2E2E2E2E2E2E2E2E2E2E2E2E2E2E2E2E2E2E2E2E2E2E2E2E2
310
E2E2E2E2E2E2E2E2E2E2E2E2E2E2E2E2E2E2E2E2E2E2E2E2E2E2E2E2E2E2E2E2E2E2E2E2E2E2E2E2E2E2E2E2E2E2E2E2E2E2E2E2E2E2E2E2E2E2E2E2E2E2E2E2E2E2E2E2E2E2E2E2E2E2E2E2E2E2E2E2E2E2E2E2E2E2E2E2E2E2E2E2E2E2E2E2E2E2E2E2E2E2E2E2E2E2E2E2E2E2E2E2E2E2E2E2E2E2E2E2E2E2E2E2E2E2E2
310
E2E2E2E2E2E2E2E2E2E2E2E2E2E2E2E2E2E2E2E2E2E2E2E2E2E2E2E2E2E2E2E2E2E2E2E2E2E2E2E2E2E2E2E2E2E2E2E2E2E2E2E2E2E2E2E2E2E2E2E2E2E2E2E2E2E2E2E2E2E2E2E2E2E2E2E2E2E2E2E2E2E2E2E2E2E2E2E2E2E2E2E2E2E2E2E2E2E2E2E2E2E2E2E2E2E2E2E2E2E2E2E2E2E2E2E2E2E2E2E2E2E2E2E2E2E2E2
310
E2E2E2E2E2E2E2E2E2E2E2E2E2E2E2E2E2E2E2E2E2E2E2E2E2E2E2E2E2E2E2E2E2E2E2E2E2E2E2E2E2E2E2E2E2E2E2E2E2E2E2E2E2E2E2E2E2E2E2E2E2E2E2E2E2E2E2E2E2E2E2E2E2E2E2E2E2E2E2E2E2E2E2E2E2E2E2E2E2E2E2E2E2E2E2E2E2E2E2E2E2E2E2E2E2E2E2E2E2E2E2E2E2E2E2E2E2E2E2E2E2E2E2E2E2E2E2
310
E2E2E2E2E2E2E2E2E2E2E2E2E2E2E2E2E2E2E2E2E2E2E2E2E2E2E2E2E2E2E2E2E2E2E2E2E2E2E2E2E2E2E2E2E2E2E2E2E2E2E2E2E2E2E2E2E2E2E2E2E2E2E2E2E2E2E2E2E2E2E2E2E2E2E2E2E2E2E2E2E2E2E2E2E2E2E2E2E2E2E2E2E2E2E2E2E2E2E2E2E2E2E2E2E2E2E2E2E2E2E2E2E2E2E2E2E2E2E2E2E2E2E2E2E2E2E2
310
E2E2E2E2E2E2E2E2E2E2E2E2E2E2E2E2E2E2E2E2E2E2E2E2E2E2E2E2E2E2E2E2E2E2E2E2E2E2E2E2E2E2E2E2E2E2E2E2E2E2E2E2E2E2E2E2E2E2E2E2E2E2E2E2E2E2E2E2E2E2E2E2E2E2E2E2E2E2E2E2E2E2E2E2E2E2E2E2E2E2E2E2E2E2E2E2E2E2E2E2E2E2E2E2E2E2E2E2E2E2E2E2E2E2E2E2E2E2E2E2E2E2E2E2E2E2E2
310
E2E2E2E2E2E2E2E2E2E2E2E2E2E2E2E2E2E2E2E2E2E2E2E2E2E2E2E2E2E2E2E2E2E2E2E2E2E2E2E2E2E2E2E2E2E2E2E2E2E2E2E2E2E2E2E2E2E2E2E2E2E2E2E2E2E2E2E2E2E2E2E2E2E2E2E2E2E2E2E2E2E2E2E2E2E2E2E2E2E2E2E2E2E2E2E2E2E2E2E2E2E2E2E2E2E2E2E2E2E2E2E2E2E2E2E2E2E2E2E2E2E2E2E2E2E2E2
310
E2E2E2E2E2E2E2E2E2E2E2E2E2E2E2E2E2E2E2E2E2E2E2E2E2E2E2E2E2E2E2E2E2E2E2E2E2E2E2E2E2E2E2E2E2E2E2E2E2E2E2E2E2E2E2E2E2E2E2E2E2E2E2E2E2E2E2E2E2E2E2E2E2E2E2E2E2E2E2E2E2E2E2E2E2E2E2E2E2E2E2E2E2E2E2E2E2E2E2E2E2E2E2E2E2E2E2E2E2E2E2E2E2E2E2E2E2E2E2E2E2E2E2E2E2E2E2
310
E2E2E2E2E2E2E2E2E2E2E2E2E2E2E2E2E2E2E2E2E2E2E2E2E2E2E2E2E2E2E2E2E2E2E2E2E2E2E2E2E2E2E2E2E2E2E2E2E2E2E2E2E2E2E2E2E2E2E2E2E2E2E2E2E2E2E2E2E2E2E2E2E2E2E2E2E2E2E2E2E2E2E2E2E2E2E2E2E2E2E2E2E2E2E2E2E2E2E2E2E2E2E2E2E2E2E2E2E2E2E2E2E2E2E2E2E2E2E2E2E2E2E2E2E2E2E2
310
E2E2E2E2E2E2E2E2E2E2E2E2E2E2E2E2E2E2E2E2E2E2E2E2E2E2E2E2E2E2E2E2E2E2E2E2E2E2E2E2E2E2E2E2E2E2E2E2E2E2E2E2E2E2E2E2E2E2E2E2E2E2E2E2E2E2E2E2E2E2E2E2E2E2E2E2E2E2E2E2E2E2E2E2E2E2E2E2E2E2E2E2E2E2E2E2E2E2E2E2E2E2E2E2E2E2E2E2E2E2E2E2E2E2E2E2E2E2E2E2E2E2E2E2E2E2E2
310
E2E2E2E2E2E2E2E2E2E2E2E2E2E2E2E2E2E2E2E2E2E2E2E2E2E2E2E2E2E2E2E2E2E2E2E2E2E2E2E2E2E2E2E2E2E2E2E2E2E2E2E2E2E2E2E2E2E2E2E2E2E2E2E2E2E2E2E2E2E2E2E2E2E2E2E2E2E2E2E2E2E2E2E2E2E2E2E2E2E2E2E2E2E2E2E2E2E2E2E2E2E2E2E2E2E2E2E2E2E2E2E2E2E2E2E2E2E2E2E2E2E2E2E2E2E2E2
310
E2E2E2E2E2E2E2E2E2E2E2E2E2E2E2E2E2E2E2E2E2E2E2E2E2E2E2E2E2E2E2E2E2E2E2E2E2E2E2E2E2E2E2E2E2E2E2E2E2E2E2E2E2E2E2E2E2E2E2E2E2E2E2E2E2E2E2E2E2E2E2E2E2E2E2E2E2E2E2E2E2E2E2E2E2E2E2E2E2E2E2E2E2E2E2E2E2E2E2E2E2E2E2E2E2E2E2E2E2E2E2E2E2E2E2E2E2E2E2E2E2E2E2E2E2E2E2
310
E2E2E2E2E2E2E2E2E2E2E2E2E2E2E2E2E2E2E2E2E2E2E2E2E2E2E2E2E2E2E2E2E2E2E2E2E2E2E2E2E2E2E2E2E2E2E2E2E2E2E2E2E2E2E2E2E2E2E2E2E2E2E2E2E2E2E2E2E2E2E2E2E2E2E2E2E2E2E2E2E2E2E2E2E2E2E2E2E2E2E2E2E2E2E2E2E2E2E2E2E2E2E2E2E2E2E2E2E2E2E2E2E2E2E2E2E2E2E2E2E2E2E2E2E2E2E2
310
E2E2E2E2E2E2E2E2E2E2E2E2E2E2E2E2E2E2E2E2E2E2E2E2E2E2E2E2E2E2E2E2E2E2E2E2E2E2E2E2E2E2E2E2E2E2E2E2E2E2E2E2E2E2E2E2E2E2E2E2E2E2E2E2E2E2E2E2E2E2E2E2E2E2E2E2E2E2E2E2E2E2E2E2E2E2E2E2E2E2E2E2E2E2E2E2E2E2E2E2E2E2E2E2E2E2E2E2E2E2E2E2E2E2E2E2E2E2E2E2E2E2E2E2E2E2E2
310
E2E2E2E2E2E2E2E2E2E2E2E2E2E2E2E2E2E2E2E2E2E2E2E2E2E2E2E2E2E2E2E2E2E2E2E2E2E2E2E2E2E2E2E2E2E2E2E2E2E2E2E2E2E2E2E2E2E2E2E2E2E2E2E2E2E2E2E2E2E2E2E2E2E2E2E2E2E2E2E2E2E2E2E2E2E2E2E2E2E2E2E2E2E2E2E2E2E2E2E2E2E2E2E2E2E2E2E2E2E2E2E2E2E2E2E2E2E2E2E2E2E2E2E2E2E2E2
310
E2E2E2E2E2E2E2E2E2E2E2E2E2E2E2E2E2E2E2E2E2E2E2E2E2E2E2E2E2E2E2E2E2E2E2E2E2E2E2E2E2E2E2E2E2E2E2E2E2E2E2E2E2E2E2E2E2E2E2E2E2E2E2E2E2E2E2E2E2E2E2E2E2E2E2E2E2E2E2E2E2E2E2E2E2E2E2E2E2E2E2E2E2E2E2E2E2E2E2E2E2E2E2E2E2E2E2E2E2E2E2E2E2E2E2E2E2E2E2E2E2E2E2E2E2E2E2
310
E2E2E2E2E2E2E2E2E2E2E2E2E2E2E2E2E2E2E2E2E2E2E2E2E2E2E2E2E2E2E2E2E2E2E2E2E2E2E2E2E2E2E2E2E2E2E2E2E2E2E2E2E2E2E2E2E2E2E2E2E2E2E2E2E2E2E2E2E2E2E2E2E2E2E2E2E2E2E2E2E2E2E2E2E2E2E2E2E2E2E2E2E2E2E2E2E2E2E2E2E2E2E2E2E2E2E2E2E2E2E2E2E2E2E2E2E2E2E2E2E2E2E2E2E2E2E2
310
E2E2E2E2E2E2E2E2E2E2E2E2E2E2E2E2E2E2E2E2E2E2E2E2E2E2E2E2E2E2E2E2E2E2E2E2E2E2E2E2E2E2E2E2E2E2E2E2E2E2E2E2E2E2E2E2E2E2E2E2E2E2E2E2E2E2E2E2E2E2E2E2E2E2E2E2E2E2E2E2E2E2E2E2E2E2E2E2E2E2E2E2E2E2E2E2E2E2E2E2E2E2E2E2E2E2E2E2E2E2E2E2E2E2E2E2E2E2E2E2E2E2E2E2E2E2E2
310
E2E2E2E2E2E2E2E2E2E2E2E2E2E2E2E2E2E2E2E2E2E2E2E2E2E2E2E2E2E2E2E2E2E2E2E2E2E2E2E2E2E2E2E2E2E2E2E2E2E2E2E2E2E2E2E2E2E2E2E2E2E2E2E2E2E2E2E2E2E2E2E2E2E2E2E2E2E2E2E2E2E2E2E2E2E2E2E2E2E2E2E2E2E2E2E2E2E2E2E2E2E2E2E2E2E2E2E2E2E2E2E2E2E2E2E2E2E2E2E2E2E2E2E2E2E2E2
310
E2E2E2E2E2E2E2E2E2E2E2E2E2E2E2E2E2E2E2E2E2E2E2E2E2E2E2E2E2E2E2E2E2E2E2E2E2E2E2E2E2E2E2E2E2E2E2E2E2E2E2E2E2E2E2E2E2E2E2E2E2E2E2E2E2E2E2E2E2E2E2E2E2E2E2E2E2E2E2E2E2E2E2E2E2E2E2E2E2E2E2E2E2E2E2E2E2E2E2E2E2E2E2E2E2E2E2E2E2E2E2E2E2E2E2E2E2E2E2E2E2E2E2E2E2E2E2
310
E2E2E2E2E2E2E2E2E2E2E2E2E2E2E2E2E2E2E2E2E2E2E2E2E2E2E2E2E2E2E2E2E2E2E2E2E2E2E2E2E2E2E2E2E2E2E2E2E2E2E2E2E2E2E2E2E2E2E2E2E2E2E2E2E2E2E2E2E2E2E2E2E2E2E2E2E2E2E2E2E2E2E2E2E2E2E2E2E2E2E2E2E2E2E2E2E2E2E2E2E2E2E2E2E2E2E2E2E2E2E2E2E2E2E2E2E2E2E2E2E2E2E2E2E2E2E2
310
E2E2E2E2E2E2E2E2E2E2E2E2E2E2E2E2E2E2E2E2E2E2E2E2E2E2E2E2E2E2E2E2E2E2E2E2E2E2E2E2E2E2E2E2E2E2E2E2E2E2E2E2E2E2E2E2E2E2E2E2E2E2E2E2E2E2E2E2E2E2E2E2E2E2E2E2E2E2E2E2E2E2E2E2E2E2E2E2E2E2E2E2E2E2E2E2E2E2E2E2E2E2E2E2E2E2E2E2E2E2E2E2E2E2E2E2E2E2E2E2E2E2E2E2E2E2E2
310
E2E2E2E2E2E2E2E2E2E2E2E2E2E2E2E2E2E2E2E2E2E2E2E2E2E2E2E2E2E2E2E2E2E2E2E2E2E2E2E2E2E2E2E2E2E2E2E2E2E2E2E2E2E2E2E2E2E2E2E2E2E2E2E2E2E2E2E2E2E2E2E2E2E2E2E2E2E2E2E2E2E2E2E2E2E2E2E2E2E2E2E2E2E2E2E2E2E2E2E2E2E2E2E2E2E2E2E2E2E2E2E2E2E2E2E2E2E2E2E2E2E2E2E2E2E2E2
310
E2E2E2E2E2E2E2E2E2E2E2E2E2E2E2E2E2E2E2E2E2E2E2E2E2E2E2E2E2E2E2E2E2E2E2E2E2E2E2E2E2E2E2E2E2E2E2E2E2E2E2E2E2E2E2E2E2E2E2E2E2E2E2E2E2E2E2E2E2E2E2E2E2E2E2E2E2E2E2E2E2E2E2E2E2E2E2E2E2E2E2E2E2E2E2E2E2E2E2E2E2E2E2E2E2E2E2E2E2E2E2E2E2E2E2E2E2E2E2E2E2E2E2E2E2E2E2
310
E2E2E2E2E2E2E2E2E2E2E2E2E2E2E2E2E2E2E2E2E2E2E2E2E2E2E2E2E2E2E2E2E2E2E2E2E2E2E2E2E2E2E2E2E2E2E2E2E2E2E2E2E2E2E2E2E2E2E2E2E2E2E2E2E2E2E2E2E2E2E2E2E2E2E2E2E2E2E2E2E2E2E2E2E2E2E2E2E2E2E2E2E2E2E2E2E2E2E2E2E2E2E2E2E2E2E2E2E2E2E2E2E2E2E2E2E2E2E2E2E2E2E2E2E2E2E2
310
E2E2E2E2E2E2E2E2E2E2E2E2E2E2E2E2E2E2E2E2E2E2E2E2E2E2E2E2E2E2E2E2E2E2E2E2E2E2E2E2E2E2E2E2E2E2E2E2E2E2E2E2E2E2E2E2E2E2E2E2E2E2E2E2E2E2E2E2E2E2E2E2E2E2E2E2E2E2E2E2E2E2E2E2E2E2E2E2E2E2E2E2E2E2E2E2E2E2E2E2E2E2E2E2E2E2E2E2E2E2E2E2E2E2E2E2E2E2E2E2E2E2E2E2E2E2E2
310
E2E2E2E2E2E2E2E2E2E2E2E2E2E2E2E2E2E2E2E2E2E2E2E2E2E2E2E2E2E2E2E2E2E2E2E2E2E2E2E2E2E2E2E2E2E2E2E2E2E2E2E2E2E2E2E2E2E2E2E2E2E2E2E2E2E2E2E2E2E2E2E2E2E2E2E2E2E2E2E2E2E2E2E2E2E2E2E2E2E2E2E2E2E2E2E2E2E2E2E2E2E2E2E2E2E2E2E2E2E2E2E2E2E2E2E2E2E2E2E2E2E2E2E2E2E2E2
310
E2E2E2E2E2E2E2E2E2E2E2E2E2E2E2E2E2E2E2E2E2E2E2E2E2E2E2E2E2E2E2E2E2E2E2E2E2E2E2E2E2E2E2E2E2E2E2E2E2E2E2E2E2E2E2E2E2E2E2E2E2E2E2E2E2E2E2E2E2E2E2E2E2E2E2E2E2E2E2E2E2E2E2E2E2E2E2E2E2E2E2E2E2E2E2E2E2E2E2E2E2E2E2E2E2E2E2E2E2E2E2E2E2E2E2E2E2E2E2E2E2E2E2E2E2E2E2
310
E2E2E2E2E2E2E2E2E2E2E2E2E2E2E2E2E2E2E2E2E2E2E2E2E2E2E2E2E2E2E2E2E2E2E2E2E2E2E2E2E2E2E2E2E2E2E2E2E2E2E2E2E2E2E2E2E2E2E2E2E2E2E2E2E2E2E2E2E2E2E2E2E2E2E2E2E2E2E2E2E2E2E2E2E2E2E2E2E2E2E2E2E2E2E2E2E2E2E2E2E2E2E2E2E2E2E2E2E2E2E2E2E2E2E2E2E2E2E2E2E2E2E2E2E2E2E2
310
E2E2E2E2E2E2E2E2E2E2E2E2E2E2E2E2E2E2E2E2E2E2E2E2E2E2E2E2E2E2E2E2E2E2E2E2E2E2E2E2E2E2E2E2E2E2E2E2E2E2E2E2E2E2E2E2E2E2E2E2E2E2E2E2E2E2E2E2E2E2E2E2E2E2E2E2E2E2E2E2E2E2E2E2E2E2E2E2E2E2E2E2E2E2E2E2E2E2E2E2E2E2E2E2E2E2E2E2E2E2E2E2E2E2E2E2E2E2E2E2E2E2E2E2E2E2E2
310
E2E2E2E2E2E2E2E2E2E2E2E2E2E2E2E2E2E2E2E2E2E2E2E2E2E2E2E2E2E2E2E2E2E2E2E2E2E2E2E2E2E2E2E2E2E2E2E2E2E2E2E2E2E2E2E2E2E2E2E2E2E2E2E2E2E2E2E2E2E2E2E2E2E2E2E2E2E2E2E2E2E2E2E2E2E2E2E2E2E2E2E2E2E2E2E2E2E2E2E2E2E2E2E2E2E2E2E2E2E2E2E2E2E2E2E2E2E2E2E2E2E2E2E2E2E2E2
310
E2E2E2E2E2E2E2E2E2E2E2E2E2E2E2E2E2E2E2E2E2E2E2E2E2E2E2E2E2E2E2E2E2E2E2E2E2E2E2E2E2E2E2E2E2E2E2E2E2E2E2E2E2E2E2E2E2E2E2E2E2E2E2E2E2E2E2E2E2E2E2E2E2E2E2E2E2E2E2E2E2E2E2E2E2E2E2E2E2E2E2E2E2E2E2E2E2E2E2E2E2E2E2E2E2E2E2E2E2E2E2E2E2E2E2E2E2E2E2E2E2E2E2E2E2E2E2
310
E2E2E2E2E2E2E2E2E2E2E2E2E2E2E2E2E2E2E2E2E2E2E2E2E2E2E2E2E2E2E2E2E2E2E2E2E2E2E2E2E2E2E2E2E2E2E2E2E2E2E2E2E2E2E2E2E2E2E2E2E2E2E2E2E2E2E2E2E2E2E2E2E2E2E2E2E2E2E2E2E2E2E2E2E2E2E2E2E2E2E2E2E2E2E2E2E2E2E2E2E2E2E2E2E2E2E2E2E2E2E2E2E2E2E2E2E2E2E2E2E2E2E2E2E2E2E2
310
E2E2E2E2E2E2E2E2E2E2E2E2E2E2E2E2E2E2E2E2E2E2E2E2E2E2E2E2E2E2E2E2E2E2E2E2E2E2E2E2E2E2E2E2E2E2E2E2E2E2E2E2E2E2E2E2E2E2E2E2E2E2E2E2E2E2E2E2E2E2E2E2E2E2E2E2E2E2E2E2E2E2E2E2E2E2E2E2E2E2E2E2E2E2E2E2E2E2E2E2E2E2E2E2E2E2E2E2E2E2E2E2E2E2E2E2E2E2E2E2E2E2E2E2E2E2E2
310
E2E2E2E2E2E2E2E2E2E2E2E2E2E2E2E2E2E2E2E2E2E2E2E2E2E2E2E2E2E2E2E2E2E2E2E2E2E2E2E2E2E2E2E2E2E2E2E2E2E2E2E2E2E2E2E2E2E2E2E2E2E2E2E2E2E2E2E2E2E2E2E2E2E2E2E2E2E2E2E2E2E2E2E2E2E2E2E2E2E2E2E2E2E2E2E2E2E2E2E2E2E2E2E2E2E2E2E2E2E2E2E2E2E2E2E2E2E2E2E2E2E2E2E2E2E2E2
310
E2E2E2E2E2E2E2E2E2E2E2E2E2E2E2E2E2E2E2E2E2E2E2E2E2E2E2E2E2E2E2E2E2E2E2E2E2E2E2E2E2E2E2E2E2E2E2E2E2E2E2E2E2E2E2E2E2E2E2E2E2E2E2E2E2E2E2E2E2E2E2E2E2E2E2E2E2E2E2E2E2E2E2E2E2E2E2E2E2E2E2E2E2E2E2E2E2E2E2E2E2E2E2E2E2E2E2E2E2E2E2E2E2E2E2E2E2E2E2E2E2E2E2E2E2E2E2
310
E2E2E2E2E2E2E2E2E2E2E2E2E2E2E2E2E2E2E2E2E2E2E2E2E2E2E2E2E2E2E2E2E2E2E2E2E2E2E2E2E2E2E2E2E2E2E2E2E2E2E2E2E2E2E2E2E2E2E2E2E2E2E2E2E2E2E2E2E2E2E2E2E2E2E2E2E2E2E2E2E2E2E2E2E2E2E2E2E2E2E2E2E2E2E2E2E2E2E2E2E2E2E2E2E2E2E2E2E2E2E2E2E2E2E2E2E2E2E2E2E2E2E2E2E2E2E2
310
E2E2E2E2E2E2E2E2E2E2E2E2E2E2E2E2E2E2E2E2E2E2E2E2E2E2E2E2E2E2E2E2E2E2E2E2E2E2E2E2E2E2E2E2E2E2E2E2E2E2E2E2E2E2E2E2E2E2E2E2E2E2E2E2E2E2E2E2E2E2E2E2E2E2E2E2E2E2E2E2E2E2E2E2E2E2E2E2E2E2E2E2E2E2E2E2E2E2E2E2E2E2E2E2E2E2E2E2E2E2E2E2E2E2E2E2E2E2E2E2E2E2E2E2E2E2E2
310
E2E2E2E2E2E2E2E2E2E2E2E2E2E2E2E2E2E2E2E2E2E2E2E2E2E2E2E2E2E2E2E2E2E2E2E2E2E2E2E2E2E2E2E2E2E2E2E2E2E2E2E2E2E2E2E2E2E2E2E2E2E2E2E2E2E2E2E2E2E2E2E2E2E2E2E2E2E2E2E2E2E2E2E2E2E2E2E2E2E2E2E2E2E2E2E2E2E2E2E2E2E2E2E2E2E2E2E2E2E2E2E2E2E2E2E2E2E2E2E2E2E2E2E2E2E2E2
310
E2E2E2E2E2E2E2E2E2E2E2E2E2E2E2E2E2E2E2E2E2E2E2E2E2E2E2E2E2E2E2E2E2E2E2E2E2E2E2E2E2E2E2E2E2E2E2E2E2E2E2E2E2E2E2E2E2E2E2E2E2E2E2E2E2E2E2E2E2E2E2E2E2E2E2E2E2E2E2E2E2E2E2E2E2E2E2E2E2E2E2E2E2E2E2E2E2E2E2E2E2E2E2E2E2E2E2E2E2E2E2E2E2E2E2E2E2E2E2E2E2E2E2E2E2E2E2
310
E2E2E2E2E2E2E2E2E2E2E2E2E2E2E2E2E2E2E2E2E2E2E2E2E2E2E2E2E2E2E2E2E2E2E2E2E2E2E2E2E2E2E2E2E2E2E2E2E2E2E2E2E2E2E2E2E2E2E2E2E2E2E2E2E2E2E2E2E2E2E2E2E2E2E2E2E2E2E2E2E2E2E2E2E2E2E2E2E2E2E2E2E2E2E2E2E2E2E2E2E2E2E2E2E2E2E2E2E2E2E2E2E2E2E2E2E2E2E2E2E2E2E2E2E2E2E2
310
E2E2E2E2E2E2E2E2E2E2E2E2E2E2E2E2E2E2E2E2E2E2E2E2E2E2E2E2E2E2E2E2E2E2E2E2E2E2E2E2E2E2E2E2E2E2E2E2E2E2E2E2E2E2E2E2E2E2E2E2E2E2E2E2E2E2E2E2E2E2E2E2E2E2E2E2E2E2E2E2E2E2E2E2E2E2E2E2E2E2E2E2E2E2E2E2E2E2E2E2E2E2E2E2E2E2E2E2E2E2E2E2E2E2E2E2E2E2E2E2E2E2E2E2E2E2E2
310
E2E2E2E2E2E2E2E2E2E2E2E2E2E2E2E2E2E2E2E2E2E2E2E2E2E2E2E2E2E2E2E2E2E2E2E2E2E2E2E2E2E2E2E2E2E2E2E2E2E2E2E2E2E2E2E2E2E2E2E2E2E2E2E2E2E2E2E2E2E2E2E2E2E2E2E2E2E2E2E2E2E2E2E2E2E2E2E2E2E2E2E2E2E2E2E2E2E2E2E2E2E2E2E2E2E2E2E2E2E2E2E2E2E2E2E2E2E2E2E2E2E2E2E2E2E2E2
310
E2E2E2E2E2E2E2E2E2E2E2E2E2E2E2E2E2E2E2E2E2E2E2E2E2E2E2E2E2E2E2E2E2E2E2E2E2E2E2E2E2E2E2E2E2E2E2E2E2E2E2E2E2E2E2E2E2E2E2E2E2E2E2E2E2E2E2E2E2E2E2E2E2E2E2E2E2E2E2E2E2E2E2E2E2E2E2E2E2E2E2E2E2E2E2E2E2E2E2E2E2E2E2E2E2E2E2E2E2E2E2E2E2E2E2E2E2E2E2E2E2E2E2E2E2E2E2
310
E2E2E2E2E2E2E2E2E2E2E2E2E2E2E2E2E2E2E2E2E2E2E2E2E2E2E2E2E2E2E2E2E2E2E2E2E2E2E2E2E2E2E2E2E2E2E2E2E2E2E2E2E2E2E2E2E2E2E2E2E2E2E2E2E2E2E2E2E2E2E2E2E2E2E2E2E2E2E2E2E2E2E2E2E2E2E2E2E2E2E2E2E2E2E2E2E2E2E2E2E2E2E2E2E2E2E2E2E2E2E2E2E2E2E2E2E2E2E2E2E2E2E2E2E2E2E2
310
E2E2E2E2E2E2E2E2E2E2E2E2E2E2E2E2E2E2E2E2E2E2E2E2E2E2E2E2E2E2E2E2E2E2E2E2E2E2E2E2E2E2E2E2E2E2E2E2E2E2E2E2E2E2E2E2E2E2E2E2E2E2E2E2E2E2E2E2E2E2E2E2E2E2E2E2E2E2E2E2E2E2E2E2E2E2E2E2E2E2E2E2E2E2E2E2E2E2E2E2E2E2E2E2E2E2E2E2E2E2E2E2E2E2E2E2E2E2E2E2E2E2E2E2E2E2E2
310
E2E2E2E2E2E2E2E2E2E2E2E2E2E2E2E2E2E2E2E2E2E2E2E2E2E2E2E2E2E2E2E2E2E2E2E2E2E2E2E2E2E2E2E2E2E2E2E2E2E2E2E2E2E2E2E2E2E2E2E2E2E2E2E2E2E2E2E2E2E2E2E2E2E2E2E2E2E2E2E2E2E2E2E2E2E2E2E2E2E2E2E2E2E2E2E2E2E2E2E2E2E2E2E2E2E2E2E2E2E2E2E2E2E2E2E2E2E2E2E2E2E2E2E2E2E2E2
310
E2E2E2E2E2E2E2E2E2E2E2E2E2E2E2E2E2E2E2E2E2E2E2E2E2E2E2E2E2E2E2E2E2E2E2E2E2E2E2E2E2E2E2E2E2E2E2E2E2E2E2E2E2E2E2E2E2E2E2E2E2E2E2E2E2E2E2E2E2E2E2E2E2E2E2E2E2E2E2E2E2E2E2E2E2E2E2E2E2E2E2E2E2E2E2E2E2E2E2E2E2E2E2E2E2E2E2E2E2E2E2E2E2E2E2E2E2E2E2E2E2E2E2E2E2E2E2
310
E2E2E2E2E2E2E2E2E2E2E2E2E2E2E2E2E2E2E2E2E2E2E2E2E2E2E2E2E2E2E2E2E2E2E2E2E2E2E2E2E2E2E2E2E2E2E2E2E2E2E2E2E2E2E2E2E2E2E2E2E2E2E2E2E2E2E2E2E2E2E2E2E2E2E2E2E2E2E2E2E2E2E2E2E2E2E2E2E2E2E2E2E2E2E2E2E2E2E2E2E2E2E2E2E2E2E2E2E2E2E2E2E2E2E2E2E2E2E2E2E2E2E2E2E2E2E2
310
E2E2E2E2E2E2E2E2E2E2E2E2E2E2E2E2E2E2E2E2E2E2E2E2E2E2E2E2E2E2E2E2E2E2E2E2E2E2E2E2E2E2E2E2E2E2E2E2E2E2E2E2E2E2E2E2E2E2E2E2E2E2E2E2E2E2E2E2E2E2E2E2E2E2E2E2E2E2E2E2E2E2E2E2E2E2E2E2E2E2E2E2E2E2E2E2E2E2E2E2E2E2E2E2E2E2E2E2E2E2E2E2E2E2E2E2E2E2E2E2E2E2E2E2E2E2E2
310
E2E2E2E2E2E2E2E2E2E2E2E2E2E2E2E2E2E2E2E2E2E2E2E2E2E2E2E2E2E2E2E2E2E2E2E2E2E2E2E2E2E2E2E2E2E2E2E2E2E2E2E2E2E2E2E2E2E2E2E2E2E2E2E2E2E2E2E2E2E2E2E2E2E2E2E2E2E2E2E2E2E2E2E2E2E2E2E2E2E2E2E2E2E2E2E2E2E2E2E2E2E2E2E2E2E2E2E2E2E2E2E2E2E2E2E2E2E2E2E2E2E2E2E2E2E2E2
310
E2E2E2E2E2E2E2E2E2E2E2E2E2E2E2E2E2E2E2E2E2E2E2E2E2E2E2E2E2E2E2E2E2E2E2E2E2E2E2E2E2E2E2E2E2E2E2E2E2E2E2E2E2E2E2E2E2E2E2E2E2E2E2E2E2E2E2E2E2E2E2E2E2E2E2E2E2E2E2E2E2E2E2E2E2E2E2E2E2E2E2E2E2E2E2E2E2E2E2E2E2E2E2E2E2E2E2E2E2E2E2E2E2E2E2E2E2E2E2E2E2E2E2E2E2E2E2
310
E2E2E2E2E2E2E2E2E2E2E2E2E2E2E2E2E2E2E2E2E2E2E2E2E2E2E2E2E2E2E2E2E2E2E2E2E2E2E2E2E2E2E2E2E2E2E2E2E2E2E2E2E2E2E2E2E2E2E2E2E2E2E2E2E2E2E2E2E2E2E2E2E2E2E2E2E2E2E2E2E2E2E2E2E2E2E2E2E2E2E2E2E2E2E2E2E2E2E2E2E2E2E2E2E2E2E2E2E2E2E2E2E2E2E2E2E2E2E2E2E2E2E2E2E2E2E2
310
E2E2E2E2E2E2E2E2E2E2E2E2E2E2E2E2E2E2E2E2E2E2E2E2E2E2E2E2E2E2E2E2E2E2E2E2E2E2E2E2E2E2E2E2E2E2E2E2E2E2E2E2E2E2E2E2E2E2E2E2E2E2E2E2E2E2E2E2E2E2E2E2E2E2E2E2E2E2E2E2E2E2E2E2E2E2E2E2E2E2E2E2E2E2E2E2E2E2E2E2E2E2E2E2E2E2E2E2E2E2E2E2E2E2E2E2E2E2E2E2E2E2E2E2E2E2E2
310
E2E2E2E2E2E2E2E2E2E2E2E2E2E2E2E2E2E2E2E2E2E2E2E2E2E2E2E2E2E2E2E2E2E2E2E2E2E2E2E2E2E2E2E2E2E2E2E2E2E2E2E2E2E2E2E2E2E2E2E2E2E2E2E2E2E2E2E2E2E2E2E2E2E2E2E2E2E2E2E2E2E2E2E2E2E2E2E2E2E2E2E2E2E2E2E2E2E2E2E2E2E2E2E2E2E2E2E2E2E2E2E2E2E2E2E2E2E2E2E2E2E2E2E2E2E2E2
310
E2E2E2E2E2E2E2E2E2E2E2E2E2E2E2E2E2E2E2E2E2E2E2E2E2E2E2E2E2E2E2E2E2E2E2E2E2E2E2E2E2E2E2E2E2E2E2E2E2E2E2E2E2E2E2E2E2E2E2E2E2E2E2E2E2E2E2E2E2E2E2E2E2E2E2E2E2E2E2E2E2E2E2E2E2E2E2E2E2E2E2E2E2E2E2E2E2E2E2E2E2E2E2E2E2E2E2E2E2E2E2E2E2E2E2E2E2E2E2E2E2E2E2E2E2E2E2
310
E2E2E2E2E2E2E2E2E2E2E2E2E2E2E2E2E2E2E2E2E2E2E2E2E2E2E2E2E2E2E2E2E2E2E2E2E2E2E2E2E2E2E2E2E2E2E2E2E2E2E2E2E2E2E2E2E2E2E2E2E2E2E2E2E2E2E2E2E2E2E2E2E2E2E2E2E2E2E2E2E2E2E2E2E2E2E2E2E2E2E2E2E2E2E2E2E2E2E2E2E2E2E2E2E2E2E2E2E2E2E2E2E2E2E2E2E2E2E2E2E2E2E2E2E2E2E2
310
E2E2E2E2E2E2E2E2E2E2E2E2E2E2E2E2E2E2E2E2E2E2E2E2E2E2E2E2E2E2E2E2E2E2E2E2E2E2E2E2E2E2E2E2E2E2E2E2E2E2E2E2E2E2E2E2E2E2E2E2E2E2E2E2E2E2E2E2E2E2E2E2E2E2E2E2E2E2E2E2E2E2E2E2E2E2E2E2E2E2E2E2E2E2E2E2E2E2E2E2E2E2E2E2E2E2E2E2E2E2E2E2E2E2E2E2E2E2E2E2E2E2E2E2E2E2E2
310
E2E2E2E2E2E2E2E2E2E2E2E2E2E2E2E2E2E2E2E2E2E2E2E2E2E2E2E2E2E2E2E2E2E2E2E2E2E2E2E2E2E2E2E2E2E2E2E2E2E2E2E2E2E2E2E2E2E2E2E2E2E2E2E2E2E2E2E2E2E2E2E2E2E2E2E2E2E2E2E2E2E2E2E2E2E2E2E2E2E2E2E2E2E2E2E2E2E2E2E2E2E2E2E2E2E2E2E2E2E2E2E2E2E2E2E2E2E2E2E2E2E2E2E2E2E2E2
310
E2E2E2E2E2E2E2E2E2E2E2E2E2E2E2E2E2E2E2E2E2E2E2E2E2E2E2E2E2E2E2E2E2E2E2E2E2E2E2E2E2E2E2E2E2E2E2E2E2E2E2E2E2E2E2E2E2E2E2E2E2E2E2E2E2E2E2E2E2E2E2E2E2E2E2E2E2E2E2E2E2E2E2E2E2E2E2E2E2E2E2E2E2E2E2E2E2E2E2E2E2E2E2E2E2E2E2E2E2E2E2E2E2E2E2E2E2E2E2E2E2E2E2E2E2E2E2
310
E2E2E2E2E2E2E2E2E2E2E2E2E2E2E2E2E2E2E2E2E2E2E2E2E2E2E2E2E2E2E2E2E2E2E2E2E2E2E2E2E2E2E2E2E2E2E2E2E2E2E2E2E2E2E2E2E2E2E2E2E2E2E2E2E2E2E2E2E2E2E2E2E2E2E2E2E2E2E2E2E2E2E2E2E2E2E2E2E2E2E2E2E2E2E2E2E2E2E2E2E2E2E2E2E2E2E2E2E2E2E2E2E2E2E2E2E2E2E2E2E2E2E2E2E2E2E2
310
E2E2E2E2E2E2E2E2E2E2E2E2E2E2E2E2E2E2E2E2E2E2E2E2E2E2E2E2E2E2E2E2E2E2E2E2E2E2E2E2E2E2E2E2E2E2E2E2E2E2E2E2E2E2E2E2E2E2E2E2E2E2E2E2E2E2E2E2E2E2E2E2E2E2E2E2E2E2E2E2E2E2E2E2E2E2E2E2E2E2E2E2E2E2E2E2E2E2E2E2E2E2E2E2E2E2E2E2E2E2E2E2E2E2E2E2E2E2E2E2E2E2E2E2E2E2E2
310
E2E2E2E2E2E2E2E2E2E2E2E2E2E2E2E2E2E2E2E2E2E2E2E2E2E2E2E2E2E2E2E2E2E2E2E2E2E2E2E2E2E2E2E2E2E2E2E2E2E2E2E2E2E2E2E2E2E2E2E2E2E2E2E2E2E2E2E2E2E2E2E2E2E2E2E2E2E2E2E2E2E2E2E2E2E2E2E2E2E2E2E2E2E2E2E2E2E2E2E2E2E2E2E2E2E2E2E2E2E2E2E2E2E2E2E2E2E2E2E2E2E2E2E2E2E2E2
310
E2E2E2E2E2E2E2E2E2E2E2E2E2E2E2E2E2E2E2E2E2E2E2E2E2E2E2E2E2E2E2E2E2E2E2E2E2E2E2E2E2E2E2E2E2E2E2E2E2E2E2E2E2E2E2E2E2E2E2E2E2E2E2E2E2E2E2E2E2E2E2E2E2E2E2E2E2E2E2E2E2E2E2E2E2E2E2E2E2E2E2E2E2E2E2E2E2E2E2E2E2E2E2E2E2E2E2E2E2E2E2E2E2E2E2E2E2E2E2E2E2E2E2E2E2E2E2
310
E2E2E2E2E2E2E2E2E2E2E2E2E2E2E2E2E2E2E2E2E2E2E2E2E2E2E2E2E2E2E2E2E2E2E2E2E2E2E2E2E2E2E2E2E2E2E2E2E2E2E2E2E2E2E2E2E2E2E2E2E2E2E2E2E2E2E2E2E2E2E2E2E2E2E2E2E2E2E2E2E2E2E2E2E2E2E2E2E2E2E2E2E2E2E2E2E2E2E2E2E2E2E2E2E2E2E2E2E2E2E2E2E2E2E2E2E2E2E2E2E2E2E2E2E2E2E2
310
E2E2E2E2E2E2E2E2E2E2E2E2E2E2E2E2E2E2E2E2E2E2E2E2E2E2E2E2E2E2E2E2E2E2E2E2E2E2E2E2E2E2E2E2E2E2E2E2E2E2E2E2E2E2E2E2E2E2E2E2E2E2E2E2E2E2E2E2E2E2E2E2E2E2E2E2E2E2E2E2E2E2E2E2E2E2E2E2E2E2E2E2E2E2E2E2E2E2E2E2E2E2E2E2E2E2E2E2E2E2E2E2E2E2E2E2E2E2E2E2E2E2E2E2E2E2E2
310
E2E2E2E2E2E2E2E2E2E2E2E2E2E2E2E2E2E2E2E2E2E2E2E2E2E2E2E2E2E2E2E2E2E2E2E2E2E2E2E2E2E2E2E2E2E2E2E2E2E2E2E2E2E2E2E2E2E2E2E2E2E2E2E2E2E2E2E2E2E2E2E2E2E2E2E2E2E2E2E2E2E2E2E2E2E2E2E2E2E2E2E2E2E2E2E2E2E2E2E2E2E2E2E2E2E2E2E2E2E2E2E2E2E2E2E2E2E2E2E2E2E2E2E2E2E2E2
310
E2E2E2E2E2E2E2E2E2E2E2E2E2E2E2E2E2E2E2E2E2E2E2E2E2E2E2E2E2E2E2E2E2E2E2E2E2E2E2E2E2E2E2E2E2E2E2E2E2E2E2E2E2E2E2E2E2E2E2E2E2E2E2E2E2E2E2E2E2E2E2E2E2E2E2E2E2E2E2E2E2E2E2E2E2E2E2E2E2E2E2E2E2E2E2E2E2E2E2E2E2E2E2E2E2E2E2E2E2E2E2E2E2E2E2E2E2E2E2E2E2E2E2E2E2E2E2
310
E2E2E2E2E2E2E2E2E2E2E2E2E2E2E2E2E2E2E2E2E2E2E2E2E2E2E2E2E2E2E2E2E2E2E2E2E2E2E2E2E2E2E2E2E2E2E2E2E2E2E2E2E2E2E2E2E2E2E2E2E2E2E2E2E2E2E2E2E2E2E2E2E2E2E2E2E2E2E2E2E2E2E2E2E2E2E2E2E2E2E2E2E2E2E2E2E2E2E2E2E2E2E2E2E2E2E2E2E2E2E2E2E2E2E2E2E2E2E2E2E2E2E2E2E2E2E2
310
E2E2E2E2E2E2E2E2E2E2E2E2E2E2E2E2E2E2E2E2E2E2E2E2E2E2E2E2E2E2E2E2E2E2E2E2E2E2E2E2E2E2E2E2E2E2E2E2E2E2E2E2E2E2E2E2E2E2E2E2E2E2E2E2E2E2E2E2E2E2E2E2E2E2E2E2E2E2E2E2E2E2E2E2E2E2E2E2E2E2E2E2E2E2E2E2E2E2E2E2E2E2E2E2E2E2E2E2E2E2E2E2E2E2E2E2E2E2E2E2E2E2E2E2E2E2E2
310
E2E2E2E2E2E2E2E2E2E2E2E2E2E2E2E2E2E2E2E2E2E2E2E2E2E2E2E2E2E2E2E2E2E2E2E2E2E2E2E2E2E2E2E2E2E2E2E2E2E2E2E2E2E2E2E2E2E2E2E2E2E2E2E2E2E2E2E2E2E2E2E2E2E2E2E2E2E2E2E2E2E2E2E2E2E2E2E2E2E2E2E2E2E2E2E2E2E2E2E2E2E2E2E2E2E2E2E2E2E2E2E2E2E2E2E2E2E2E2E2E2E2E2E2E2E2E2
310
E2E2E2E2E2E2E2E2E2E2E2E2E2E2E2E2E2E2E2E2E2E2E2E2E2E2E2E2E2E2E2E2E2E2E2E2E2E2E2E2E2E2E2E2E2E2E2E2E2E2E2E2E2E2E2E2E2E2E2E2E2E2E2E2E2E2E2E2E2E2E2E2E2E2E2E2E2E2E2E2E2E2E2E2E2E2E2E2E2E2E2E2E2E2E2E2E2E2E2E2E2E2E2E2E2E2E2E2E2E2E2E2E2E2E2E2E2E2E2E2E2E2E2E2E2E2E2
310
E2E2E2E2E2E2E2E2E2E2E2E2E2E2E2E2E2E2E2E2E2E2E2E2E2E2E2E2E2E2E2E2E2E2E2E2E2E2E2E2E2E2E2E2E2E2E2E2E2E2E2E2E2E2E2E2E2E2E2E2E2E2E2E2E2E2E2E2E2E2E2E2E2E2E2E2E2E2E2E2E2E2E2E2E2E2E2E2E2E2E2E2E2E2E2E2E2E2E2E2E2E2E2E2E2E2E2E2E2E2E2E2E2E2E2E2E2E2E2E2E2E2E2E2E2E2E2
310
E2E2E2E2E2E2E2E2E2E2E2E2E2E2E2E2E2E2E2E2E2E2E2E2E2E2E2E2E2E2E2E2E2E2E2E2E2E2E2E2E2E2E2E2E2E2E2E2E2E2E2E2E2E2E2E2E2E2E2E2E2E2E2E2E2E2E2E2E2E2E2E2E2E2E2E2E2E2E2E2E2E2E2E2E2E2E2E2E2E2E2E2E2E2E2E2E2E2E2E2E2E2E2E2E2E2E2E2E2E2E2E2E2E2E2E2E2E2E2E2E2E2E2E2E2E2E2
310
E2E2E2E2E2E2E2E2E2E2E2E2E2E2E2E2E2E2E2E2E2E2E2E2E2E2E2E2E2E2E2E2E2E2E2E2E2E2E2E2E2E2E2E2E2E2E2E2E2E2E2E2E2E2E2E2E2E2E2E2E2E2E2E2E2E2E2E2E2E2E2E2E2E2E2E2E2E2E2E2E2E2E2E2E2E2E2E2E2E2E2E2E2E2E2E2E2E2E2E2E2E2E2E2E2E2E2E2E2E2E2E2E2E2E2E2E2E2E2E2E2E2E2E2E2E2E2
310
E2E2E2E2E2E2E2E2E2E2E2E2E2E2E2E2E2E2E2E2E2E2E2E2E2E2E2E2E2E2E2E2E2E2E2E2E2E2E2E2E2E2E2E2E2E2E2E2E2E2E2E2E2E2E2E2E2E2E2E2E2E2E2E2E2E2E2E2E2E2E2E2E2E2E2E2E2E2E2E2E2E2E2E2E2E2E2E2E2E2E2E2E2E2E2E2E2E2E2E2E2E2E2E2E2E2E2E2E2E2E2E2E2E2E2E2E2E2E2E2E2E2E2E2E2E2E2
310
E2E2E2E2E2E2E2E2E2E2E2E2E2E2E2E2E2E2E2E2E2E2E2E2E2E2E2E2E2E2E2E2E2E2E2E2E2E2E2E2E2E2E2E2E2E2E2E2E2E2E2E2E2E2E2E2E2E2E2E2E2E2E2E2E2E2E2E2E2E2E2E2E2E2E2E2E2E2E2E2E2E2E2E2E2E2E2E2E2E2E2E2E2E2E2E2E2E2E2E2E2E2E2E2E2E2E2E2E2E2E2E2E2E2E2E2E2E2E2E2E2E2E2E2E2E2E2
310
E2E2E2E2E2E2E2E2E2E2E2E2E2E2E2E2E2E2E2E2E2E2E2E2E2E2E2E2E2E2E2E2E2E2E2E2E2E2E2E2E2E2E2E2E2E2E2E2E2E2E2E2E2E2E2E2E2E2E2E2E2E2E2E2E2E2E2E2E2E2E2E2E2E2E2E2E2E2E2E2E2E2E2E2E2E2E2E2E2E2E2E2E2E2E2E2E2E2E2E2E2E2E2E2E2E2E2E2E2E2E2E2E2E2E2E2E2E2E2E2E2E2E2E2E2E2E2
310
E2E2E2E2E2E2E2E2E2E2E2E2E2E2E2E2E2E2E2E2E2E2E2E2E2E2E2E2E2E2E2E2E2E2E2E2E2E2E2E2E2E2E2E2E2E2E2E2E2E2E2E2E2E2E2E2E2E2E2E2E2E2E2E2E2E2E2E2E2E2E2E2E2E2E2E2E2E2E2E2E2E2E2E2E2E2E2E2E2E2E2E2E2E2E2E2E2E2E2E2E2E2E2E2E2E2E2E2E2E2E2E2E2E2E2E2E2E2E2E2E2E2E2E2E2E2E2
310
E2E2E2E2E2E2E2E2E2E2E2E2E2E2E2E2E2E2E2E2E2E2E2E2E2E2E2E2E2E2E2E2E2E2E2E2E2E2E2E2E2E2E2E2E2E2E2E2E2E2E2E2E2E2E2E2E2E2E2E2E2E2E2E2E2E2E2E2E2E2E2E2E2E2E2E2E2E2E2E2E2E2E2E2E2E2E2E2E2E2E2E2E2E2E2E2E2E2E2E2E2E2E2E2E2E2E2E2E2E2E2E2E2E2E2E2E2E2E2E2E2E2E2E2E2E2E2
310
E2E2E2E2E2E2E2E2E2E2E2E2E2E2E2E2E2E2E2E2E2E2E2E2E2E2E2E2E2E2E2E2E2E2E2E2E2E2E2E2E2E2E2E2E2E2E2E2E2E2E2E2E2E2E2E2E2E2E2E2E2E2E2E2E2E2E2E2E2E2E2E2E2E2E2E2E2E2E2E2E2E2E2E2E2E2E2E2E2E2E2E2E2E2E2E2E2E2E2E2E2E2E2E2E2E2E2E2E2E2E2E2E2E2E2E2E2E2E2E2E2E2E2E2E2E2E2
310
E2E2E2E2E2E2E2E2E2E2E2E2E2E2E2E2E2E2E2E2E2E2E2E2E2E2E2E2E2E2E2E2E2E2E2E2E2E2E2E2E2E2E2E2E2E2E2E2E2E2E2E2E2E2E2E2E2E2E2E2E2E2E2E2E2E2E2E2E2E2E2E2E2E2E2E2E2E2E2E2E2E2E2E2E2E2E2E2E2E2E2E2E2E2E2E2E2E2E2E2E2E2E2E2E2E2E2E2E2E2E2E2E2E2E2E2E2E2E2E2E2E2E2E2E2E2E2
310
E2E2E2E2E2E2E2E2E2E2E2E2E2E2E2E2E2E2E2E2E2E2E2E2E2E2E2E2E2E2E2E2E2E2E2E2E2E2E2E2E2E2E2E2E2E2E2E2E2E2E2E2E2E2E2E2E2E2E2E2E2E2E2E2E2E2E2E2E2E2E2E2E2E2E2E2E2E2E2E2E2E2E2E2E2E2E2E2E2E2E2E2E2E2E2E2E2E2E2E2E2E2E2E2E2E2E2E2E2E2E2E2E2E2E2E2E2E2E2E2E2E2E2E2E2E2E2
310
E2E2E2E2E2E2E2E2E2E2E2E2E2E2E2E2E2E2E2E2E2E2E2E2E2E2E2E2E2E2E2E2E2E2E2E2E2E2E2E2E2E2E2E2E2E2E2E2E2E2E2E2E2E2E2E2E2E2E2E2E2E2E2E2E2E2E2E2E2E2E2E2E2E2E2E2E2E2E2E2E2E2E2E2E2E2E2E2E2E2E2E2E2E2E2E2E2E2E2E2E2E2E2E2E2E2E2E2E2E2E2E2E2E2E2E2E2E2E2E2E2E2E2E2E2E2E2
310
E2E2E2E2E2E2E2E2E2E2E2E2E2E2E2E2E2E2E2E2E2E2E2E2E2E2E2E2E2E2E2E2E2E2E2E2E2E2E2E2E2E2E2E2E2E2E2E2E2E2E2E2E2E2E2E2E2E2E2E2E2E2E2E2E2E2E2E2E2E2E2E2E2E2E2E2E2E2E2E2E2E2E2E2E2E2E2E2E2E2E2E2E2E2E2E2E2E2E2E2E2E2E2E2E2E2E2E2E2E2E2E2E2E2E2E2E2E2E2E2E2E2E2E2E2E2E2
310
E2E2E2E2E2E2E2E2E2E2E2E2E2E2E2E2E2E2E2E2E2E2E2E2E2E2E2E2E2E2E2E2E2E2E2E2E2E2E2E2E2E2E2E2E2E2E2E2E2E2E2E2E2E2E2E2E2E2E2E2E2E2E2E2E2E2E2E2E2E2E2E2E2E2E2E2E2E2E2E2E2E2E2E2E2E2E2E2E2E2E2E2E2E2E2E2E2E2E2E2E2E2E2E2E2E2E2E2E2E2E2E2E2E2E2E2E2E2E2E2E2E2E2E2E2E2E2
310
E2E2E2E2E2E2E2E2E2E2E2E2E2E2E2E2E2E2E2E2E2E2E2E2E2E2E2E2E2E2E2E2E2E2E2E2E2E2E2E2E2E2E2E2E2E2E2E2E2E2E2E2E2E2E2E2E2E2E2E2E2E2E2E2E2E2E2E2E2E2E2E2E2E2E2E2E2E2E2E2E2E2E2E2E2E2E2E2E2E2E2E2E2E2E2E2E2E2E2E2E2E2E2E2E2E2E2E2E2E2E2E2E2E2E2E2E2E2E2E2E2E2E2E2E2E2E2
310
E2E2E2E2E2E2E2E2E2E2E2E2E2E2E2E2E2E2E2E2E2E2E2E2E2E2E2E2E2E2E2E2E2E2E2E2E2E2E2E2E2E2E2E2E2E2E2E2E2E2E2E2E2E2E2E2E2E2E2E2E2E2E2E2E2E2E2E2E2E2E2E2E2E2E2E2E2E2E2E2E2E2E2E2E2E2E2E2E2E2E2E2E2E2E2E2E2E2E2E2E2E2E2E2E2E2E2E2E2E2E2E2E2E2E2E2E2E2E2E2E2E2E2E2E2E2E2
310
E2E2E2E2E2E2E2E2E2E2E2E2E2E2E2E2E2E2E2E2E2E2E2E2E2E2E2E2E2E2E2E2E2E2E2E2E2E2E2E2E2E2E2E2E2E2E2E2E2E2E2E2E2E2E2E2E2E2E2E2E2E2E2E2E2E2E2E2E2E2E2E2E2E2E2E2E2E2E2E2E2E2E2E2E2E2E2E2E2E2E2E2E2E2E2E2E2E2E2E2E2E2E2E2E2E2E2E2E2E2E2E2E2E2E2E2E2E2E2E2E2E2E2E2E2E2E2
310
E2E2E2E2E2E2E2E2E2E2E2E2E2E2E2E2E2E2E2E2E2E2E2E2E2E2E2E2E2E2E2E2E2E2E2E2E2E2E2E2E2E2E2E2E2E2E2E2E2E2E2E2E2E2E2E2E2E2E2E2E2E2E2E2E2E2E2E2E2E2E2E2E2E2E2E2E2E2E2E2E2E2E2E2E2E2E2E2E2E2E2E2E2E2E2E2E2E2E2E2E2E2E2E2E2E2E2E2E2E2E2E2E2E2E2E2E2E2E2E2E2E2E2E2E2E2E2
310
E2E2E2E2E2E2E2E2E2E2E2E2E2E2E2E2E2E2E2E2E2E2E2E2E2E2E2E2E2E2E2E2E2E2E2E2E2E2E2E2E2E2E2E2E2E2E2E2E2E2E2E2E2E2E2E2E2E2E2E2E2E2E2E2E2E2E2E2E2E2E2E2E2E2E2E2E2E2E2E2E2E2E2E2E2E2E2E2E2E2E2E2E2E2E2E2E2E2E2E2E2E2E2E2E2E2E2E2E2E2E2E2E2E2E2E2E2E2E2E2E2E2E2E2E2E2E2
310
E2E2E2E2E2E2E2E2E2E2E2E2E2E2E2E2E2E2E2E2E2E2E2E2E2E2E2E2E2E2E2E2E2E2E2E2E2E2E2E2E2E2E2E2E2E2E2E2E2E2E2E2E2E2E2E2E2E2E2E2E2E2E2E2E2E2E2E2E2E2E2E2E2E2E2E2E2E2E2E2E2E2E2E2E2E2E2E2E2E2E2E2E2E2E2E2E2E2E2E2E2E2E2E2E2E2E2E2E2E2E2E2E2E2E2E2E2E2E2E2E2E2E2E2E2E2E2
310
E2E2E2E2E2E2E2E2E2E2E2E2E2E2E2E2E2E2E2E2E2E2E2E2E2E2E2E2E2E2E2E2E2E2E2E2E2E2E2E2E2E2E2E2E2E2E2E2E2E2E2E2E2E2E2E2E2E2E2E2E2E2E2E2E2E2E2E2E2E2E2E2E2E2E2E2E2E2E2E2E2E2E2E2E2E2E2E2E2E2E2E2E2E2E2E2E2E2E2E2E2E2E2E2E2E2E2E2E2E2E2E2E2E2E2E2E2E2E2E2E2E2E2E2E2E2E2
310
E2E2E2E2E2E2E2E2E2E2E2E2E2E2E2E2E2E2E2E2E2E2E2E2E2E2E2E2E2E2E2E2E2E2E2E2E2E2E2E2E2E2E2E2E2E2E2E2E2E2E2E2E2E2E2E2E2E2E2E2E2E2E2E2E2E2E2E2E2E2E2E2E2E2E2E2E2E2E2E2E2E2E2E2E2E2E2E2E2E2E2E2E2E2E2E2E2E2E2E2E2E2E2E2E2E2E2E2E2E2E2E2E2E2E2E2E2E2E2E2E2E2E2E2E2E2E2
310
E2E2E2E2E2E2E2E2E2E2E2E2E2E2E2E2E2E2E2E2E2E2E2E2E2E2E2E2E2E2E2E2E2E2E2E2E2E2E2E2E2E2E2E2E2E2E2E2E2E2E2E2E2E2E2E2E2E2E2E2E2E2E2E2E2E2E2E2E2E2E2E2E2E2E2E2E2E2E2E2E2E2E2E2E2E2E2E2E2E2E2E2E2E2E2E2E2E2E2E2E2E2E2E2E2E2E2E2E2E2E2E2E2E2E2E2E2E2E2E2E2E2E2E2E2E2E2
310
E2E2E2E2E2E2E2E2E2E2E2E2E2E2E2E2E2E2E2E2E2E2E2E2E2E2E2E2E2E2E2E2E2E2E2E2E2E2E2E2E2E2E2E2E2E2E2E2E2E2E2E2E2E2E2E2E2E2E2E2E2E2E2E2E2E2E2E2E2E2E2E2E2E2E2E2E2E2E2E2E2E2E2E2E2E2E2E2E2E2E2E2E2E2E2E2E2E2E2E2E2E2E2E2E2E2E2E2E2E2E2E2E2E2E2E2E2E2E2E2E2E2E2E2E2E2E2
310
E2E2E2E2E2E2E2E2E2E2E2E2E2E2E2E2E2E2E2E2E2E2E2E2E2E2E2E2E2E2E2E2E2E2E2E2E2E2E2E2E2E2E2E2E2E2E2E2E2E2E2E2E2E2E2E2E2E2E2E2E2E2E2E2E2E2E2E2E2E2E2E2E2E2E2E2E2E2E2E2E2E2E2E2E2E2E2E2E2E2E2E2E2E2E2E2E2E2E2E2E2E2E2E2E2E2E2E2E2E2E2E2E2E2E2E2E2E2E2E2E2E2E2E2E2E2E2
310
E2E2E2E2E2E2E2E2E2E2E2E2E2E2E2E2E2E2E2E2E2E2E2E2E2E2E2E2E2E2E2E2E2E2E2E2E2E2E2E2E2E2E2E2E2E2E2E2E2E2E2E2E2E2E2E2E2E2E2E2E2E2E2E2E2E2E2E2E2E2E2E2E2E2E2E2E2E2E2E2E2E2E2E2E2E2E2E2E2E2E2E2E2E2E2E2E2E2E2E2E2E2E2E2E2E2E2E2E2E2E2E2E2E2E2E2E2E2E2E2E2E2E2E2E2E2E2
310
E2E2E2E2E2E2E2E2E2E2E2E2E2E2E2E2E2E2E2E2E2E2E2E2E2E2E2E2E2E2E2E2E2E2E2E2E2E2E2E2E2E2E2E2E2E2E2E2E2E2E2E2E2E2E2E2E2E2E2E2E2E2E2E2E2E2E2E2E2E2E2E2E2E2E2E2E2E2E2E2E2E2E2E2E2E2E2E2E2E2E2E2E2E2E2E2E2E2E2E2E2E2E2E2E2E2E2E2E2E2E2E2E2E2E2E2E2E2E2E2E2E2E2E2E2E2E2
310
E2E2E2E2E2E2E2E2E2E2E2E2E2E2E2E2E2E2E2E2E2E2E2E2E2E2E2E2E2E2E2E2E2E2E2E2E2E2E2E2E2E2E2E2E2E2E2E2E2E2E2E2E2E2E2E2E2E2E2E2E2E2E2E2E2E2E2E2E2E2E2E2E2E2E2E2E2E2E2E2E2E2E2E2E2E2E2E2E2E2E2E2E2E2E2E2E2E2E2E2E2E2E2E2E2E2E2E2E2E2E2E2E2E2E2E2E2E2E2E2E2E2E2E2E2E2E2
310
E2E2E2E2E2E2E2E2E2E2E2E2E2E2E2E2E2E2E2E2E2E2E2E2E2E2E2E2E2E2E2E2E2E2E2E2E2E2E2E2E2E2E2E2E2E2E2E2E2E2E2E2E2E2E2E2E2E2E2E2E2E2E2E2E2E2E2E2E2E2E2E2E2E2E2E2E2E2E2E2E2E2E2E2E2E2E2E2E2E2E2E2E2E2E2E2E2E2E2E2E2E2E2E2E2E2E2E2E2E2E2E2E2E2E2E2E2E2E2E2E2E2E2E2E2E2E2
310
E2E2E2E2E2E2E2E2E2E2E2E2E2E2E2E2E2E2E2E2E2E2E2E2E2E2E2E2E2E2E2E2E2E2E2E2E2E2E2E2E2E2E2E2E2E2E2E2E2E2E2E2E2E2E2E2E2E2E2E2E2E2E2E2E2E2E2E2E2E2E2E2E2E2E2E2E2E2E2E2E2E2E2E2E2E2E2E2E2E2E2E2E2E2E2E2E2E2E2E2E2E2E2E2E2E2E2E2E2E2E2E2E2E2E2E2E2E2E2E2E2E2E2E2E2E2E2
310
E2E2E2E2E2E2E2E2E2E2E2E2E2E2E2E2E2E2E2E2E2E2E2E2E2E2E2E2E2E2E2E2E2E2E2E2E2E2E2E2E2E2E2E2E2E2E2E2E2E2E2E2E2E2E2E2E2E2E2E2E2E2E2E2E2E2E2E2E2E2E2E2E2E2E2E2E2E2E2E2E2E2E2E2E2E2E2E2E2E2E2E2E2E2E2E2E2E2E2E2E2E2E2E2E2E2E2E2E2E2E2E2E2E2E2E2E2E2E2E2E2E2E2E2E2E2E2
310
E2E2E2E2E2E2E2E2E2E2E2E2E2E2E2E2E2E2E2E2E2E2E2E2E2E2E2E2E2E2E2E2E2E2E2E2E2E2E2E2E2E2E2E2E2E2E2E2E2E2E2E2E2E2E2E2E2E2E2E2E2E2E2E2E2E2E2E2E2E2E2E2E2E2E2E2E2E2E2E2E2E2E2E2E2E2E2E2E2E2E2E2E2E2E2E2E2E2E2E2E2E2E2E2E2E2E2E2E2E2E2E2E2E2E2E2E2E2E2E2E2E2E2E2E2E2E2
310
E2E2E2E2E2E2E2E2E2E2E2E2E2E2E2E2E2E2E2E2E2E2E2E2E2E2E2E2E2E2E2E2E2E2E2E2E2E2E2E2E2E2E2E2E2E2E2E2E2E2E2E2E2E2E2E2E2E2E2E2E2E2E2E2E2E2E2E2E2E2E2E2E2E2E2E2E2E2E2E2E2E2E2E2E2E2E2E2E2E2E2E2E2E2E2E2E2E2E2E2E2E2E2E2E2E2E2E2E2E2E2E2E2E2E2E2E2E2E2E2E2E2E2E2E2E2E2
310
E2E2E2E2E2E2E2E2E2E2E2E2E2E2E2E2E2E2E2E2E2E2E2E2E2E2E2E2E2E2E2E2E2E2E2E2E2E2E2E2E2E2E2E2E2E2E2E2E2E2E2E2E2E2E2E2E2E2E2E2E2E2E2E2E2E2E2E2E2E2E2E2E2E2E2E2E2E2E2E2E2E2E2E2E2E2E2E2E2E2E2E2E2E2E2E2E2E2E2E2E2E2E2E2E2E2E2E2E2E2E2E2E2E2E2E2E2E2E2E2E2E2E2E2E2E2E2
310
E2E2E2E2E2E2E2E2E2E2E2E2E2E2E2E2E2E2E2E2E2E2E2E2E2E2E2E2E2E2E2E2E2E2E2E2E2E2E2E2E2E2E2E2E2E2E2E2E2E2E2E2E2E2E2E2E2E2E2E2E2E2E2E2E2E2E2E2E2E2E2E2E2E2E2E2E2E2E2E2E2E2E2E2E2E2E2E2E2E2E2E2E2E2E2E2E2E2E2E2E2E2E2E2E2E2E2E2E2E2E2E2E2E2E2E2E2E2E2E2E2E2E2E2E2E2E2
310
E2E2E2E2E2E2E2E2E2E2E2E2E2E2E2E2E2E2E2E2E2E2E2E2E2E2E2E2E2E2E2E2E2E2E2E2E2E2E2E2E2E2E2E2E2E2E2E2E2E2E2E2E2E2E2E2E2E2E2E2E2E2E2E2E2E2E2E2E2E2E2E2E2E2E2E2E2E2E2E2E2E2E2E2E2E2E2E2E2E2E2E2E2E2E2E2E2E2E2E2E2E2E2E2E2E2E2E2E2E2E2E2E2E2E2E2E2E2E2E2E2E2E2E2E2E2E2
310
E2E2E2E2E2E2E2E2E2E2E2E2E2E2E2E2E2E2E2E2E2E2E2E2E2E2E2E2E2E2E2E2E2E2E2E2E2E2E2E2E2E2E2E2E2E2E2E2E2E2E2E2E2E2E2E2E2E2E2E2E2E2E2E2E2E2E2E2E2E2E2E2E2E2E2E2E2E2E2E2E2E2E2E2E2E2E2E2E2E2E2E2E2E2E2E2E2E2E2E2E2E2E2E2E2E2E2E2E2E2E2E2E2E2E2E2E2E2E2E2E2E2E2E2E2E2E2
310
E2E2E2E2E2E2E2E2E2E2E2E2E2E2E2E2E2E2E2E2E2E2E2E2E2E2E2E2E2E2E2E2E2E2E2E2E2E2E2E2E2E2E2E2E2E2E2E2E2E2E2E2E2E2E2E2E2E2E2E2E2E2E2E2E2E2E2E2E2E2E2E2E2E2E2E2E2E2E2E2E2E2E2E2E2E2E2E2E2E2E2E2E2E2E2E2E2E2E2E2E2E2E2E2E2E2E2E2E2E2E2E2E2E2E2E2E2E2E2E2E2E2E2E2E2E2E2
310
E2E2E2E2E2E2E2E2E2E2E2E2E2E2E2E2E2E2E2E2E2E2E2E2E2E2E2E2E2E2E2E2E2E2E2E2E2E2E2E2E2E2E2E2E2E2E2E2E2E2E2E2E2E2E2E2E2E2E2E2E2E2E2E2E2E2E2E2E2E2E2E2E2E2E2E2E2E2E2E2E2E2E2E2E2E2E2E2E2E2E2E2E2E2E2E2E2E2E2E2E2E2E2E2E2E2E2E2E2E2E2E2E2E2E2E2E2E2E2E2E2E2E2E2E2E2E2
310
E2E2E2E2E2E2E2E2E2E2E2E2E2E2E2E2E2E2E2E2E2E2E2E2E2E2E2E2E2E2E2E2E2E2E2E2E2E2E2E2E2E2E2E2E2E2E2E2E2E2E2E2E2E2E2E2E2E2E2E2E2E2E2E2E2E2E2E2E2E2E2E2E2E2E2E2E2E2E2E2E2E2E2E2E2E2E2E2E2E2E2E2E2E2E2E2E2E2E2E2E2E2E2E2E2E2E2E2E2E2E2E2E2E2E2E2E2E2E2E2E2E2E2E2E2E2E2
310
E2E2E2E2E2E2E2E2E2E2E2E2E2E2E2E2E2E2E2E2E2E2E2E2E2E2E2E2E2E2E2E2E2E2E2E2E2E2E2E2E2E2E2E2E2E2E2E2E2E2E2E2E2E2E2E2E2E2E2E2E2E2E2E2E2E2E2E2E2E2E2E2E2E2E2E2E2E2E2E2E2E2E2E2E2E2E2E2E2E2E2E2E2E2E2E2E2E2E2E2E2E2E2E2E2E2E2E2E2E2E2E2E2E2E2E2E2E2E2E2E2E2E2E2E2E2E2
310
E2E2E2E2E2E2E2E2E2E2E2E2E2E2E2E2E2E2E2E2E2E2E2E2E2E2E2E2E2E2E2E2E2E2E2E2E2E2E2E2E2E2E2E2E2E2E2E2E2E2E2E2E2E2E2E2E2E2E2E2E2E2E2E2E2E2E2E2E2E2E2E2E2E2E2E2E2E2E2E2E2E2E2E2E2E2E2E2E2E2E2E2E2E2E2E2E2E2E2E2E2E2E2E2E2E2E2E2E2E2E2E2E2E2E2E2E2E2E2E2E2E2E2E2E2E2E2
310
E2E2E2E2E2E2E2E2E2E2E2E2E2E2E2E2E2E2E2E2E2E2E2E2E2E2E2E2E2E2E2E2E2E2E2E2E2E2E2E2E2E2E2E2E2E2E2E2E2E2E2E2E2E2E2E2E2E2E2E2E2E2E2E2E2E2E2E2E2E2E2E2E2E2E2E2E2E2E2E2E2E2E2E2E2E2E2E2E2E2E2E2E2E2E2E2E2E2E2E2E2E2E2E2E2E2E2E2E2E2E2E2E2E2E2E2E2E2E2E2E2E2E2E2E2E2E2
310
E2E2E2E2E2E2E2E2E2E2E2E2E2E2E2E2E2E2E2E2E2E2E2E2E2E2E2E2E2E2E2E2E2E2E2E2E2E2E2E2E2E2E2E2E2E2E2E2E2E2E2E2E2E2E2E2E2E2E2E2E2E2E2E2E2E2E2E2E2E2E2E2E2E2E2E2E2E2E2E2E2E2E2E2E2E2E2E2E2E2E2E2E2E2E2E2E2E2E2E2E2E2E2E2E2E2E2E2E2E2E2E2E2E2E2E2E2E2E2E2E2E2E2E2E2E2E2
310
E2E2E2E2E2E2E2E2E2E2E2E2E2E2E2E2E2E2E2E2E2E2E2E2E2E2E2E2E2E2E2E2E2E2E2E2E2E2E2E2E2E2E2E2E2E2E2E2E2E2E2E2E2E2E2E2E2E2E2E2E2E2E2E2E2E2E2E2E2E2E2E2E2E2E2E2E2E2E2E2E2E2E2E2E2E2E2E2E2E2E2E2E2E2E2E2E2E2E2E2E2E2E2E2E2E2E2E2E2E2E2E2E2E2E2E2E2E2E2E2E2E2E2E2E2E2E2
310
E2E2E2E2E2E2E2E2E2E2E2E2E2E2E2E2E2E2E2E2E2E2E2E2E2E2E2E2E2E2E2E2E2E2E2E2E2E2E2E2E2E2E2E2E2E2E2E2E2E2E2E2E2E2E2E2E2E2E2E2E2E2E2E2E2E2E2E2E2E2E2E2E2E2E2E2E2E2E2E2E2E2E2E2E2E2E2E2E2E2E2E2E2E2E2E2E2E2E2E2E2E2E2E2E2E2E2E2E2E2E2E2E2E2E2E2E2E2E2E2E2E2E2E2E2E2E2
310
E2E2E2E2E2E2E2E2E2E2E2E2E2E2E2E2E2E2E2E2E2E2E2E2E2E2E2E2E2E2E2E2E2E2E2E2E2E2E2E2E2E2E2E2E2E2E2E2E2E2E2E2E2E2E2E2E2E2E2E2E2E2E2E2E2E2E2E2E2E2E2E2E2E2E2E2E2E2E2E2E2E2E2E2E2E2E2E2E2E2E2E2E2E2E2E2E2E2E2E2E2E2E2E2E2E2E2E2E2E2E2E2E2E2E2E2E2E2E2E2E2E2E2E2E2E2E2
310
E2E2E2E2E2E2E2E2E2E2E2E2E2E2E2E2E2E2E2E2E2E2E2E2E2E2E2E2E2E2E2E2E2E2E2E2E2E2E2E2E2E2E2E2E2E2E2E2E2E2E2E2E2E2E2E2E2E2E2E2E2E2E2E2E2E2E2E2E2E2E2E2E2E2E2E2E2E2E2E2E2E2E2E2E2E2E2E2E2E2E2E2E2E2E2E2E2E2E2E2E2E2E2E2E2E2E2E2E2E2E2E2E2E2E2E2E2E2E2E2E2E2E2E2E2E2E2
310
E2E2E2E2E2E2E2E2E2E2E2E2E2E2E2E2E2E2E2E2E2E2E2E2E2E2E2E2E2E2E2E2E2E2E2E2E2E2E2E2E2E2E2E2E2E2E2E2E2E2E2E2E2E2E2E2E2E2E2E2E2E2E2E2E2E2E2E2E2E2E2E2E2E2E2E2E2E2E2E2E2E2E2E2E2E2E2E2E2E2E2E2E2E2E2E2E2E2E2E2E2E2E2E2E2E2E2E2E2E2E2E2E2E2E2E2E2E2E2E2E2E2E2E2E2E2E2
310
E2E2E2E2E2E2E2E2E2E2E2E2E2E2E2E2E2E2E2E2E2E2E2E2E2E2E2E2E2E2E2E2E2E2E2E2E2E2E2E2E2E2E2E2E2E2E2E2E2E2E2E2E2E2E2E2E2E2E2E2E2E2E2E2E2E2E2E2E2E2E2E2E2E2E2E2E2E2E2E2E2E2E2E2E2E2E2E2E2E2E2E2E2E2E2E2E2E2E2E2E2E2E2E2E2E2E2E2E2E2E2E2E2E2E2E2E2E2E2E2E2E2E2E2E2E2E2
310
E2E2E2E2E2E2E2E2E2E2E2E2E2E2E2E2E2E2E2E2E2E2E2E2E2E2E2E2E2E2E2E2E2E2E2E2E2E2E2E2E2E2E2E2E2E2E2E2E2E2E2E2E2E2E2E2E2E2E2E2E2E2E2E2E2E2E2E2E2E2E2E2E2E2E2E2E2E2E2E2E2E2E2E2E2E2E2E2E2E2E2E2E2E2E2E2E2E2E2E2E2E2E2E2E2E2E2E2E2E2E2E2E2E2E2E2E2E2E2E2E2E2E2E2E2E2E2
310
E2E2E2E2E2E2E2E2E2E2E2E2E2E2E2E2E2E2E2E2E2E2E2E2E2E2E2E2E2E2E2E2E2E2E2E2E2E2E2E2E2E2E2E2E2E2E2E2E2E2E2E2E2E2E2E2E2E2E2E2E2E2E2E2E2E2E2E2E2E2E2E2E2E2E2E2E2E2E2E2E2E2E2E2E2E2E2E2E2E2E2E2E2E2E2E2E2E2E2E2E2E2E2E2E2E2E2E2E2E2E2E2E2E2E2E2E2E2E2E2E2E2E2E2E2E2E2
310
E2E2E2E2E2E2E2E2E2E2E2E2E2E2E2E2E2E2E2E2E2E2E2E2E2E2E2E2E2E2E2E2E2E2E2E2E2E2E2E2E2E2E2E2E2E2E2E2E2E2E2E2E2E2E2E2E2E2E2E2E2E2E2E2E2E2E2E2E2E2E2E2E2E2E2E2E2E2E2E2E2E2E2E2E2E2E2E2E2E2E2E2E2E2E2E2E2E2E2E2E2E2E2E2E2E2E2E2E2E2E2E2E2E2E2E2E2E2E2E2E2E2E2E2E2E2E2
310
E2E2E2E2E2E2E2E2E2E2E2E2E2E2E2E2E2E2E2E2E2E2E2E2E2E2E2E2E2E2E2E2E2E2E2E2E2E2E2E2E2E2E2E2E2E2E2E2E2E2E2E2E2E2E2E2E2E2E2E2E2E2E2E2E2E2E2E2E2E2E2E2E2E2E2E2E2E2E2E2E2E2E2E2E2E2E2E2E2E2E2E2E2E2E2E2E2E2E2E2E2E2E2E2E2E2E2E2E2E2E2E2E2E2E2E2E2E2E2E2E2E2E2E2E2E2E2
310
E2E2E2E2E2E2E2E2E2E2E2E2E2E2E2E2E2E2E2E2E2E2E2E2E2E2E2E2E2E2E2E2E2E2E2E2E2E2E2E2E2E2E2E2E2E2E2E2E2E2E2E2E2E2E2E2E2E2E2E2E2E2E2E2E2E2E2E2E2E2E2E2E2E2E2E2E2E2E2E2E2E2E2E2E2E2E2E2E2E2E2E2E2E2E2E2E2E2E2E2E2E2E2E2E2E2E2E2E2E2E2E2E2E2E2E2E2E2E2E2E2E2E2E2E2E2E2
310
E2E2E2E2E2E2E2E2E2E2E2E2E2E2E2E2E2E2E2E2E2E2E2E2E2E2E2E2E2E2E2E2E2E2E2E2E2E2E2E2E2E2E2E2E2E2E2E2E2E2E2E2E2E2E2E2E2E2E2E2E2E2E2E2E2E2E2E2E2E2E2E2E2E2E2E2E2E2E2E2E2E2E2E2E2E2E2E2E2E2E2E2E2E2E2E2E2E2E2E2E2E2E2E2E2E2E2E2E2E2E2E2E2E2E2E2E2E2E2E2E2E2E2E2E2E2E2
310
E2E2E2E2E2E2E2E2E2E2E2E2E2E2E2E2E2E2E2E2E2E2E2E2E2E2E2E2E2E2E2E2E2E2E2E2E2E2E2E2E2E2E2E2E2E2E2E2E2E2E2E2E2E2E2E2E2E2E2E2E2E2E2E2E2E2E2E2E2E2E2E2E2E2E2E2E2E2E2E2E2E2E2E2E2E2E2E2E2E2E2E2E2E2E2E2E2E2E2E2E2E2E2E2E2E2E2E2E2E2E2E2E2E2E2E2E2E2E2E2E2E2E2E2E2E2E2
310
E2E2E2E2E2E2E2E2E2E2E2E2E2E2E2E2E2E2E2E2E2E2E2E2E2E2E2E2E2E2E2E2E2E2E2E2E2E2E2E2E2E2E2E2E2E2E2E2E2E2E2E2E2E2E2E2E2E2E2E2E2E2E2E2E2E2E2E2E2E2E2E2E2E2E2E2E2E2E2E2E2E2E2E2E2E2E2E2E2E2E2E2E2E2E2E2E2E2E2E2E2E2E2E2E2E2E2E2E2E2E2E2E2E2E2E2E2E2E2E2E2E2E2E2E2E2E2
310
E2E2E2E2E2E2E2E2E2E2E2E2E2E2E2E2E2E2E2E2E2E2E2E2E2E2E2E2E2E2E2E2E2E2E2E2E2E2E2E2E2E2E2E2E2E2E2E2E2E2E2E2E2E2E2E2E2E2E2E2E2E2E2E2E2E2E2E2E2E2E2E2E2E2E2E2E2E2E2E2E2E2E2E2E2E2E2E2E2E2E2E2E2E2E2E2E2E2E2E2E2E2E2E2E2E2E2E2E2E2E2E2E2E2E2E2E2E2E2E2E2E2E2E2E2E2E2
310
E2E2E2E2E2E2E2E2E2E2E2E2E2E2E2E2E2E2E2E2E2E2E2E2E2E2E2E2E2E2E2E2E2E2E2E2E2E2E2E2E2E2E2E2E2E2E2E2E2E2E2E2E2E2E2E2E2E2E2E2E2E2E2E2E2E2E2E2E2E2E2E2E2E2E2E2E2E2E2E2E2E2E2E2E2E2E2E2E2E2E2E2E2E2E2E2E2E2E2E2E2E2E2E2E2E2E2E2E2E2E2E2E2E2E2E2E2E2E2E2E2E2E2E2E2E2E2
310
E2E2E2E2E2E2E2E2E2E2E2E2E2E2E2E2E2E2E2E2E2E2E2E2E2E2E2E2E2E2E2E2E2E2E2E2E2E2E2E2E2E2E2E2E2E2E2E2E2E2E2E2E2E2E2E2E2E2E2E2E2E2E2E2E2E2E2E2E2E2E2E2E2E2E2E2E2E2E2E2E2E2E2E2E2E2E2E2E2E2E2E2E2E2E2E2E2E2E2E2E2E2E2E2E2E2E2E2E2E2E2E2E2E2E2E2E2E2E2E2E2E2E2E2E2E2E2
310
E2E2E2E2E2E2E2E2E2E2E2E2E2E2E2E2E2E2E2E2E2E2E2E2E2E2E2E2E2E2E2E2E2E2E2E2E2E2E2E2E2E2E2E2E2E2E2E2E2E2E2E2E2E2E2E2E2E2E2E2E2E2E2E2E2E2E2E2E2E2E2E2E2E2E2E2E2E2E2E2E2E2E2E2E2E2E2E2E2E2E2E2E2E2E2E2E2E2E2E2E2E2E2E2E2E2E2E2E2E2E2E2E2E2E2E2E2E2E2E2E2E2E2E2E2E2E2
310
E2E2E2E2E2E2E2E2E2E2E2E2E2E2E2E2E2E2E2E2E2E2E2E2E2E2E2E2E2E2E2E2E2E2E2E2E2E2E2E2E2E2E2E2E2E2E2E2E2E2E2E2E2E2E2E2E2E2E2E2E2E2E2E2E2E2E2E2E2E2E2E2E2E2E2E2E2E2E2E2E2E2E2E2E2E2E2E2E2E2E2E2E2E2E2E2E2E2E2E2E2E2E2E2E2E2E2E2E2E2E2E2E2E2E2E2E2E2E2E2E2E2E2E2E2E2E2
310
E2E2E2E2E2E2E2E2E2E2E2E2E2E2E2E2E2E2E2E2E2E2E2E2E2E2E2E2E2E2E2E2E2E2E2E2E2E2E2E2E2E2E2E2E2E2E2E2E2E2E2E2E2E2E2E2E2E2E2E2E2E2E2E2E2E2E2E2E2E2E2E2E2E2E2E2E2E2E2E2E2E2E2E2E2E2E2E2E2E2E2E2E2E2E2E2E2E2E2E2E2E2E2E2E2E2E2E2E2E2E2E2E2E2E2E2E2E2E2E2E2E2E2E2E2E2E2
310
E2E2E2E2E2E2E2E2E2E2E2E2E2E2E2E2E2E2E2E2E2E2E2E2E2E2E2E2E2E2E2E2E2E2E2E2E2E2E2E2E2E2E2E2E2E2E2E2E2E2E2E2E2E2E2E2E2E2E2E2E2E2E2E2E2E2E2E2E2E2E2E2E2E2E2E2E2E2E2E2E2E2E2E2E2E2E2E2E2E2E2E2E2E2E2E2E2E2E2E2E2E2E2E2E2E2E2E2E2E2E2E2E2E2E2E2E2E2E2E2E2E2E2E2E2E2E2
310
E2E2E2E2E2E2E2E2E2E2E2E2E2E2E2E2E2E2E2E2E2E2E2E2E2E2E2E2E2E2E2E2E2E2E2E2E2E2E2E2E2E2E2E2E2E2E2E2E2E2E2E2E2E2E2E2E2E2E2E2E2E2E2E2E2E2E2E2E2E2E2E2E2E2E2E2E2E2E2E2E2E2E2E2E2E2E2E2E2E2E2E2E2E2E2E2E2E2E2E2E2E2E2E2E2E2E2E2E2E2E2E2E2E2E2E2E2E2E2E2E2E2E2E2E2E2E2
310
E2E2E2E2E2E2E2E2E2E2E2E2E2E2E2E2E2E2E2E2E2E2E2E2E2E2E2E2E2E2E2E2E2E2E2E2E2E2E2E2E2E2E2E2E2E2E2E2E2E2E2E2E2E2E2E2E2E2E2E2E2E2E2E2E2E2E2E2E2E2E2E2E2E2E2E2E2E2E2E2E2E2E2E2E2E2E2E2E2E2E2E2E2E2E2E2E2E2E2E2E2E2E2E2E2E2E2E2E2E2E2E2E2E2E2E2E2E2E2E2E2E2E2E2E2E2E2
310
E2E2E2E2E2E2E2E2E2E2E2E2E2E2E2E2E2E2E2E2E2E2E2E2E2E2E2E2E2E2E2E2E2E2E2E2E2E2E2E2E2E2E2E2E2E2E2E2E2E2E2E2E2E2E2E2E2E2E2E2E2E2E2E2E2E2E2E2E2E2E2E2E2E2E2E2E2E2E2E2E2E2E2E2E2E2E2E2E2E2E2E2E2E2E2E2E2E2E2E2E2E2E2E2E2E2E2E2E2E2E2E2E2E2E2E2E2E2E2E2E2E2E2E2E2E2E2
310
E2E2E2E2E2E2E2E2E2E2E2E2E2E2E2E2E2E2E2E2E2E2E2E2E2E2E2E2E2E2E2E2E2E2E2E2E2E2E2E2E2E2E2E2E2E2E2E2E2E2E2E2E2E2E2E2E2E2E2E2E2E2E2E2E2E2E2E2E2E2E2E2E2E2E2E2E2E2E2E2E2E2E2E2E2E2E2E2E2E2E2E2E2E2E2E2E2E2E2E2E2E2E2E2E2E2E2E2E2E2E2E2E2E2E2E2E2E2E2E2E2E2E2E2E2E2E2
310
E2E2E2E2E2E2E2E2E2E2E2E2E2E2E2E2E2E2E2E2E2E2E2E2E2E2E2E2E2E2E2E2E2E2E2E2E2E2E2E2E2E2E2E2E2E2E2E2E2E2E2E2E2E2E2E2E2E2E2E2E2E2E2E2E2E2E2E2E2E2E2E2E2E2E2E2E2E2E2E2E2E2E2E2E2E2E2E2E2E2E2E2E2E2E2E2E2E2E2E2E2E2E2E2E2E2E2E2E2E2E2E2E2E2E2E2E2E2E2E2E2E2E2E2E2E2E2
310
E2E2E2E2E2E2E2E2E2E2E2E2E2E2E2E2E2E2E2E2E2E2E2E2E2E2E2E2E2E2E2E2E2E2E2E2E2E2E2E2E2E2E2E2E2E2E2E2E2E2E2E2E2E2E2E2E2E2E2E2E2E2E2E2E2E2E2E2E2E2E2E2E2E2E2E2E2E2E2E2E2E2E2E2E2E2E2E2E2E2E2E2E2E2E2E2E2E2E2E2E2E2E2E2E2E2E2E2E2E2E2E2E2E2E2E2E2E2E2E2E2E2E2E2E2E2E2
310
E2E2E2E2E2E2E2E2E2E2E2E2E2E2E2E2E2E2E2E2E2E2E2E2E2E2E2E2E2E2E2E2E2E2E2E2E2E2E2E2E2E2E2E2E2E2E2E2E2E2E2E2E2E2E2E2E2E2E2E2E2E2E2E2E2E2E2E2E2E2E2E2E2E2E2E2E2E2E2E2E2E2E2E2E2E2E2E2E2E2E2E2E2E2E2E2E2E2E2E2E2E2E2E2E2E2E2E2E2E2E2E2E2E2E2E2E2E2E2E2E2E2E2E2E2E2E2
310
E2E2E2E2E2E2E2E2E2E2E2E2E2E2E2E2E2E2E2E2E2E2E2E2E2E2E2E2E2E2E2E2E2E2E2E2E2E2E2E2E2E2E2E2E2E2E2E2E2E2E2E2E2E2E2E2E2E2E2E2E2E2E2E2E2E2E2E2E2E2E2E2E2E2E2E2E2E2E2E2E2E2E2E2E2E2E2E2E2E2E2E2E2E2E2E2E2E2E2E2E2E2E2E2E2E2E2E2E2E2E2E2E2E2E2E2E2E2E2E2E2E2E2E2E2E2E2
310
E2E2E2E2E2E2E2E2E2E2E2E2E2E2E2E2E2E2E2E2E2E2E2E2E2E2E2E2E2E2E2E2E2E2E2E2E2E2E2E2E2E2E2E2E2E2E2E2E2E2E2E2E2E2E2E2E2E2E2E2E2E2E2E2E2E2E2E2E2E2E2E2E2E2E2E2E2E2E2E2E2E2E2E2E2E2E2E2E2E2E2E2E2E2E2E2E2E2E2E2E2E2E2E2E2E2E2E2E2E2E2E2E2E2E2E2E2E2E2E2E2E2E2E2E2E2E2
310
E2E2E2E2E2E2E2E2E2E2E2E2E2E2E2E2E2E2E2E2E2E2E2E2E2E2E2E2E2E2E2E2E2E2E2E2E2E2E2E2E2E2E2E2E2E2E2E2E2E2E2E2E2E2E2E2E2E2E2E2E2E2E2E2E2E2E2E2E2E2E2E2E2E2E2E2E2E2E2E2E2E2E2E2E2E2E2E2E2E2E2E2E2E2E2E2E2E2E2E2E2E2E2E2E2E2E2E2E2E2E2E2E2E2E2E2E2E2E2E2E2E2E2E2E2E2E2
310
E2E2E2E2E2E2E2E2E2E2E2E2E2E2E2E2E2E2E2E2E2E2E2E2E2E2E2E2E2E2E2E2E2E2E2E2E2E2E2E2E2E2E2E2E2E2E2E2E2E2E2E2E2E2E2E2E2E2E2E2E2E2E2E2E2E2E2E2E2E2E2E2E2E2E2E2E2E2E2E2E2E2E2E2E2E2E2E2E2E2E2E2E2E2E2E2E2E2E2E2E2E2E2E2E2E2E2E2E2E2E2E2E2E2E2E2E2E2E2E2E2E2E2E2E2E2E2
310
E2E2E2E2E2E2E2E2E2E2E2E2E2E2E2E2E2E2E2E2E2E2E2E2E2E2E2E2E2E2E2E2E2E2E2E2E2E2E2E2E2E2E2E2E2E2E2E2E2E2E2E2E2E2E2E2E2E2E2E2E2E2E2E2E2E2E2E2E2E2E2E2E2E2E2E2E2E2E2E2E2E2E2E2E2E2E2E2E2E2E2E2E2E2E2E2E2E2E2E2E2E2E2E2E2E2E2E2E2E2E2E2E2E2E2E2E2E2E2E2E2E2E2E2E2E2E2
310
E2E2E2E2E2E2E2E2E2E2E2E2E2E2E2E2E2E2E2E2E2E2E2E2E2E2E2E2E2E2E2E2E2E2E2E2E2E2E2E2E2E2E2E2E2E2E2E2E2E2E2E2E2E2E2E2E2E2E2E2E2E2E2E2E2E2E2E2E2E2E2E2E2E2E2E2E2E2E2E2E2E2E2E2E2E2E2E2E2E2E2E2E2E2E2E2E2E2E2E2E2E2E2E2E2E2E2E2E2E2E2E2E2E2E2E2E2E2E2E2E2E2E2E2E2E2E2
310
E2E2E2E2E2E2E2E2E2E2E2E2E2E2E2E2E2E2E2E2E2E2E2E2E2E2E2E2E2E2E2E2E2E2E2E2E2E2E2E2E2E2E2E2E2E2E2E2E2E2E2E2E2E2E2E2E2E2E2E2E2E2E2E2E2E2E2E2E2E2E2E2E2E2E2E2E2E2E2E2E2E2E2E2E2E2E2E2E2E2E2E2E2E2E2E2E2E2E2E2E2E2E2E2E2E2E2E2E2E2E2E2E2E2E2E2E2E2E2E2E2E2E2E2E2E2E2
310
E2E2E2E2E2E2E2E2E2E2E2E2E2E2E2E2E2E2E2E2E2E2E2E2E2E2E2E2E2E2E2E2E2E2E2E2E2E2E2E2E2E2E2E2E2E2E2E2E2E2E2E2E2E2E2E2E2E2E2E2E2E2E2E2E2E2E2E2E2E2E2E2E2E2E2E2E2E2E2E2E2E2E2E2E2E2E2E2E2E2E2E2E2E2E2E2E2E2E2E2E2E2E2E2E2E2E2E2E2E2E2E2E2E2E2E2E2E2E2E2E2E2E2E2E2E2E2
310
E2E2E2E2E2E2E2E2E2E2E2E2E2E2E2E2E2E2E2E2E2E2E2E2E2E2E2E2E2E2E2E2E2E2E2E2E2E2E2E2E2E2E2E2E2E2E2E2E2E2E2E2E2E2E2E2E2E2E2E2E2E2E2E2E2E2E2E2E2E2E2E2E2E2E2E2E2E2E2E2E2E2E2E2E2E2E2E2E2E2E2E2E2E2E2E2E2E2E2E2E2E2E2E2E2E2E2E2E2E2E2E2E2E2E2E2E2E2E2E2E2E2E2E2E2E2E2
310
E2E2E2E2E2E2E2E2E2E2E2E2E2E2E2E2E2E2E2E2E2E2E2E2E2E2E2E2E2E2E2E2E2E2E2E2E2E2E2E2E2E2E2E2E2E2E2E2E2E2E2E2E2E2E2E2E2E2E2E2E2E2E2E2E2E2E2E2E2E2E2E2E2E2E2E2E2E2E2E2E2E2E2E2E2E2E2E2E2E2E2E2E2E2E2E2E2E2E2E2E2E2E2E2E2E2E2E2E2E2E2E2E2E2E2E2E2E2E2E2E2E2E2E2E2E2E2
310
E2E2E2E2E2E2E2E2E2E2E2E2E2E2E2E2E2E2E2E2E2E2E2E2E2E2E2E2E2E2E2E2E2E2E2E2E2E2E2E2E2E2E2E2E2E2E2E2E2E2E2E2E2E2E2E2E2E2E2E2E2E2E2E2E2E2E2E2E2E2E2E2E2E2E2E2E2E2E2E2E2E2E2E2E2E2E2E2E2E2E2E2E2E2E2E2E2E2E2E2E2E2E2E2E2E2E2E2E2E2E2E2E2E2E2E2E2E2E2E2E2E2E2E2E2E2E2
310
E2E2E2E2E2E2E2E2E2E2E2E2E2E2E2E2E2E2E2E2E2E2E2E2E2E2E2E2E2E2E2E2E2E2E2E2E2E2E2E2E2E2E2E2E2E2E2E2E2E2E2E2E2E2E2E2E2E2E2E2E2E2E2E2E2E2E2E2E2E2E2E2E2E2E2E2E2E2E2E2E2E2E2E2E2E2E2E2E2E2E2E2E2E2E2E2E2E2E2E2E2E2E2E2E2E2E2E2E2E2E2E2E2E2E2E2E2E2E2E2E2E2E2E2E2E2E2
310
E2E2E2E2E2E2E2E2E2E2E2E2E2E2E2E2E2E2E2E2E2E2E2E2E2E2E2E2E2E2E2E2E2E2E2E2E2E2E2E2E2E2E2E2E2E2E2E2E2E2E2E2E2E2E2E2E2E2E2E2E2E2E2E2E2E2E2E2E2E2E2E2E2E2E2E2E2E2E2E2E2E2E2E2E2E2E2E2E2E2E2E2E2E2E2E2E2E2E2E2E2E2E2E2E2E2E2E2E2E2E2E2E2E2E2E2E2E2E2E2E2E2E2E2E2E2E2
310
E2E2E2E2E2E2E2E2E2E2E2E2E2E2E2E2E2E2E2E2E2E2E2E2E2E2E2E2E2E2E2E2E2E2E2E2E2E2E2E2E2E2E2E2E2E2E2E2E2E2E2E2E2E2E2E2E2E2E2E2E2E2E2E2E2E2E2E2E2E2E2E2E2E2E2E2E2E2E2E2E2E2E2E2E2E2E2E2E2E2E2E2E2E2E2E2E2E2E2E2E2E2E2E2E2E2E2E2E2E2E2E2E2E2E2E2E2E2E2E2E2E2E2E2E2E2E2
310
E2E2E2E2E2E2E2E2E2E2E2E2E2E2E2E2E2E2E2E2E2E2E2E2E2E2E2E2E2E2E2E2E2E2E2E2E2E2E2E2E2E2E2E2E2E2E2E2E2E2E2E2E2E2E2E2E2E2E2E2E2E2E2E2E2E2E2E2E2E2E2E2E2E2E2E2E2E2E2E2E2E2E2E2E2E2E2E2E2E2E2E2E2E2E2E2E2E2E2E2E2E2E2E2E2E2E2E2E2E2E2E2E2E2E2E2E2E2E2E2E2E2E2E2E2E2E2
310
E2E2E2E2E2E2E2E2E2E2E2E2E2E2E2E2E2E2E2E2E2E2E2E2E2E2E2E2E2E2E2E2E2E2E2E2E2E2E2E2E2E2E2E2E2E2E2E2
  0
XRECORD
  5
C882
102
{ACAD_REACTORS
330
C881
102
}
330
C881
100
AcDbXrecord
280
     1
102
SHADEPLOT
 70
     0
102
SHADEPLOTRESLEVEL
 70
     2
102
SHADEPLOTCUSTOMDPI
 70
   300
  0
XRECORD
  5
C88D
102
{ACAD_REACTORS
330
C88C
102
}
330
C88C
100
AcDbXrecord
280
     1
102
MATERIAL
148
0.0
149
0.0
149
0.0
 93
        0
 94
       63
282
     0
 72
     1
 77
     1
171
     1
175
     1
179
     1
273
     0
  0
XRECORD
  5
C88B
102
{ACAD_REACTORS
330
C88A
102
}
330
C88A
100
AcDbXrecord
280
     1
102
MATERIAL
148
0.0
149
0.0
149
0.0
 93
        0
 94
       63
282
     0
 72
     1
 77
     1
171
     1
175
     1
179
     1
273
     0
  0
XRECORD
  5
C88F
102
{ACAD_REACTORS
330
C88E
102
}
330
C88E
100
AcDbXrecord
280
     1
102
MATERIAL
148
0.0
149
0.0
149
0.0
 93
        0
 94
       63
282
     0
 72
     1
 77
     1
171
     1
175
     1
179
     1
273
     0
  0
XRECORD
  5
C880
102
{ACAD_REACTORS
330
C87F
102
}
330
C87F
100
AcDbXrecord
280
     1
102
SHADEPLOT
 70
     0
102
SHADEPLOTRESLEVEL
 70
     2
102
SHADEPLOTCUSTOMDPI
 70
   300
  0
XRECORD
  5
C87E
102
{ACAD_REACTORS
330
C87D
102
}
330
C87D
100
AcDbXrecord
280
     1
102
SHADEPLOT
 70
     0
102
SHADEPLOTRESLEVEL
 70
     2
102
SHADEPLOTCUSTOMDPI
 70
   300
  0
XRECORD
  5
C884
102
{ACAD_REACTORS
330
C883
102
}
330
C883
100
AcDbXrecord
280
     1
102
ACAD_ROUNDTRIP_PRE2007_TABLESTYLE
 90
        4
 91
        0
  1

 92
        4
 93
        0
  2

 94
        4
 95
        0
  3

  0
ENDSEC
  0
EOF
