  0
SECTION
  2
HEADER
  9
$ACADVER
  1
AC1015
  9
$ACADMAINTVER
 70
    20
  9
$DWGCODEPAGE
  3
ANSI_1252
  9
$INSBASE
 10
0.0
 20
0.0
 30
0.0
  9
$EXTMIN
 10
402.1673876274831
 20
273.4586322798984
 30
0.0
  9
$EXTMAX
 10
438.1673876274831
 20
297.4586322798984
 30
0.0
  9
$LIMMIN
 10
0.0
 20
0.0
  9
$LIMMAX
 10
900.0
 20
650.0
  9
$ORTHOMODE
 70
     0
  9
$REGENMODE
 70
     1
  9
$FILLMODE
 70
     1
  9
$QTEXTMODE
 70
     0
  9
$MIRRTEXT
 70
     1
  9
$LTSCALE
 40
12.0
  9
$ATTMODE
 70
     1
  9
$TEXTSIZE
 40
4.0
  9
$TRACEWID
 40
0.05
  9
$TEXTSTYLE
  7
ARIAL
  9
$CLAYER
  8
0
  9
$CELTYPE
  6
BYLAYER
  9
$CECOLOR
 62
   256
  9
$CELTSCALE
 40
0.75
  9
$DISPSILH
 70
     0
  9
$DIMSCALE
 40
1.0
  9
$DIMASZ
 40
0.25
  9
$DIMEXO
 40
0.0
  9
$DIMDLI
 40
1.0
  9
$DIMRND
 40
0.0
  9
$DIMDLE
 40
0.0
  9
$DIMEXE
 40
0.0
  9
$DIMTP
 40
0.0
  9
$DIMTM
 40
0.0
  9
$DIMTXT
 40
0.25
  9
$DIMCEN
 40
0.0
  9
$DIMTSZ
 40
0.0
  9
$DIMTOL
 70
     0
  9
$DIMLIM
 70
     0
  9
$DIMTIH
 70
     1
  9
$DIMTOH
 70
     1
  9
$DIMSE1
 70
     0
  9
$DIMSE2
 70
     0
  9
$DIMTAD
 70
     1
  9
$DIMZIN
 70
     0
  9
$DIMBLK
  1

  9
$DIMASO
 70
     1
  9
$DIMSHO
 70
     1
  9
$DIMPOST
  1

  9
$DIMAPOST
  1

  9
$DIMALT
 70
     1
  9
$DIMALTD
 70
     2
  9
$DIMALTF
 40
25.4
  9
$DIMLFAC
 40
1.0
  9
$DIMTOFL
 70
     0
  9
$DIMTVP
 40
0.0
  9
$DIMTIX
 70
     1
  9
$DIMSOXD
 70
     0
  9
$DIMSAH
 70
     0
  9
$DIMBLK1
  1

  9
$DIMBLK2
  1

  9
$DIMSTYLE
  2
DIM-1
  9
$DIMCLRD
 70
   256
  9
$DIMCLRE
 70
   256
  9
$DIMCLRT
 70
   256
  9
$DIMTFAC
 40
1.0
  9
$DIMGAP
 40
0.1
  9
$DIMJUST
 70
     0
  9
$DIMSD1
 70
     0
  9
$DIMSD2
 70
     0
  9
$DIMTOLJ
 70
     1
  9
$DIMTZIN
 70
     0
  9
$DIMALTZ
 70
     0
  9
$DIMALTTZ
 70
     0
  9
$DIMUPT
 70
     0
  9
$DIMDEC
 70
     3
  9
$DIMTDEC
 70
     3
  9
$DIMALTU
 70
     2
  9
$DIMALTTD
 70
     2
  9
$DIMTXSTY
  7
ARIAL
  9
$DIMAUNIT
 70
     0
  9
$DIMADEC
 70
     0
  9
$DIMALTRND
 40
0.0
  9
$DIMAZIN
 70
     0
  9
$DIMDSEP
 70
    46
  9
$DIMATFIT
 70
     3
  9
$DIMFRAC
 70
     0
  9
$DIMLDRBLK
  1

  9
$DIMLUNIT
 70
     4
  9
$DIMLWD
 70
    -2
  9
$DIMLWE
 70
    -2
  9
$DIMTMOVE
 70
     0
  9
$LUNITS
 70
     2
  9
$LUPREC
 70
     1
  9
$SKETCHINC
 40
0.1
  9
$FILLETRAD
 40
6.0
  9
$AUNITS
 70
     0
  9
$AUPREC
 70
     0
  9
$MENU
  1
acad
  9
$ELEVATION
 40
0.0
  9
$PELEVATION
 40
0.0
  9
$THICKNESS
 40
0.0
  9
$LIMCHECK
 70
     0
  9
$CHAMFERA
 40
0.0
  9
$CHAMFERB
 40
0.0
  9
$CHAMFERC
 40
0.0
  9
$CHAMFERD
 40
0.0
  9
$SKPOLY
 70
     0
  9
$TDCREATE
 40
2450996.944109375
  9
$TDUCREATE
 40
2450997.235776042
  9
$TDUPDATE
 40
2454917.686592003
  9
$TDUUPDATE
 40
2454917.978258669
  9
$TDINDWG
 40
2.7271844444
  9
$TDUSRTIMER
 40
2.7271841551
  9
$USRTIMER
 70
     1
  9
$ANGBASE
 50
0.0
  9
$ANGDIR
 70
     0
  9
$PDMODE
 70
     0
  9
$PDSIZE
 40
0.0
  9
$PLINEWID
 40
2.0
  9
$SPLFRAME
 70
     0
  9
$SPLINETYPE
 70
     6
  9
$SPLINESEGS
 70
     8
  9
$HANDSEED
  5
D95A
  9
$SURFTAB1
 70
     6
  9
$SURFTAB2
 70
     6
  9
$SURFTYPE
 70
     6
  9
$SURFU
 70
     6
  9
$SURFV
 70
     6
  9
$UCSBASE
  2

  9
$UCSNAME
  2

  9
$UCSORG
 10
0.0
 20
0.0
 30
0.0
  9
$UCSXDIR
 10
1.0
 20
0.0
 30
0.0
  9
$UCSYDIR
 10
0.0
 20
1.0
 30
0.0
  9
$UCSORTHOREF
  2

  9
$UCSORTHOVIEW
 70
     0
  9
$UCSORGTOP
 10
0.0
 20
0.0
 30
0.0
  9
$UCSORGBOTTOM
 10
0.0
 20
0.0
 30
0.0
  9
$UCSORGLEFT
 10
0.0
 20
0.0
 30
0.0
  9
$UCSORGRIGHT
 10
0.0
 20
0.0
 30
0.0
  9
$UCSORGFRONT
 10
0.0
 20
0.0
 30
0.0
  9
$UCSORGBACK
 10
0.0
 20
0.0
 30
0.0
  9
$PUCSBASE
  2

  9
$PUCSNAME
  2

  9
$PUCSORG
 10
0.0
 20
0.0
 30
0.0
  9
$PUCSXDIR
 10
1.0
 20
0.0
 30
0.0
  9
$PUCSYDIR
 10
0.0
 20
1.0
 30
0.0
  9
$PUCSORTHOREF
  2

  9
$PUCSORTHOVIEW
 70
     0
  9
$PUCSORGTOP
 10
0.0
 20
0.0
 30
0.0
  9
$PUCSORGBOTTOM
 10
0.0
 20
0.0
 30
0.0
  9
$PUCSORGLEFT
 10
0.0
 20
0.0
 30
0.0
  9
$PUCSORGRIGHT
 10
0.0
 20
0.0
 30
0.0
  9
$PUCSORGFRONT
 10
0.0
 20
0.0
 30
0.0
  9
$PUCSORGBACK
 10
0.0
 20
0.0
 30
0.0
  9
$USERI1
 70
     0
  9
$USERI2
 70
     0
  9
$USERI3
 70
     0
  9
$USERI4
 70
     0
  9
$USERI5
 70
     0
  9
$USERR1
 40
0.0
  9
$USERR2
 40
0.0
  9
$USERR3
 40
0.0
  9
$USERR4
 40
0.0
  9
$USERR5
 40
0.0
  9
$WORLDVIEW
 70
     1
  9
$SHADEDGE
 70
     3
  9
$SHADEDIF
 70
    70
  9
$TILEMODE
 70
     1
  9
$MAXACTVP
 70
    16
  9
$PINSBASE
 10
0.0
 20
0.0
 30
0.0
  9
$PLIMCHECK
 70
     0
  9
$PEXTMIN
 10
0.0
 20
0.0
 30
0.0
  9
$PEXTMAX
 10
36.0
 20
24.0
 30
0.0
  9
$PLIMMIN
 10
-16.9757080078125
 20
-4.995333194732666
  9
$PLIMMAX
 10
1171.955932617187
 20
835.9563269615174
  9
$UNITMODE
 70
     0
  9
$VISRETAIN
 70
     0
  9
$PLINEGEN
 70
     0
  9
$PSLTSCALE
 70
     1
  9
$TREEDEPTH
 70
  3020
  9
$CMLSTYLE
  2
STANDARD
  9
$CMLJUST
 70
     0
  9
$CMLSCALE
 40
1.0
  9
$PROXYGRAPHICS
 70
     1
  9
$MEASUREMENT
 70
     0
  9
$CELWEIGHT
370
    -1
  9
$ENDCAPS
280
     0
  9
$JOINSTYLE
280
     0
  9
$LWDISPLAY
290
     0
  9
$INSUNITS
 70
     4
  9
$HYPERLINKBASE
  1

  9
$STYLESHEET
  1
ACAD.CTB
  9
$XEDIT
290
     1
  9
$CEPSNTYPE
380
     0
  9
$PSTYLEMODE
290
     1
  9
$FINGERPRINTGUID
  2
{8F98D705-052F-11D4-B487-00A0C98A01ED}
  9
$VERSIONGUID
  2
{3FD1898B-00F0-4373-80AC-330DBE350964}
  9
$EXTNAMES
290
     1
  9
$PSVPSCALE
 40
0.0
  9
$OLESTARTUP
290
     0
  0
ENDSEC
  0
SECTION
  2
CLASSES
  0
CLASS
  1
DICTIONARYVAR
  2
AcDbDictionaryVar
  3
ObjectDBX Classes
 90
        0
280
     0
281
     0
  0
CLASS
  1
ACDBDICTIONARYWDFLT
  2
AcDbDictionaryWithDefault
  3
ObjectDBX Classes
 90
        0
280
     0
281
     0
  0
CLASS
  1
ACDBPLACEHOLDER
  2
AcDbPlaceHolder
  3
ObjectDBX Classes
 90
        0
280
     0
281
     0
  0
CLASS
  1
LAYOUT
  2
AcDbLayout
  3
ObjectDBX Classes
 90
        0
280
     0
281
     0
  0
CLASS
  1
ARCALIGNEDTEXT
  2
AcDbArcAlignedText
  3
ATEXT|AutoCAD Express Tool|expresstools@autodesk.com
 90
    32768
280
     0
281
     1
  0
CLASS
  1
PLOTSETTINGS
  2
AcDbPlotSettings
  3
ObjectDBX Classes
 90
        0
280
     0
281
     0
  0
CLASS
  1
TABLESTYLE
  2
AcDbTableStyle
  3
ObjectDBX Classes
 90
     4095
280
     0
281
     0
  0
CLASS
  1
SORTENTSTABLE
  2
AcDbSortentsTable
  3
ObjectDBX Classes
 90
        0
280
     0
281
     0
  0
CLASS
  1
MATERIAL
  2
AcDbMaterial
  3
ObjectDBX Classes
 90
     1024
280
     0
281
     0
  0
CLASS
  1
VISUALSTYLE
  2
AcDbVisualStyle
  3
ObjectDBX Classes
 90
     4095
280
     0
281
     0
  0
ENDSEC
  0
SECTION
  2
TABLES
  0
TABLE
  2
VPORT
  5
412C
330
0
100
AcDbSymbolTable
 70
     1
  0
VPORT
  5
D920
330
412C
100
AcDbSymbolTableRecord
100
AcDbViewportTableRecord
  2
*Active
 70
     0
 10
0.0
 20
0.0
 11
1.0
 21
1.0
 12
420.4634314246366
 22
285.2478446006574
 13
0.0
 23
0.0
 14
0.5
 24
0.5
 15
0.5
 25
0.5
 16
0.0
 26
0.0
 36
1.0
 17
0.0
 27
0.0
 37
0.0
 40
27.89110121500869
 41
1.644662921348314
 42
50.0
 43
0.0
 44
0.0
 50
0.0
 51
0.0
 71
     0
 72
   100
 73
     1
 74
     1
 75
     0
 76
     0
 77
     0
 78
     0
281
     0
 65
     1
110
0.0
120
0.0
130
0.0
111
1.0
121
0.0
131
0.0
112
0.0
122
1.0
132
0.0
 79
     0
146
0.0
  0
ENDTAB
  0
TABLE
  2
LTYPE
  5
4129
330
0
100
AcDbSymbolTable
 70
     8
  0
LTYPE
  5
4136
330
4129
100
AcDbSymbolTableRecord
100
AcDbLinetypeTableRecord
  2
BYBLOCK
 70
     0
  3

 72
    65
 73
     0
 40
0.0
  0
LTYPE
  5
4137
330
4129
100
AcDbSymbolTableRecord
100
AcDbLinetypeTableRecord
  2
BYLAYER
 70
     0
  3

 72
    65
 73
     0
 40
0.0
  0
LTYPE
  5
4138
330
4129
100
AcDbSymbolTableRecord
100
AcDbLinetypeTableRecord
  2
CONTINUOUS
 70
     0
  3
Solid line
 72
    65
 73
     0
 40
0.0
  0
LTYPE
  5
49C4
330
4129
100
AcDbSymbolTableRecord
100
AcDbLinetypeTableRecord
  2
CENTER
 70
     0
  3
Center ____ _ ____ _ ____ _ ____ _ ____ _ ____
 72
    65
 73
     4
 40
2.0
 49
1.25
 74
     0
 49
-0.25
 74
     0
 49
0.25
 74
     0
 49
-0.25
 74
     0
  0
LTYPE
  5
5AE2
330
4129
100
AcDbSymbolTableRecord
100
AcDbLinetypeTableRecord
  2
PHANTOM
 70
     0
  3
Phantom ______  __  __  ______  __  __  ______
 72
    65
 73
     6
 40
2.5
 49
1.25
 74
     0
 49
-0.25
 74
     0
 49
0.25
 74
     0
 49
-0.25
 74
     0
 49
0.25
 74
     0
 49
-0.25
 74
     0
  0
LTYPE
  5
6683
330
4129
100
AcDbSymbolTableRecord
100
AcDbLinetypeTableRecord
  2
HIDDEN
 70
     0
  3
Hidden __ __ __ __ __ __ __ __ __ __ __ __ __ _
 72
    65
 73
     2
 40
0.375
 49
0.25
 74
     0
 49
-0.125
 74
     0
  0
LTYPE
  5
7F75
330
4129
100
AcDbSymbolTableRecord
100
AcDbLinetypeTableRecord
  2
DASHDOT
 70
     0
  3
Dash dot __ . __ . __ . __ . __ . __ . __ . __
 72
    65
 73
     4
 40
1.0
 49
0.5
 74
     0
 49
-0.25
 74
     0
 49
0.0
 74
     0
 49
-0.25
 74
     0
  0
LTYPE
  5
8D4F
330
4129
100
AcDbSymbolTableRecord
100
AcDbLinetypeTableRecord
  2
DASHED
 70
     0
  3
Dashed __ __ __ __ __ __ __ __ __ __ __ __ __ _
 72
    65
 73
     2
 40
0.75
 49
0.5
 74
     0
 49
-0.25
 74
     0
  0
LTYPE
  5
AA78
330
4129
100
AcDbSymbolTableRecord
100
AcDbLinetypeTableRecord
  2
DOT
 70
     0
  3
Dot . . . . . . . . . . . . . . . . . . . . . .
 72
    65
 73
     2
 40
0.25
 49
0.0
 74
     0
 49
-0.25
 74
     0
  0
LTYPE
  5
B65D
330
4129
100
AcDbSymbolTableRecord
100
AcDbLinetypeTableRecord
  2
CENTERX2
 70
     0
  3
________  __  ________  __  ________  __  _____
 72
    65
 73
     4
 40
4.0
 49
2.5
 74
     0
 49
-0.5
 74
     0
 49
0.5
 74
     0
 49
-0.5
 74
     0
  0
ENDTAB
  0
TABLE
  2
LAYER
  5
4126
102
{ACAD_XDICTIONARY
360
B3A5
102
}
330
0
100
AcDbSymbolTable
 70
    29
  0
LAYER
  5
4133
330
4126
100
AcDbSymbolTableRecord
100
AcDbLayerTableRecord
  2
0
 70
     0
 62
     7
  6
CONTINUOUS
370
    -3
390
4999
  0
LAYER
  5
4194
330
4126
100
AcDbSymbolTableRecord
100
AcDbLayerTableRecord
  2
DIMENSI
 70
     0
 62
     7
  6
CONTINUOUS
370
    -3
390
4999
  0
LAYER
  5
4686
330
4126
100
AcDbSymbolTableRecord
100
AcDbLayerTableRecord
  2
FITTING
 70
     0
 62
     7
  6
CONTINUOUS
370
    -3
390
4999
  0
LAYER
  5
49C5
330
4126
100
AcDbSymbolTableRecord
100
AcDbLayerTableRecord
  2
CENTER
 70
     0
 62
     7
  6
CENTER
370
    -3
390
4999
  0
LAYER
  5
4D3F
330
4126
100
AcDbSymbolTableRecord
100
AcDbLayerTableRecord
  2
DEFPOINTS
 70
     0
 62
     7
  6
CONTINUOUS
290
     0
370
    -3
390
4999
  0
LAYER
  5
73C7
330
4126
100
AcDbSymbolTableRecord
100
AcDbLayerTableRecord
  2
LW523J
 70
     0
 62
     7
  6
DASHDOT
370
    -3
390
4999
  0
LAYER
  5
83DB
330
4126
100
AcDbSymbolTableRecord
100
AcDbLayerTableRecord
  2
GR-KOP
 70
     0
 62
     7
  6
CONTINUOUS
370
    -3
390
4999
  0
LAYER
  5
8D51
330
4126
100
AcDbSymbolTableRecord
100
AcDbLayerTableRecord
  2
BODY
 70
     0
 62
     7
  6
CONTINUOUS
370
    -3
390
4999
  0
LAYER
  5
A7D0
330
4126
100
AcDbSymbolTableRecord
100
AcDbLayerTableRecord
  2
SANITARY
 70
     0
 62
     7
  6
PHANTOM
370
    -3
390
4999
  0
LAYER
  5
AA79
330
4126
100
AcDbSymbolTableRecord
100
AcDbLayerTableRecord
  2
LW524J
 70
     0
 62
     7
  6
DOT
370
    -3
390
4999
  0
LAYER
  5
AA7A
330
4126
100
AcDbSymbolTableRecord
100
AcDbLayerTableRecord
  2
GAMBAR
 70
     0
 62
     7
  6
CONTINUOUS
370
    -3
390
4999
  0
LAYER
  5
AA7B
330
4126
100
AcDbSymbolTableRecord
100
AcDbLayerTableRecord
  2
ARSIR
 70
     0
 62
     7
  6
CONTINUOUS
370
    -3
390
4999
  0
LAYER
  5
AA7C
330
4126
100
AcDbSymbolTableRecord
100
AcDbLayerTableRecord
  2
BAYANG
 70
     0
 62
     7
  6
DASHED
370
    -3
390
4999
  0
LAYER
  5
AE7E
330
4126
100
AcDbSymbolTableRecord
100
AcDbLayerTableRecord
  2
GR-TEXT
 70
     0
 62
     7
  6
CONTINUOUS
370
    -3
390
4999
  0
LAYER
  5
AF9E
330
4126
100
AcDbSymbolTableRecord
100
AcDbLayerTableRecord
  2
KOP
 70
     0
 62
     7
  6
CONTINUOUS
370
    -3
390
4999
  0
LAYER
  5
B00A
330
4126
100
AcDbSymbolTableRecord
100
AcDbLayerTableRecord
  2
GR-BAYANG
 70
     0
 62
     7
  6
DASHED
370
    -3
390
4999
  0
LAYER
  5
B21B
330
4126
100
AcDbSymbolTableRecord
100
AcDbLayerTableRecord
  2
XP
 70
     0
 62
     7
  6
CONTINUOUS
370
    -3
390
4999
  0
LAYER
  5
B2B2
330
4126
100
AcDbSymbolTableRecord
100
AcDbLayerTableRecord
  2
LINE_TEX
 70
     0
 62
     7
  6
CONTINUOUS
370
    -3
390
4999
  0
LAYER
  5
B2B3
330
4126
100
AcDbSymbolTableRecord
100
AcDbLayerTableRecord
  2
G__TOTO
 70
     0
 62
     7
  6
CONTINUOUS
370
    -3
390
4999
  0
LAYER
  5
B2B4
330
4126
100
AcDbSymbolTableRecord
100
AcDbLayerTableRecord
  2
DIVIDE
 70
     0
 62
     4
  6
CONTINUOUS
370
    -3
390
4999
  0
LAYER
  5
B2E6
330
4126
100
AcDbSymbolTableRecord
100
AcDbLayerTableRecord
  2
DIM
 70
     0
 62
     7
  6
CONTINUOUS
370
    -3
390
4999
  0
LAYER
  5
B4AF
330
4126
100
AcDbSymbolTableRecord
100
AcDbLayerTableRecord
  2
FRAME 070
 70
     0
 62
     5
  6
CONTINUOUS
370
    -3
390
4999
  0
LAYER
  5
B4B0
330
4126
100
AcDbSymbolTableRecord
100
AcDbLayerTableRecord
  2
FRAME 050
 70
     0
 62
     6
  6
CONTINUOUS
370
    -3
390
4999
  0
LAYER
  5
B4B1
330
4126
100
AcDbSymbolTableRecord
100
AcDbLayerTableRecord
  2
FRAME 025
 70
     0
 62
     7
  6
CONTINUOUS
370
    -3
390
4999
  0
LAYER
  5
D419
102
{ACAD_XDICTIONARY
360
D41A
102
}
330
4126
100
AcDbSymbolTableRecord
100
AcDbLayerTableRecord
  2
TEXT
 70
     0
 62
     7
  6
CONTINUOUS
370
    25
390
4999
  0
LAYER
  5
D41D
102
{ACAD_XDICTIONARY
360
D41E
102
}
330
4126
100
AcDbSymbolTableRecord
100
AcDbLayerTableRecord
  2
TOTO
 70
     0
 62
     7
  6
CONTINUOUS
370
    -3
390
4999
  0
LAYER
  5
D421
102
{ACAD_XDICTIONARY
360
D422
102
}
330
4126
100
AcDbSymbolTableRecord
100
AcDbLayerTableRecord
  2
TEMPLATE
 70
     0
 62
     7
  6
CONTINUOUS
370
    70
390
4999
  0
LAYER
  5
D425
330
4126
100
AcDbSymbolTableRecord
100
AcDbLayerTableRecord
  2
batas
 70
     0
 62
     6
  6
CONTINUOUS
290
     0
370
    25
390
4999
1001
AcAecLayerStandard
1000

1000

  0
LAYER
  5
D428
330
4126
100
AcDbSymbolTableRecord
100
AcDbLayerTableRecord
  2
DINDING
 70
     0
 62
     7
  6
CONTINUOUS
370
    30
390
4999
  0
ENDTAB
  0
TABLE
  2
STYLE
  5
4127
330
0
100
AcDbSymbolTable
 70
    14
  0
STYLE
  5
4134
330
4127
100
AcDbSymbolTableRecord
100
AcDbTextStyleTableRecord
  2
STANDARD
 70
     0
 40
0.0
 41
1.0
 50
0.0
 71
     0
 42
0.2
  3
txt
  4

  0
STYLE
  5
424D
330
4127
100
AcDbSymbolTableRecord
100
AcDbTextStyleTableRecord
  2
ARIAL
 70
     0
 40
0.0
 41
1.0
 50
0.0
 71
     0
 42
4.0
  3
ARIAL.TTF
  4

1001
ACAD
1000
Arial
1071
       34
  0
STYLE
  5
56B8
330
4127
100
AcDbSymbolTableRecord
100
AcDbTextStyleTableRecord
  2
TIME
 70
     0
 40
0.0
 41
1.0
 50
0.0
 71
     0
 42
4.766231882910464
  3
TIMES.TTF
  4

1001
ACAD
1000
Times New Roman
1071
       18
  0
STYLE
  5
AF9F
330
4127
100
AcDbSymbolTableRecord
100
AcDbTextStyleTableRecord
  2
ROMANT
 70
     0
 40
0.0
 41
1.0
 50
0.0
 71
     0
 42
0.6
  3
romant.shx
  4

  0
STYLE
  5
AFA0
330
4127
100
AcDbSymbolTableRecord
100
AcDbTextStyleTableRecord
  2
ROMAN
 70
     0
 40
0.0
 41
1.0
 50
0.0
 71
     0
 42
4.0
  3
TIMES.TTF
  4

1001
ACAD
1000
Times New Roman
1071
       18
  0
STYLE
  5
B205
330
4127
100
AcDbSymbolTableRecord
100
AcDbTextStyleTableRecord
  2
ROMANS
 70
     0
 40
0.0
 41
0.7
 50
12.0
 71
     0
 42
3.0
  3
romans.shx
  4

  0
STYLE
  5
B206
330
4127
100
AcDbSymbolTableRecord
100
AcDbTextStyleTableRecord
  2
TIMES_NEW_ROMANS
 70
     0
 40
0.0
 41
1.0
 50
0.0
 71
     0
 42
3.0
  3
TIMESI.TTF
  4

1001
ACAD
1000
Times New Roman
1071
 16777234
  0
STYLE
  5
B207
330
4127
100
AcDbSymbolTableRecord
100
AcDbTextStyleTableRecord
  2
CLARENDON
 70
     0
 40
0.0
 41
1.0
 50
0.0
 71
     0
 42
0.2
  3
clar45w.ttf
  4

1001
ACAD
1000
Clarendon
1071
        2
  0
STYLE
  5
B208
330
4127
100
AcDbSymbolTableRecord
100
AcDbTextStyleTableRecord
  2
ARIAL_REGULER
 70
     0
 40
0.0
 41
1.0
 50
0.0
 71
     0
 42
3.0
  3
ARIAL.TTF
  4

1001
ACAD
1000
Arial
1071
       34
  0
STYLE
  5
B2B5
330
4127
100
AcDbSymbolTableRecord
100
AcDbTextStyleTableRecord
  2
DUTCH
 70
     0
 40
0.0
 41
1.0
 50
0.0
 71
     0
 42
0.2
  3
dutcheb.ttf
  4

1001
ACAD
1000
Dutch801 XBd BT
1071
       18
  0
STYLE
  5
B2E7
330
4127
100
AcDbSymbolTableRecord
100
AcDbTextStyleTableRecord
  2
BLACK
 70
     0
 40
0.4
 41
1.0
 50
0.0
 71
     0
 42
0.4
  3
ARIAL.TTF
  4

1001
ACAD
1000
Arial
1071
       34
  0
STYLE
  5
B4B2
330
4127
100
AcDbSymbolTableRecord
100
AcDbTextStyleTableRecord
  2
ISO Proportional
 70
     0
 40
0.0
 41
1.0
 50
0.0
 71
     0
 42
2.5
  3
isocp.shx
  4

  0
STYLE
  5
B65E
330
4127
100
AcDbSymbolTableRecord
100
AcDbTextStyleTableRecord
  2
SCH
 70
     0
 40
0.0
 41
1.0
 50
0.0
 71
     0
 42
3.0
  3

  4

1001
ACAD
1000
Schneidler BT
1071
 16777234
  0
STYLE
  5
D42B
330
4127
100
AcDbSymbolTableRecord
100
AcDbTextStyleTableRecord
  2
Arial Reguler
 70
     0
 40
0.0
 41
1.0
 50
0.0
 71
     0
 42
3.0
  3
ARIAL.TTF
  4

1001
ACAD
1000
Arial
1071
       34
  0
ENDTAB
  0
TABLE
  2
VIEW
  5
412A
330
0
100
AcDbSymbolTable
 70
     0
  0
ENDTAB
  0
TABLE
  2
UCS
  5
412B
330
0
100
AcDbSymbolTable
 70
     0
  0
ENDTAB
  0
TABLE
  2
APPID
  5
412D
330
0
100
AcDbSymbolTable
 70
    17
  0
APPID
  5
4135
330
412D
100
AcDbSymbolTableRecord
100
AcDbRegAppTableRecord
  2
ACAD
 70
     0
  0
APPID
  5
468B
330
412D
100
AcDbSymbolTableRecord
100
AcDbRegAppTableRecord
  2
AVE_RENDER
 70
     0
  0
APPID
  5
468C
330
412D
100
AcDbSymbolTableRecord
100
AcDbRegAppTableRecord
  2
AVE_MATERIAL
 70
     0
  0
APPID
  5
B3A3
330
412D
100
AcDbSymbolTableRecord
100
AcDbRegAppTableRecord
  2
ACAD_PSEXT
 70
     0
  0
APPID
  5
B3A4
330
412D
100
AcDbSymbolTableRecord
100
AcDbRegAppTableRecord
  2
DCO15
 70
     0
  0
APPID
  5
B874
330
412D
100
AcDbSymbolTableRecord
100
AcDbRegAppTableRecord
  2
ACAD_EXEMPT_FROM_CAD_STANDARDS
 70
     0
  0
APPID
  5
B8ED
330
412D
100
AcDbSymbolTableRecord
100
AcDbRegAppTableRecord
  2
ACAD_DSTYLE_DIMTEXT_FILL
 70
     0
  0
APPID
  5
B8EE
330
412D
100
AcDbSymbolTableRecord
100
AcDbRegAppTableRecord
  2
ACAD_DSTYLE_DIMEXT_LENGTH
 70
     0
  0
APPID
  5
B8EF
330
412D
100
AcDbSymbolTableRecord
100
AcDbRegAppTableRecord
  2
ACAD_DSTYLE_DIMEXT_ENABLED
 70
     0
  0
APPID
  5
B8F0
330
412D
100
AcDbSymbolTableRecord
100
AcDbRegAppTableRecord
  2
ACAD_DSTYLE_DIM_LINETYPE
 70
     0
  0
APPID
  5
B8F1
330
412D
100
AcDbSymbolTableRecord
100
AcDbRegAppTableRecord
  2
ACAD_DSTYLE_DIM_EXT1_LINETYPE
 70
     0
  0
APPID
  5
B8F2
330
412D
100
AcDbSymbolTableRecord
100
AcDbRegAppTableRecord
  2
ACAD_DSTYLE_DIM_EXT2_LINETYPE
 70
     0
  0
APPID
  5
B9AE
330
412D
100
AcDbSymbolTableRecord
100
AcDbRegAppTableRecord
  2
ACAD_DSTYLE_DIMJOGGED_JOGANGLE_SYMBOL
 70
     0
  0
APPID
  5
BFB2
330
412D
100
AcDbSymbolTableRecord
100
AcDbRegAppTableRecord
  2
ACAD_DSTYLE_DIMARC_LENGTH_SYMBOL
 70
     0
  0
APPID
  5
D42E
330
412D
100
AcDbSymbolTableRecord
100
AcDbRegAppTableRecord
  2
AcAecLayerStandard
 70
     0
  0
APPID
  5
D42F
330
412D
100
AcDbSymbolTableRecord
100
AcDbRegAppTableRecord
  2
ACAD_DSTYLE_DIMJAG
 70
     0
  0
APPID
  5
D430
330
412D
100
AcDbSymbolTableRecord
100
AcDbRegAppTableRecord
  2
ACAD_DSTYLE_DIMTALN
 70
     0
  0
ENDTAB
  0
TABLE
  2
DIMSTYLE
  5
412E
330
0
100
AcDbSymbolTable
 70
     8
100
AcDbDimStyleTable
 71
     1
340
418F
  0
DIMSTYLE
105
418F
102
{ACAD_REACTORS
330
B8DF
102
}
330
412E
100
AcDbSymbolTableRecord
100
AcDbDimStyleTableRecord
  2
DIM-1
 70
     0
 41
0.25
 42
0.0
 43
1.0
 44
0.0
 77
     1
140
0.25
141
0.0
147
0.1
170
     1
174
     1
176
   256
177
   256
178
   256
271
     3
272
     3
277
     4
340
424D
1001
ACAD_DSTYLE_DIMJOGGED_JOGANGLE_SYMBOL
1070
   384
1040
0.7853981633974483
1001
ACAD_DSTYLE_DIMEXT_LENGTH
1070
   378
1040
3.0
  0
DIMSTYLE
105
B00B
330
412E
100
AcDbSymbolTableRecord
100
AcDbDimStyleTableRecord
  2
DIM-2
 70
     0
 41
6.0
 42
3.0
 43
1.0
 44
3.0
 73
     0
 74
     0
 77
     1
140
4.0
141
0.0
147
1.5
174
     1
176
   150
177
   150
178
   150
271
     0
272
     0
340
56B8
  0
DIMSTYLE
105
B49B
330
412E
100
AcDbSymbolTableRecord
100
AcDbDimStyleTableRecord
  2
COPY_OF_STANDARD
 70
     0
  3
mm
  4
"
 41
3.0
 42
2.0
 43
9.5
 44
1.0
 73
     0
 74
     0
 77
     1
140
3.0
141
2.0
143
0.03937
144
6.0
170
     1
171
     3
271
     0
272
     0
273
     7
274
     3
340
4134
  0
DIMSTYLE
105
B4B3
330
412E
100
AcDbSymbolTableRecord
100
AcDbDimStyleTableRecord
  2
ISO-25
 70
     0
 41
2.5
 42
0.625
 43
3.75
 44
1.25
 73
     0
 74
     0
 77
     1
 78
     8
140
2.5
141
2.5
143
0.03937007874016
147
0.625
171
     3
172
     1
271
     2
272
     2
274
     3
278
    44
283
     0
284
     8
340
4134
  0
DIMSTYLE
105
B65F
330
412E
100
AcDbSymbolTableRecord
100
AcDbDimStyleTableRecord
  2
S LINIER2
 70
     0
 41
1.8
 42
0.5
 43
5.0
 44
0.5
 73
     0
 74
     0
 77
     1
140
2.5
141
0.0
144
6.0
146
0.8
147
0.5
174
     1
176
   256
177
   256
178
   256
271
     0
272
     0
279
     2
288
     1
289
     0
340
B205
371
    -1
372
    -1
  0
DIMSTYLE
105
D331
330
412E
100
AcDbSymbolTableRecord
100
AcDbDimStyleTableRecord
  2
Standard
 70
     0
340
4134
  0
DIMSTYLE
105
D42C
330
412E
100
AcDbSymbolTableRecord
100
AcDbDimStyleTableRecord
  2
Dim cek
 70
     0
 40
2.0
 41
3.0
 42
3.0
 43
1.0
 44
3.0
 73
     0
 74
     0
 77
     1
140
4.0
141
0.0
147
1.5
174
     1
176
   256
177
   256
178
   256
271
     0
272
     0
340
56B8
1001
ACAD_DSTYLE_DIMJAG
1070
   388
1040
1.5
1001
ACAD_DSTYLE_DIMTALN
1070
   392
1070
     0
  0
DIMSTYLE
105
D42D
330
412E
100
AcDbSymbolTableRecord
100
AcDbDimStyleTableRecord
  2
DIM-6
 70
     0
 40
4.0
 41
1.5
 42
0.0
 43
1.0
 44
0.0
 77
     1
140
2.5
141
0.0
147
0.2
174
     1
176
   256
177
   256
178
   256
271
     0
272
     0
340
D42B
1001
ACAD_DSTYLE_DIMJOGGED_JOGANGLE_SYMBOL
1070
   384
1040
0.7853981633974483
1001
ACAD_DSTYLE_DIMJAG
1070
   388
1040
1.5
1001
ACAD_DSTYLE_DIMTALN
1070
   392
1070
     0
1001
ACAD_DSTYLE_DIMEXT_LENGTH
1070
   378
1040
3.0
  0
ENDTAB
  0
TABLE
  2
BLOCK_RECORD
  5
4125
330
0
100
AcDbSymbolTable
 70
    13
  0
BLOCK_RECORD
  5
413C
102
{ACAD_XDICTIONARY
360
B33F
102
}
330
4125
100
AcDbSymbolTableRecord
100
AcDbBlockTableRecord
  2
*MODEL_SPACE
340
B385
  0
BLOCK_RECORD
  5
B4A4
330
4125
100
AcDbSymbolTableRecord
100
AcDbBlockTableRecord
  2
*Paper_Space
340
B4A5
  0
BLOCK_RECORD
  5
4179
330
4125
100
AcDbSymbolTableRecord
100
AcDbBlockTableRecord
  2
*X0
340
0
102
{BLKREFS
331
4057
102
}
  0
BLOCK_RECORD
  5
417A
330
4125
100
AcDbSymbolTableRecord
100
AcDbBlockTableRecord
  2
*X1
340
0
102
{BLKREFS
331
4076
102
}
  0
BLOCK_RECORD
  5
4680
330
4125
100
AcDbSymbolTableRecord
100
AcDbBlockTableRecord
  2
AVE_RENDER
340
0
102
{BLKREFS
331
47CC
331
47CD
331
47CE
331
47CF
331
47D0
331
47D1
331
47D2
331
47D3
331
47F9
331
47FA
331
47FB
331
47FC
331
47FD
331
47FE
331
47FF
331
4800
331
4802
331
4803
331
4804
331
4805
331
4806
331
4807
331
4808
331
4809
331
480B
331
480C
331
480D
331
480E
331
480F
331
4810
331
4811
331
4812
102
}
  0
BLOCK_RECORD
  5
4683
330
4125
100
AcDbSymbolTableRecord
100
AcDbBlockTableRecord
  2
AVE_GLOBAL
340
0
102
{BLKREFS
331
47D4
331
4801
331
480A
331
4813
102
}
  0
BLOCK_RECORD
  5
AF99
330
4125
100
AcDbSymbolTableRecord
100
AcDbBlockTableRecord
  2
P
340
0
  0
BLOCK_RECORD
  5
B1CC
330
4125
100
AcDbSymbolTableRecord
100
AcDbBlockTableRecord
  2
TOTO_A1
340
0
1001
ACAD
1000
DesignCenter Data
1002
{
1070
     1
1070
     1
1002
}
  0
BLOCK_RECORD
  5
B2A4
330
4125
100
AcDbSymbolTableRecord
100
AcDbBlockTableRecord
  2
A$C74DC1801
340
0
102
{BLKREFS
331
B2BC
102
}
  0
BLOCK_RECORD
  5
B4B4
330
4125
100
AcDbSymbolTableRecord
100
AcDbBlockTableRecord
  2
ISO A0 title block.dwg
340
0
1001
ACAD
1000
DesignCenter Data
1002
{
1070
     1
1070
     4
1002
}
  0
BLOCK_RECORD
  5
B5D3
102
{ACAD_XDICTIONARY
360
B5D5
102
}
330
4125
100
AcDbSymbolTableRecord
100
AcDbBlockTableRecord
  2
A$C4D707448
340
0
1001
ACAD
1000
DesignCenter Data
1002
{
1070
     1
1070
     4
1002
}
  0
BLOCK_RECORD
  5
B8E0
330
4125
100
AcDbSymbolTableRecord
100
AcDbBlockTableRecord
  2
*D9
340
0
  0
ENDTAB
  0
ENDSEC
  0
SECTION
  2
BLOCKS
  0
BLOCK
  5
41A6
330
413C
100
AcDbEntity
  8
0
100
AcDbBlockBegin
  2
*MODEL_SPACE
 70
     0
 10
0.0
 20
0.0
 30
0.0
  3
*MODEL_SPACE
  1

  0
ENDBLK
  5
41A7
330
413C
100
AcDbEntity
  8
0
100
AcDbBlockEnd
  0
BLOCK
  5
B4A6
330
B4A4
100
AcDbEntity
 67
     1
  8
0
100
AcDbBlockBegin
  2
*Paper_Space
 70
     0
 10
0.0
 20
0.0
 30
0.0
  3
*Paper_Space
  1

  0
ENDBLK
  5
B4A7
330
B4A4
100
AcDbEntity
 67
     1
  8
0
100
AcDbBlockEnd
  0
BLOCK
  5
4056
330
4179
100
AcDbEntity
  8
0
100
AcDbBlockBegin
  2
*X0
 70
     1
 10
0.0
 20
0.0
 30
0.0
  3
*X0
  1

  0
ENDBLK
  5
4058
330
4179
100
AcDbEntity
  8
0
100
AcDbBlockEnd
  0
BLOCK
  5
4075
330
417A
100
AcDbEntity
  8
0
100
AcDbBlockBegin
  2
*X1
 70
     1
 10
0.0
 20
0.0
 30
0.0
  3
*X1
  1

  0
ENDBLK
  5
4077
330
417A
100
AcDbEntity
  8
0
100
AcDbBlockEnd
  0
BLOCK
  5
4681
330
4680
100
AcDbEntity
  8
0
100
AcDbBlockBegin
  2
AVE_RENDER
 70
     0
 10
0.0
 20
0.0
 30
0.0
  3
AVE_RENDER
  1
AVE_RENDER
  0
ENDBLK
  5
4682
330
4680
100
AcDbEntity
  8
0
100
AcDbBlockEnd
  0
BLOCK
  5
4684
330
4683
100
AcDbEntity
  8
0
100
AcDbBlockBegin
  2
AVE_GLOBAL
 70
     0
 10
0.0
 20
0.0
 30
0.0
  3
AVE_GLOBAL
  1
AVE_GLOBAL
  0
ENDBLK
  5
4685
330
4683
100
AcDbEntity
  8
0
100
AcDbBlockEnd
  0
BLOCK
  5
AF9C
330
AF99
100
AcDbEntity
  8
0
100
AcDbBlockBegin
  2
P
 70
     0
 10
0.0
 20
0.0
 30
0.0
  3
P
  1

  0
LWPOLYLINE
  5
AF9A
330
AF99
100
AcDbEntity
  8
DIMENSI
  6
Continuous
100
AcDbPolyline
 90
        2
 70
     0
 10
0.0
 20
0.0
 40
0.0
 41
2.0
 10
-3.0
 20
0.0
 40
2.0
 41
2.0
  0
LINE
  5
AF9B
330
AF99
100
AcDbEntity
  8
DIMENSI
  6
Continuous
100
AcDbLine
 10
-1.5
 20
0.0
 30
0.0
 11
-5.270512589623136
 21
0.0
 31
0.0
  0
ENDBLK
  5
AF9D
330
AF99
100
AcDbEntity
  8
0
100
AcDbBlockEnd
  0
BLOCK
  5
B203
330
B1CC
100
AcDbEntity
  8
0
100
AcDbBlockBegin
  2
TOTO_A1
 70
     0
 10
0.0
 20
0.0
 30
0.0
  3
TOTO_A1
  1

  0
LWPOLYLINE
  5
B1CD
330
B1CC
100
AcDbEntity
  8
KOP
100
AcDbPolyline
 90
        2
 70
     0
 43
0.35
 10
826.7395337845911
 20
28.78171285809026
 10
28.73953378459134
 20
28.78171285809037
  0
LWPOLYLINE
  5
B1CE
330
B1CC
100
AcDbEntity
  8
KOP
100
AcDbPolyline
 90
        2
 70
     0
 43
0.35
 10
626.7395337845911
 20
34.78171285809024
 10
28.73953378459134
 20
34.78171285809048
  0
LWPOLYLINE
  5
B1CF
330
B1CC
100
AcDbEntity
  8
KOP
100
AcDbPolyline
 90
        2
 70
     0
 43
0.35
 10
626.7395337845912
 20
40.78171285809037
 10
28.73953378459134
 20
40.78171285809037
  0
LWPOLYLINE
  5
B1D0
330
B1CC
100
AcDbEntity
  8
KOP
100
AcDbPolyline
 90
        2
 70
     0
 43
0.35
 10
626.7395337845912
 20
22.78171285809026
 10
28.73953378459134
 20
22.78171285809048
  0
LWPOLYLINE
  5
B1D1
330
B1CC
100
AcDbEntity
  8
KOP
100
AcDbPolyline
 90
        2
 70
     0
 43
0.6
 10
826.7395337845911
 20
46.78171285809026
 10
21.73953378459131
 20
46.78171285809036
  0
TEXT
  5
B1D2
330
B1CC
100
AcDbEntity
  8
KOP
100
AcDbText
 10
27.08054082888951
 20
18.58805594513865
 30
0.0
 40
4.0
  1
REVISION
 50
90.0
  7
ARIAL_REGULER
100
AcDbText
  0
LWPOLYLINE
  5
B1D3
330
B1CC
100
AcDbEntity
  8
KOP
100
AcDbPolyline
 90
        2
 70
     0
 43
0.35
 10
273.7395337845914
 20
16.78171285809035
 10
273.7395337845911
 20
46.78171285809036
  0
LWPOLYLINE
  5
B1D4
330
B1CC
100
AcDbEntity
  8
KOP
100
AcDbPolyline
 90
        2
 70
     0
 43
0.6
 10
266.7395337845911
 20
46.78171285809036
 10
266.7395337845913
 20
16.78171285809035
  0
LWPOLYLINE
  5
B1D5
330
B1CC
100
AcDbEntity
  8
KOP
100
AcDbPolyline
 90
        2
 70
     0
 43
0.35
 10
386.7395337845913
 20
16.7817128580906
 10
386.7395337845912
 20
46.78171285809059
  0
LWPOLYLINE
  5
B1D6
330
B1CC
100
AcDbEntity
  8
KOP
100
AcDbPolyline
 90
        2
 70
     0
 43
0.35
 10
393.7395337845913
 20
16.7817128580906
 10
393.7395337845913
 20
46.78171285809059
  0
LWPOLYLINE
  5
B1D7
330
B1CC
100
AcDbEntity
  8
KOP
100
AcDbPolyline
 90
        2
 70
     0
 43
0.35
 10
506.7395337845913
 20
16.78171285809082
 10
506.7395337845911
 20
46.78171285809082
  0
LWPOLYLINE
  5
B1D8
330
B1CC
100
AcDbEntity
  8
KOP
100
AcDbPolyline
 90
        2
 70
     0
 43
0.35
 10
513.7395337845913
 20
16.78171285809082
 10
513.7395337845913
 20
46.78171285809082
  0
LWPOLYLINE
  5
B1D9
330
B1CC
100
AcDbEntity
  8
KOP
100
AcDbPolyline
 90
        2
 70
     0
 43
0.35
 10
826.7395337845911
 20
22.78171285809026
 10
726.7395337845912
 20
22.78171285809026
  0
LWPOLYLINE
  5
B1DA
330
B1CC
100
AcDbEntity
  8
KOP
100
AcDbPolyline
 90
        2
 70
     0
 43
0.35
 10
826.7395337845911
 20
40.78171285809026
 10
726.7395337845911
 20
40.78171285809026
  0
SPLINE
  5
B1DB
330
B1CC
100
AcDbEntity
  8
KOP
100
AcDbSpline
210
0.0
220
0.0
230
1.0
 70
     8
 71
     3
 72
    37
 73
    33
 74
    31
 42
0.0000000001
 43
0.0000000001
 44
0.0000000001
 40
0.0
 40
0.0
 40
0.0
 40
0.0
 40
12.25140694376211
 40
12.98969709808861
 40
13.90296136145375
 40
22.53844741955009
 40
22.92984612364868
 40
24.53942697173451
 40
27.61691112404813
 40
31.77740940139807
 40
32.60266975170452
 40
33.25546193519381
 40
41.95721519751262
 40
44.00749903222501
 40
46.0577828669374
 40
47.50183879766593
 40
48.52506539856242
 40
49.81534868470296
 40
50.83962848200667
 40
52.12472194170395
 40
54.06626477044591
 40
57.58697289322173
 40
59.03859362783754
 40
60.00706281099785
 40
61.62982917808918
 40
62.23044130930614
 40
63.55212987418546
 40
66.74370339421627
 40
69.9670736076947
 40
71.49962249572862
 40
74.92920748474849
 40
76.25143304941151
 40
76.25143304941151
 40
76.25143304941151
 40
76.25143304941151
 10
628.2912246544887
 20
18.14006757585207
 30
0.0
 10
630.4908403725851
 20
20.62171386530509
 30
0.0
 10
632.823008591421
 20
23.25290828669384
 30
0.0
 10
636.8738489961506
 20
28.38737660338102
 30
0.0
 10
636.1803715898845
 20
23.17519023737868
 30
0.0
 10
635.9097642590154
 20
21.84188484870072
 30
0.0
 10
636.091873687113
 20
17.54850792263412
 30
0.0
 10
634.895185804601
 20
20.67186684573509
 30
0.0
 10
633.1651860412553
 20
22.15006320752803
 30
0.0
 10
631.3604281487016
 20
23.21871870770281
 30
0.0
 10
628.6385717089595
 20
24.46177824212617
 30
0.0
 10
633.5820117409455
 20
24.07242641727365
 30
0.0
 10
634.3538018160967
 20
23.71526640362785
 30
0.0
 10
641.5936104590266
 20
23.27534990714659
 30
0.0
 10
638.0575053802449
 20
24.12317696489159
 30
0.0
 10
637.5760771010017
 20
22.07125872254817
 30
0.0
 10
638.7669883710286
 20
21.36038952533276
 30
0.0
 10
639.7375830490423
 20
20.96880451142728
 30
0.0
 10
640.7720708115634
 20
20.0721989151658
 30
0.0
 10
640.0618416221614
 20
18.43364539844735
 30
0.0
 10
636.2570718567147
 20
18.65833176645395
 30
0.0
 10
641.2935933139316
 20
19.63867476823932
 30
0.0
 10
641.7940226331203
 20
21.22016893050625
 30
0.0
 10
641.9543517047931
 20
23.29361871208829
 30
0.0
 10
641.9725630734606
 20
21.10782218702953
 30
0.0
 10
641.9862741979154
 20
20.16185629832836
 30
0.0
 10
641.8080170755942
 20
17.38030872962678
 30
0.0
 10
644.1982976447607
 20
24.83648448352206
 30
0.0
 10
642.061238280833
 20
18.00815606656523
 30
0.0
 10
645.8363813868507
 20
18.96795648490875
 30
0.0
 10
645.2655022012179
 20
23.21006609128275
 30
0.0
 10
643.7051052653098
 20
22.19398432213528
 30
0.0
 10
643.2709135616694
 20
21.91125224016842
 30
0.0
 11
628.2912246544887
 21
18.14006757585207
 31
0.0
 11
636.1822236412557
 21
27.51178604646907
 31
0.0
 11
636.704457966082
 21
28.03365160573572
 31
0.0
 11
636.704457966082
 21
27.12038734237057
 31
0.0
 11
636.0516657825927
 21
18.50961026798573
 31
0.0
 11
636.0516657825927
 21
18.11821156388714
 31
0.0
 11
635.2632503800972
 21
19.5214762073641
 31
0.0
 11
633.339932987387
 21
21.92392473223196
 31
0.0
 11
629.7150677280066
 21
23.96600645615217
 31
0.0
 11
629.0015052876125
 21
24.38059455227505
 31
0.0
 11
629.6542974711018
 21
24.38059455227505
 31
0.0
 11
638.309893615895
 21
23.48551622245294
 31
0.0
 11
640.3600967947785
 21
23.46733028890992
 31
0.0
 11
638.309893615895
 21
23.48551622245294
 31
0.0
 11
637.8891680045027
 21
22.10410842929741
 31
0.0
 11
638.6705151556347
 21
21.44343505598806
 31
0.0
 11
639.8124852915938
 21
20.8428227292153
 31
0.0
 11
640.4906546534414
 21
20.07520601508269
 31
0.0
 11
639.9684203286152
 21
18.9010099027871
 31
0.0
 11
638.039426719613
 21
18.68061885880387
 31
0.0
 11
641.1948694276745
 21
20.24221003511148
 31
0.0
 11
641.795906201413
 21
21.56355690621706
 31
0.0
 11
641.9161146891743
 21
22.52453686344892
 31
0.0
 11
641.9762182249217
 21
20.90288392673483
 31
0.0
 11
641.9762182249217
 21
20.30227179551786
 31
0.0
 11
642.006269992795
 21
18.9809249244123
 31
0.0
 11
643.2709135616694
 21
21.91125224016842
 31
0.0
 11
643.201599894708
 21
18.68862735527841
 31
0.0
 11
644.7001762455216
 21
19.00952455843855
 31
0.0
 11
644.486093909691
 21
22.43242127765106
 31
0.0
 11
643.2709135616694
 21
21.91125224016842
 31
0.0
  0
LWPOLYLINE
  5
B1DC
330
B1CC
100
AcDbEntity
  8
KOP
100
AcDbPolyline
 90
        2
 70
     0
 43
0.35
 10
726.7395337845912
 20
36.78171285809026
 10
626.7395337845912
 20
36.78171285809026
  0
LWPOLYLINE
  5
B1DD
330
B1CC
100
AcDbEntity
  8
KOP
100
AcDbPolyline
 90
        6
 70
     0
 43
0.35
 10
726.0661387906679
 20
44.78171285809025
 10
656.5188678629822
 20
44.78171285809025
 42
0.2446984432290268
 10
654.0614117301153
 20
43.5024421671435
 10
651.6516764632803
 20
40.06098354903713
 42
-0.2446984432290263
 10
649.1942203304132
 20
38.78171285809026
 10
627.7559214820686
 20
38.78171285809026
  0
TEXT
  5
B1DE
330
B1CC
100
AcDbEntity
  8
KOP
100
AcDbText
 10
628.489578090013
 20
39.6902614008385
 30
0.0
 40
5.0
  1
TOTO
  7
CLARENDON
100
AcDbText
  0
TEXT
  5
B1DF
330
B1CC
100
AcDbEntity
  8
KOP
100
AcDbText
 10
629.6671243280062
 20
31.06037562076698
 30
0.0
 40
3.5
  1
DRAWN
  7
ARIAL_REGULER
100
AcDbText
  0
LWPOLYLINE
  5
B1E0
330
B1CC
100
AcDbEntity
  8
KOP
100
AcDbPolyline
 90
        2
 70
     0
 43
0.6
 10
626.7395337845912
 20
16.78171285808991
 10
626.7395337845911
 20
46.78171285809026
  0
TEXT
  5
B1E1
330
B1CC
100
AcDbEntity
  8
KOP
100
AcDbText
 10
678.3533533023041
 20
31.06037562076698
 30
0.0
 40
3.5
  1
CHECKED
 41
0.9
  7
ARIAL_REGULER
100
AcDbText
  0
TEXT
  5
B1E2
330
B1CC
100
AcDbEntity
  8
KOP
100
AcDbText
 10
653.6288540222775
 20
38.79063253876211
 30
0.0
 40
3.0
  1
P.T. SURYA TOTO INDONESIA
  7
CLARENDON
100
AcDbText
  0
TEXT
  5
B1E3
330
B1CC
100
AcDbEntity
  8
KOP
100
AcDbText
 10
655.0537059585577
 20
31.06037562076698
 30
0.0
 40
3.5
  1
DESIGN
  7
ARIAL_REGULER
100
AcDbText
  0
LWPOLYLINE
  5
B1E4
330
B1CC
100
AcDbEntity
  8
KOP
100
AcDbPolyline
 90
        2
 70
     0
 43
0.35
 10
651.7395337845912
 20
16.78171285809002
 10
651.7395337845912
 20
36.78171285809026
  0
TEXT
  5
B1E5
330
B1CC
100
AcDbEntity
  8
KOP
100
AcDbText
 39
0.2
 10
645.1196372626026
 20
17.85525003108068
 30
0.0
 40
2.299999999999998
  1
02116
 41
0.4628095972126849
 51
12.0
  7
ROMANS
 72
     5
 11
650.0364382691811
 21
17.85525003108068
 31
0.0
100
AcDbText
  0
SPLINE
  5
B1E6
330
B1CC
100
AcDbEntity
  8
KOP
100
AcDbSpline
210
0.0
220
0.0
230
1.0
 70
     9
 71
     3
 72
    11
 73
     7
 74
     5
 42
0.0000000001
 43
0.0000000001
 44
0.0000000001
 12
1.0
 22
0.0
 32
0.0
 40
0.0
 40
0.0
 40
0.0
 40
0.0
 40
0.9738417385562708
 40
1.953264855795699
 40
2.645773201282497
 40
3.533730746898505
 40
3.533730746898505
 40
3.533730746898505
 40
3.533730746898505
 10
641.9428636433615
 20
23.02037942578964
 30
0.0
 10
642.2674775562136
 20
23.02037942578964
 30
0.0
 10
640.3138388177508
 20
23.6150203528725
 30
0.0
 10
642.0131336414012
 20
24.00051664586853
 30
0.0
 10
642.9822226883502
 20
23.49658041844457
 30
0.0
 10
642.3167487284215
 20
23.19168158504148
 30
0.0
 10
641.9428636433615
 20
23.02037942578964
 30
0.0
 11
641.9428636433615
 21
23.02037942578964
 31
0.0
 11
641.1168836650199
 21
23.53625228525515
 31
0.0
 11
642.0461114995974
 21
23.84577655575673
 31
0.0
 11
642.6655972012397
 21
23.53625228525515
 31
0.0
 11
641.9428636433615
 21
23.02037942578964
 31
0.0
  0
LWPOLYLINE
  5
B1E7
330
B1CC
100
AcDbEntity
  8
KOP
100
AcDbPolyline
 90
        2
 70
     1
 43
0.0
 10
656.5188678629822
 20
44.78171285809025
 10
656.5188678629822
 20
44.78171285809025
  0
LWPOLYLINE
  5
B1E8
330
B1CC
100
AcDbEntity
  8
KOP
100
AcDbPolyline
 90
        2
 70
     1
 43
0.0
 10
654.0614117301153
 20
43.50244216714361
 10
654.0614117301153
 20
43.5024421671435
  0
LWPOLYLINE
  5
B1E9
330
B1CC
100
AcDbEntity
  8
KOP
100
AcDbPolyline
 90
        2
 70
     1
 43
0.0
 10
651.6516764632803
 20
40.06098354903713
 10
651.6516764632803
 20
40.06098354903713
  0
LWPOLYLINE
  5
B1EA
330
B1CC
100
AcDbEntity
  8
KOP
100
AcDbPolyline
 90
        2
 70
     0
 43
0.35
 10
676.7395337845912
 20
16.78171285809002
 10
676.7395337845912
 20
36.78171285809026
  0
LWPOLYLINE
  5
B1EB
330
B1CC
100
AcDbEntity
  8
KOP
100
AcDbPolyline
 90
        2
 70
     0
 43
0.6
 10
726.7395337845912
 20
16.78171285809014
 10
726.7395337845911
 20
46.78171285809026
  0
TEXT
  5
B1EC
330
B1CC
100
AcDbEntity
  8
KOP
100
AcDbText
 10
703.3232029032191
 20
31.06037562076698
 30
0.0
 40
3.5
  1
APPROVED
 41
0.8
  7
ARIAL_REGULER
100
AcDbText
  0
LWPOLYLINE
  5
B1ED
330
B1CC
100
AcDbEntity
  8
KOP
100
AcDbPolyline
 90
        2
 70
     0
 43
0.35
 10
701.7395337845912
 20
16.78171285809002
 10
701.7395337845912
 20
36.78171285809026
  0
TEXT
  5
B1EE
330
B1CC
100
AcDbEntity
  8
KOP
100
AcDbText
 10
805.1777554764257
 20
24.32031551528905
 30
0.0
 40
3.0
  1
NUMBER
  7
ARIAL_REGULER
100
AcDbText
  0
TEXT
  5
B1EF
330
B1CC
100
AcDbEntity
  8
KOP
100
AcDbText
 10
817.6137502108902
 20
32.35077780047276
 30
0.0
 40
5.0
  1
A1
  7
ARIAL_REGULER
100
AcDbText
  0
TEXT
  5
B1F0
330
B1CC
100
AcDbEntity
  8
KOP
100
AcDbText
 10
728.4371914193582
 20
42.32031551528904
 30
0.0
 40
3.0
  1
FOR
  7
ARIAL_REGULER
100
AcDbText
  0
TEXT
  5
B1F1
330
B1CC
100
AcDbEntity
  8
KOP
100
AcDbText
 10
733.2174038716852
 20
24.32031551528905
 30
0.0
 40
3.0
  1
DATE
  7
ARIAL_REGULER
100
AcDbText
  0
TEXT
  5
B1F2
330
B1CC
100
AcDbEntity
  8
KOP
100
AcDbText
 10
729.701554010947
 20
32.35077780047276
 30
0.0
 40
5.0
  1
TYPE
  7
ARIAL_REGULER
100
AcDbText
  0
LWPOLYLINE
  5
B1F3
330
B1CC
100
AcDbEntity
  8
KOP
100
AcDbPolyline
 90
        2
 70
     0
 43
0.35
 10
751.7395337845912
 20
16.78171285809014
 10
751.7395337845912
 20
40.78171285809026
  0
TEXT
  5
B1F4
330
B1CC
100
AcDbEntity
  8
KOP
100
AcDbText
 10
757.5228683533348
 20
24.32031551528905
 30
0.0
 40
3.0
  1
SCALE
  7
ARIAL_REGULER
100
AcDbText
  0
LWPOLYLINE
  5
B1F5
330
B1CC
100
AcDbEntity
  8
KOP
100
AcDbPolyline
 90
        2
 70
     0
 43
0.35
 10
816.7395337845912
 20
28.78171285809026
 10
816.7395337845912
 20
46.78171285809026
  0
TEXT
  5
B1F6
330
B1CC
100
AcDbEntity
  8
KOP
100
AcDbText
 10
778.4899563241577
 20
24.32031551528905
 30
0.0
 40
3.0
  1
DIMENSION
 41
0.9
  7
ARIAL_REGULER
100
AcDbText
  0
LWPOLYLINE
  5
B1F7
330
B1CC
100
AcDbEntity
  8
KOP
100
AcDbPolyline
 90
        2
 70
     0
 43
0.35
 10
776.7395337845912
 20
16.78171285809014
 10
776.7395337845912
 20
28.78171285809026
  0
TEXT
  5
B1F8
330
B1CC
100
AcDbEntity
  8
KOP
100
AcDbText
 10
786.2736630532544
 20
18.56801705402972
 30
0.0
 40
3.0
  1
mm
  7
ARIAL_REGULER
100
AcDbText
  0
LWPOLYLINE
  5
B1F9
330
B1CC
100
AcDbEntity
  8
KOP
100
AcDbPolyline
 90
        2
 70
     0
 43
0.35
 10
801.7395337845911
 20
16.78171285809026
 10
801.7395337845911
 20
28.78171285809026
  0
LWPOLYLINE
  5
B1FA
330
B1CC
100
AcDbEntity
  8
KOP
100
AcDbPolyline
 90
        3
 70
     0
 43
0.35
 10
826.7395337845915
 20
576.7817128580902
 10
626.7395337845908
 20
576.7817128580904
 10
626.7395337845908
 20
581.78171285809
  0
TEXT
  5
B1FB
330
B1CC
100
AcDbEntity
  8
KOP
100
AcDbText
 10
630.3663422449804
 20
577.759721284536
 30
0.0
 40
3.0
  1
Cad File
  7
TIMES_NEW_ROMANS
100
AcDbText
  0
LWPOLYLINE
  5
B1FC
330
B1CC
100
AcDbEntity
  8
KOP
100
AcDbPolyline
 90
        2
 70
     0
 43
0.35
 10
651.7395337845908
 20
576.7817128580904
 10
651.7395337845908
 20
581.78171285809
  0
LWPOLYLINE
  5
B1FD
330
B1CC
100
AcDbEntity
  8
KOP
100
AcDbPolyline
 90
        2
 70
     0
 43
0.6
 10
153.739533784591
 20
46.78171285808992
 10
153.7395337845913
 20
16.78171285808991
  0
LWPOLYLINE
  5
B1FE
330
B1CC
100
AcDbEntity
  8
KOP
100
AcDbPolyline
 90
        2
 70
     0
 43
0.6
 10
146.739533784591
 20
46.78171285808992
 10
146.7395337845913
 20
16.78171285808991
  0
LWPOLYLINE
  5
B1FF
330
B1CC
100
AcDbEntity
  8
KOP
100
AcDbPolyline
 90
        4
 70
     1
 43
0.5
 10
21.73953378459134
 20
16.78171285809035
 10
21.73953378459145
 20
581.7817128580903
 10
826.7395337845915
 20
581.7817128580903
 10
826.7395337845911
 20
16.78171285809026
  0
LWPOLYLINE
  5
B200
330
B1CC
100
AcDbEntity
  8
KOP
100
AcDbPolyline
 90
        2
 70
     0
 43
0.0
 10
28.73953378459134
 20
16.78171285809035
 10
28.73953378459134
 20
46.78171285809036
  0
LWPOLYLINE
  5
B201
330
B1CC
100
AcDbEntity
  8
KOP
100
AcDbPolyline
 90
        2
 70
     0
 43
0.0
 10
23.17072987604706
 20
14.80671285809035
 10
20.75953378459132
 20
14.80671285809035
  0
LWPOLYLINE
  5
B202
330
B1CC
100
AcDbEntity
  8
KOP
100
AcDbPolyline
 90
        2
 70
     0
 43
0.0
 10
826.0568031955795
 20
583.7567128580903
 10
827.7195337845915
 20
583.7567128580903
  0
ENDBLK
  5
B204
330
B1CC
100
AcDbEntity
  8
0
100
AcDbBlockEnd
  0
BLOCK
  5
B2B0
330
B2A4
100
AcDbEntity
  8
0
100
AcDbBlockBegin
  2
A$C74DC1801
 70
     0
 10
0.0
 20
0.0
 30
0.0
  3
A$C74DC1801
  1

  0
LWPOLYLINE
  5
B2A5
330
B2A4
100
AcDbEntity
  8
G__TOTO
100
AcDbPolyline
 90
        7
 70
     1
 43
0.0
 10
37.9123211538341
 20
23.73162294462236
 10
37.9123211538341
 20
23.73162294462236
 42
0.331883
 10
37.82668915383402
 20
6.373072944622205
 42
0.4729860000000001
 10
64.75835615383411
 20
6.365232944622332
 10
64.75835615383411
 20
6.365232944622332
 42
0.331879
 10
64.68393115383404
 20
23.72368594462226
 10
64.68393115383404
 20
23.72368594462226
 42
0.468582
  0
HATCH
  5
B2A6
330
B2A4
100
AcDbEntity
  8
G__TOTO
100
AcDbHatch
 10
0.0
 20
0.0
 30
0.0
210
0.0
220
0.0
230
1.0
  2
SOLID
 70
     1
 71
     0
 91
       10
 92
        7
 72
     1
 73
     1
 93
       20
 10
18.53316830636113
 20
25.64512690726723
 42
0.0
 10
21.08924420219011
 20
25.64512690726723
 42
-0.4142752124674323
 10
26.80593530322191
 20
19.92723241900728
 42
0.0
 10
26.80561126091433
 20
18.38770741058532
 42
0.0
 10
30.19296838640961
 20
18.38770741058532
 42
0.0
 10
30.19520892030833
 20
29.03248395772914
 42
0.0
 10
0.0002185510645631
 20
29.03248395772914
 42
0.0
 10
-0.0000019816554726
 20
18.38770741058532
 42
0.0
 10
3.386681374428674
 20
18.38770741058532
 42
0.0
 10
3.387005923266556
 20
19.92963894019906
 42
-0.4141519149660894
 10
9.103697024299107
 20
25.64512690726723
 42
0.0
 10
11.66233392741882
 20
25.64512690726723
 42
0.0
 10
11.65816177148881
 20
6.483784833212553
 42
-0.4141497897727592
 10
9.528785548528716
 20
4.354872206299546
 42
0.0
 10
5.899612067634492
 20
4.354872206299546
 42
0.0
 10
5.898874510644191
 20
0.9675151558371908
 42
0.0
 10
24.28588120613003
 20
0.9675151558371908
 42
0.0
 10
24.28661876312041
 20
4.354872206299546
 42
0.0
 10
20.6583725752954
 20
4.354872206299546
 42
-0.4142773378492039
 10
18.52899635233612
 20
6.484712126259638
 42
0.0
 97
        0
 92
        7
 72
     1
 73
     1
 93
       20
 10
90.93278059410906
 20
25.64512690726723
 42
0.0
 10
93.48885648993805
 20
25.64512690726723
 42
-0.4142752124674332
 10
99.20554759097059
 20
19.92723241900728
 42
0.0
 10
99.20522354866321
 20
18.38770741058532
 42
0.0
 10
102.5925806741583
 20
18.38770741058532
 42
0.0
 10
102.5948212080568
 20
29.03248395772914
 42
0.0
 10
72.3998308388133
 20
29.03248395772914
 42
0.0
 10
72.39961030609331
 20
18.38770741058532
 42
0.0
 10
75.78629366217744
 20
18.38770741058532
 42
0.0
 10
75.78661821101523
 20
19.92963894019906
 42
-0.414151914966089
 10
81.50330931204711
 20
25.64512690726723
 42
0.0
 10
84.0619462151678
 20
25.64512690726723
 42
0.0
 10
84.05777405923723
 20
6.483784833212553
 42
-0.41414978977276
 10
81.92839783627695
 20
4.354872206299546
 42
0.0
 10
78.29922435538242
 20
4.354872206299546
 42
0.0
 10
78.29848679839253
 20
0.9675151558371908
 42
0.0
 10
96.6854934938788
 20
0.9675151558371908
 42
0.0
 10
96.68623105086922
 20
4.354872206299546
 42
0.0
 10
93.05798486304381
 20
4.354872206299546
 42
-0.4142773378492051
 10
90.92860864008505
 20
6.484712126259638
 42
0.0
 97
        0
 92
       16
 93
        4
 72
     2
 10
51.29488215383403
 20
11.21940294462217
 40
7.832046
 50
199.1202649999999
 51
340.867675
 73
     1
 72
     2
 10
40.40886015383413
 20
14.99590494462222
 40
19.354522
 50
340.867675
 51
379.193527
 73
     1
 72
     2
 10
51.29567815383413
 20
18.78571694462243
 40
7.826925
 50
19.193527
 51
160.7944129999999
 73
     1
 72
     2
 10
62.18169815383413
 20
14.99361394462221
 40
19.354522
 50
160.7944129999999
 51
199.1202649999999
 73
     1
 97
        0
 92
        1
 93
        4
 72
     2
 10
49.50506915383403
 20
14.99494794462234
 40
14.516242
 50
142.997119
 51
216.4375859999999
 73
     1
 72
     2
 10
51.29573915383411
 20
17.41948994462222
 40
17.419491
 50
219.356321
 51
320.61032
 73
     1
 72
     2
 10
53.08549015383403
 20
14.99457094462241
 40
14.516242
 50
323.5257889999999
 51
396.965523
 73
     1
 72
     2
 10
51.29482115383414
 20
12.58050894462235
 40
17.419491
 50
39.769149
 51
140.196876
 73
     1
 97
        0
 92
        1
 93
        4
 72
     2
 10
121.903335153834
 20
14.99494794462234
 40
14.516242
 50
142.997119
 51
216.4375859999999
 73
     1
 72
     2
 10
123.6940051538339
 20
17.41948994462222
 40
17.419491
 50
219.356321
 51
320.61032
 73
     1
 72
     2
 10
125.483756153834
 20
14.99457094462241
 40
14.516242
 50
323.5257889999999
 51
396.965523
 73
     1
 72
     2
 10
123.693087153834
 20
12.58050894462235
 40
17.419491
 50
39.769149
 51
140.196876
 73
     1
 97
        0
 92
       16
 93
        4
 72
     2
 10
123.693148153834
 20
11.21940294462217
 40
7.832046
 50
199.1202649999999
 51
340.867675
 73
     1
 72
     2
 10
112.8071261538341
 20
14.99590494462222
 40
19.354522
 50
340.867675
 51
379.193527
 73
     1
 72
     2
 10
123.6939441538341
 20
18.78571694462243
 40
7.826925
 50
19.193527
 51
160.7944129999999
 73
     1
 72
     2
 10
134.5799641538339
 20
14.99361394462221
 40
19.354522
 50
160.7944129999999
 51
199.1202649999999
 73
     1
 97
        0
 92
        0
 93
       67
 72
     1
 10
144.6053441538341
 20
27.94836994462218
 11
144.6280441538339
 21
27.94805894462217
 72
     1
 10
144.6280441538339
 20
27.94805894462217
 11
144.6746891538341
 21
27.94650394462223
 72
     1
 10
144.6746891538341
 20
27.94650394462223
 11
144.719779153834
 21
27.94308394462234
 72
     1
 10
144.719779153834
 20
27.94308394462234
 11
144.763935153834
 21
27.93810794462217
 72
     1
 10
144.763935153834
 20
27.93810794462217
 11
144.806537153834
 21
27.9312669446224
 72
     1
 10
144.806537153834
 20
27.9312669446224
 11
144.848207153834
 21
27.92255994462232
 72
     1
 10
144.848207153834
 20
27.92255994462232
 11
144.888632153834
 21
27.91260894462232
 72
     1
 10
144.888632153834
 20
27.91260894462232
 11
144.927502153834
 21
27.90048094462235
 72
     1
 10
144.927502153834
 20
27.90048094462235
 11
144.9654401538341
 21
27.88679894462234
 72
     1
 10
144.9654401538341
 20
27.88679894462234
 11
145.0021341538341
 21
27.87156194462227
 72
     1
 10
145.0021341538341
 20
27.87156194462227
 11
145.0375841538338
 21
27.85445894462236
 72
     1
 10
145.0375841538338
 20
27.85445894462236
 11
145.071790153834
 21
27.83580094462218
 72
     1
 10
145.071790153834
 20
27.83580094462218
 11
145.1044411538339
 21
27.81527694462238
 72
     1
 10
145.1044411538339
 20
27.81527694462238
 11
145.1361591538339
 21
27.7931989446223
 72
     1
 10
145.1361591538339
 20
27.7931989446223
 11
145.1666341538339
 21
27.76925494462239
 72
     1
 10
145.1666341538339
 20
27.76925494462239
 11
145.1921331538341
 21
27.74624294462239
 72
     1
 10
145.1921331538341
 20
27.74624294462239
 11
145.220430153834
 21
27.7176349446222
 72
     1
 10
145.220430153834
 20
27.7176349446222
 11
145.246240153834
 21
27.68747094462219
 72
     1
 10
145.246240153834
 20
27.68747094462219
 11
145.2698741538339
 21
27.65606394462236
 72
     1
 10
145.2698741538339
 20
27.65606394462236
 11
145.2913301538339
 21
27.62310194462235
 72
     1
 10
145.2913301538339
 20
27.62310194462235
 11
145.310610153834
 21
27.58889594462222
 72
     1
 10
145.310610153834
 20
27.58889594462222
 11
145.3274021538339
 21
27.55313494462223
 72
     1
 10
145.3274021538339
 20
27.55313494462223
 11
145.342017153834
 21
27.5158189446223
 72
     1
 10
145.342017153834
 20
27.5158189446223
 11
145.354456153834
 21
27.47725994462234
 72
     1
 10
145.354456153834
 20
27.47725994462234
 11
145.364407153834
 21
27.43745594462234
 72
     1
 10
145.364407153834
 20
27.43745594462234
 11
145.372492153834
 21
27.39578694462227
 72
     1
 10
145.372492153834
 20
27.39578694462227
 11
145.3780891538339
 21
27.35318494462218
 72
     1
 10
145.3780891538339
 20
27.35318494462218
 11
145.381510153834
 21
27.30871694462232
 72
     1
 10
145.381510153834
 20
27.30871694462232
 11
145.382443153834
 21
27.26300594462236
 72
     1
 10
145.382443153834
 20
27.26300594462236
 11
145.3821321538339
 21
27.22973194462224
 72
     1
 10
145.3821321538339
 20
27.22973194462224
 11
145.380888153834
 21
27.18184394462217
 72
     1
 10
145.380888153834
 20
27.18184394462217
 11
145.3780891538339
 21
27.13550994462218
 72
     1
 10
145.3780891538339
 20
27.13550994462218
 11
145.3737361538339
 21
27.09073194462234
 72
     1
 10
145.3737361538339
 20
27.09073194462234
 11
145.3684491538338
 21
27.04719694462232
 72
     1
 10
145.3684491538338
 20
27.04719694462232
 11
145.361919153834
 21
27.00490594462223
 72
     1
 10
145.361919153834
 20
27.00490594462223
 11
145.3538341538339
 21
26.96447994462233
 72
     1
 10
145.3538341538339
 20
26.96447994462233
 11
145.3448161538339
 21
26.92498794462232
 72
     1
 10
145.3448161538339
 20
26.92498794462232
 11
145.334243153834
 21
26.88736094462218
 72
     1
 10
145.334243153834
 20
26.88736094462218
 11
145.322427153834
 21
26.85097794462218
 72
     1
 10
145.322427153834
 20
26.85097794462218
 11
145.3093661538341
 21
26.81583894462232
 72
     1
 10
145.3093661538341
 20
26.81583894462232
 11
145.295062153834
 21
26.78256594462219
 72
     1
 10
145.295062153834
 20
26.78256594462219
 11
145.2795141538341
 21
26.75022594462223
 72
     1
 10
145.2795141538341
 20
26.75022594462223
 11
145.262410153834
 21
26.7197519446223
 72
     1
 10
145.262410153834
 20
26.7197519446223
 11
145.2443751538339
 21
26.69052094462232
 72
     1
 10
145.2443751538339
 20
26.69052094462232
 11
145.224784153834
 21
26.66253394462251
 72
     1
 10
145.224784153834
 20
26.66253394462251
 11
145.204260153834
 21
26.63610194462239
 72
     1
 10
145.204260153834
 20
26.63610194462239
 11
145.1821821538341
 21
26.61122494462232
 72
     1
 10
145.1821821538341
 20
26.61122494462232
 11
145.1588601538341
 21
26.58790294462221
 72
     1
 10
145.1588601538341
 20
26.58790294462221
 11
145.1342931538341
 21
26.56551394462224
 72
     1
 10
145.1342931538341
 20
26.56551394462224
 11
145.1084831538341
 21
26.54498994462232
 72
     1
 10
145.1084831538341
 20
26.54498994462232
 11
145.0811191538341
 21
26.52570994462235
 72
     1
 10
145.0811191538341
 20
26.52570994462235
 11
145.0528211538339
 21
26.50798494462219
 72
     1
 10
145.0528211538339
 20
26.50798494462219
 11
145.0229681538339
 21
26.4915039446223
 72
     1
 10
145.0229681538339
 20
26.4915039446223
 11
144.9921831538341
 21
26.47657794462236
 72
     1
 10
144.9921831538341
 20
26.47657794462236
 11
144.9598431538341
 21
26.46289494462223
 72
     1
 10
144.9598431538341
 20
26.46289494462223
 11
144.9262591538339
 21
26.45076794462237
 72
     1
 10
144.9262591538339
 20
26.45076794462237
 11
144.8914311538341
 21
26.44019494462236
 72
     1
 10
144.8914311538341
 20
26.44019494462236
 11
144.855359153834
 21
26.43086594462227
 72
     1
 10
144.855359153834
 20
26.43086594462227
 11
144.8177321538341
 21
26.42309194462232
 72
     1
 10
144.8177321538341
 20
26.42309194462232
 11
144.7791731538339
 21
26.41656194462234
 72
     1
 10
144.7791731538339
 20
26.41656194462234
 11
144.739058153834
 21
26.41158594462218
 72
     1
 10
144.739058153834
 20
26.41158594462218
 11
144.6980111538339
 21
26.40816594462228
 72
     1
 10
144.6980111538339
 20
26.40816594462228
 11
144.655409153834
 21
26.4059889446222
 72
     1
 10
144.655409153834
 20
26.4059889446222
 11
144.611563153834
 21
26.40505594462217
 72
     1
 10
144.611563153834
 20
26.40505594462217
 11
143.1005901538341
 21
26.40505594462217
 72
     1
 10
143.1005901538341
 20
26.40505594462217
 11
143.1005901538341
 21
27.94836994462218
 72
     1
 10
143.1005901538341
 20
27.94836994462218
 11
144.6053441538341
 21
27.94836994462218
 97
        0
 92
        0
 93
      207
 72
     1
 10
145.508694153834
 20
26.08818394462217
 11
145.467336153834
 21
26.11896894462232
 72
     1
 10
145.467336153834
 20
26.11896894462232
 11
145.423179153834
 21
26.15068794462218
 72
     1
 10
145.423179153834
 20
26.15068794462218
 11
145.376534153834
 21
26.18302794462227
 72
     1
 10
145.376534153834
 20
26.18302794462227
 11
145.403899153834
 21
26.20292994462237
 72
     1
 10
145.403899153834
 20
26.20292994462237
 11
145.441837153834
 21
26.23184894462236
 72
     1
 10
145.441837153834
 20
26.23184894462236
 11
145.478219153834
 21
26.26076894462221
 72
     1
 10
145.478219153834
 20
26.26076894462221
 11
145.5133581538341
 21
26.29031094462232
 72
     1
 10
145.5133581538341
 20
26.29031094462232
 11
145.5472531538338
 21
26.32016294462232
 72
     1
 10
145.5472531538338
 20
26.32016294462232
 11
145.579905153834
 21
26.35032694462234
 72
     1
 10
145.579905153834
 20
26.35032694462234
 11
145.611001153834
 21
26.38080094462235
 72
     1
 10
145.611001153834
 20
26.38080094462235
 11
145.640854153834
 21
26.41189694462218
 72
     1
 10
145.640854153834
 20
26.41189694462218
 11
145.6694621538341
 21
26.44330494462235
 72
     1
 10
145.6694621538341
 20
26.44330494462235
 11
145.6968271538341
 21
26.47502294462219
 72
     1
 10
145.6968271538341
 20
26.47502294462219
 11
145.722637153834
 21
26.50705194462239
 72
     1
 10
145.722637153834
 20
26.50705194462239
 11
145.7472031538341
 21
26.53970394462227
 72
     1
 10
145.7472031538341
 20
26.53970394462227
 11
145.770525153834
 21
26.57235494462236
 72
     1
 10
145.770525153834
 20
26.57235494462236
 11
145.7922931538341
 21
26.60562794462236
 72
     1
 10
145.7922931538341
 20
26.60562794462236
 11
145.812817153834
 21
26.63921194462226
 72
     1
 10
145.812817153834
 20
26.63921194462226
 11
145.8320961538341
 21
26.67341794462219
 72
     1
 10
145.8320961538341
 20
26.67341794462219
 11
145.850132153834
 21
26.70762394462224
 72
     1
 10
145.850132153834
 20
26.70762394462224
 11
145.866613153834
 21
26.7424519446222
 72
     1
 10
145.866613153834
 20
26.7424519446222
 11
145.8818511538341
 21
26.77759094462226
 72
     1
 10
145.8818511538341
 20
26.77759094462226
 11
145.8958441538339
 21
26.81304094462234
 72
     1
 10
145.8958441538339
 20
26.81304094462234
 11
145.9085931538338
 21
26.84911294462231
 72
     1
 10
145.9085931538338
 20
26.84911294462231
 11
145.9197881538341
 21
26.8851839446223
 72
     1
 10
145.9197881538341
 20
26.8851839446223
 11
145.9297391538341
 21
26.92187794462232
 72
     1
 10
145.9297391538341
 20
26.92187794462232
 11
145.938446153834
 21
26.95888294462235
 72
     1
 10
145.938446153834
 20
26.95888294462235
 11
145.945598153834
 21
26.99650994462218
 72
     1
 10
145.945598153834
 20
26.99650994462218
 11
145.9518171538339
 21
27.03413594462222
 72
     1
 10
145.9518171538339
 20
27.03413594462222
 11
145.9561711538341
 21
27.07238494462217
 72
     1
 10
145.9561711538341
 20
27.07238494462217
 11
145.9595911538339
 21
27.11094394462236
 72
     1
 10
145.9595911538339
 20
27.11094394462236
 11
145.9617681538341
 21
27.14981494462232
 72
     1
 10
145.9617681538341
 20
27.14981494462232
 11
145.962390153834
 21
27.18899594462219
 72
     1
 10
145.962390153834
 20
27.18899594462219
 11
145.9620791538339
 21
27.22568994462221
 72
     1
 10
145.9620791538339
 20
27.22568994462221
 11
145.960835153834
 21
27.27637694462237
 72
     1
 10
145.960835153834
 20
27.27637694462237
 11
145.9586591538339
 21
27.32613094462237
 72
     1
 10
145.9586591538339
 20
27.32613094462237
 11
145.9555491538339
 21
27.37433094462221
 72
     1
 10
145.9555491538339
 20
27.37433094462221
 11
145.951506153834
 21
27.42190794462227
 72
     1
 10
145.951506153834
 20
27.42190794462227
 11
145.9462201538341
 21
27.46793094462214
 72
     1
 10
145.9462201538341
 20
27.46793094462214
 11
145.940001153834
 21
27.51333094462234
 72
     1
 10
145.940001153834
 20
27.51333094462234
 11
145.932849153834
 21
27.55717694462237
 72
     1
 10
145.932849153834
 20
27.55717694462237
 11
145.9247641538341
 21
27.60008994462237
 72
     1
 10
145.9247641538341
 20
27.60008994462237
 11
145.9157461538341
 21
27.64175994462219
 72
     1
 10
145.9157461538341
 20
27.64175994462219
 11
145.9057951538341
 21
27.68249594462236
 72
     1
 10
145.9057951538341
 20
27.68249594462236
 11
145.894600153834
 21
27.72198794462235
 72
     1
 10
145.894600153834
 20
27.72198794462235
 11
145.8824721538339
 21
27.7602369446222
 72
     1
 10
145.8824721538339
 20
27.7602369446222
 11
145.8694121538341
 21
27.79755194462234
 72
     1
 10
145.8694121538341
 20
27.79755194462234
 11
145.8554191538341
 21
27.83393494462222
 72
     1
 10
145.8554191538341
 20
27.83393494462222
 11
145.8404921538341
 21
27.86876294462218
 72
     1
 10
145.8404921538341
 20
27.86876294462218
 11
145.824322153834
 21
27.90265794462232
 72
     1
 10
145.824322153834
 20
27.90265794462232
 11
145.8075301538341
 21
27.9356199446222
 72
     1
 10
145.8075301538341
 20
27.9356199446222
 11
145.789494153834
 21
27.96733894462237
 72
     1
 10
145.789494153834
 20
27.96733894462237
 11
145.770525153834
 21
27.99781294462241
 72
     1
 10
145.770525153834
 20
27.99781294462241
 11
145.7506241538339
 21
28.02735494462218
 72
     1
 10
145.7506241538339
 20
28.02735494462218
 11
145.729478153834
 21
28.05565194462235
 72
     1
 10
145.729478153834
 20
28.05565194462235
 11
145.707711153834
 21
28.08270594462237
 72
     1
 10
145.707711153834
 20
28.08270594462237
 11
145.6846991538339
 21
28.10882694462236
 72
     1
 10
145.6846991538339
 20
28.10882694462236
 11
145.664176153834
 21
28.13028394462219
 72
     1
 10
145.664176153834
 20
28.13028394462219
 11
145.6399211538339
 21
28.1532949446223
 72
     1
 10
145.6399211538339
 20
28.1532949446223
 11
145.614733153834
 21
28.1756849446224
 72
     1
 10
145.614733153834
 20
28.1756849446224
 11
145.5886121538341
 21
28.19714094462222
 72
     1
 10
145.5886121538341
 20
28.19714094462222
 11
145.5612471538339
 21
28.21766494462234
 72
     1
 10
145.5612471538339
 20
28.21766494462234
 11
145.5326381538339
 21
28.23756594462236
 72
     1
 10
145.5326381538339
 20
28.23756594462236
 11
145.503097153834
 21
28.25653494462221
 72
     1
 10
145.503097153834
 20
28.25653494462221
 11
145.472622153834
 21
28.27457094462237
 72
     1
 10
145.472622153834
 20
28.27457094462237
 11
145.4409041538339
 21
28.29198494462231
 72
     1
 10
145.4409041538339
 20
28.29198494462231
 11
145.408253153834
 21
28.30846594462217
 72
     1
 10
145.408253153834
 20
28.30846594462217
 11
145.374357153834
 21
28.32401394462237
 72
     1
 10
145.374357153834
 20
28.32401394462237
 11
145.339530153834
 21
28.33894094462221
 72
     1
 10
145.339530153834
 20
28.33894094462221
 11
145.3034581538339
 21
28.35262294462222
 72
     1
 10
145.3034581538339
 20
28.35262294462222
 11
145.2664531538341
 21
28.36568294462232
 72
     1
 10
145.2664531538341
 20
28.36568294462232
 11
145.2282041538341
 21
28.3781219446222
 72
     1
 10
145.2282041538341
 20
28.3781219446222
 11
145.189023153834
 21
28.38931694462223
 72
     1
 10
145.189023153834
 20
28.38931694462223
 11
145.148598153834
 21
28.39988894462237
 72
     1
 10
145.148598153834
 20
28.39988894462237
 11
145.107240153834
 21
28.40952894462214
 72
     1
 10
145.107240153834
 20
28.40952894462214
 11
145.0649481538339
 21
28.41854694462222
 72
     1
 10
145.0649481538339
 20
28.41854694462222
 11
145.0211031538341
 21
28.42632094462237
 72
     1
 10
145.0211031538341
 20
28.42632094462237
 11
144.9766351538339
 21
28.43378494462217
 72
     1
 10
144.9766351538339
 20
28.43378494462217
 11
144.9309231538339
 21
28.44000394462227
 72
     1
 10
144.9309231538339
 20
28.44000394462227
 11
144.8842781538339
 21
28.44528994462223
 72
     1
 10
144.8842781538339
 20
28.44528994462223
 11
144.836390153834
 21
28.44995494462239
 72
     1
 10
144.836390153834
 20
28.44995494462239
 11
144.7872581538339
 21
28.45399694462241
 72
     1
 10
144.7872581538339
 20
28.45399694462241
 11
144.737193153834
 21
28.45679594462217
 72
     1
 10
144.737193153834
 20
28.45679594462217
 11
144.686194153834
 21
28.45897294462236
 72
     1
 10
144.686194153834
 20
28.45897294462236
 11
144.633952153834
 21
28.46021594462218
 72
     1
 10
144.633952153834
 20
28.46021594462218
 11
144.5807781538339
 21
28.46052694462219
 72
     1
 10
144.5807781538339
 20
28.46052694462219
 11
142.520953153834
 21
28.46052694462219
 72
     1
 10
142.520953153834
 20
28.46052694462219
 11
142.520953153834
 21
23.96087994462232
 72
     1
 10
142.520953153834
 20
23.96087994462232
 11
143.1005901538341
 21
23.96087994462232
 72
     1
 10
143.1005901538341
 20
23.96087994462232
 11
143.1005901538341
 21
25.89289894462218
 72
     1
 10
143.1005901538341
 20
25.89289894462218
 11
144.611563153834
 21
25.89289894462218
 72
     1
 10
144.611563153834
 20
25.89289894462218
 11
144.645769153834
 21
25.89227694462238
 72
     1
 10
144.645769153834
 20
25.89227694462238
 11
144.686194153834
 21
25.8900999446222
 72
     1
 10
144.686194153834
 20
25.8900999446222
 11
144.725687153834
 21
25.88636794462217
 72
     1
 10
144.725687153834
 20
25.88636794462217
 11
144.763624153834
 21
25.88108194462233
 72
     1
 10
144.763624153834
 20
25.88108194462233
 11
144.800318153834
 21
25.87424094462232
 72
     1
 10
144.800318153834
 20
25.87424094462232
 11
144.835768153834
 21
25.86553394462236
 72
     1
 10
144.835768153834
 20
25.86553394462236
 11
144.8699741538341
 21
25.85558294462225
 72
     1
 10
144.8699741538341
 20
25.85558294462225
 11
144.9029361538341
 21
25.84376594462219
 72
     1
 10
144.9029361538341
 20
25.84376594462219
 11
144.934655153834
 21
25.83039494462218
 72
     1
 10
144.934655153834
 20
25.83039494462218
 11
144.9648181538341
 21
25.81515794462224
 72
     1
 10
144.9648181538341
 20
25.81515794462224
 11
144.994049153834
 21
25.79867694462222
 72
     1
 10
144.994049153834
 20
25.79867694462222
 11
145.0217241538338
 21
25.78032994462251
 72
     1
 10
145.0217241538338
 20
25.78032994462251
 11
145.0481561538341
 21
25.76073894462217
 72
     1
 10
145.0481561538341
 20
25.76073894462217
 11
145.0733441538339
 21
25.73928294462223
 72
     1
 10
145.0733441538339
 20
25.73928294462223
 11
145.097289153834
 21
25.71627094462234
 72
     1
 10
145.097289153834
 20
25.71627094462234
 11
145.119989153834
 21
25.69139394462217
 72
     1
 10
145.119989153834
 20
25.69139394462217
 11
145.1414461538341
 21
25.6652729446223
 72
     1
 10
145.1414461538341
 20
25.6652729446223
 11
145.1613471538339
 21
25.63728594462236
 72
     1
 10
145.1613471538339
 20
25.63728594462236
 11
145.180316153834
 21
25.60774494462235
 72
     1
 10
145.180316153834
 20
25.60774494462235
 11
145.1977301538339
 21
25.5766479446223
 72
     1
 10
145.1977301538339
 20
25.5766479446223
 11
145.2142111538341
 21
25.54399694462232
 72
     1
 10
145.2142111538341
 20
25.54399694462232
 11
145.2291371538341
 21
25.50979094462229
 72
     1
 10
145.2291371538341
 20
25.50979094462229
 11
145.242820153834
 21
25.47371894462219
 72
     1
 10
145.242820153834
 20
25.47371894462219
 11
145.2552581538338
 21
25.43640394462226
 72
     1
 10
145.2552581538338
 20
25.43640394462226
 11
145.2664531538341
 21
25.39722194462218
 72
     1
 10
145.2664531538341
 20
25.39722194462218
 11
145.2760931538341
 21
25.35648594462236
 72
     1
 10
145.2760931538341
 20
25.35648594462236
 11
145.284800153834
 21
25.31388394462235
 72
     1
 10
145.284800153834
 20
25.31388394462235
 11
145.2919521538341
 21
25.27003794462234
 72
     1
 10
145.2919521538341
 20
25.27003794462234
 11
145.298171153834
 21
25.22432594462236
 72
     1
 10
145.298171153834
 20
25.22432594462236
 11
145.3028361538341
 21
25.17737094462232
 72
     1
 10
145.3028361538341
 20
25.17737094462232
 11
145.306256153834
 21
25.12854994462212
 72
     1
 10
145.306256153834
 20
25.12854994462212
 11
145.3084331538339
 21
25.07817294462233
 72
     1
 10
145.3084331538339
 20
25.07817294462233
 11
145.307189153834
 21
25.05018694462228
 72
     1
 10
145.307189153834
 20
25.05018694462228
 11
145.3047021538339
 21
24.99701194462227
 72
     1
 10
145.3047021538339
 20
24.99701194462227
 11
145.3025251538341
 21
24.9453919446222
 72
     1
 10
145.3025251538341
 20
24.9453919446222
 11
145.3009701538339
 21
24.89532694462218
 72
     1
 10
145.3009701538339
 20
24.89532694462218
 11
145.300037153834
 21
24.84681594462222
 72
     1
 10
145.300037153834
 20
24.84681594462222
 11
145.299726153834
 21
24.7998609446222
 72
     1
 10
145.299726153834
 20
24.7998609446222
 11
145.299726153834
 21
24.75414894462221
 72
     1
 10
145.299726153834
 20
24.75414894462221
 11
145.300037153834
 21
24.70999194462218
 72
     1
 10
145.300037153834
 20
24.70999194462218
 11
145.301281153834
 21
24.66738994462218
 72
     1
 10
145.301281153834
 20
24.66738994462218
 11
145.3025251538341
 21
24.62634294462235
 72
     1
 10
145.3025251538341
 20
24.62634294462235
 11
145.3047021538339
 21
24.58684994462226
 72
     1
 10
145.3047021538339
 20
24.58684994462226
 11
145.307189153834
 21
24.54860194462219
 72
     1
 10
145.307189153834
 20
24.54860194462219
 11
145.309988153834
 21
24.5122189446223
 72
     1
 10
145.309988153834
 20
24.5122189446223
 11
145.3137201538339
 21
24.47707994462234
 72
     1
 10
145.3137201538339
 20
24.47707994462234
 11
145.3174511538341
 21
24.44349594462221
 72
     1
 10
145.3174511538341
 20
24.44349594462221
 11
145.322116153834
 21
24.41115594462235
 72
     1
 10
145.322116153834
 20
24.41115594462235
 11
145.3270911538339
 21
24.38068094462221
 72
     1
 10
145.3270911538339
 20
24.38068094462221
 11
145.328957153834
 21
24.36886494462237
 72
     1
 10
145.328957153834
 20
24.36886494462237
 11
145.3367311538341
 21
24.32595194462237
 72
     1
 10
145.3367311538341
 20
24.32595194462237
 11
145.345127153834
 21
24.28366094462229
 72
     1
 10
145.345127153834
 20
24.28366094462229
 11
145.354456153834
 21
24.2416809446223
 72
     1
 10
145.354456153834
 20
24.2416809446223
 11
145.364096153834
 21
24.20001094462236
 72
     1
 10
145.364096153834
 20
24.20001094462236
 11
145.3746681538341
 21
24.1589639446223
 72
     1
 10
145.3746681538341
 20
24.1589639446223
 11
145.3861741538339
 21
24.11853894462217
 72
     1
 10
145.3861741538339
 20
24.11853894462217
 11
145.397991153834
 21
24.07842494462227
 72
     1
 10
145.397991153834
 20
24.07842494462227
 11
145.410740153834
 21
24.03862094462237
 72
     1
 10
145.410740153834
 20
24.03862094462237
 11
145.4241121538339
 21
23.99943994462228
 72
     1
 10
145.4241121538339
 20
23.99943994462228
 11
145.4381051538339
 21
23.96087994462232
 72
     1
 10
145.4381051538339
 20
23.96087994462232
 11
146.134975153834
 21
23.96087994462232
 72
     1
 10
146.134975153834
 20
23.96087994462232
 11
146.134975153834
 21
24.10889894462218
 72
     1
 10
146.134975153834
 20
24.10889894462218
 11
146.106677153834
 21
24.13315394462232
 72
     1
 10
146.106677153834
 20
24.13315394462232
 11
146.076203153834
 21
24.16238494462231
 72
     1
 10
146.076203153834
 20
24.16238494462231
 11
146.0485271538339
 21
24.19316994462235
 72
     1
 10
146.0485271538339
 20
24.19316994462235
 11
146.023650153834
 21
24.22519894462221
 72
     1
 10
146.023650153834
 20
24.22519894462221
 11
146.0015721538341
 21
24.25909494462235
 72
     1
 10
146.0015721538341
 20
24.25909494462235
 11
145.981981153834
 21
24.2942329446223
 72
     1
 10
145.981981153834
 20
24.2942329446223
 11
145.9651891538339
 21
24.33061594462219
 72
     1
 10
145.9651891538339
 20
24.33061594462219
 11
145.9511951538341
 21
24.36886494462237
 72
     1
 10
145.9511951538341
 20
24.36886494462237
 11
145.9396901538339
 21
24.40835694462236
 72
     1
 10
145.9396901538339
 20
24.40835694462236
 11
145.9312941538341
 21
24.44909294462217
 72
     1
 10
145.9312941538341
 20
24.44909294462217
 11
145.9253851538341
 21
24.49169494462228
 72
     1
 10
145.9253851538341
 20
24.49169494462228
 11
145.9247641538341
 21
24.50071294462236
 72
     1
 10
145.9247641538341
 20
24.50071294462236
 11
145.921032153834
 21
24.55886394462219
 72
     1
 10
145.921032153834
 20
24.55886394462219
 11
145.9173001538341
 21
24.61545894462223
 72
     1
 10
145.9173001538341
 20
24.61545894462223
 11
145.9138801538339
 21
24.67049994462218
 72
     1
 10
145.9138801538339
 20
24.67049994462218
 11
145.910459153834
 21
24.72398594462219
 72
     1
 10
145.910459153834
 20
24.72398594462219
 11
145.9073501538341
 21
24.77622694462218
 72
     1
 10
145.9073501538341
 20
24.77622694462218
 11
145.904240153834
 21
24.82660394462232
 72
     1
 10
145.904240153834
 20
24.82660394462232
 11
145.901130153834
 21
24.8757359446223
 72
     1
 10
145.901130153834
 20
24.8757359446223
 11
145.898643153834
 21
24.92331294462235
 72
     1
 10
145.898643153834
 20
24.92331294462235
 11
145.8958441538339
 21
24.96933594462234
 72
     1
 10
145.8958441538339
 20
24.96933594462234
 11
145.8933561538341
 21
25.01380394462228
 72
     1
 10
145.8933561538341
 20
25.01380394462228
 11
145.891179153834
 21
25.0567169446224
 72
     1
 10
145.891179153834
 20
25.0567169446224
 11
145.8890031538341
 21
25.09807494462234
 72
     1
 10
145.8890031538341
 20
25.09807494462234
 11
145.887137153834
 21
25.13818894462235
 72
     1
 10
145.887137153834
 20
25.13818894462235
 11
145.885271153834
 21
25.17643794462242
 72
     1
 10
145.885271153834
 20
25.17643794462242
 11
145.8834051538341
 21
25.21344294462232
 72
     1
 10
145.8834051538341
 20
25.21344294462232
 11
145.882161153834
 21
25.24889294462218
 72
     1
 10
145.882161153834
 20
25.24889294462218
 11
145.880607153834
 21
25.28278794462232
 72
     1
 10
145.880607153834
 20
25.28278794462232
 11
145.8793631538341
 21
25.31543894462219
 72
     1
 10
145.8793631538341
 20
25.31543894462219
 11
145.8784301538341
 21
25.34622394462235
 72
     1
 10
145.8784301538341
 20
25.34622394462235
 11
145.8774971538341
 21
25.37576594462223
 72
     1
 10
145.8774971538341
 20
25.37576594462223
 11
145.876564153834
 21
25.40344194462238
 72
     1
 10
145.876564153834
 20
25.40344194462238
 11
145.8759421538339
 21
25.42987394462226
 72
     1
 10
145.8759421538339
 20
25.42987394462226
 11
145.8719001538339
 21
25.47247594462236
 72
     1
 10
145.8719001538339
 20
25.47247594462236
 11
145.8653691538339
 21
25.52502794462236
 72
     1
 10
145.8653691538339
 20
25.52502794462236
 11
145.8579061538341
 21
25.57416094462235
 72
     1
 10
145.8579061538341
 20
25.57416094462235
 11
145.8495101538341
 21
25.62018294462234
 72
     1
 10
145.8495101538341
 20
25.62018294462234
 11
145.840181153834
 21
25.66278494462232
 72
     1
 10
145.840181153834
 20
25.66278494462232
 11
145.829609153834
 21
25.70196694462242
 72
     1
 10
145.829609153834
 20
25.70196694462242
 11
145.8181031538338
 21
25.73772794462218
 72
     1
 10
145.8181031538338
 20
25.73772794462218
 11
145.8056641538341
 21
25.77006794462238
 72
     1
 10
145.8056641538341
 20
25.77006794462238
 11
145.7919821538339
 21
25.79929894462235
 72
     1
 10
145.7919821538339
 20
25.79929894462235
 11
145.777367153834
 21
25.82479794462232
 72
     1
 10
145.777367153834
 20
25.82479794462232
 11
145.7643061538341
 21
25.84469894462221
 72
     1
 10
145.7643061538341
 20
25.84469894462221
 11
145.7462701538339
 21
25.86864394462236
 72
     1
 10
145.7462701538339
 20
25.86864394462236
 11
145.7257471538341
 21
25.89352094462219
 72
     1
 10
145.7257471538341
 20
25.89352094462219
 11
145.702735153834
 21
25.91901994462228
 72
     1
 10
145.702735153834
 20
25.91901994462228
 11
145.6769251538339
 21
25.94545194462239
 72
     1
 10
145.6769251538339
 20
25.94545194462239
 11
145.6486281538341
 21
25.97250494462219
 72
     1
 10
145.6486281538341
 20
25.97250494462219
 11
145.617531153834
 21
26.00018094462232
 72
     1
 10
145.617531153834
 20
26.00018094462232
 11
145.583947153834
 21
26.0287899446222
 72
     1
 10
145.583947153834
 20
26.0287899446222
 11
145.547564153834
 21
26.05833094462218
 72
     1
 10
145.547564153834
 20
26.05833094462218
 11
145.508694153834
 21
26.08818394462217
 97
        0
 92
       16
 93
        1
 72
     2
 10
143.9999981538341
 20
25.99999994462223
 40
3.5
 50
0.0
 51
360.0
 73
     1
 97
        0
 92
        1
 93
        1
 72
     2
 10
143.9999981538341
 20
25.99999994462223
 40
4.0
 50
0.0
 51
360.0
 73
     1
 97
        0
 75
     0
 76
     1
 47
0.5016490000000001
 98
        2
 10
14.36045815383401
 20
14.55321394462235
 10
89.17606215383404
 20
16.05816194462227
  0
LWPOLYLINE
  5
B2A7
330
B2A4
100
AcDbEntity
  8
G__TOTO
100
AcDbPolyline
 90
       27
 70
     0
 43
0.0
 10
11.65816215383409
 20
6.483784944622357
 10
11.66233415383401
 20
25.64512694462234
 10
9.103697153834033
 20
25.64512694462234
 42
0.414152
 10
3.387006153834121
 20
19.92963894462218
 10
3.387006153834121
 20
19.92963894462218
 10
3.386681153834118
 20
18.38770694462221
 10
-0.0000018461658726
 20
18.38770694462221
 10
0.0002181538341262
 20
29.03248394462218
 10
30.19520915383411
 20
29.03248394462218
 10
30.19296815383404
 20
18.38770694462221
 10
26.80561115383401
 20
18.38770694462221
 10
26.80593515383411
 20
19.92723194462232
 10
26.80593515383411
 20
19.92723194462232
 42
0.4142750000000003
 10
21.08924415383403
 20
25.64512694462234
 10
21.08924415383403
 20
25.64512694462234
 10
18.53316815383412
 20
25.64512694462234
 10
18.52899615383412
 20
6.484711944622173
 10
18.52899615383412
 20
6.484711944622173
 42
0.4142770000000002
 10
20.65837215383412
 20
4.354871944622344
 10
20.65837215383412
 20
4.354871944622344
 10
24.28661915383412
 20
4.354871944622344
 10
24.2858811538341
 20
0.9675149446222803
 10
5.898874153834128
 20
0.9675149446222803
 10
5.899612153834112
 20
4.354871944622344
 10
9.528785153834023
 20
4.354871944622344
 10
9.528785153834023
 20
4.354871944622344
 42
0.4142140000000003
 10
11.65816215383409
 20
6.484248944622322
  0
CIRCLE
  5
B2A8
330
B2A4
100
AcDbEntity
  8
G__TOTO
100
AcDbCircle
 10
143.9999981538341
 20
25.99999994462223
 30
0.0
 40
3.5
  0
CIRCLE
  5
B2A9
330
B2A4
100
AcDbEntity
  8
G__TOTO
100
AcDbCircle
 10
143.9999981538341
 20
25.99999994462223
 30
0.0
 40
4.0
  0
LWPOLYLINE
  5
B2AA
330
B2A4
100
AcDbEntity
  8
G__TOTO
100
AcDbPolyline
 90
        6
 70
     0
 43
0.0
 10
116.2931711538341
 20
8.653999944622341
 42
0.7116310000000004
 10
131.0925851538341
 20
8.65244194462241
 42
0.168805
 10
131.0857981538339
 20
21.35889694462239
 42
0.7106690000000003
 10
116.302632153834
 20
21.36045294462235
 10
116.302632153834
 20
21.36045294462235
 42
0.168805
 10
116.2931711538341
 20
8.653999944622341
  0
LWPOLYLINE
  5
B2AB
330
B2A4
100
AcDbEntity
  8
G__TOTO
100
AcDbPolyline
 90
        7
 70
     1
 43
0.0
 10
110.310588153834
 20
23.73162294462236
 10
110.310588153834
 20
23.73162294462236
 42
0.331883
 10
110.224955153834
 20
6.373072944622205
 42
0.4729860000000001
 10
137.156622153834
 20
6.365232944622332
 10
137.156622153834
 20
6.365232944622332
 42
0.331879
 10
137.0821971538338
 20
23.72368594462226
 10
137.0821971538338
 20
23.72368594462226
 42
0.468582
  0
LWPOLYLINE
  5
B2AC
330
B2A4
100
AcDbEntity
  8
G__TOTO
100
AcDbPolyline
 90
        6
 70
     0
 43
0.0
 10
43.89490515383411
 20
8.653999944622341
 42
0.7116310000000004
 10
58.69431915383414
 20
8.65244194462241
 42
0.168805
 10
58.68753215383399
 20
21.35889694462239
 42
0.7106690000000003
 10
43.90436615383413
 20
21.36045294462235
 10
43.90436615383413
 20
21.36045294462235
 42
0.168805
 10
43.89490515383411
 20
8.653999944622341
  0
LWPOLYLINE
  5
B2AD
330
B2A4
100
AcDbEntity
  8
G__TOTO
100
AcDbPolyline
 90
       27
 70
     0
 43
0.0
 10
84.05777415383402
 20
6.483784944622357
 10
84.06194615383412
 20
25.64512694462234
 10
81.50330915383412
 20
25.64512694462234
 42
0.414152
 10
75.78661815383412
 20
19.92963894462218
 10
75.78661815383412
 20
19.92963894462218
 10
75.78629415383403
 20
18.38770694462221
 10
72.39961015383411
 20
18.38770694462221
 10
72.39983115383409
 20
29.03248394462218
 10
102.594821153834
 20
29.03248394462218
 10
102.592581153834
 20
18.38770694462221
 10
99.20522315383406
 20
18.38770694462221
 10
99.20554715383413
 20
19.92723194462232
 10
99.20554715383413
 20
19.92723194462232
 42
0.4142750000000003
 10
93.48885615383403
 20
25.64512694462234
 10
93.48885615383403
 20
25.64512694462234
 10
90.93278015383408
 20
25.64512694462234
 10
90.92860815383414
 20
6.484711944622173
 10
90.92860815383414
 20
6.484711944622173
 42
0.4142770000000002
 10
93.05798515383413
 20
4.354871944622344
 10
93.05798515383413
 20
4.354871944622344
 10
96.68623115383406
 20
4.354871944622344
 10
96.68549315383414
 20
0.9675149446222803
 10
78.29848715383412
 20
0.9675149446222803
 10
78.29922415383411
 20
4.354871944622344
 10
81.92839815383406
 20
4.354871944622344
 10
81.92839815383406
 20
4.354871944622344
 42
0.4142140000000003
 10
84.05777415383402
 20
6.484248944622322
  0
LWPOLYLINE
  5
B2AE
330
B2A4
100
AcDbEntity
  8
G__TOTO
100
AcDbPolyline
 90
       67
 70
     1
 43
0.0
 10
144.6053441538341
 20
27.94836994462218
 10
144.6280441538339
 20
27.94805894462217
 10
144.6746891538341
 20
27.94650394462223
 10
144.719779153834
 20
27.94308394462234
 10
144.763935153834
 20
27.93810794462217
 10
144.806537153834
 20
27.9312669446224
 10
144.848207153834
 20
27.92255994462232
 10
144.888632153834
 20
27.91260894462232
 10
144.927502153834
 20
27.90048094462235
 10
144.9654401538341
 20
27.88679894462234
 10
145.0021341538341
 20
27.87156194462227
 10
145.0375841538338
 20
27.85445894462236
 10
145.071790153834
 20
27.83580094462218
 10
145.1044411538339
 20
27.81527694462238
 10
145.1361591538339
 20
27.7931989446223
 10
145.1666341538339
 20
27.76925494462239
 10
145.1921331538341
 20
27.74624294462239
 10
145.220430153834
 20
27.7176349446222
 10
145.246240153834
 20
27.68747094462219
 10
145.2698741538339
 20
27.65606394462236
 10
145.2913301538339
 20
27.62310194462235
 10
145.310610153834
 20
27.58889594462222
 10
145.3274021538339
 20
27.55313494462223
 10
145.342017153834
 20
27.5158189446223
 10
145.354456153834
 20
27.47725994462234
 10
145.364407153834
 20
27.43745594462234
 10
145.372492153834
 20
27.39578694462227
 10
145.3780891538339
 20
27.35318494462218
 10
145.381510153834
 20
27.30871694462232
 10
145.382443153834
 20
27.26300594462236
 10
145.3821321538339
 20
27.22973194462224
 10
145.380888153834
 20
27.18184394462217
 10
145.3780891538339
 20
27.13550994462218
 10
145.3737361538339
 20
27.09073194462234
 10
145.3684491538338
 20
27.04719694462232
 10
145.361919153834
 20
27.00490594462223
 10
145.3538341538339
 20
26.96447994462233
 10
145.3448161538339
 20
26.92498794462232
 10
145.334243153834
 20
26.88736094462218
 10
145.322427153834
 20
26.85097794462218
 10
145.3093661538341
 20
26.81583894462232
 10
145.295062153834
 20
26.78256594462219
 10
145.2795141538341
 20
26.75022594462223
 10
145.262410153834
 20
26.7197519446223
 10
145.2443751538339
 20
26.69052094462232
 10
145.224784153834
 20
26.66253394462251
 10
145.204260153834
 20
26.63610194462239
 10
145.1821821538341
 20
26.61122494462232
 10
145.1588601538341
 20
26.58790294462221
 10
145.1342931538341
 20
26.56551394462224
 10
145.1084831538341
 20
26.54498994462232
 10
145.0811191538341
 20
26.52570994462235
 10
145.0528211538339
 20
26.50798494462219
 10
145.0229681538339
 20
26.4915039446223
 10
144.9921831538341
 20
26.47657794462236
 10
144.9598431538341
 20
26.46289494462223
 10
144.9262591538339
 20
26.45076794462237
 10
144.8914311538341
 20
26.44019494462236
 10
144.855359153834
 20
26.43086594462227
 10
144.8177321538341
 20
26.42309194462232
 10
144.7791731538339
 20
26.41656194462234
 10
144.739058153834
 20
26.41158594462218
 10
144.6980111538339
 20
26.40816594462228
 10
144.655409153834
 20
26.4059889446222
 10
144.611563153834
 20
26.40505594462217
 10
143.1005901538341
 20
26.40505594462217
 10
143.1005901538341
 20
27.94836994462218
  0
LWPOLYLINE
  5
B2AF
330
B2A4
100
AcDbEntity
  8
G__TOTO
100
AcDbPolyline
 90
      207
 70
     1
 43
0.0
 10
145.508694153834
 20
26.08818394462217
 10
145.467336153834
 20
26.11896894462232
 10
145.423179153834
 20
26.15068794462218
 10
145.376534153834
 20
26.18302794462227
 10
145.403899153834
 20
26.20292994462237
 10
145.441837153834
 20
26.23184894462236
 10
145.478219153834
 20
26.26076894462221
 10
145.5133581538341
 20
26.29031094462232
 10
145.5472531538338
 20
26.32016294462232
 10
145.579905153834
 20
26.35032694462234
 10
145.611001153834
 20
26.38080094462235
 10
145.640854153834
 20
26.41189694462218
 10
145.6694621538341
 20
26.44330494462235
 10
145.6968271538341
 20
26.47502294462219
 10
145.722637153834
 20
26.50705194462239
 10
145.7472031538341
 20
26.53970394462227
 10
145.770525153834
 20
26.57235494462236
 10
145.7922931538341
 20
26.60562794462236
 10
145.812817153834
 20
26.63921194462226
 10
145.8320961538341
 20
26.67341794462219
 10
145.850132153834
 20
26.70762394462224
 10
145.866613153834
 20
26.7424519446222
 10
145.8818511538341
 20
26.77759094462226
 10
145.8958441538339
 20
26.81304094462234
 10
145.9085931538338
 20
26.84911294462231
 10
145.9197881538341
 20
26.8851839446223
 10
145.9297391538341
 20
26.92187794462232
 10
145.938446153834
 20
26.95888294462235
 10
145.945598153834
 20
26.99650994462218
 10
145.9518171538339
 20
27.03413594462222
 10
145.9561711538341
 20
27.07238494462217
 10
145.9595911538339
 20
27.11094394462236
 10
145.9617681538341
 20
27.14981494462232
 10
145.962390153834
 20
27.18899594462219
 10
145.9620791538339
 20
27.22568994462221
 10
145.960835153834
 20
27.27637694462237
 10
145.9586591538339
 20
27.32613094462237
 10
145.9555491538339
 20
27.37433094462221
 10
145.951506153834
 20
27.42190794462227
 10
145.9462201538341
 20
27.46793094462214
 10
145.940001153834
 20
27.51333094462234
 10
145.932849153834
 20
27.55717694462237
 10
145.9247641538341
 20
27.60008994462237
 10
145.9157461538341
 20
27.64175994462219
 10
145.9057951538341
 20
27.68249594462236
 10
145.894600153834
 20
27.72198794462235
 10
145.8824721538339
 20
27.7602369446222
 10
145.8694121538341
 20
27.79755194462234
 10
145.8554191538341
 20
27.83393494462222
 10
145.8404921538341
 20
27.86876294462218
 10
145.824322153834
 20
27.90265794462232
 10
145.8075301538341
 20
27.9356199446222
 10
145.789494153834
 20
27.96733894462237
 10
145.770525153834
 20
27.99781294462241
 10
145.7506241538339
 20
28.02735494462218
 10
145.729478153834
 20
28.05565194462235
 10
145.707711153834
 20
28.08270594462237
 10
145.6846991538339
 20
28.10882694462236
 10
145.664176153834
 20
28.13028394462219
 10
145.6399211538339
 20
28.1532949446223
 10
145.614733153834
 20
28.1756849446224
 10
145.5886121538341
 20
28.19714094462222
 10
145.5612471538339
 20
28.21766494462234
 10
145.5326381538339
 20
28.23756594462236
 10
145.503097153834
 20
28.25653494462221
 10
145.472622153834
 20
28.27457094462237
 10
145.4409041538339
 20
28.29198494462231
 10
145.408253153834
 20
28.30846594462217
 10
145.374357153834
 20
28.32401394462237
 10
145.339530153834
 20
28.33894094462221
 10
145.3034581538339
 20
28.35262294462222
 10
145.2664531538341
 20
28.36568294462232
 10
145.2282041538341
 20
28.3781219446222
 10
145.189023153834
 20
28.38931694462223
 10
145.148598153834
 20
28.39988894462237
 10
145.107240153834
 20
28.40952894462214
 10
145.0649481538339
 20
28.41854694462222
 10
145.0211031538341
 20
28.42632094462237
 10
144.9766351538339
 20
28.43378494462217
 10
144.9309231538339
 20
28.44000394462227
 10
144.8842781538339
 20
28.44528994462223
 10
144.836390153834
 20
28.44995494462239
 10
144.7872581538339
 20
28.45399694462241
 10
144.737193153834
 20
28.45679594462217
 10
144.686194153834
 20
28.45897294462236
 10
144.633952153834
 20
28.46021594462218
 10
144.5807781538339
 20
28.46052694462219
 10
142.520953153834
 20
28.46052694462219
 10
142.520953153834
 20
23.96087994462232
 10
143.1005901538341
 20
23.96087994462232
 10
143.1005901538341
 20
25.89289894462218
 10
144.611563153834
 20
25.89289894462218
 10
144.645769153834
 20
25.89227694462238
 10
144.686194153834
 20
25.8900999446222
 10
144.725687153834
 20
25.88636794462217
 10
144.763624153834
 20
25.88108194462233
 10
144.800318153834
 20
25.87424094462232
 10
144.835768153834
 20
25.86553394462236
 10
144.8699741538341
 20
25.85558294462225
 10
144.9029361538341
 20
25.84376594462219
 10
144.934655153834
 20
25.83039494462218
 10
144.9648181538341
 20
25.81515794462224
 10
144.994049153834
 20
25.79867694462222
 10
145.0217241538338
 20
25.78032994462251
 10
145.0481561538341
 20
25.76073894462217
 10
145.0733441538339
 20
25.73928294462223
 10
145.097289153834
 20
25.71627094462234
 10
145.119989153834
 20
25.69139394462217
 10
145.1414461538341
 20
25.6652729446223
 10
145.1613471538339
 20
25.63728594462236
 10
145.180316153834
 20
25.60774494462235
 10
145.1977301538339
 20
25.5766479446223
 10
145.2142111538341
 20
25.54399694462232
 10
145.2291371538341
 20
25.50979094462229
 10
145.242820153834
 20
25.47371894462219
 10
145.2552581538338
 20
25.43640394462226
 10
145.2664531538341
 20
25.39722194462218
 10
145.2760931538341
 20
25.35648594462236
 10
145.284800153834
 20
25.31388394462235
 10
145.2919521538341
 20
25.27003794462234
 10
145.298171153834
 20
25.22432594462236
 10
145.3028361538341
 20
25.17737094462232
 10
145.306256153834
 20
25.12854994462212
 10
145.3084331538339
 20
25.07817294462233
 10
145.307189153834
 20
25.05018694462228
 10
145.3047021538339
 20
24.99701194462227
 10
145.3025251538341
 20
24.9453919446222
 10
145.3009701538339
 20
24.89532694462218
 10
145.300037153834
 20
24.84681594462222
 10
145.299726153834
 20
24.7998609446222
 10
145.299726153834
 20
24.75414894462221
 10
145.300037153834
 20
24.70999194462218
 10
145.301281153834
 20
24.66738994462218
 10
145.3025251538341
 20
24.62634294462235
 10
145.3047021538339
 20
24.58684994462226
 10
145.307189153834
 20
24.54860194462219
 10
145.309988153834
 20
24.5122189446223
 10
145.3137201538339
 20
24.47707994462234
 10
145.3174511538341
 20
24.44349594462221
 10
145.322116153834
 20
24.41115594462235
 10
145.3270911538339
 20
24.38068094462221
 10
145.328957153834
 20
24.36886494462237
 10
145.3367311538341
 20
24.32595194462237
 10
145.345127153834
 20
24.28366094462229
 10
145.354456153834
 20
24.2416809446223
 10
145.364096153834
 20
24.20001094462236
 10
145.3746681538341
 20
24.1589639446223
 10
145.3861741538339
 20
24.11853894462217
 10
145.397991153834
 20
24.07842494462227
 10
145.410740153834
 20
24.03862094462237
 10
145.4241121538339
 20
23.99943994462228
 10
145.4381051538339
 20
23.96087994462232
 10
146.134975153834
 20
23.96087994462232
 10
146.134975153834
 20
24.10889894462218
 10
146.106677153834
 20
24.13315394462232
 10
146.076203153834
 20
24.16238494462231
 10
146.0485271538339
 20
24.19316994462235
 10
146.023650153834
 20
24.22519894462221
 10
146.0015721538341
 20
24.25909494462235
 10
145.981981153834
 20
24.2942329446223
 10
145.9651891538339
 20
24.33061594462219
 10
145.9511951538341
 20
24.36886494462237
 10
145.9396901538339
 20
24.40835694462236
 10
145.9312941538341
 20
24.44909294462217
 10
145.9253851538341
 20
24.49169494462228
 10
145.9247641538341
 20
24.50071294462236
 10
145.921032153834
 20
24.55886394462219
 10
145.9173001538341
 20
24.61545894462223
 10
145.9138801538339
 20
24.67049994462218
 10
145.910459153834
 20
24.72398594462219
 10
145.9073501538341
 20
24.77622694462218
 10
145.904240153834
 20
24.82660394462232
 10
145.901130153834
 20
24.8757359446223
 10
145.898643153834
 20
24.92331294462235
 10
145.8958441538339
 20
24.96933594462234
 10
145.8933561538341
 20
25.01380394462228
 10
145.891179153834
 20
25.0567169446224
 10
145.8890031538341
 20
25.09807494462234
 10
145.887137153834
 20
25.13818894462235
 10
145.885271153834
 20
25.17643794462242
 10
145.8834051538341
 20
25.21344294462232
 10
145.882161153834
 20
25.24889294462218
 10
145.880607153834
 20
25.28278794462232
 10
145.8793631538341
 20
25.31543894462219
 10
145.8784301538341
 20
25.34622394462235
 10
145.8774971538341
 20
25.37576594462223
 10
145.876564153834
 20
25.40344194462238
 10
145.8759421538339
 20
25.42987394462226
 10
145.8719001538339
 20
25.47247594462236
 10
145.8653691538339
 20
25.52502794462236
 10
145.8579061538341
 20
25.57416094462235
 10
145.8495101538341
 20
25.62018294462234
 10
145.840181153834
 20
25.66278494462232
 10
145.829609153834
 20
25.70196694462242
 10
145.8181031538338
 20
25.73772794462218
 10
145.8056641538341
 20
25.77006794462238
 10
145.7919821538339
 20
25.79929894462235
 10
145.777367153834
 20
25.82479794462232
 10
145.7643061538341
 20
25.84469894462221
 10
145.7462701538339
 20
25.86864394462236
 10
145.7257471538341
 20
25.89352094462219
 10
145.702735153834
 20
25.91901994462228
 10
145.6769251538339
 20
25.94545194462239
 10
145.6486281538341
 20
25.97250494462219
 10
145.617531153834
 20
26.00018094462232
 10
145.583947153834
 20
26.0287899446222
 10
145.547564153834
 20
26.05833094462218
  0
ENDBLK
  5
B2B1
330
B2A4
100
AcDbEntity
  8
0
100
AcDbBlockEnd
  0
BLOCK
  5
B578
330
B4B4
100
AcDbEntity
  8
0
100
AcDbBlockBegin
  2
ISO A0 title block.dwg
 70
     2
 10
0.0
 20
0.0
 30
0.0
  3
ISO A0 title block.dwg
  1

  0
LINE
  5
B4B5
330
B4B4
100
AcDbEntity
  8
FRAME 070
100
AcDbLine
 10
1168.0
 20
820.0
 30
0.0
 11
20.0
 21
820.0
 31
0.0
  0
LINE
  5
B4B6
330
B4B4
100
AcDbEntity
  8
FRAME 070
100
AcDbLine
 10
20.0
 20
20.0
 30
0.0
 11
1168.0
 21
20.0
 31
0.0
  0
LINE
  5
B4B7
330
B4B4
100
AcDbEntity
  8
FRAME 070
100
AcDbLine
 10
20.0
 20
820.0
 30
0.0
 11
20.0
 21
20.0
 31
0.0
  0
TEXT
  5
B4B8
330
B4B4
100
AcDbEntity
  8
FRAME 050
100
AcDbText
 10
15.9
 20
43.0
 30
0.0
 40
4.0
  1
P
  7
ISO Proportional
 72
     4
 11
17.5
 21
45.0
 31
0.0
100
AcDbText
  0
TEXT
  5
B4B9
330
B4B4
100
AcDbEntity
  8
FRAME 050
100
AcDbText
 10
54.875
 20
15.5
 30
0.0
 40
4.0
  1
1
  7
ISO Proportional
 72
     4
 11
55.875
 21
17.5
 31
0.0
100
AcDbText
  0
LINE
  5
B4BA
330
B4B4
100
AcDbEntity
  8
FRAME 050
100
AcDbLine
 10
15.0
 20
70.0
 30
0.0
 11
20.0
 21
70.0
 31
0.0
  0
TEXT
  5
B4BB
330
B4B4
100
AcDbEntity
  8
FRAME 050
100
AcDbText
 10
15.9
 20
93.0
 30
0.0
 40
4.0
  1
O
  7
ISO Proportional
 72
     4
 11
17.5
 21
95.0
 31
0.0
100
AcDbText
  0
LINE
  5
B4BC
330
B4B4
100
AcDbEntity
  8
FRAME 050
100
AcDbLine
 10
15.0
 20
120.0
 30
0.0
 11
20.0
 21
120.0
 31
0.0
  0
TEXT
  5
B4BD
330
B4B4
100
AcDbEntity
  8
FRAME 050
100
AcDbText
 10
15.9
 20
143.0
 30
0.0
 40
4.0
  1
N
  7
ISO Proportional
 72
     4
 11
17.5
 21
145.0
 31
0.0
100
AcDbText
  0
LINE
  5
B4BE
330
B4B4
100
AcDbEntity
  8
FRAME 050
100
AcDbLine
 10
91.75
 20
15.0
 30
0.0
 11
91.75
 21
20.0
 31
0.0
  0
TEXT
  5
B4BF
330
B4B4
100
AcDbEntity
  8
FRAME 050
100
AcDbText
 10
126.1556692913386
 20
15.39960629921259
 30
0.0
 40
4.0
  1
2
  7
ISO Proportional
 72
     4
 11
127.625
 21
17.5
 31
0.0
100
AcDbText
  0
LINE
  5
B4C0
330
B4B4
100
AcDbEntity
  8
FRAME 050
100
AcDbLine
 10
163.5
 20
15.0
 30
0.0
 11
163.5
 21
20.0
 31
0.0
  0
TEXT
  5
B4C1
330
B4B4
100
AcDbEntity
  8
FRAME 050
100
AcDbText
 10
197.8921572875254
 20
15.58284271247461
 30
0.0
 40
4.0
  1
3
  7
ISO Proportional
 72
     4
 11
199.375
 21
17.5
 31
0.0
100
AcDbText
  0
TEXT
  5
B4C2
330
B4B4
100
AcDbEntity
  8
FRAME 050
100
AcDbText
 10
15.7
 20
193.0
 30
0.0
 40
4.0
  1
M
  7
ISO Proportional
 72
     4
 11
17.5
 21
195.0
 31
0.0
100
AcDbText
  0
LINE
  5
B4C3
330
B4B4
100
AcDbEntity
  8
FRAME 050
100
AcDbLine
 10
15.0
 20
170.0
 30
0.0
 11
20.0
 21
170.0
 31
0.0
  0
LINE
  5
B4C4
330
B4B4
100
AcDbEntity
  8
FRAME 050
100
AcDbLine
 10
15.0
 20
220.0
 30
0.0
 11
20.0
 21
220.0
 31
0.0
  0
TEXT
  5
B4C5
330
B4B4
100
AcDbEntity
  8
FRAME 050
100
AcDbText
 10
16.1
 20
243.0
 30
0.0
 40
4.0
  1
L
  7
ISO Proportional
 72
     4
 11
17.5
 21
245.0
 31
0.0
100
AcDbText
  0
LINE
  5
B4C6
330
B4B4
100
AcDbEntity
  8
FRAME 050
100
AcDbLine
 10
15.0
 20
270.0
 30
0.0
 11
20.0
 21
270.0
 31
0.0
  0
TEXT
  5
B4C7
330
B4B4
100
AcDbEntity
  8
FRAME 050
100
AcDbText
 10
15.89
 20
293.0
 30
0.0
 40
4.0
  1
K
  7
ISO Proportional
 72
     4
 11
17.5
 21
295.0
 31
0.0
100
AcDbText
  0
LINE
  5
B4C8
330
B4B4
100
AcDbEntity
  8
FRAME 050
100
AcDbLine
 10
15.0
 20
320.0
 30
0.0
 11
20.0
 21
320.0
 31
0.0
  0
TEXT
  5
B4C9
330
B4B4
100
AcDbEntity
  8
FRAME 050
100
AcDbText
 10
16.21715728752538
 20
343.0828427124747
 30
0.0
 40
4.0
  1
J
  7
ISO Proportional
 72
     4
 11
17.5
 21
345.0
 31
0.0
100
AcDbText
  0
LINE
  5
B4CA
330
B4B4
100
AcDbEntity
  8
FRAME 050
100
AcDbLine
 10
15.0
 20
370.0
 30
0.0
 11
20.0
 21
370.0
 31
0.0
  0
TEXT
  5
B4CB
330
B4B4
100
AcDbEntity
  8
FRAME 050
100
AcDbText
 10
16.9
 20
393.0
 30
0.0
 40
4.0
  1
I
  7
ISO Proportional
 72
     4
 11
17.5
 21
395.0
 31
0.0
100
AcDbText
  0
LINE
  5
B4CC
330
B4B4
100
AcDbEntity
  8
FRAME 050
100
AcDbLine
 10
17.5
 20
420.0
 30
0.0
 11
22.5
 21
422.4999999999999
 31
0.0
  0
LINE
  5
B4CD
330
B4B4
100
AcDbEntity
  8
FRAME 050
100
AcDbLine
 10
22.5
 20
417.4999999999999
 30
0.0
 11
17.5
 21
420.0
 31
0.0
  0
LINE
  5
B4CE
330
B4B4
100
AcDbEntity
  8
FRAME 050
100
AcDbLine
 10
15.0
 20
420.0
 30
0.0
 11
25.0
 21
420.0
 31
0.0
  0
LINE
  5
B4CF
330
B4B4
100
AcDbEntity
  8
FRAME 050
100
AcDbLine
 10
22.5
 20
422.4999999999999
 30
0.0
 11
22.5
 21
417.4999999999999
 31
0.0
  0
TEXT
  5
B4D0
330
B4B4
100
AcDbEntity
  8
FRAME 050
100
AcDbText
 10
15.9
 20
443.0
 30
0.0
 40
4.0
  1
H
  7
ISO Proportional
 72
     4
 11
17.5
 21
445.0
 31
0.0
100
AcDbText
  0
LINE
  5
B4D1
330
B4B4
100
AcDbEntity
  8
FRAME 050
100
AcDbLine
 10
15.0
 20
470.0
 30
0.0
 11
20.0
 21
470.0
 31
0.0
  0
TEXT
  5
B4D2
330
B4B4
100
AcDbEntity
  8
FRAME 050
100
AcDbText
 10
16.00355339059327
 20
493.0
 30
0.0
 40
4.0
  1
G
  7
ISO Proportional
 72
     4
 11
17.5
 21
495.0
 31
0.0
100
AcDbText
  0
LINE
  5
B4D3
330
B4B4
100
AcDbEntity
  8
FRAME 050
100
AcDbLine
 10
15.0
 20
520.0
 30
0.0
 11
20.0
 21
520.0
 31
0.0
  0
TEXT
  5
B4D4
330
B4B4
100
AcDbEntity
  8
FRAME 050
100
AcDbText
 10
16.1
 20
543.0
 30
0.0
 40
4.0
  1
F
  7
ISO Proportional
 72
     4
 11
17.5
 21
545.0
 31
0.0
100
AcDbText
  0
LINE
  5
B4D5
330
B4B4
100
AcDbEntity
  8
FRAME 050
100
AcDbLine
 10
15.0
 20
570.0
 30
0.0
 11
20.0
 21
570.0
 31
0.0
  0
TEXT
  5
B4D6
330
B4B4
100
AcDbEntity
  8
FRAME 050
100
AcDbText
 10
16.1
 20
593.0
 30
0.0
 40
4.0
  1
E
  7
ISO Proportional
 72
     4
 11
17.5
 21
595.0
 31
0.0
100
AcDbText
  0
LINE
  5
B4D7
330
B4B4
100
AcDbEntity
  8
FRAME 050
100
AcDbLine
 10
15.0
 20
620.0
 30
0.0
 11
20.0
 21
620.0
 31
0.0
  0
TEXT
  5
B4D8
330
B4B4
100
AcDbEntity
  8
FRAME 050
100
AcDbText
 10
15.7860912703474
 20
643.0
 30
0.0
 40
4.0
  1
D
  7
ISO Proportional
 72
     4
 11
17.5
 21
645.0
 31
0.0
100
AcDbText
  0
LINE
  5
B4D9
330
B4B4
100
AcDbEntity
  8
FRAME 050
100
AcDbLine
 10
15.0
 20
670.0
 30
0.0
 11
20.0
 21
670.0
 31
0.0
  0
TEXT
  5
B4DA
330
B4B4
100
AcDbEntity
  8
FRAME 050
100
AcDbText
 10
16.19319805153395
 20
693.0
 30
0.0
 40
4.0
  1
C
  7
ISO Proportional
 72
     4
 11
17.5
 21
695.0
 31
0.0
100
AcDbText
  0
LINE
  5
B4DB
330
B4B4
100
AcDbEntity
  8
FRAME 050
100
AcDbLine
 10
15.0
 20
720.0
 30
0.0
 11
20.0
 21
720.0
 31
0.0
  0
TEXT
  5
B4DC
330
B4B4
100
AcDbEntity
  8
FRAME 050
100
AcDbText
 10
15.9
 20
743.0
 30
0.0
 40
4.0
  1
B
  7
ISO Proportional
 72
     4
 11
17.5
 21
745.0
 31
0.0
100
AcDbText
  0
LINE
  5
B4DD
330
B4B4
100
AcDbEntity
  8
FRAME 050
100
AcDbLine
 10
15.0
 20
770.0
 30
0.0
 11
20.0
 21
770.0
 31
0.0
  0
TEXT
  5
B4DE
330
B4B4
100
AcDbEntity
  8
FRAME 050
100
AcDbText
 10
15.7
 20
793.0
 30
0.0
 40
4.0
  1
A
  7
ISO Proportional
 72
     4
 11
17.5
 21
795.0
 31
0.0
100
AcDbText
  0
TEXT
  5
B4DF
330
B4B4
100
AcDbEntity
  8
FRAME 050
100
AcDbText
 10
54.875
 20
820.5
 30
0.0
 40
4.0
  1
1
  7
ISO Proportional
 72
     4
 11
55.875
 21
822.4999999999999
 31
0.0
100
AcDbText
  0
LINE
  5
B4E0
330
B4B4
100
AcDbEntity
  8
FRAME 050
100
AcDbLine
 10
91.75
 20
820.0
 30
0.0
 11
91.75
 21
825.0
 31
0.0
  0
TEXT
  5
B4E1
330
B4B4
100
AcDbEntity
  8
FRAME 050
100
AcDbText
 10
126.1556692913386
 20
820.3996062992125
 30
0.0
 40
4.0
  1
2
  7
ISO Proportional
 72
     4
 11
127.625
 21
822.4999999999999
 31
0.0
100
AcDbText
  0
LINE
  5
B4E2
330
B4B4
100
AcDbEntity
  8
FRAME 050
100
AcDbLine
 10
163.5
 20
820.0
 30
0.0
 11
163.5
 21
825.0
 31
0.0
  0
TEXT
  5
B4E3
330
B4B4
100
AcDbEntity
  8
FRAME 050
100
AcDbText
 10
197.8921572875254
 20
820.5828427124746
 30
0.0
 40
4.0
  1
3
  7
ISO Proportional
 72
     4
 11
199.375
 21
822.4999999999999
 31
0.0
100
AcDbText
  0
LINE
  5
B4E4
330
B4B4
100
AcDbEntity
  8
FRAME 070
100
AcDbLine
 10
1168.0
 20
20.0
 30
0.0
 11
1168.0
 21
820.0
 31
0.0
  0
LINE
  5
B4E5
330
B4B4
100
AcDbEntity
  8
FRAME 050
100
AcDbLine
 10
235.25
 20
15.0
 30
0.0
 11
235.25
 21
20.0
 31
0.0
  0
TEXT
  5
B4E6
330
B4B4
100
AcDbEntity
  8
FRAME 050
100
AcDbText
 10
269.525
 20
15.5
 30
0.0
 40
4.0
  1
4
  7
ISO Proportional
 72
     4
 11
271.125
 21
17.5
 31
0.0
100
AcDbText
  0
LINE
  5
B4E7
330
B4B4
100
AcDbEntity
  8
FRAME 050
100
AcDbLine
 10
307.0
 20
15.0
 30
0.0
 11
307.0
 21
20.0
 31
0.0
  0
TEXT
  5
B4E8
330
B4B4
100
AcDbEntity
  8
FRAME 050
100
AcDbText
 10
341.3921572875254
 20
15.58284271247462
 30
0.0
 40
4.0
  1
5
  7
ISO Proportional
 72
     4
 11
342.875
 21
17.5
 31
0.0
100
AcDbText
  0
LINE
  5
B4E9
330
B4B4
100
AcDbEntity
  8
FRAME 050
100
AcDbLine
 10
378.75
 20
15.0
 30
0.0
 11
378.75
 21
20.0
 31
0.0
  0
TEXT
  5
B4EA
330
B4B4
100
AcDbEntity
  8
FRAME 050
100
AcDbText
 10
413.2454724409448
 20
15.41023622047244
 30
0.0
 40
4.0
  1
6
  7
ISO Proportional
 72
     4
 11
414.625
 21
17.5
 31
0.0
100
AcDbText
  0
LINE
  5
B4EB
330
B4B4
100
AcDbEntity
  8
FRAME 050
100
AcDbLine
 10
450.4999999999999
 20
15.0
 30
0.0
 11
450.4999999999999
 21
20.0
 31
0.0
  0
LINE
  5
B4EC
330
B4B4
100
AcDbEntity
  8
FRAME 050
100
AcDbLine
 10
544.0
 20
15.0
 30
0.0
 11
644.0
 21
15.0
 31
0.0
  0
TEXT
  5
B4ED
330
B4B4
100
AcDbEntity
  8
FRAME 050
100
AcDbText
 10
484.975
 20
15.5
 30
0.0
 40
4.0
  1
7
  7
ISO Proportional
 72
     4
 11
486.375
 21
17.5
 31
0.0
100
AcDbText
  0
LINE
  5
B4EE
330
B4B4
100
AcDbEntity
  8
FRAME 050
100
AcDbLine
 10
522.25
 20
15.0
 30
0.0
 11
522.25
 21
20.0
 31
0.0
  0
LINE
  5
B4EF
330
B4B4
100
AcDbEntity
  8
FRAME 050
100
AcDbLine
 10
544.0
 20
15.0
 30
0.0
 11
544.0
 21
20.0
 31
0.0
  0
LINE
  5
B4F0
330
B4B4
100
AcDbEntity
  8
FRAME 050
100
AcDbLine
 10
554.0
 20
15.0
 30
0.0
 11
554.0
 21
20.0
 31
0.0
  0
LINE
  5
B4F1
330
B4B4
100
AcDbEntity
  8
FRAME 050
100
AcDbLine
 10
564.0
 20
15.0
 30
0.0
 11
564.0
 21
20.0
 31
0.0
  0
LINE
  5
B4F2
330
B4B4
100
AcDbEntity
  8
FRAME 050
100
AcDbLine
 10
574.0
 20
15.0
 30
0.0
 11
574.0
 21
20.0
 31
0.0
  0
LINE
  5
B4F3
330
B4B4
100
AcDbEntity
  8
FRAME 050
100
AcDbLine
 10
584.0
 20
15.0
 30
0.0
 11
584.0
 21
20.0
 31
0.0
  0
LINE
  5
B4F4
330
B4B4
100
AcDbEntity
  8
FRAME 050
100
AcDbLine
 10
596.4999999999999
 20
22.5
 30
0.0
 11
594.0
 21
17.5
 31
0.0
  0
LINE
  5
B4F5
330
B4B4
100
AcDbEntity
  8
FRAME 050
100
AcDbLine
 10
594.0
 20
17.5
 30
0.0
 11
591.5
 21
22.5
 31
0.0
  0
LINE
  5
B4F6
330
B4B4
100
AcDbEntity
  8
FRAME 050
100
AcDbLine
 10
594.0
 20
20.0
 30
0.0
 11
594.0
 21
25.0
 31
0.0
  0
LINE
  5
B4F7
330
B4B4
100
AcDbEntity
  8
FRAME 050
100
AcDbLine
 10
594.0
 20
20.0
 30
0.0
 11
594.0
 21
15.0
 31
0.0
  0
LINE
  5
B4F8
330
B4B4
100
AcDbEntity
  8
FRAME 050
100
AcDbLine
 10
591.5
 20
22.5
 30
0.0
 11
596.4999999999999
 21
22.5
 31
0.0
  0
LINE
  5
B4F9
330
B4B4
100
AcDbEntity
  8
FRAME 050
100
AcDbLine
 10
604.0
 20
15.0
 30
0.0
 11
604.0
 21
20.0
 31
0.0
  0
LINE
  5
B4FA
330
B4B4
100
AcDbEntity
  8
FRAME 050
100
AcDbLine
 10
614.0
 20
15.0
 30
0.0
 11
614.0
 21
20.0
 31
0.0
  0
LINE
  5
B4FB
330
B4B4
100
AcDbEntity
  8
FRAME 050
100
AcDbLine
 10
624.0
 20
15.0
 30
0.0
 11
624.0
 21
20.0
 31
0.0
  0
LINE
  5
B4FC
330
B4B4
100
AcDbEntity
  8
FRAME 050
100
AcDbLine
 10
634.0
 20
15.0
 30
0.0
 11
634.0
 21
20.0
 31
0.0
  0
LINE
  5
B4FD
330
B4B4
100
AcDbEntity
  8
FRAME 050
100
AcDbLine
 10
644.0
 20
15.0
 30
0.0
 11
644.0
 21
20.0
 31
0.0
  0
LINE
  5
B4FE
330
B4B4
100
AcDbEntity
  8
FRAME 050
100
AcDbLine
 10
665.7499999999999
 20
15.0
 30
0.0
 11
665.7499999999999
 21
20.0
 31
0.0
  0
TEXT
  5
B4FF
330
B4B4
100
AcDbEntity
  8
FRAME 050
100
AcDbText
 10
699.2234251968503
 20
15.5
 30
0.0
 40
4.0
  1
10
  7
ISO Proportional
 72
     4
 11
701.625
 21
17.5
 31
0.0
100
AcDbText
  0
LINE
  5
B500
330
B4B4
100
AcDbEntity
  8
FRAME 050
100
AcDbLine
 10
737.5
 20
15.0
 30
0.0
 11
737.5
 21
20.0
 31
0.0
  0
TEXT
  5
B501
330
B4B4
100
AcDbEntity
  8
FRAME 050
100
AcDbText
 10
771.375
 20
15.5
 30
0.0
 40
4.0
  1
11
  7
ISO Proportional
 72
     4
 11
773.375
 21
17.5
 31
0.0
100
AcDbText
  0
LINE
  5
B502
330
B4B4
100
AcDbEntity
  8
FRAME 050
100
AcDbLine
 10
809.2499999999999
 20
15.0
 30
0.0
 11
809.2499999999999
 21
20.0
 31
0.0
  0
TEXT
  5
B503
330
B4B4
100
AcDbEntity
  8
FRAME 050
100
AcDbText
 10
842.6048818897637
 20
15.39960629921259
 30
0.0
 40
4.0
  1
12
  7
ISO Proportional
 72
     4
 11
845.1249999999999
 21
17.5
 31
0.0
100
AcDbText
  0
LINE
  5
B504
330
B4B4
100
AcDbEntity
  8
FRAME 050
100
AcDbLine
 10
881.0
 20
15.0
 30
0.0
 11
881.0
 21
20.0
 31
0.0
  0
TEXT
  5
B505
330
B4B4
100
AcDbEntity
  8
FRAME 050
100
AcDbText
 10
914.3921572875253
 20
15.58284271247461
 30
0.0
 40
4.0
  1
13
  7
ISO Proportional
 72
     4
 11
916.8750000000001
 21
17.5
 31
0.0
100
AcDbText
  0
LINE
  5
B506
330
B4B4
100
AcDbEntity
  8
FRAME 050
100
AcDbLine
 10
952.7499999999999
 20
15.0
 30
0.0
 11
952.7499999999999
 21
20.0
 31
0.0
  0
TEXT
  5
B507
330
B4B4
100
AcDbEntity
  8
FRAME 050
100
AcDbText
 10
986.025
 20
15.5
 30
0.0
 40
4.0
  1
14
  7
ISO Proportional
 72
     4
 11
988.625
 21
17.5
 31
0.0
100
AcDbText
  0
TEXT
  5
B508
330
B4B4
100
AcDbEntity
  8
FRAME 025
100
AcDbText
 10
1120.0
 20
51.75
 30
0.0
 40
2.5
  1
Article No./Reference
  7
ISO Proportional
 11
1120.0
 21
53.0
 31
0.0
100
AcDbText
 73
     2
  0
LINE
  5
B509
330
B4B4
100
AcDbEntity
  8
FRAME 070
100
AcDbLine
 10
998.0
 20
56.0
 30
0.0
 11
1168.0
 21
56.0
 31
0.0
  0
LINE
  5
B50A
330
B4B4
100
AcDbEntity
  8
FRAME 070
100
AcDbLine
 10
998.0
 20
50.0
 30
0.0
 11
1168.0
 21
50.0
 31
0.0
  0
LINE
  5
B50B
330
B4B4
100
AcDbEntity
  8
FRAME 070
100
AcDbLine
 10
998.0
 20
40.0
 30
0.0
 11
1168.0
 21
40.0
 31
0.0
  0
LINE
  5
B50C
330
B4B4
100
AcDbEntity
  8
FRAME 070
100
AcDbLine
 10
1073.0
 20
30.0
 30
0.0
 11
1168.0
 21
30.0
 31
0.0
  0
LINE
  5
B50D
330
B4B4
100
AcDbEntity
  8
FRAME 070
100
AcDbLine
 10
1118.0
 20
50.0
 30
0.0
 11
1118.0
 21
56.0
 31
0.0
  0
LINE
  5
B50E
330
B4B4
100
AcDbEntity
  8
FRAME 070
100
AcDbLine
 10
1030.0
 20
50.0
 30
0.0
 11
1030.0
 21
56.0
 31
0.0
  0
LINE
  5
B50F
330
B4B4
100
AcDbEntity
  8
FRAME 070
100
AcDbLine
 10
998.0
 20
50.0
 30
0.0
 11
998.0
 21
56.0
 31
0.0
  0
LINE
  5
B510
330
B4B4
100
AcDbEntity
  8
FRAME 070
100
AcDbLine
 10
1013.0
 20
50.0
 30
0.0
 11
1013.0
 21
56.0
 31
0.0
  0
ATTDEF
  5
B511
330
B4B4
100
AcDbEntity
  8
FRAME 025
100
AcDbText
 10
1057.0
 20
41.74999999999999
 30
0.0
 40
2.5
  1

  7
ISO Proportional
 11
1057.0
 21
43.0
 31
0.0
100
AcDbAttributeDefinition
  3
Approved by - Date
  2
APPROVED_BY_DATE
 70
     8
 74
     2
  0
TEXT
  5
B512
330
B4B4
100
AcDbEntity
  8
FRAME 025
100
AcDbText
 10
1032.0
 20
51.75
 30
0.0
 40
2.5
  1
Title/Name, designation, material, dimension etc
  7
ISO Proportional
 11
1032.0
 21
53.0
 31
0.0
100
AcDbText
 73
     2
  0
TEXT
  5
B513
330
B4B4
100
AcDbEntity
  8
FRAME 025
100
AcDbText
 10
1057.0
 20
45.75
 30
0.0
 40
2.5
  1
Approved by - date
  7
ISO Proportional
 11
1057.0
 21
47.0
 31
0.0
100
AcDbText
 73
     2
  0
ATTDEF
  5
B514
330
B4B4
100
AcDbEntity
  8
FRAME 050
100
AcDbText
 10
1035.5
 20
30.0
 30
0.0
 40
5.0
  1

  7
ISO Proportional
 72
     4
 11
1035.5
 21
30.0
 31
0.0
100
AcDbAttributeDefinition
  3
Owner
  2
OWNER
 70
     8
  0
LINE
  5
B515
330
B4B4
100
AcDbEntity
  8
FRAME 070
100
AcDbLine
 10
998.0
 20
20.0
 30
0.0
 11
998.0
 21
50.0
 31
0.0
  0
LINE
  5
B516
330
B4B4
100
AcDbEntity
  8
FRAME 050
100
AcDbLine
 10
1024.5
 20
15.0
 30
0.0
 11
1024.5
 21
20.0
 31
0.0
  0
ATTDEF
  5
B517
330
B4B4
100
AcDbEntity
  8
FRAME 025
100
AcDbText
 10
1000.0
 20
41.74999999999999
 30
0.0
 40
2.5
  1

  7
ISO Proportional
 11
1000.0
 21
43.0
 31
0.0
100
AcDbAttributeDefinition
  3
Designed by
  2
DESIGNED_BY
 70
     8
 74
     2
  0
TEXT
  5
B518
330
B4B4
100
AcDbEntity
  8
FRAME 025
100
AcDbText
 10
1000.0
 20
45.75
 30
0.0
 40
2.5
  1
Designed by
  7
ISO Proportional
 11
1000.0
 21
47.0
 31
0.0
100
AcDbText
 73
     2
  0
TEXT
  5
B519
330
B4B4
100
AcDbEntity
  8
FRAME 025
100
AcDbText
 10
1000.0
 20
51.75
 30
0.0
 40
2.5
  1
Itemref
  7
ISO Proportional
 11
1000.0
 21
53.0
 31
0.0
100
AcDbText
 73
     2
  0
LINE
  5
B51A
330
B4B4
100
AcDbEntity
  8
FRAME 070
100
AcDbLine
 10
1030.0
 20
40.0
 30
0.0
 11
1030.0
 21
50.0
 31
0.0
  0
TEXT
  5
B51B
330
B4B4
100
AcDbEntity
  8
FRAME 025
100
AcDbText
 10
1015.0
 20
51.75
 30
0.0
 40
2.5
  1
Quantity
  7
ISO Proportional
 11
1015.0
 21
53.0
 31
0.0
100
AcDbText
 73
     2
  0
TEXT
  5
B51C
330
B4B4
100
AcDbEntity
  8
FRAME 050
100
AcDbText
 10
1057.892157287525
 20
15.58284271247462
 30
0.0
 40
4.0
  1
15
  7
ISO Proportional
 72
     4
 11
1060.375
 21
17.5
 31
0.0
100
AcDbText
  0
ATTDEF
  5
B51D
330
B4B4
100
AcDbEntity
  8
FRAME 025
100
AcDbText
 10
1032.0
 20
41.74999999999999
 30
0.0
 40
2.5
  1

  7
ISO Proportional
 11
1032.0
 21
43.0
 31
0.0
100
AcDbAttributeDefinition
  3
Checked by
  2
CHECKED_BY
 70
     8
 74
     2
  0
TEXT
  5
B51E
330
B4B4
100
AcDbEntity
  8
FRAME 025
100
AcDbText
 10
1032.0
 20
45.75
 30
0.0
 40
2.5
  1
Checked by
  7
ISO Proportional
 11
1032.0
 21
47.0
 31
0.0
100
AcDbText
 73
     2
  0
LINE
  5
B51F
330
B4B4
100
AcDbEntity
  8
FRAME 070
100
AcDbLine
 10
1055.0
 20
40.0
 30
0.0
 11
1055.0
 21
50.0
 31
0.0
  0
ATTDEF
  5
B520
330
B4B4
100
AcDbEntity
  8
FRAME 025
100
AcDbText
 10
1095.0
 20
41.74999999999999
 30
0.0
 40
2.5
  1

  7
ISO Proportional
 11
1095.0
 21
43.0
 31
0.0
100
AcDbAttributeDefinition
  3
File name
  2
FILENAME
 70
     8
 74
     2
  0
ATTDEF
  5
B521
330
B4B4
100
AcDbEntity
  8
FRAME 050
100
AcDbText
 10
1103.0
 20
25.0
 30
0.0
 40
3.0
  1

  7
ISO Proportional
 72
     4
 11
1103.0
 21
25.0
 31
0.0
100
AcDbAttributeDefinition
  3
Drawing number
  2
DRAWING_NUMBER
 70
     8
  0
TEXT
  5
B522
330
B4B4
100
AcDbEntity
  8
FRAME 025
100
AcDbText
 10
1095.0
 20
45.75
 30
0.0
 40
2.5
  1
Filename
  7
ISO Proportional
 11
1095.0
 21
47.0
 31
0.0
100
AcDbText
 73
     2
  0
LINE
  5
B523
330
B4B4
100
AcDbEntity
  8
FRAME 070
100
AcDbLine
 10
1073.0
 20
20.0
 30
0.0
 11
1073.0
 21
40.0
 31
0.0
  0
LINE
  5
B524
330
B4B4
100
AcDbEntity
  8
FRAME 070
100
AcDbLine
 10
1093.0
 20
40.0
 30
0.0
 11
1093.0
 21
50.0
 31
0.0
  0
LINE
  5
B525
330
B4B4
100
AcDbEntity
  8
FRAME 050
100
AcDbLine
 10
1096.25
 20
15.0
 30
0.0
 11
1096.25
 21
20.0
 31
0.0
  0
ATTDEF
  5
B526
330
B4B4
100
AcDbEntity
  8
FRAME 025
100
AcDbText
 10
1120.0
 20
41.74999999999999
 30
0.0
 40
2.5
  1

  7
ISO Proportional
 11
1120.0
 21
43.0
 31
0.0
100
AcDbAttributeDefinition
  3
Date
  2
DATE
 70
     8
 74
     2
  0
LINE
  5
B527
330
B4B4
100
AcDbEntity
  8
FRAME 070
100
AcDbLine
 10
1118.0
 20
40.0
 30
0.0
 11
1118.0
 21
50.0
 31
0.0
  0
ATTDEF
  5
B528
330
B4B4
100
AcDbEntity
  8
FRAME 050
100
AcDbText
 10
1120.5
 20
35.0
 30
0.0
 40
5.0
  1

  7
ISO Proportional
 72
     4
 11
1120.5
 21
35.0
 31
0.0
100
AcDbAttributeDefinition
  3
Title / Name
  2
TITLE
 70
     8
  0
TEXT
  5
B529
330
B4B4
100
AcDbEntity
  8
FRAME 025
100
AcDbText
 10
1120.0
 20
45.75
 30
0.0
 40
2.5
  1
Date
  7
ISO Proportional
 11
1120.0
 21
47.0
 31
0.0
100
AcDbText
 73
     2
  0
ATTDEF
  5
B52A
330
B4B4
100
AcDbEntity
  8
FRAME 025
100
AcDbText
 10
1135.0
 20
21.75
 30
0.0
 40
2.5
  1

  7
ISO Proportional
 11
1135.0
 21
23.0
 31
0.0
100
AcDbAttributeDefinition
  3
Edition
  2
EDITION
 70
     8
 74
     2
  0
LINE
  5
B52B
330
B4B4
100
AcDbEntity
  8
FRAME 070
100
AcDbLine
 10
1133.0
 20
20.0
 30
0.0
 11
1133.0
 21
30.0
 31
0.0
  0
TEXT
  5
B52C
330
B4B4
100
AcDbEntity
  8
FRAME 050
100
AcDbText
 10
1129.625787401575
 20
15.41023622047244
 30
0.0
 40
4.0
  1
16
  7
ISO Proportional
 72
     4
 11
1132.125
 21
17.5
 31
0.0
100
AcDbText
  0
TEXT
  5
B52D
330
B4B4
100
AcDbEntity
  8
FRAME 025
100
AcDbText
 10
1135.0
 20
25.75
 30
0.0
 40
2.5
  1
Edition
  7
ISO Proportional
 11
1135.0
 21
27.0
 31
0.0
100
AcDbText
 73
     2
  0
LINE
  5
B52E
330
B4B4
100
AcDbEntity
  8
FRAME 070
100
AcDbLine
 10
1148.0
 20
20.0
 30
0.0
 11
1148.0
 21
30.0
 31
0.0
  0
ATTDEF
  5
B52F
330
B4B4
100
AcDbEntity
  8
FRAME 025
100
AcDbText
 10
1150.0
 20
21.75
 30
0.0
 40
2.5
  1
1/?
  7
ISO Proportional
 11
1150.0
 21
23.0
 31
0.0
100
AcDbAttributeDefinition
  3
Sheet
  2
SHEET
 70
     8
 74
     2
  0
TEXT
  5
B530
330
B4B4
100
AcDbEntity
  8
FRAME 025
100
AcDbText
 10
1150.0
 20
25.75
 30
0.0
 40
2.5
  1
Sheet
  7
ISO Proportional
 11
1150.0
 21
27.0
 31
0.0
100
AcDbText
 73
     2
  0
ATTDEF
  5
B531
330
B4B4
100
AcDbEntity
  8
FRAME 025
100
AcDbText
 10
1150.0
 20
41.74999999999999
 30
0.0
 40
2.5
  1

  7
ISO Proportional
 11
1150.0
 21
43.0
 31
0.0
100
AcDbAttributeDefinition
  3
Scale
  2
SCALE
 70
     8
 74
     2
  0
LINE
  5
B532
330
B4B4
100
AcDbEntity
  8
FRAME 070
100
AcDbLine
 10
1148.0
 20
40.0
 30
0.0
 11
1148.0
 21
50.0
 31
0.0
  0
TEXT
  5
B533
330
B4B4
100
AcDbEntity
  8
FRAME 025
100
AcDbText
 10
1150.0
 20
45.75
 30
0.0
 40
2.5
  1
Scale
  7
ISO Proportional
 11
1150.0
 21
47.0
 31
0.0
100
AcDbText
 73
     2
  0
TEXT
  5
B534
330
B4B4
100
AcDbEntity
  8
FRAME 050
100
AcDbText
 10
1168.9
 20
43.0
 30
0.0
 40
4.0
  1
P
  7
ISO Proportional
 72
     4
 11
1170.5
 21
45.0
 31
0.0
100
AcDbText
  0
LINE
  5
B535
330
B4B4
100
AcDbEntity
  8
FRAME 050
100
AcDbLine
 10
1168.0
 20
70.0
 30
0.0
 11
1173.0
 21
70.0
 31
0.0
  0
TEXT
  5
B536
330
B4B4
100
AcDbEntity
  8
FRAME 050
100
AcDbText
 10
1168.9
 20
93.0
 30
0.0
 40
4.0
  1
O
  7
ISO Proportional
 72
     4
 11
1170.5
 21
95.0
 31
0.0
100
AcDbText
  0
LINE
  5
B537
330
B4B4
100
AcDbEntity
  8
FRAME 050
100
AcDbLine
 10
1168.0
 20
120.0
 30
0.0
 11
1173.0
 21
120.0
 31
0.0
  0
TEXT
  5
B538
330
B4B4
100
AcDbEntity
  8
FRAME 050
100
AcDbText
 10
1168.9
 20
143.0
 30
0.0
 40
4.0
  1
N
  7
ISO Proportional
 72
     4
 11
1170.5
 21
145.0
 31
0.0
100
AcDbText
  0
LINE
  5
B539
330
B4B4
100
AcDbEntity
  8
FRAME 050
100
AcDbLine
 10
235.25
 20
820.0
 30
0.0
 11
235.25
 21
825.0
 31
0.0
  0
TEXT
  5
B53A
330
B4B4
100
AcDbEntity
  8
FRAME 050
100
AcDbText
 10
269.525
 20
820.5
 30
0.0
 40
4.0
  1
4
  7
ISO Proportional
 72
     4
 11
271.125
 21
822.4999999999999
 31
0.0
100
AcDbText
  0
LINE
  5
B53B
330
B4B4
100
AcDbEntity
  8
FRAME 050
100
AcDbLine
 10
307.0
 20
820.0
 30
0.0
 11
307.0
 21
825.0
 31
0.0
  0
TEXT
  5
B53C
330
B4B4
100
AcDbEntity
  8
FRAME 050
100
AcDbText
 10
341.3921572875254
 20
820.5828427124746
 30
0.0
 40
4.0
  1
5
  7
ISO Proportional
 72
     4
 11
342.875
 21
822.4999999999999
 31
0.0
100
AcDbText
  0
LINE
  5
B53D
330
B4B4
100
AcDbEntity
  8
FRAME 050
100
AcDbLine
 10
378.75
 20
820.0
 30
0.0
 11
378.75
 21
825.0
 31
0.0
  0
TEXT
  5
B53E
330
B4B4
100
AcDbEntity
  8
FRAME 050
100
AcDbText
 10
413.2454724409448
 20
820.4102362204725
 30
0.0
 40
4.0
  1
6
  7
ISO Proportional
 72
     4
 11
414.625
 21
822.4999999999999
 31
0.0
100
AcDbText
  0
LINE
  5
B53F
330
B4B4
100
AcDbEntity
  8
FRAME 050
100
AcDbLine
 10
450.4999999999999
 20
820.0
 30
0.0
 11
450.4999999999999
 21
825.0
 31
0.0
  0
TEXT
  5
B540
330
B4B4
100
AcDbEntity
  8
FRAME 050
100
AcDbText
 10
484.975
 20
820.5
 30
0.0
 40
4.0
  1
7
  7
ISO Proportional
 72
     4
 11
486.375
 21
822.4999999999999
 31
0.0
100
AcDbText
  0
LINE
  5
B541
330
B4B4
100
AcDbEntity
  8
FRAME 050
100
AcDbLine
 10
522.25
 20
820.0
 30
0.0
 11
522.25
 21
825.0
 31
0.0
  0
TEXT
  5
B542
330
B4B4
100
AcDbEntity
  8
FRAME 050
100
AcDbText
 10
556.725
 20
820.5
 30
0.0
 40
4.0
  1
8
  7
ISO Proportional
 72
     4
 11
558.1249999999999
 21
822.4999999999999
 31
0.0
100
AcDbText
  0
LINE
  5
B543
330
B4B4
100
AcDbEntity
  8
FRAME 050
100
AcDbLine
 10
594.0
 20
815.0
 30
0.0
 11
594.0
 21
825.0
 31
0.0
  0
TEXT
  5
B544
330
B4B4
100
AcDbEntity
  8
FRAME 050
100
AcDbText
 10
628.4076670934825
 20
820.5961825830808
 30
0.0
 40
4.0
  1
9
  7
ISO Proportional
 72
     4
 11
629.875
 21
822.4999999999999
 31
0.0
100
AcDbText
  0
LINE
  5
B545
330
B4B4
100
AcDbEntity
  8
FRAME 050
100
AcDbLine
 10
665.7499999999999
 20
820.0
 30
0.0
 11
665.7499999999999
 21
825.0
 31
0.0
  0
TEXT
  5
B546
330
B4B4
100
AcDbEntity
  8
FRAME 050
100
AcDbText
 10
699.2234251968503
 20
820.5
 30
0.0
 40
4.0
  1
10
  7
ISO Proportional
 72
     4
 11
701.625
 21
822.4999999999999
 31
0.0
100
AcDbText
  0
TEXT
  5
B547
330
B4B4
100
AcDbEntity
  8
FRAME 050
100
AcDbText
 10
1168.7
 20
193.0
 30
0.0
 40
4.0
  1
M
  7
ISO Proportional
 72
     4
 11
1170.5
 21
195.0
 31
0.0
100
AcDbText
  0
LINE
  5
B548
330
B4B4
100
AcDbEntity
  8
FRAME 050
100
AcDbLine
 10
1168.0
 20
170.0
 30
0.0
 11
1173.0
 21
170.0
 31
0.0
  0
LINE
  5
B549
330
B4B4
100
AcDbEntity
  8
FRAME 050
100
AcDbLine
 10
1168.0
 20
220.0
 30
0.0
 11
1173.0
 21
220.0
 31
0.0
  0
TEXT
  5
B54A
330
B4B4
100
AcDbEntity
  8
FRAME 050
100
AcDbText
 10
1169.1
 20
243.0
 30
0.0
 40
4.0
  1
L
  7
ISO Proportional
 72
     4
 11
1170.5
 21
245.0
 31
0.0
100
AcDbText
  0
LINE
  5
B54B
330
B4B4
100
AcDbEntity
  8
FRAME 050
100
AcDbLine
 10
1168.0
 20
270.0
 30
0.0
 11
1173.0
 21
270.0
 31
0.0
  0
TEXT
  5
B54C
330
B4B4
100
AcDbEntity
  8
FRAME 050
100
AcDbText
 10
1168.89
 20
293.0
 30
0.0
 40
4.0
  1
K
  7
ISO Proportional
 72
     4
 11
1170.5
 21
295.0
 31
0.0
100
AcDbText
  0
LINE
  5
B54D
330
B4B4
100
AcDbEntity
  8
FRAME 050
100
AcDbLine
 10
1168.0
 20
320.0
 30
0.0
 11
1173.0
 21
320.0
 31
0.0
  0
TEXT
  5
B54E
330
B4B4
100
AcDbEntity
  8
FRAME 050
100
AcDbText
 10
1169.217157287525
 20
343.0828427124747
 30
0.0
 40
4.0
  1
J
  7
ISO Proportional
 72
     4
 11
1170.5
 21
345.0
 31
0.0
100
AcDbText
  0
LINE
  5
B54F
330
B4B4
100
AcDbEntity
  8
FRAME 050
100
AcDbLine
 10
1168.0
 20
370.0
 30
0.0
 11
1173.0
 21
370.0
 31
0.0
  0
TEXT
  5
B550
330
B4B4
100
AcDbEntity
  8
FRAME 050
100
AcDbText
 10
1169.9
 20
393.0
 30
0.0
 40
4.0
  1
I
  7
ISO Proportional
 72
     4
 11
1170.5
 21
395.0
 31
0.0
100
AcDbText
  0
LINE
  5
B551
330
B4B4
100
AcDbEntity
  8
FRAME 050
100
AcDbLine
 10
1163.0
 20
420.0
 30
0.0
 11
1173.0
 21
420.0
 31
0.0
  0
TEXT
  5
B552
330
B4B4
100
AcDbEntity
  8
FRAME 050
100
AcDbText
 10
1168.9
 20
443.0
 30
0.0
 40
4.0
  1
H
  7
ISO Proportional
 72
     4
 11
1170.5
 21
445.0
 31
0.0
100
AcDbText
  0
LINE
  5
B553
330
B4B4
100
AcDbEntity
  8
FRAME 050
100
AcDbLine
 10
1168.0
 20
470.0
 30
0.0
 11
1173.0
 21
470.0
 31
0.0
  0
TEXT
  5
B554
330
B4B4
100
AcDbEntity
  8
FRAME 050
100
AcDbText
 10
1169.003553390593
 20
493.0
 30
0.0
 40
4.0
  1
G
  7
ISO Proportional
 72
     4
 11
1170.5
 21
495.0
 31
0.0
100
AcDbText
  0
LINE
  5
B555
330
B4B4
100
AcDbEntity
  8
FRAME 050
100
AcDbLine
 10
737.5
 20
820.0
 30
0.0
 11
737.5
 21
825.0
 31
0.0
  0
TEXT
  5
B556
330
B4B4
100
AcDbEntity
  8
FRAME 050
100
AcDbText
 10
771.375
 20
820.5
 30
0.0
 40
4.0
  1
11
  7
ISO Proportional
 72
     4
 11
773.375
 21
822.4999999999999
 31
0.0
100
AcDbText
  0
LINE
  5
B557
330
B4B4
100
AcDbEntity
  8
FRAME 050
100
AcDbLine
 10
809.2499999999999
 20
820.0
 30
0.0
 11
809.2499999999999
 21
825.0
 31
0.0
  0
TEXT
  5
B558
330
B4B4
100
AcDbEntity
  8
FRAME 050
100
AcDbText
 10
842.6048818897637
 20
820.3996062992125
 30
0.0
 40
4.0
  1
12
  7
ISO Proportional
 72
     4
 11
845.1249999999999
 21
822.4999999999999
 31
0.0
100
AcDbText
  0
LINE
  5
B559
330
B4B4
100
AcDbEntity
  8
FRAME 050
100
AcDbLine
 10
881.0
 20
820.0
 30
0.0
 11
881.0
 21
825.0
 31
0.0
  0
TEXT
  5
B55A
330
B4B4
100
AcDbEntity
  8
FRAME 050
100
AcDbText
 10
914.3921572875253
 20
820.5828427124746
 30
0.0
 40
4.0
  1
13
  7
ISO Proportional
 72
     4
 11
916.8750000000001
 21
822.4999999999999
 31
0.0
100
AcDbText
  0
LINE
  5
B55B
330
B4B4
100
AcDbEntity
  8
FRAME 050
100
AcDbLine
 10
952.7499999999999
 20
820.0
 30
0.0
 11
952.7499999999999
 21
825.0
 31
0.0
  0
TEXT
  5
B55C
330
B4B4
100
AcDbEntity
  8
FRAME 050
100
AcDbText
 10
986.025
 20
820.5
 30
0.0
 40
4.0
  1
14
  7
ISO Proportional
 72
     4
 11
988.625
 21
822.4999999999999
 31
0.0
100
AcDbText
  0
LINE
  5
B55D
330
B4B4
100
AcDbEntity
  8
FRAME 050
100
AcDbLine
 10
1168.0
 20
520.0
 30
0.0
 11
1173.0
 21
520.0
 31
0.0
  0
TEXT
  5
B55E
330
B4B4
100
AcDbEntity
  8
FRAME 050
100
AcDbText
 10
1169.1
 20
543.0
 30
0.0
 40
4.0
  1
F
  7
ISO Proportional
 72
     4
 11
1170.5
 21
545.0
 31
0.0
100
AcDbText
  0
LINE
  5
B55F
330
B4B4
100
AcDbEntity
  8
FRAME 050
100
AcDbLine
 10
1168.0
 20
570.0
 30
0.0
 11
1173.0
 21
570.0
 31
0.0
  0
TEXT
  5
B560
330
B4B4
100
AcDbEntity
  8
FRAME 050
100
AcDbText
 10
1169.1
 20
593.0
 30
0.0
 40
4.0
  1
E
  7
ISO Proportional
 72
     4
 11
1170.5
 21
595.0
 31
0.0
100
AcDbText
  0
LINE
  5
B561
330
B4B4
100
AcDbEntity
  8
FRAME 050
100
AcDbLine
 10
1168.0
 20
620.0
 30
0.0
 11
1173.0
 21
620.0
 31
0.0
  0
TEXT
  5
B562
330
B4B4
100
AcDbEntity
  8
FRAME 050
100
AcDbText
 10
1168.786091270347
 20
643.0
 30
0.0
 40
4.0
  1
D
  7
ISO Proportional
 72
     4
 11
1170.5
 21
645.0
 31
0.0
100
AcDbText
  0
LINE
  5
B563
330
B4B4
100
AcDbEntity
  8
FRAME 050
100
AcDbLine
 10
1168.0
 20
670.0
 30
0.0
 11
1173.0
 21
670.0
 31
0.0
  0
TEXT
  5
B564
330
B4B4
100
AcDbEntity
  8
FRAME 050
100
AcDbText
 10
1169.193198051534
 20
693.0
 30
0.0
 40
4.0
  1
C
  7
ISO Proportional
 72
     4
 11
1170.5
 21
695.0
 31
0.0
100
AcDbText
  0
LINE
  5
B565
330
B4B4
100
AcDbEntity
  8
FRAME 070
100
AcDbLine
 10
998.0
 20
814.0
 30
0.0
 11
1168.0
 21
814.0
 31
0.0
  0
TEXT
  5
B566
330
B4B4
100
AcDbEntity
  8
FRAME 025
100
AcDbText
 10
1012.0
 20
815.75
 30
0.0
 40
2.5
  1
Revision note
  7
ISO Proportional
 11
1012.0
 21
817.0
 31
0.0
100
AcDbText
 73
     2
  0
LINE
  5
B567
330
B4B4
100
AcDbEntity
  8
FRAME 050
100
AcDbLine
 10
1024.5
 20
820.0
 30
0.0
 11
1024.5
 21
825.0
 31
0.0
  0
TEXT
  5
B568
330
B4B4
100
AcDbEntity
  8
FRAME 025
100
AcDbText
 10
1000.0
 20
815.75
 30
0.0
 40
2.5
  1
RevNo
  7
ISO Proportional
 11
1000.0
 21
817.0
 31
0.0
100
AcDbText
 73
     2
  0
LINE
  5
B569
330
B4B4
100
AcDbEntity
  8
FRAME 070
100
AcDbLine
 10
998.0
 20
814.0
 30
0.0
 11
998.0
 21
820.0
 31
0.0
  0
LINE
  5
B56A
330
B4B4
100
AcDbEntity
  8
FRAME 070
100
AcDbLine
 10
1010.0
 20
814.0
 30
0.0
 11
1010.0
 21
820.0
 31
0.0
  0
TEXT
  5
B56B
330
B4B4
100
AcDbEntity
  8
FRAME 050
100
AcDbText
 10
1057.892157287525
 20
820.5828427124746
 30
0.0
 40
4.0
  1
15
  7
ISO Proportional
 72
     4
 11
1060.375
 21
822.4999999999999
 31
0.0
100
AcDbText
  0
LINE
  5
B56C
330
B4B4
100
AcDbEntity
  8
FRAME 050
100
AcDbLine
 10
1096.25
 20
820.0
 30
0.0
 11
1096.25
 21
825.0
 31
0.0
  0
LINE
  5
B56D
330
B4B4
100
AcDbEntity
  8
FRAME 070
100
AcDbLine
 10
1119.0
 20
814.0
 30
0.0
 11
1119.0
 21
820.0
 31
0.0
  0
TEXT
  5
B56E
330
B4B4
100
AcDbEntity
  8
FRAME 025
100
AcDbText
 10
1121.0
 20
815.75
 30
0.0
 40
2.5
  1
Date
  7
ISO Proportional
 11
1121.0
 21
817.0
 31
0.0
100
AcDbText
 73
     2
  0
LINE
  5
B56F
330
B4B4
100
AcDbEntity
  8
FRAME 050
100
AcDbLine
 10
1168.0
 20
720.0
 30
0.0
 11
1173.0
 21
720.0
 31
0.0
  0
TEXT
  5
B570
330
B4B4
100
AcDbEntity
  8
FRAME 050
100
AcDbText
 10
1168.9
 20
743.0
 30
0.0
 40
4.0
  1
B
  7
ISO Proportional
 72
     4
 11
1170.5
 21
745.0
 31
0.0
100
AcDbText
  0
LINE
  5
B571
330
B4B4
100
AcDbEntity
  8
FRAME 050
100
AcDbLine
 10
1168.0
 20
770.0
 30
0.0
 11
1173.0
 21
770.0
 31
0.0
  0
TEXT
  5
B572
330
B4B4
100
AcDbEntity
  8
FRAME 050
100
AcDbText
 10
1168.7
 20
793.0
 30
0.0
 40
4.0
  1
A
  7
ISO Proportional
 72
     4
 11
1170.5
 21
795.0
 31
0.0
100
AcDbText
  0
TEXT
  5
B573
330
B4B4
100
AcDbEntity
  8
FRAME 025
100
AcDbText
 10
1155.082993918505
 20
815.75
 30
0.0
 40
2.5
  1
Checked
  7
ISO Proportional
 11
1155.082993918505
 21
817.0
 31
0.0
100
AcDbText
 73
     2
  0
TEXT
  5
B574
330
B4B4
100
AcDbEntity
  8
FRAME 050
100
AcDbText
 10
1129.625787401575
 20
820.4102362204725
 30
0.0
 40
4.0
  1
16
  7
ISO Proportional
 72
     4
 11
1132.125
 21
822.4999999999999
 31
0.0
100
AcDbText
  0
TEXT
  5
B575
330
B4B4
100
AcDbEntity
  8
FRAME 025
100
AcDbText
 10
1139.360997972835
 20
815.75
 30
0.0
 40
2.5
  1
Signature
  7
ISO Proportional
 11
1139.360997972835
 21
817.0
 31
0.0
100
AcDbText
 73
     2
  0
LINE
  5
B576
330
B4B4
100
AcDbEntity
  8
FRAME 070
100
AcDbLine
 10
1139.0
 20
814.0
 30
0.0
 11
1139.0
 21
820.0
 31
0.0
  0
LINE
  5
B577
330
B4B4
100
AcDbEntity
  8
FRAME 070
100
AcDbLine
 10
1154.0
 20
814.0
 30
0.0
 11
1154.0
 21
820.0
 31
0.0
  0
ENDBLK
  5
B579
330
B4B4
100
AcDbEntity
  8
0
100
AcDbBlockEnd
  0
BLOCK
  5
B5D6
330
B5D3
100
AcDbEntity
  8
0
100
AcDbBlockBegin
  2
A$C4D707448
 70
     0
 10
0.0
 20
0.0
 30
0.0
  3
A$C4D707448
  1

  0
TEXT
  5
B5D4
330
B5D3
100
AcDbEntity
  8
FRAME 025
100
AcDbText
 10
76.50930430279641
 20
-22.61571920514598
 30
0.0
 40
2.0
  1
PAPER SIZE = AO (840.95 X 1188.93) MM
 41
0.75
 51
10.0
  7
ROMANS
100
AcDbText
  0
ENDBLK
  5
B5D7
330
B5D3
100
AcDbEntity
  8
0
100
AcDbBlockEnd
  0
BLOCK
  5
B8EB
330
B8E0
100
AcDbEntity
  8
0
100
AcDbBlockBegin
  2
*D9
 70
     1
 10
0.0
 20
0.0
 30
0.0
  3
*D9
  1

  0
LINE
  5
D8DA
330
B8E0
100
AcDbEntity
  8
0
370
    -2
100
AcDbLine
 10
420.4944996155238
 20
294.8284386977028
 30
0.0
 11
414.564121885204
 21
294.8284386977028
 31
0.0
  0
LINE
  5
D8DB
330
B8E0
100
AcDbEntity
  8
0
370
    -2
100
AcDbLine
 10
420.4944996155238
 20
293.5491107723309
 30
0.0
 11
414.564121885204
 21
293.5491107723309
 31
0.0
  0
LINE
  5
D8DC
330
B8E0
100
AcDbEntity
  8
0
370
    -2
100
AcDbLine
 10
414.564121885204
 20
295.0784386977028
 30
0.0
 11
414.564121885204
 21
295.3284386977028
 31
0.0
  0
LINE
  5
D8DD
330
B8E0
100
AcDbEntity
  8
0
370
    -2
100
AcDbLine
 10
414.564121885204
 20
293.2991107723309
 30
0.0
 11
414.564121885204
 21
293.0491107723309
 31
0.0
  0
SOLID
  5
D8DE
330
B8E0
100
AcDbEntity
  8
0
100
AcDbTrace
 10
414.5224552185373
 20
295.0784386977028
 30
0.0
 11
414.6057885518708
 21
295.0784386977028
 31
0.0
 12
414.564121885204
 22
294.8284386977028
 32
0.0
 13
414.564121885204
 23
294.8284386977028
 33
0.0
  0
SOLID
  5
D8DF
330
B8E0
100
AcDbEntity
  8
0
100
AcDbTrace
 10
414.5224552185373
 20
293.2991107723309
 30
0.0
 11
414.6057885518708
 21
293.2991107723309
 31
0.0
 12
414.564121885204
 22
293.5491107723309
 32
0.0
 13
414.564121885204
 23
293.5491107723309
 33
0.0
  0
MTEXT
  5
D8E0
330
B8E0
100
AcDbEntity
  8
0
100
AcDbMText
 10
414.5641218852039
 20
294.1791488641926
 30
0.0
 40
0.25
 41
0.0
 71
     5
 72
     1
  1
\A1;1{\H1.000000x;\S1/4;}" [32.49]
  7
ARIAL
 73
     1
 44
1.0
1001
ACAD
1000
MTEXTBEGIN
1070
    73
1070
     1
1070
    44
1040
1.0
1070
    74
1070
     0
1000
MTEXTEND
  0
POINT
  5
D8E1
330
B8E0
100
AcDbEntity
  8
DEFPOINTS
 62
     0
100
AcDbPoint
 10
420.4944996155238
 20
294.8284386977028
 30
0.0
  0
POINT
  5
D8E2
330
B8E0
100
AcDbEntity
  8
DEFPOINTS
 62
     0
100
AcDbPoint
 10
420.4944996155238
 20
293.5491107723309
 30
0.0
  0
POINT
  5
D8E3
330
B8E0
100
AcDbEntity
  8
DEFPOINTS
 62
     0
100
AcDbPoint
 10
414.564121885204
 20
293.5491107723309
 30
0.0
  0
ENDBLK
  5
B8EC
330
B8E0
100
AcDbEntity
  8
0
100
AcDbBlockEnd
  0
ENDSEC
  0
SECTION
  2
ENTITIES
  0
INSERT
  5
4057
330
413C
100
AcDbEntity
  8
0
  6
Continuous
100
AcDbBlockReference
  2
*X0
 10
0.0
 20
0.0
 30
0.0
1001
ACAD
1000
HATCH
1002
{
1070
    16
1000
AR-CONC
1040
0.9
1040
0.0
1002
}
  0
INSERT
  5
4076
330
413C
100
AcDbEntity
  8
0
  6
Continuous
100
AcDbBlockReference
  2
*X1
 10
0.0
 20
0.0
 30
0.0
1001
ACAD
1000
HATCH
1002
{
1070
    16
1000
AR-CONC
1040
0.9
1040
0.0
1002
}
  0
INSERT
  5
47CC
330
413C
100
AcDbEntity
  8
FITTING
  6
Continuous
 62
     1
100
AcDbBlockReference
  2
AVE_RENDER
 10
0.0
 20
19.59960506862988
 30
0.0
1001
AVE_RENDER
1002
{
1070
     7
1000
Pref
1070
    30
1070
    20
1070
     1
1070
     0
1000

1070
    10
1070
     1
1070
    10
1040
1.0
1070
     1
1040
0.3
1040
0.7
1040
0.0
1040
10.0
1010
-1.0
1020
-1.0
1030
-1.0
1040
0.3
1070
    49
1070
     0
1070
     0
1010
1.0
1020
1.0
1030
1.0
1040
45.0
1070
     1
1070
     0
1000
WCS
1040
0.0
1070
     0
1040
10.0
1002
}
  0
INSERT
  5
47CD
330
413C
100
AcDbEntity
  8
FITTING
  6
Continuous
 62
     3
100
AcDbBlockReference
  2
AVE_RENDER
 10
0.0
 20
19.59960506862988
 30
0.0
1001
AVE_RENDER
1002
{
1070
     0
1000
Full Opt
1070
     0
1070
     1
1070
     1
1070
     1
1070
     0
1070
     0
1070
     0
1070
     1
1070
     1
1040
0.0001
1040
0.0001
1002
}
  0
INSERT
  5
47CE
330
413C
100
AcDbEntity
  8
FITTING
  6
Continuous
 62
     4
100
AcDbBlockReference
  2
AVE_RENDER
 10
0.0
 20
19.59960506862988
 30
0.0
1001
AVE_RENDER
1002
{
1070
     0
1000
Quick Opt
1070
     0
1070
     1
1070
     1
1070
     1
1070
     0
1070
     0
1070
     1
1002
}
  0
INSERT
  5
47CF
330
413C
100
AcDbEntity
  8
FITTING
  6
Continuous
 62
     5
100
AcDbBlockReference
  2
AVE_RENDER
 10
0.0
 20
19.59960506862988
 30
0.0
1001
AVE_RENDER
1002
{
1070
     1
1000
Scanl Opt
1070
     2
1070
     0
1070
     2
1040
2.0
1040
4.0
1070
     0
1070
     1
1070
     0
1040
0.03
1002
}
  0
INSERT
  5
47D0
330
413C
100
AcDbEntity
  8
FITTING
  6
Continuous
 62
     6
100
AcDbBlockReference
  2
AVE_RENDER
 10
0.0
 20
19.59960506862988
 30
0.0
1001
AVE_RENDER
1002
{
1070
     2
1000
Raytr Opt
1070
     2
1070
     0
1070
     2
1040
2.0
1040
4.0
1070
     0
1070
     1
1070
     1
1040
0.03
1070
     3
1040
0.03
1002
}
  0
INSERT
  5
47D1
330
413C
100
AcDbEntity
  8
FITTING
  6
Continuous
 62
     7
100
AcDbBlockReference
  2
AVE_RENDER
 10
0.0
 20
19.59960506862988
 30
0.0
1001
AVE_RENDER
1002
{
1070
     0
1000
RFile Opt
1070
     1
1070
   640
1070
   480
1070
 10000
1070
     1
1070
     8
1070
     8
1070
     0
1070
     0
1070
     0
1070
     0
1070
     0
1070
     0
1070
     0
1002
}
  0
INSERT
  5
47D2
330
413C
100
AcDbEntity
  8
FITTING
  6
Continuous
 62
     8
100
AcDbBlockReference
  2
AVE_RENDER
 10
0.0
 20
19.59960506862988
 30
0.0
1001
AVE_RENDER
1002
{
1070
     0
1000
Fog Opt
1070
     0
1070
     0
1040
0.0
1040
1.0
1040
0.0
1040
1.0
1010
0.5
1020
0.5
1030
0.5
1002
}
  0
INSERT
  5
47D3
330
413C
100
AcDbEntity
  8
FITTING
  6
Continuous
 62
     9
100
AcDbBlockReference
  2
AVE_RENDER
 10
0.0
 20
19.59960506862988
 30
0.0
1001
AVE_RENDER
1002
{
1070
     0
1000
BG Opt
1070
     0
1070
     1
1010
0.0
1020
0.0
1030
0.0
1010
1.0
1020
0.0
1030
0.0
1010
0.0
1020
1.0
1030
0.0
1010
0.0
1020
0.0
1030
1.0
1040
0.5
1040
0.33
1040
0.0
1000

1070
     1
1000

1070
     1
1070
     1
1040
1.0
1040
1.0
1040
0.0
1040
0.0
1070
     0
1002
}
  0
INSERT
  5
47D4
330
413C
100
AcDbEntity
  8
FITTING
  6
Continuous
 62
     1
100
AcDbBlockReference
  2
AVE_GLOBAL
 10
0.0
 20
19.59960506862988
 30
0.0
1001
AVE_MATERIAL
1002
{
1000
*GLOBAL*
1000
1
1000
Global finish.
1002
{
1002
}
1002
{
1070
    63
1002
{
1002
{
1010
-1.0
1020
-1.0
1030
-1.0
1002
}
1040
0.1000000014901161
1000

1040
0.0
1002
{
1002
}
1040
0.0
1002
{
1002
}
1040
0.0
1002
}
1002
{
1002
{
1010
-1.0
1020
-1.0
1030
-1.0
1002
}
1040
0.6999999880790711
1000

1040
0.0
1002
{
1002
}
1040
0.0
1002
{
1002
}
1040
0.0
1002
}
1002
{
1002
{
1010
-1.0
1020
-1.0
1030
-1.0
1002
}
1040
0.2000000029802322
1000

1040
0.0
1002
{
1002
}
1040
0.0
1002
{
1002
}
1040
0.0
1002
}
1002
{
1070
     0
1002
{
1070
     1
1002
{
1040
1.0
1040
1.0
1000

1040
0.0
1002
{
1002
}
1040
0.0
1002
{
1002
}
1040
0.0
1002
}
1002
}
1040
1.0
1040
0.0
1040
0.0
1002
}
1002
{
1040
1.0
1040
1.0
1000

1040
0.0
1002
{
1002
}
1040
0.0
1002
{
1002
}
1040
0.0
1002
}
1002
{
1040
0.5
1040
1.0
1000

1040
0.0
1002
{
1002
}
1040
0.0
1002
{
1002
}
1040
0.0
1002
}
1002
{
1070
     0
1040
0.0
1002
{
1002
}
1040
1.0
1002
{
1002
}
1040
0.0
1002
}
1002
{
1040
0.0
1002
{
1002
{
1010
0.0
1020
0.0
1030
0.0
1002
}
1040
1.0
1000

1040
0.0
1002
{
1002
}
1040
0.0
1002
{
1002
}
1040
0.0
1002
}
1002
}
1002
{
1002
{
1070
     1
1002
{
1040
0.0
1040
1.0
1000

1040
0.0
1002
{
1002
}
1040
0.0
1002
{
1002
}
1040
0.0
1002
}
1002
}
1040
0.0
1002
{
1002
}
1010
1.0
1020
0.0
1030
0.0
1010
0.0
1020
1.0
1030
0.0
1010
0.0
1020
0.0
1030
1.0
1070
     0
1002
}
1002
{
1002
{
1040
1.0
1040
1.0
1002
{
1070
     1
1002
{
1040
1.0
1040
1.0
1000

1040
0.0
1002
{
1002
}
1040
0.0
1002
{
1002
}
1040
0.0
1002
}
1002
}
1002
}
1070
     0
1040
0.0
1002
{
1002
}
1002
}
1002
{
1002
}
1002
}
1002
{
1071
        3
1070
     3
1070
     0
1002
{
1070
     2
1070
     0
1070
     0
1040
0.0
1002
}
1070
     0
1070
     2
1002
{
1002
}
1002
}
1002
{
1040
8030.0
1040
190.3000030517578
1040
0.3050000071525574
1040
228.0
1040
545.0
1040
14.0
1040
17.39999961853027
1040
0.4560000002384186
1002
}
1002
}
  0
INSERT
  5
47F9
330
413C
100
AcDbEntity
  8
FITTING
  6
Continuous
 62
     1
100
AcDbBlockReference
  2
AVE_RENDER
 10
3682.088061575761
 20
593.8472691243321
 30
0.0
 41
0.12
 42
0.12
 43
0.12
1001
AVE_RENDER
1002
{
1070
     7
1000
Pref
1070
    30
1070
    20
1070
     1
1070
     0
1000

1070
    10
1070
     1
1070
    10
1040
1.0
1070
     1
1040
0.3
1040
0.7
1040
0.0
1040
10.0
1010
-1.0
1020
-1.0
1030
-1.0
1040
0.3
1070
    49
1070
     0
1070
     0
1010
1.0
1020
1.0
1030
1.0
1040
45.0
1070
     1
1070
     0
1000
WCS
1040
0.0
1070
     0
1040
10.0
1002
}
  0
INSERT
  5
47FA
330
413C
100
AcDbEntity
  8
FITTING
  6
Continuous
 62
     3
100
AcDbBlockReference
  2
AVE_RENDER
 10
3682.088061575761
 20
593.8472691243321
 30
0.0
 41
0.12
 42
0.12
 43
0.12
1001
AVE_RENDER
1002
{
1070
     0
1000
Full Opt
1070
     0
1070
     1
1070
     1
1070
     1
1070
     0
1070
     0
1070
     0
1070
     1
1070
     1
1040
0.0001
1040
0.0001
1002
}
  0
INSERT
  5
47FB
330
413C
100
AcDbEntity
  8
FITTING
  6
Continuous
 62
     4
100
AcDbBlockReference
  2
AVE_RENDER
 10
3682.088061575761
 20
593.8472691243321
 30
0.0
 41
0.12
 42
0.12
 43
0.12
1001
AVE_RENDER
1002
{
1070
     0
1000
Quick Opt
1070
     0
1070
     1
1070
     1
1070
     1
1070
     0
1070
     0
1070
     1
1002
}
  0
INSERT
  5
47FC
330
413C
100
AcDbEntity
  8
FITTING
  6
Continuous
 62
     5
100
AcDbBlockReference
  2
AVE_RENDER
 10
3682.088061575761
 20
593.8472691243321
 30
0.0
 41
0.12
 42
0.12
 43
0.12
1001
AVE_RENDER
1002
{
1070
     1
1000
Scanl Opt
1070
     2
1070
     0
1070
     2
1040
2.0
1040
4.0
1070
     0
1070
     1
1070
     0
1040
0.03
1002
}
  0
INSERT
  5
47FD
330
413C
100
AcDbEntity
  8
FITTING
  6
Continuous
 62
     6
100
AcDbBlockReference
  2
AVE_RENDER
 10
3682.088061575761
 20
593.8472691243321
 30
0.0
 41
0.12
 42
0.12
 43
0.12
1001
AVE_RENDER
1002
{
1070
     2
1000
Raytr Opt
1070
     2
1070
     0
1070
     2
1040
2.0
1040
4.0
1070
     0
1070
     1
1070
     1
1040
0.03
1070
     3
1040
0.03
1002
}
  0
INSERT
  5
47FE
330
413C
100
AcDbEntity
  8
FITTING
  6
Continuous
 62
     7
100
AcDbBlockReference
  2
AVE_RENDER
 10
3682.088061575761
 20
593.8472691243321
 30
0.0
 41
0.12
 42
0.12
 43
0.12
1001
AVE_RENDER
1002
{
1070
     0
1000
RFile Opt
1070
     1
1070
   640
1070
   480
1070
 10000
1070
     1
1070
     8
1070
     8
1070
     0
1070
     0
1070
     0
1070
     0
1070
     0
1070
     0
1070
     0
1002
}
  0
INSERT
  5
47FF
330
413C
100
AcDbEntity
  8
FITTING
  6
Continuous
 62
     8
100
AcDbBlockReference
  2
AVE_RENDER
 10
3682.088061575761
 20
593.8472691243321
 30
0.0
 41
0.12
 42
0.12
 43
0.12
1001
AVE_RENDER
1002
{
1070
     0
1000
Fog Opt
1070
     0
1070
     0
1040
0.0
1040
1.0
1040
0.0
1040
1.0
1010
0.5
1020
0.5
1030
0.5
1002
}
  0
INSERT
  5
4800
330
413C
100
AcDbEntity
  8
FITTING
  6
Continuous
 62
     9
100
AcDbBlockReference
  2
AVE_RENDER
 10
3682.088061575761
 20
593.8472691243321
 30
0.0
 41
0.12
 42
0.12
 43
0.12
1001
AVE_RENDER
1002
{
1070
     0
1000
BG Opt
1070
     0
1070
     1
1010
0.0
1020
0.0
1030
0.0
1010
1.0
1020
0.0
1030
0.0
1010
0.0
1020
1.0
1030
0.0
1010
0.0
1020
0.0
1030
1.0
1040
0.5
1040
0.33
1040
0.0
1000

1070
     1
1000

1070
     1
1070
     1
1040
1.0
1040
1.0
1040
0.0
1040
0.0
1070
     0
1002
}
  0
INSERT
  5
4801
330
413C
100
AcDbEntity
  8
FITTING
  6
Continuous
 62
     1
100
AcDbBlockReference
  2
AVE_GLOBAL
 10
3682.088061575761
 20
593.8472691243321
 30
0.0
 41
0.12
 42
0.12
 43
0.12
1001
AVE_MATERIAL
1002
{
1000
*GLOBAL*
1000
1
1000
Global finish.
1002
{
1002
}
1002
{
1070
    63
1002
{
1002
{
1010
-1.0
1020
-1.0
1030
-1.0
1002
}
1040
0.1000000014901161
1000

1040
0.0
1002
{
1002
}
1040
0.0
1002
{
1002
}
1040
0.0
1002
}
1002
{
1002
{
1010
-1.0
1020
-1.0
1030
-1.0
1002
}
1040
0.6999999880790711
1000

1040
0.0
1002
{
1002
}
1040
0.0
1002
{
1002
}
1040
0.0
1002
}
1002
{
1002
{
1010
-1.0
1020
-1.0
1030
-1.0
1002
}
1040
0.2000000029802322
1000

1040
0.0
1002
{
1002
}
1040
0.0
1002
{
1002
}
1040
0.0
1002
}
1002
{
1070
     0
1002
{
1070
     1
1002
{
1040
1.0
1040
1.0
1000

1040
0.0
1002
{
1002
}
1040
0.0
1002
{
1002
}
1040
0.0
1002
}
1002
}
1040
1.0
1040
0.0
1040
0.0
1002
}
1002
{
1040
1.0
1040
1.0
1000

1040
0.0
1002
{
1002
}
1040
0.0
1002
{
1002
}
1040
0.0
1002
}
1002
{
1040
0.5
1040
1.0
1000

1040
0.0
1002
{
1002
}
1040
0.0
1002
{
1002
}
1040
0.0
1002
}
1002
{
1070
     0
1040
0.0
1002
{
1002
}
1040
1.0
1002
{
1002
}
1040
0.0
1002
}
1002
{
1040
0.0
1002
{
1002
{
1010
0.0
1020
0.0
1030
0.0
1002
}
1040
1.0
1000

1040
0.0
1002
{
1002
}
1040
0.0
1002
{
1002
}
1040
0.0
1002
}
1002
}
1002
{
1002
{
1070
     1
1002
{
1040
0.0
1040
1.0
1000

1040
0.0
1002
{
1002
}
1040
0.0
1002
{
1002
}
1040
0.0
1002
}
1002
}
1040
0.0
1002
{
1002
}
1010
1.0
1020
0.0
1030
0.0
1010
0.0
1020
1.0
1030
0.0
1010
0.0
1020
0.0
1030
1.0
1070
     0
1002
}
1002
{
1002
{
1040
1.0
1040
1.0
1002
{
1070
     1
1002
{
1040
1.0
1040
1.0
1000

1040
0.0
1002
{
1002
}
1040
0.0
1002
{
1002
}
1040
0.0
1002
}
1002
}
1002
}
1070
     0
1040
0.0
1002
{
1002
}
1002
}
1002
{
1002
}
1002
}
1002
{
1071
        3
1070
     3
1070
     0
1002
{
1070
     2
1070
     0
1070
     0
1040
0.0
1002
}
1070
     0
1070
     2
1002
{
1002
}
1002
}
1002
{
1040
8030.0
1040
190.3000030517578
1040
0.3050000071525574
1040
228.0
1040
545.0
1040
14.0
1040
17.39999961853027
1040
0.4560000002384186
1002
}
1002
}
  0
INSERT
  5
4802
330
413C
100
AcDbEntity
  8
FITTING
  6
Continuous
 62
     1
100
AcDbBlockReference
  2
AVE_RENDER
 10
446.1167712545513
 20
3847.849301821458
 30
0.0
 41
1.199999999999999
 42
1.199999999999999
 43
1.199999999999999
1001
AVE_RENDER
1002
{
1070
     7
1000
Pref
1070
    30
1070
    20
1070
     1
1070
     0
1000

1070
    10
1070
     1
1070
    10
1040
1.0
1070
     1
1040
0.3
1040
0.7
1040
0.0
1040
10.0
1010
-1.0
1020
-1.0
1030
-1.0
1040
0.3
1070
    49
1070
     0
1070
     0
1010
1.0
1020
1.0
1030
1.0
1040
45.0
1070
     1
1070
     0
1000
WCS
1040
0.0
1070
     0
1040
10.0
1002
}
  0
INSERT
  5
4803
330
413C
100
AcDbEntity
  8
FITTING
  6
Continuous
 62
     3
100
AcDbBlockReference
  2
AVE_RENDER
 10
446.1167712545513
 20
3847.849301821458
 30
0.0
 41
1.199999999999999
 42
1.199999999999999
 43
1.199999999999999
1001
AVE_RENDER
1002
{
1070
     0
1000
Full Opt
1070
     0
1070
     1
1070
     1
1070
     1
1070
     0
1070
     0
1070
     0
1070
     1
1070
     1
1040
0.0001
1040
0.0001
1002
}
  0
INSERT
  5
4804
330
413C
100
AcDbEntity
  8
FITTING
  6
Continuous
 62
     4
100
AcDbBlockReference
  2
AVE_RENDER
 10
446.1167712545513
 20
3847.849301821458
 30
0.0
 41
1.199999999999999
 42
1.199999999999999
 43
1.199999999999999
1001
AVE_RENDER
1002
{
1070
     0
1000
Quick Opt
1070
     0
1070
     1
1070
     1
1070
     1
1070
     0
1070
     0
1070
     1
1002
}
  0
INSERT
  5
4805
330
413C
100
AcDbEntity
  8
FITTING
  6
Continuous
 62
     5
100
AcDbBlockReference
  2
AVE_RENDER
 10
446.1167712545513
 20
3847.849301821458
 30
0.0
 41
1.199999999999999
 42
1.199999999999999
 43
1.199999999999999
1001
AVE_RENDER
1002
{
1070
     1
1000
Scanl Opt
1070
     2
1070
     0
1070
     2
1040
2.0
1040
4.0
1070
     0
1070
     1
1070
     0
1040
0.03
1002
}
  0
INSERT
  5
4806
330
413C
100
AcDbEntity
  8
FITTING
  6
Continuous
 62
     6
100
AcDbBlockReference
  2
AVE_RENDER
 10
446.1167712545513
 20
3847.849301821458
 30
0.0
 41
1.199999999999999
 42
1.199999999999999
 43
1.199999999999999
1001
AVE_RENDER
1002
{
1070
     2
1000
Raytr Opt
1070
     2
1070
     0
1070
     2
1040
2.0
1040
4.0
1070
     0
1070
     1
1070
     1
1040
0.03
1070
     3
1040
0.03
1002
}
  0
INSERT
  5
4807
330
413C
100
AcDbEntity
  8
FITTING
  6
Continuous
 62
     7
100
AcDbBlockReference
  2
AVE_RENDER
 10
446.1167712545513
 20
3847.849301821458
 30
0.0
 41
1.199999999999999
 42
1.199999999999999
 43
1.199999999999999
1001
AVE_RENDER
1002
{
1070
     0
1000
RFile Opt
1070
     1
1070
   640
1070
   480
1070
 10000
1070
     1
1070
     8
1070
     8
1070
     0
1070
     0
1070
     0
1070
     0
1070
     0
1070
     0
1070
     0
1002
}
  0
INSERT
  5
4808
330
413C
100
AcDbEntity
  8
FITTING
  6
Continuous
 62
     8
100
AcDbBlockReference
  2
AVE_RENDER
 10
446.1167712545513
 20
3847.849301821458
 30
0.0
 41
1.199999999999999
 42
1.199999999999999
 43
1.199999999999999
1001
AVE_RENDER
1002
{
1070
     0
1000
Fog Opt
1070
     0
1070
     0
1040
0.0
1040
1.0
1040
0.0
1040
1.0
1010
0.5
1020
0.5
1030
0.5
1002
}
  0
INSERT
  5
4809
330
413C
100
AcDbEntity
  8
FITTING
  6
Continuous
 62
     9
100
AcDbBlockReference
  2
AVE_RENDER
 10
446.1167712545513
 20
3847.849301821458
 30
0.0
 41
1.199999999999999
 42
1.199999999999999
 43
1.199999999999999
1001
AVE_RENDER
1002
{
1070
     0
1000
BG Opt
1070
     0
1070
     1
1010
0.0
1020
0.0
1030
0.0
1010
1.0
1020
0.0
1030
0.0
1010
0.0
1020
1.0
1030
0.0
1010
0.0
1020
0.0
1030
1.0
1040
0.5
1040
0.33
1040
0.0
1000

1070
     1
1000

1070
     1
1070
     1
1040
1.0
1040
1.0
1040
0.0
1040
0.0
1070
     0
1002
}
  0
INSERT
  5
480A
330
413C
100
AcDbEntity
  8
FITTING
  6
Continuous
 62
     1
100
AcDbBlockReference
  2
AVE_GLOBAL
 10
446.1167712545513
 20
3847.849301821458
 30
0.0
 41
1.199999999999999
 42
1.199999999999999
 43
1.199999999999999
1001
AVE_MATERIAL
1002
{
1000
*GLOBAL*
1000
1
1000
Global finish.
1002
{
1002
}
1002
{
1070
    63
1002
{
1002
{
1010
-1.0
1020
-1.0
1030
-1.0
1002
}
1040
0.1000000014901161
1000

1040
0.0
1002
{
1002
}
1040
0.0
1002
{
1002
}
1040
0.0
1002
}
1002
{
1002
{
1010
-1.0
1020
-1.0
1030
-1.0
1002
}
1040
0.6999999880790711
1000

1040
0.0
1002
{
1002
}
1040
0.0
1002
{
1002
}
1040
0.0
1002
}
1002
{
1002
{
1010
-1.0
1020
-1.0
1030
-1.0
1002
}
1040
0.2000000029802322
1000

1040
0.0
1002
{
1002
}
1040
0.0
1002
{
1002
}
1040
0.0
1002
}
1002
{
1070
     0
1002
{
1070
     1
1002
{
1040
1.0
1040
1.0
1000

1040
0.0
1002
{
1002
}
1040
0.0
1002
{
1002
}
1040
0.0
1002
}
1002
}
1040
1.0
1040
0.0
1040
0.0
1002
}
1002
{
1040
1.0
1040
1.0
1000

1040
0.0
1002
{
1002
}
1040
0.0
1002
{
1002
}
1040
0.0
1002
}
1002
{
1040
0.5
1040
1.0
1000

1040
0.0
1002
{
1002
}
1040
0.0
1002
{
1002
}
1040
0.0
1002
}
1002
{
1070
     0
1040
0.0
1002
{
1002
}
1040
1.0
1002
{
1002
}
1040
0.0
1002
}
1002
{
1040
0.0
1002
{
1002
{
1010
0.0
1020
0.0
1030
0.0
1002
}
1040
1.0
1000

1040
0.0
1002
{
1002
}
1040
0.0
1002
{
1002
}
1040
0.0
1002
}
1002
}
1002
{
1002
{
1070
     1
1002
{
1040
0.0
1040
1.0
1000

1040
0.0
1002
{
1002
}
1040
0.0
1002
{
1002
}
1040
0.0
1002
}
1002
}
1040
0.0
1002
{
1002
}
1010
1.0
1020
0.0
1030
0.0
1010
0.0
1020
1.0
1030
0.0
1010
0.0
1020
0.0
1030
1.0
1070
     0
1002
}
1002
{
1002
{
1040
1.0
1040
1.0
1002
{
1070
     1
1002
{
1040
1.0
1040
1.0
1000

1040
0.0
1002
{
1002
}
1040
0.0
1002
{
1002
}
1040
0.0
1002
}
1002
}
1002
}
1070
     0
1040
0.0
1002
{
1002
}
1002
}
1002
{
1002
}
1002
}
1002
{
1071
        3
1070
     3
1070
     0
1002
{
1070
     2
1070
     0
1070
     0
1040
0.0
1002
}
1070
     0
1070
     2
1002
{
1002
}
1002
}
1002
{
1040
8030.0
1040
190.3000030517578
1040
0.3050000071525574
1040
228.0
1040
545.0
1040
14.0
1040
17.39999961853027
1040
0.4560000002384186
1002
}
1002
}
  0
INSERT
  5
480B
330
413C
100
AcDbEntity
  8
FITTING
  6
Continuous
 62
     1
100
AcDbBlockReference
  2
AVE_RENDER
 10
446.1167712545513
 20
3065.726399917873
 30
0.0
 41
1.199999999999999
 42
1.199999999999999
 43
1.199999999999999
1001
AVE_RENDER
1002
{
1070
     7
1000
Pref
1070
    30
1070
    20
1070
     1
1070
     0
1000

1070
    10
1070
     1
1070
    10
1040
1.0
1070
     1
1040
0.3
1040
0.7
1040
0.0
1040
10.0
1010
-1.0
1020
-1.0
1030
-1.0
1040
0.3
1070
    49
1070
     0
1070
     0
1010
1.0
1020
1.0
1030
1.0
1040
45.0
1070
     1
1070
     0
1000
WCS
1040
0.0
1070
     0
1040
10.0
1002
}
  0
INSERT
  5
480C
330
413C
100
AcDbEntity
  8
FITTING
  6
Continuous
 62
     3
100
AcDbBlockReference
  2
AVE_RENDER
 10
446.1167712545513
 20
3065.726399917873
 30
0.0
 41
1.199999999999999
 42
1.199999999999999
 43
1.199999999999999
1001
AVE_RENDER
1002
{
1070
     0
1000
Full Opt
1070
     0
1070
     1
1070
     1
1070
     1
1070
     0
1070
     0
1070
     0
1070
     1
1070
     1
1040
0.0001
1040
0.0001
1002
}
  0
INSERT
  5
480D
330
413C
100
AcDbEntity
  8
FITTING
  6
Continuous
 62
     4
100
AcDbBlockReference
  2
AVE_RENDER
 10
446.1167712545513
 20
3065.726399917873
 30
0.0
 41
1.199999999999999
 42
1.199999999999999
 43
1.199999999999999
1001
AVE_RENDER
1002
{
1070
     0
1000
Quick Opt
1070
     0
1070
     1
1070
     1
1070
     1
1070
     0
1070
     0
1070
     1
1002
}
  0
INSERT
  5
480E
330
413C
100
AcDbEntity
  8
FITTING
  6
Continuous
 62
     5
100
AcDbBlockReference
  2
AVE_RENDER
 10
446.1167712545513
 20
3065.726399917873
 30
0.0
 41
1.199999999999999
 42
1.199999999999999
 43
1.199999999999999
1001
AVE_RENDER
1002
{
1070
     1
1000
Scanl Opt
1070
     2
1070
     0
1070
     2
1040
2.0
1040
4.0
1070
     0
1070
     1
1070
     0
1040
0.03
1002
}
  0
INSERT
  5
480F
330
413C
100
AcDbEntity
  8
FITTING
  6
Continuous
 62
     6
100
AcDbBlockReference
  2
AVE_RENDER
 10
446.1167712545513
 20
3065.726399917873
 30
0.0
 41
1.199999999999999
 42
1.199999999999999
 43
1.199999999999999
1001
AVE_RENDER
1002
{
1070
     2
1000
Raytr Opt
1070
     2
1070
     0
1070
     2
1040
2.0
1040
4.0
1070
     0
1070
     1
1070
     1
1040
0.03
1070
     3
1040
0.03
1002
}
  0
INSERT
  5
4810
330
413C
100
AcDbEntity
  8
FITTING
  6
Continuous
 62
     7
100
AcDbBlockReference
  2
AVE_RENDER
 10
446.1167712545513
 20
3065.726399917873
 30
0.0
 41
1.199999999999999
 42
1.199999999999999
 43
1.199999999999999
1001
AVE_RENDER
1002
{
1070
     0
1000
RFile Opt
1070
     1
1070
   640
1070
   480
1070
 10000
1070
     1
1070
     8
1070
     8
1070
     0
1070
     0
1070
     0
1070
     0
1070
     0
1070
     0
1070
     0
1002
}
  0
INSERT
  5
4811
330
413C
100
AcDbEntity
  8
FITTING
  6
Continuous
 62
     8
100
AcDbBlockReference
  2
AVE_RENDER
 10
446.1167712545513
 20
3065.726399917873
 30
0.0
 41
1.199999999999999
 42
1.199999999999999
 43
1.199999999999999
1001
AVE_RENDER
1002
{
1070
     0
1000
Fog Opt
1070
     0
1070
     0
1040
0.0
1040
1.0
1040
0.0
1040
1.0
1010
0.5
1020
0.5
1030
0.5
1002
}
  0
INSERT
  5
4812
330
413C
100
AcDbEntity
  8
FITTING
  6
Continuous
 62
     9
100
AcDbBlockReference
  2
AVE_RENDER
 10
446.1167712545513
 20
3065.726399917873
 30
0.0
 41
1.199999999999999
 42
1.199999999999999
 43
1.199999999999999
1001
AVE_RENDER
1002
{
1070
     0
1000
BG Opt
1070
     0
1070
     1
1010
0.0
1020
0.0
1030
0.0
1010
1.0
1020
0.0
1030
0.0
1010
0.0
1020
1.0
1030
0.0
1010
0.0
1020
0.0
1030
1.0
1040
0.5
1040
0.33
1040
0.0
1000

1070
     1
1000

1070
     1
1070
     1
1040
1.0
1040
1.0
1040
0.0
1040
0.0
1070
     0
1002
}
  0
INSERT
  5
4813
330
413C
100
AcDbEntity
  8
FITTING
  6
Continuous
 62
     1
100
AcDbBlockReference
  2
AVE_GLOBAL
 10
446.1167712545513
 20
3065.726399917873
 30
0.0
 41
1.199999999999999
 42
1.199999999999999
 43
1.199999999999999
1001
AVE_MATERIAL
1002
{
1000
*GLOBAL*
1000
1
1000
Global finish.
1002
{
1002
}
1002
{
1070
    63
1002
{
1002
{
1010
-1.0
1020
-1.0
1030
-1.0
1002
}
1040
0.1000000014901161
1000

1040
0.0
1002
{
1002
}
1040
0.0
1002
{
1002
}
1040
0.0
1002
}
1002
{
1002
{
1010
-1.0
1020
-1.0
1030
-1.0
1002
}
1040
0.6999999880790711
1000

1040
0.0
1002
{
1002
}
1040
0.0
1002
{
1002
}
1040
0.0
1002
}
1002
{
1002
{
1010
-1.0
1020
-1.0
1030
-1.0
1002
}
1040
0.2000000029802322
1000

1040
0.0
1002
{
1002
}
1040
0.0
1002
{
1002
}
1040
0.0
1002
}
1002
{
1070
     0
1002
{
1070
     1
1002
{
1040
1.0
1040
1.0
1000

1040
0.0
1002
{
1002
}
1040
0.0
1002
{
1002
}
1040
0.0
1002
}
1002
}
1040
1.0
1040
0.0
1040
0.0
1002
}
1002
{
1040
1.0
1040
1.0
1000

1040
0.0
1002
{
1002
}
1040
0.0
1002
{
1002
}
1040
0.0
1002
}
1002
{
1040
0.5
1040
1.0
1000

1040
0.0
1002
{
1002
}
1040
0.0
1002
{
1002
}
1040
0.0
1002
}
1002
{
1070
     0
1040
0.0
1002
{
1002
}
1040
1.0
1002
{
1002
}
1040
0.0
1002
}
1002
{
1040
0.0
1002
{
1002
{
1010
0.0
1020
0.0
1030
0.0
1002
}
1040
1.0
1000

1040
0.0
1002
{
1002
}
1040
0.0
1002
{
1002
}
1040
0.0
1002
}
1002
}
1002
{
1002
{
1070
     1
1002
{
1040
0.0
1040
1.0
1000

1040
0.0
1002
{
1002
}
1040
0.0
1002
{
1002
}
1040
0.0
1002
}
1002
}
1040
0.0
1002
{
1002
}
1010
1.0
1020
0.0
1030
0.0
1010
0.0
1020
1.0
1030
0.0
1010
0.0
1020
0.0
1030
1.0
1070
     0
1002
}
1002
{
1002
{
1040
1.0
1040
1.0
1002
{
1070
     1
1002
{
1040
1.0
1040
1.0
1000

1040
0.0
1002
{
1002
}
1040
0.0
1002
{
1002
}
1040
0.0
1002
}
1002
}
1002
}
1070
     0
1040
0.0
1002
{
1002
}
1002
}
1002
{
1002
}
1002
}
1002
{
1071
        3
1070
     3
1070
     0
1002
{
1070
     2
1070
     0
1070
     0
1040
0.0
1002
}
1070
     0
1070
     2
1002
{
1002
}
1002
}
1002
{
1040
8030.0
1040
190.3000030517578
1040
0.3050000071525574
1040
228.0
1040
545.0
1040
14.0
1040
17.39999961853027
1040
0.4560000002384186
1002
}
1002
}
  0
LINE
  5
AB7D
330
413C
100
AcDbEntity
  8
LW523J
  6
HIDDEN
 48
0.5
100
AcDbLine
 10
418.7228496155238
 20
288.04211227311
 30
0.0
 11
422.2661496155239
 21
288.04211227311
 31
0.0
  0
LINE
  5
AB7E
330
413C
100
AcDbEntity
  8
LW523J
  6
HIDDEN
 48
0.5
100
AcDbLine
 10
418.7228496155238
 20
282.72716227311
 30
0.0
 11
422.2661496155239
 21
282.72716227311
 31
0.0
  0
LINE
  5
AB7F
330
413C
100
AcDbEntity
  8
CENTER
  6
CENTERX2
 48
0.125
100
AcDbLine
 10
411.2425496155238
 20
285.0845607723309
 30
0.0
 11
429.7464496155239
 21
285.0845607723309
 31
0.0
  0
CIRCLE
  5
AB80
330
413C
100
AcDbEntity
  8
LW523J
 48
0.5
100
AcDbCircle
 10
420.4944996155238
 20
285.0845607723309
 30
0.0
 40
8.46455
  0
LINE
  5
AB81
330
413C
100
AcDbEntity
  8
LW523J
  6
HIDDEN
 48
0.5
100
AcDbLine
 10
418.7228496155238
 20
282.72716227311
 30
0.0
 11
418.7228496155238
 21
288.04211227311
 31
0.0
  0
LINE
  5
ADC2
330
413C
100
AcDbEntity
  8
CENTER
100
AcDbLine
 10
416.4934627960975
 20
287.0562249156244
 30
0.0
 11
417.6745627960974
 21
287.0562249156244
 31
0.0
  0
CIRCLE
  5
ADC3
330
413C
100
AcDbEntity
  8
0
100
AcDbCircle
 10
417.0840127960974
 20
287.0562249156244
 30
0.0
 40
0.3937
  0
LINE
  5
ADC4
330
413C
100
AcDbEntity
  8
CENTER
100
AcDbLine
 10
417.0840127960974
 20
287.6467749156244
 30
0.0
 11
417.0840127960974
 21
286.4656749156244
 31
0.0
  0
LINE
  5
ADD9
330
413C
100
AcDbEntity
  8
LW523J
  6
HIDDEN
 48
0.5
100
AcDbLine
 10
422.2661496155239
 20
282.72716227311
 30
0.0
 11
422.2661496155239
 21
288.04211227311
 31
0.0
  0
LINE
  5
ADDA
330
413C
100
AcDbEntity
  8
CENTER
  6
CENTERX2
 48
0.125
100
AcDbLine
 10
420.4944996155238
 20
294.3365107723309
 30
0.0
 11
420.4944996155238
 21
275.832610772331
 31
0.0
  0
LINE
  5
ADE9
330
413C
100
AcDbEntity
  8
CENTER
100
AcDbLine
 10
419.9023755701763
 20
281.1522428190393
 30
0.0
 11
421.0834755701764
 21
281.1522428190393
 31
0.0
  0
CIRCLE
  5
ADEA
330
413C
100
AcDbEntity
  8
0
100
AcDbCircle
 10
420.4929255701763
 20
281.1522428190393
 30
0.0
 40
0.3937
  0
POINT
  5
ADF0
330
413C
100
AcDbEntity
  8
CENTER
100
AcDbPoint
 10
420.4944996155238
 20
285.0845607723309
 30
0.0
  0
POINT
  5
ADF1
330
413C
100
AcDbEntity
  8
CENTER
100
AcDbPoint
 10
420.4944996155238
 20
285.0845607723309
 30
0.0
  0
LINE
  5
ADF2
330
413C
100
AcDbEntity
  8
CENTER
100
AcDbLine
 10
423.3118773461365
 20
287.0577195871923
 30
0.0
 11
424.4929773461365
 21
287.0577195871923
 31
0.0
  0
CIRCLE
  5
ADF3
330
413C
100
AcDbEntity
  8
0
100
AcDbCircle
 10
423.9024273461365
 20
287.0577195871923
 30
0.0
 40
0.3937
  0
LINE
  5
ADF4
330
413C
100
AcDbEntity
  8
CENTER
100
AcDbLine
 10
423.9024273461365
 20
287.6482695871924
 30
0.0
 11
423.9024273461365
 21
286.4671695871924
 31
0.0
  0
INSERT
  5
B2BC
330
413C
100
AcDbEntity
  8
DIVIDE
100
AcDbBlockReference
  2
A$C74DC1801
 10
405.1298401741152
 20
293.1595727013278
 30
0.0
 41
0.029527499999972
 42
0.029527499999972
 43
0.0295275
  0
MTEXT
  5
B8DB
330
413C
100
AcDbEntity
  8
DIMENSI
100
AcDbMText
 10
411.607099678113
 20
295.8896117173716
 30
0.0
 40
0.25
 41
0.0
 71
     7
 72
     1
  1
Wall or Backsplash
  7
ARIAL
 73
     1
 44
1.0
1001
ACAD
1000
MTEXTBEGIN
1070
    73
1070
     1
1070
    44
1040
1.0
1070
    74
1070
     0
1000
MTEXTEND
  0
DIMENSION
  5
B8DF
330
413C
100
AcDbEntity
  8
0
100
AcDbDimension
  2
*D9
 10
414.564121885204
 20
293.5491107723309
 30
0.0
 11
414.5641218852039
 21
294.1791488641926
 31
0.0
 70
   160
 71
     5
 42
1.279327925371944
  3
DIM-1
100
AcDbAlignedDimension
 13
420.4944996155238
 23
294.8284386977028
 33
0.0
 14
420.4944996155238
 24
293.5491107723309
 34
0.0
 50
90.0
100
AcDbRotatedDimension
  0
CIRCLE
  5
D134
330
413C
100
AcDbEntity
  8
GAMBAR
100
AcDbCircle
 10
420.5010126760848
 20
285.0845607723309
 30
0.0
 40
1.25887061424208
  0
CIRCLE
  5
D135
330
413C
100
AcDbEntity
  8
GAMBAR
100
AcDbCircle
 10
420.5010126760848
 20
285.0845607723309
 30
0.0
 40
0.8458036939438976
  0
LEADER
  5
D33C
330
413C
100
AcDbEntity
  8
0
100
AcDbLeader
  3
Standard
 73
     0
 40
1.040197906211004
 41
3.333445698924966
 76
     3
 10
413.4211758661077
 20
289.8843957216156
 30
0.0
 10
412.1898216634837
 20
290.4407551432252
 30
0.0
 10
411.5913169952695
 20
290.4158378606794
 30
0.0
213
0.0
223
0.0836966520223202
233
0.0
  0
MTEXT
  5
D33D
102
{ACAD_REACTORS
330
D33C
102
}
330
413C
100
AcDbEntity
  8
DIM
  6
Continuous
 62
     7
100
AcDbMText
 10
411.5654270245912
 20
289.6956024163902
 30
0.0
 40
0.25
 41
0.0
 71
     9
 72
     1
  1
RIM OF LAVATORY\PBORDE DEL LAVABO\PBORD DU LAVABO
  7
BLACK
 73
     1
 44
1.0
1001
ACAD
1000
MTEXTBEGIN
1070
    73
1070
     1
1070
    44
1040
1.0
1070
    74
1070
     0
1000
MTEXTEND
  0
MTEXT
  5
D33E
330
413C
100
AcDbEntity
  8
DIM
  6
Continuous
 62
     7
100
AcDbMText
 10
413.4309437882508
 20
277.494533473148
 30
0.0
 40
0.25
 41
0.0
 71
     9
 72
     1
  1
CUT ALONG THIS LINE\PCORTE A LO LARGO DE ESTA LINEA\PDECOUPER AU LONG DE CETTE LIGNE
  7
BLACK
 73
     1
 44
1.0
1001
ACAD
1000
MTEXTBEGIN
1070
    73
1070
     1
1070
    44
1040
1.0
1070
    74
1070
     0
1000
MTEXTEND
  0
LEADER
  5
D33F
330
413C
100
AcDbEntity
  8
0
100
AcDbLeader
  3
Standard
 76
     3
 10
418.7228496155238
 20
282.72716227311
 30
0.0
 10
413.584397297653
 20
277.5808628069368
 30
0.0
 10
413.5393108861327
 20
277.5808628069368
 30
0.0
  0
LINE
  5
D340
330
413C
100
AcDbEntity
  8
0
100
AcDbLine
 10
409.1248895335702
 20
294.8284386977028
 30
0.0
 11
431.8641096974774
 21
294.8284386977028
 31
0.0
  0
LINE
  5
D341
330
413C
100
AcDbEntity
  8
0
100
AcDbLine
 10
431.8641096974774
 20
294.8284386977028
 30
0.0
 11
431.8641096974774
 21
295.6867351080025
 31
0.0
  0
LINE
  5
D342
330
413C
100
AcDbEntity
  8
0
100
AcDbLine
 10
431.8641096974774
 20
295.6867351080025
 30
0.0
 11
409.1248895335702
 21
295.6867351080025
 31
0.0
  0
LINE
  5
D343
330
413C
100
AcDbEntity
  8
0
100
AcDbLine
 10
409.1248895335702
 20
295.6867351080025
 30
0.0
 11
409.1248895335702
 21
294.8284386977028
 31
0.0
  0
LWPOLYLINE
  5
D3B9
330
413C
100
AcDbEntity
  8
0
 48
0.75
100
AcDbPolyline
 90
        4
 70
     1
 43
0.0
 10
402.1673876274831
 20
273.4586322798984
 10
438.1673876274831
 20
273.4586322798984
 10
438.1673876274831
 20
297.4586322798984
 10
402.1673876274831
 20
297.4586322798984
  0
TEXT
  5
D553
330
413C
100
AcDbEntity
  8
DINDING
  6
Continuous
 62
     7
100
AcDbText
 10
403.2485427368012
 20
274.6973278854611
 30
0.0
 40
0.23621952756
  1
70# OFFSET UNCOATED SHEET
  7
BLACK
100
AcDbText
  0
TEXT
  5
D554
330
413C
100
AcDbEntity
  8
DINDING
  6
Continuous
 62
     7
100
AcDbText
 10
403.2485427368012
 20
274.2721776368882
 30
0.0
 40
0.23621952756
  1
BRIGHTNESS FACTOR- 86%%% OR HIGHER
  7
BLACK
100
AcDbText
  0
TEXT
  5
D555
330
413C
100
AcDbEntity
  8
TEXT
  6
Continuous
 62
     7
100
AcDbText
 10
405.2088440378288
 20
291.8917074073488
 30
0.0
 40
0.19685
  1
REV 02 FEB. 2009
  7
BLACK
100
AcDbText
  0
TEXT
  5
D556
330
413C
100
AcDbEntity
  8
TEXT
  6
Continuous
 62
     7
100
AcDbText
 10
405.2178213008195
 20
292.6790904280343
 30
0.0
 40
0.19685
  1
Template #0GU111-1
  7
BLACK
100
AcDbText
  0
TEXT
  5
D557
330
413C
100
AcDbEntity
  8
TEXT
  6
Continuous
 62
     7
100
AcDbText
 10
405.2178213008195
 20
292.2853903762138
 30
0.0
 40
0.19685
  1
For Vessel Lavatory LT523/LT523G
  7
BLACK
100
AcDbText
  0
CIRCLE
  5
D559
330
413C
100
AcDbEntity
  8
LW523J
 48
0.25
100
AcDbCircle
 10
420.4944996155238
 20
285.0993786422232
 30
0.0
 40
4.7244
  0
TEXT
  5
D55A
330
413C
100
AcDbEntity
  8
TEXT
  6
Continuous
 62
     7
100
AcDbText
 10
432.5298274226835
 20
274.2668268506573
 30
0.0
 40
0.19685
  1
REV 02 FEB. 2009
  7
BLACK
100
AcDbText
  0
TEXT
  5
D55B
330
413C
100
AcDbEntity
  8
TEXT
  6
Continuous
 62
     7
100
AcDbText
 10
432.538804685674
 20
275.0542098713427
 30
0.0
 40
0.19685
  1
Template #0GU111-1
  7
BLACK
100
AcDbText
  0
TEXT
  5
D55C
330
413C
100
AcDbEntity
  8
TEXT
  6
Continuous
 62
     7
100
AcDbText
 10
432.538804685674
 20
274.6605098195223
 30
0.0
 40
0.19685
  1
For Vessel Lavatory LT523/LT523G
  7
BLACK
100
AcDbText
  0
VIEWPORT
  5
B4AC
102
{ACAD_XDICTIONARY
360
D950
102
}
330
B4A4
100
AcDbEntity
 67
     1
  8
0
100
AcDbViewport
 10
22.63034426953808
 20
12.01335703772054
 30
0.0
 40
40.30489940837247
 41
24.3656822619884
 68
     1
 69
     1
 12
22.63034426953808
 22
12.01335703772054
 13
0.0
 23
0.0
 14
0.5
 24
0.5
 15
0.5
 25
0.5
 16
0.0
 26
0.0
 36
1.0
 17
0.0
 27
0.0
 37
0.0
 42
50.0
 43
0.0
 44
0.0
 45
24.3656822619884
 50
0.0
 51
0.0
 72
   100
 90
    32800
  1

281
     0
 71
     1
 74
     0
110
0.0
120
0.0
130
0.0
111
1.0
121
0.0
131
0.0
112
0.0
122
1.0
132
0.0
 79
     0
146
0.0
  0
VIEWPORT
  5
D35E
102
{ACAD_XDICTIONARY
360
D952
102
}
330
B4A4
100
AcDbEntity
 67
     1
  8
0
100
AcDbViewport
 10
18.0
 20
12.0
 30
0.0
 40
36.0
 41
24.0
 68
     2
 69
     2
 12
420.8920033420851
 22
285.6665424208991
 13
0.0
 23
0.0
 14
0.5
 24
0.5
 15
0.5
 25
0.5
 16
0.0
 26
0.0
 36
1.0
 17
0.0
 27
0.0
 37
0.0
 42
50.0
 43
0.0
 44
0.0
 45
24.00000006440178
 50
0.0
 51
0.0
 72
   100
 90
    32800
  1

281
     0
 71
     1
 74
     0
110
0.0
120
0.0
130
0.0
111
1.0
121
0.0
131
0.0
112
0.0
122
1.0
132
0.0
 79
     0
146
0.0
  0
ENDSEC
  0
SECTION
  2
OBJECTS
  0
DICTIONARY
  5
4130
330
0
100
AcDbDictionary
281
     1
  3
ACAD_2007HEADERVARS_RT
350
D945
  3
ACAD_COLOR
350
B397
  3
ACAD_GROUP
350
4131
  3
ACAD_LAYOUT
350
499A
  3
ACAD_MATERIAL
350
B396
  3
ACAD_MLINESTYLE
350
4132
  3
ACAD_PLOTSETTINGS
350
499B
  3
ACAD_PLOTSTYLENAME
350
4998
  3
ACAD_TABLESTYLE
350
B398
  3
ACAD_VISUALSTYLE
350
D924
  3
ACDBVARIABLEDICTIONARY
350
4501
  3
ASE_INDEX_DICTIONARY
350
D3E8
  3
DWGPROPS
350
D944
  0
DICTIONARY
  5
B3A5
330
4126
100
AcDbDictionary
280
     1
281
     1
  3
ACAD_LAYERSTATES
360
B3A6
  0
DICTIONARY
  5
D41A
330
D419
100
AcDbDictionary
280
     1
281
     1
  3
ADSK_XREC_LAYER_RECONCILED
360
D41C
  0
DICTIONARY
  5
D41E
330
D41D
100
AcDbDictionary
280
     1
281
     1
  3
ADSK_XREC_LAYER_RECONCILED
360
D420
  0
DICTIONARY
  5
D422
330
D421
100
AcDbDictionary
280
     1
281
     1
  3
ADSK_XREC_LAYER_RECONCILED
360
D424
  0
DICTIONARY
  5
B33F
330
413C
100
AcDbDictionary
280
     1
281
     1
  3
ACAD_LAYOUTSELFREF
360
B379
  3
ACAD_SORTENTS
360
B897
  0
DICTIONARY
  5
B5D5
330
B5D3
100
AcDbDictionary
280
     1
281
     1
  0
DICTIONARY
  5
D950
330
B4AC
100
AcDbDictionary
280
     1
281
     1
  3
ACAD_XREC_ROUNDTRIP
360
D951
  0
DICTIONARY
  5
D952
330
D35E
100
AcDbDictionary
280
     1
281
     1
  3
ACAD_XREC_ROUNDTRIP
360
D953
  0
DICTIONARY
  5
D945
102
{ACAD_REACTORS
330
4130
102
}
330
4130
100
AcDbDictionary
281
     1
  3
DIMFXL
350
D946
  0
DICTIONARY
  5
B397
102
{ACAD_REACTORS
330
4130
102
}
330
4130
100
AcDbDictionary
281
     1
  0
DICTIONARY
  5
4131
102
{ACAD_REACTORS
330
4130
102
}
330
4130
100
AcDbDictionary
281
     1
  3
LT523
350
B870
  0
DICTIONARY
  5
499A
102
{ACAD_REACTORS
330
4130
102
}
330
4130
100
AcDbDictionary
281
     1
  3
AO
350
B4A5
  3
Model
350
B385
  0
DICTIONARY
  5
B396
102
{ACAD_REACTORS
330
4130
102
}
330
4130
100
AcDbDictionary
281
     1
  3
ByBlock
350
D923
  3
ByLayer
350
D922
  3
Global
350
D431
  0
DICTIONARY
  5
4132
102
{ACAD_REACTORS
330
4130
102
}
330
4130
100
AcDbDictionary
281
     1
  3
STANDARD
350
413F
  0
DICTIONARY
  5
499B
102
{ACAD_REACTORS
330
4130
102
}
330
4130
100
AcDbDictionary
281
     1
  3
TEMP
350
AF91
  3
TEMP_USA
350
AFF2
  0
ACDBDICTIONARYWDFLT
  5
4998
102
{ACAD_REACTORS
330
4130
102
}
330
4130
100
AcDbDictionary
281
     1
  3
Normal
350
4999
100
AcDbDictionaryWithDefault
340
4999
  0
DICTIONARY
  5
B398
102
{ACAD_REACTORS
330
4130
102
}
330
4130
100
AcDbDictionary
281
     1
  3
Standard
350
B399
  0
DICTIONARY
  5
D924
102
{ACAD_REACTORS
330
4130
102
}
330
4130
100
AcDbDictionary
281
     1
  3
2dWireframe
350
D92A
  3
3D Hidden
350
D92C
  3
3dWireframe
350
D92B
  3
Basic
350
D929
  3
Brighten
350
D930
  3
ColorChange
350
D934
  3
Conceptual
350
D92D
  3
Dim
350
D92F
  3
Facepattern
350
D933
  3
Flat
350
D925
  3
FlatWithEdges
350
D926
  3
Gouraud
350
D927
  3
GouraudWithEdges
350
D928
  3
Linepattern
350
D932
  3
Realistic
350
D92E
  3
Thicken
350
D931
  0
DICTIONARY
  5
4501
102
{ACAD_REACTORS
330
4130
102
}
330
4130
100
AcDbDictionary
281
     1
  3
CTABLESTYLE
350
B3B3
  3
DIMASSOC
350
B2BD
  3
INDEXCTL
350
D943
  3
PROJECTNAME
350
D38B
  3
SORTENTS
350
4502
  0
DICTIONARY
  5
D3E8
102
{ACAD_REACTORS
330
4130
102
}
330
4130
100
AcDbDictionary
281
     1
  3
ASEBlockHierarchyIndexRecord
350
D3E9
1001
DCO15
1040
1569580419.458
  0
XRECORD
  5
D944
102
{ACAD_REACTORS
330
4130
102
}
330
4130
100
AcDbXrecord
280
     1
  1
DWGPROPS COOKIE
  2

  3

  4

  6

  7

  8
nnguyen
  9

300
=
301
=
302
=
303
=
304
=
305
=
306
=
307
=
308
=
309
=
 40
2.727184444444444
 41
2450996.944109375
 42
2454917.686592003
  1

 90
        0
  0
DICTIONARY
  5
B3A6
102
{ACAD_REACTORS
330
B3A5
102
}
330
B3A5
100
AcDbDictionary
281
     1
  0
XRECORD
  5
D41C
102
{ACAD_REACTORS
330
D41A
102
}
330
D41A
100
AcDbXrecord
280
     1
290
     1
  0
XRECORD
  5
D420
102
{ACAD_REACTORS
330
D41E
102
}
330
D41E
100
AcDbXrecord
280
     1
290
     1
  0
XRECORD
  5
D424
102
{ACAD_REACTORS
330
D422
102
}
330
D422
100
AcDbXrecord
280
     1
290
     1
  0
XRECORD
  5
B379
102
{ACAD_REACTORS
330
B33F
102
}
330
B33F
100
AcDbXrecord
280
     1
340
413C
  0
SORTENTSTABLE
  5
B897
102
{ACAD_REACTORS
330
B33F
102
}
330
B33F
100
AcDbSortentsTable
330
413C
331
4810
  5
4810
331
B8DB
  5
D083
331
AB81
  5
AB81
331
D341
  5
D080
331
47D2
  5
47D2
331
47FB
  5
47FB
331
4804
  5
4804
331
D134
  5
D33E
331
ADC2
  5
ADC2
331
ADF0
  5
ADF0
331
4811
  5
4811
331
47D3
  5
47D3
331
4808
  5
4808
331
ADC3
  5
ADC3
331
4805
  5
4805
331
D135
  5
D33F
331
47FC
  5
47FC
331
D342
  5
D081
331
ADF1
  5
ADF1
331
4812
  5
4812
331
47D4
  5
47D4
331
4809
  5
4809
331
ADC4
  5
ADC4
331
4806
  5
4806
331
47FD
  5
47FD
331
D343
  5
D082
331
ADE9
  5
ADE9
331
ADF2
  5
ADF2
331
4813
  5
4813
331
47CC
  5
47CC
331
4807
  5
4807
331
47FE
  5
47FE
331
480A
  5
480A
331
ADEA
  5
ADEA
331
B8DF
  5
D084
331
47CD
  5
47CD
331
480B
  5
480B
331
D33C
  5
D341
331
47FF
  5
47FF
331
ADF3
  5
ADF3
331
AB7D
  5
AB7D
331
47CE
  5
47CE
331
480C
  5
480C
331
B2BC
  5
B2BC
331
4076
  5
4076
331
D33D
  5
D342
331
4800
  5
4800
331
ADF4
  5
ADF4
331
480D
  5
480D
331
AB7E
  5
AB7E
331
D33E
  5
D343
331
4801
  5
4801
331
47CF
  5
47CF
331
480E
  5
480E
331
AB7F
  5
AB7F
331
47F9
  5
47F9
331
D33F
  5
D344
331
ADD9
  5
ADD9
331
4802
  5
4802
331
47D0
  5
47D0
331
480F
  5
480F
331
4057
  5
4057
331
AB80
  5
AB80
331
47FA
  5
47FA
331
D340
  5
B8DB
331
ADDA
  5
ADDA
331
4803
  5
4803
331
47D1
  5
47D1
  0
XRECORD
  5
D951
102
{ACAD_REACTORS
330
D950
102
}
330
D950
100
AcDbXrecord
280
     1
102
SHADEPLOT
 70
     0
  0
XRECORD
  5
D953
102
{ACAD_REACTORS
330
D952
102
}
330
D952
100
AcDbXrecord
280
     1
102
SHADEPLOT
 70
     0
  0
XRECORD
  5
D946
102
{ACAD_REACTORS
330
D945
102
}
330
D945
100
AcDbXrecord
280
     1
 40
3.0
  0
GROUP
  5
B870
102
{ACAD_REACTORS
330
4131
102
}
330
4131
100
AcDbGroup
300

 70
     0
 71
     1
  0
LAYOUT
  5
B4A5
102
{ACAD_XDICTIONARY
360
B58C
102
}
102
{ACAD_REACTORS
330
499A
102
}
330
499A
100
AcDbPlotSettings
  1

  2
\\totosrv3\RD-03-HPDJ500
  4
User272
  6

 40
4.995333194732666
 41
16.97562789916992
 42
4.99530029296875
 43
16.9757080078125
 44
840.9516601562499
 45
1188.931640625
 46
0.0
 47
0.0
 48
0.0
 49
0.0
140
0.0
141
0.0
142
1.0
143
1.0
 70
   688
 72
     1
 73
     1
 74
     5
  7

 75
    16
147
1.0
148
0.0
149
0.0
100
AcDbLayout
  1
AO
 70
     1
 71
     1
 10
-16.9757080078125
 20
-4.995333194732666
 11
1171.955932617187
 21
835.9563269615174
 12
0.0
 22
0.0
 32
0.0
 14
0.0
 24
0.0
 34
0.0
 15
36.0
 25
24.0
 35
0.0
146
0.0
 13
0.0
 23
0.0
 33
0.0
 16
1.0
 26
0.0
 36
0.0
 17
0.0
 27
1.0
 37
0.0
 76
     0
330
B4A4
331
B4AC
1001
ACAD_PSEXT
1000
\\totosrv3\RD-03-HPDJ500
1000
HP DesignJet 500 42+HPGL2 Card
1000
R & D/Quality Engineering
1000
IP 172.16.4.69, HP DesignJet 500, S/N
1070
     0
  0
LAYOUT
  5
B385
102
{ACAD_XDICTIONARY
360
D94B
102
}
102
{ACAD_REACTORS
330
499A
102
}
330
499A
100
AcDbPlotSettings
  1

  2
C:\Program Files\AutoCAD 2002\plotters\DWF ePlot (optimized for plotting).pc3
  4

  6

 40
0.0
 41
0.0
 42
0.0
 43
0.0
 44
0.0
 45
0.0
 46
0.0
 47
0.0
 48
0.0
 49
0.0
140
0.0
141
0.0
142
1.0
143
1.0
 70
  1712
 72
     0
 73
     0
 74
     0
  7

 75
     0
147
1.0
148
0.0
149
0.0
100
AcDbLayout
  1
Model
 70
     1
 71
     0
 10
0.0
 20
0.0
 11
12.0
 21
9.0
 12
0.0
 22
0.0
 32
0.0
 14
0.0
 24
0.0
 34
0.0
 15
0.0
 25
0.0
 35
0.0
146
0.0
 13
0.0
 23
0.0
 33
0.0
 16
1.0
 26
0.0
 36
0.0
 17
0.0
 27
1.0
 37
0.0
 76
     0
330
413C
331
D920
  0
MATERIAL
  5
D923
102
{ACAD_XDICTIONARY
360
D958
102
}
102
{ACAD_REACTORS
330
B396
102
}
330
B396
100
AcDbMaterial
  1
ByBlock
  0
MATERIAL
  5
D922
102
{ACAD_XDICTIONARY
360
D956
102
}
102
{ACAD_REACTORS
330
B396
102
}
330
B396
100
AcDbMaterial
  1
ByLayer
  0
MATERIAL
  5
D431
102
{ACAD_XDICTIONARY
360
D954
102
}
102
{ACAD_REACTORS
330
B396
102
}
330
B396
100
AcDbMaterial
  1
Global
  0
MLINESTYLE
  5
413F
102
{ACAD_REACTORS
330
4132
102
}
330
4132
100
AcDbMlineStyle
  2
STANDARD
 70
     0
  3

 62
     0
 51
90.0
 52
90.0
 71
     2
 49
0.5
 62
   256
  6
BYLAYER
 49
-0.5
 62
   256
  6
BYLAYER
  0
PLOTSETTINGS
  5
AF91
102
{ACAD_XDICTIONARY
360
D947
102
}
102
{ACAD_REACTORS
330
499B
102
}
330
499B
100
AcDbPlotSettings
  1
TEMP
  2
HP DesignJet 750C_ (D_A1) by HP.pc3
  4
User271
  6

 40
4.995333194732666
 41
16.93330574035644
 42
4.99530029296875
 43
16.933349609375
 44
593.9366455078125
 45
840.8246459960937
 46
37.15999999999999
 47
48.56
 48
132.1428720684747
 49
49.98575395984222
140
841.9863543952882
141
559.6039882674026
142
1.0
143
1.0
 70
  1684
 72
     1
 73
     1
 74
     4
  7

 75
    16
147
1.0
148
-132.1428720684747
149
-49.98575395984222
  0
PLOTSETTINGS
  5
AFF2
102
{ACAD_XDICTIONARY
360
D949
102
}
102
{ACAD_REACTORS
330
499B
102
}
330
499B
100
AcDbPlotSettings
  1
TEMP USA
  2
HP DesignJet 750C_ (D_A1) by HP.pc3
  4
User271
  6

 40
4.995333194732666
 41
16.93330574035644
 42
4.99530029296875
 43
16.933349609375
 44
593.9366455078125
 45
840.8246459960937
 46
13.12
 47
5.809999999999997
 48
94.07863341732172
 49
7.168823105045929
140
889.4090955331444
141
564.8829440913957
142
1.0
143
1.0
 70
  1684
 72
     1
 73
     1
 74
     4
  7

 75
    16
147
1.0
148
-94.07863341732172
149
-7.168823105045929
  0
ACDBPLACEHOLDER
  5
4999
102
{ACAD_REACTORS
330
4998
102
}
330
4998
  0
TABLESTYLE
  5
B399
102
{ACAD_XDICTIONARY
360
D94D
102
}
102
{ACAD_REACTORS
330
B398
102
}
330
B398
100
AcDbTableStyle
  3
Standard
 70
     0
 71
     0
 40
0.06
 41
0.06
280
     0
281
     0
  7
STANDARD
140
0.18
170
     2
 62
     0
 63
     7
283
     0
274
    -2
284
     1
 64
     0
275
    -2
285
     1
 65
     0
276
    -2
286
     1
 66
     0
277
    -2
287
     1
 67
     0
278
    -2
288
     1
 68
     0
279
    -2
289
     1
 69
     0
  7
STANDARD
140
0.25
170
     5
 62
     0
 63
     7
283
     0
274
    -2
284
     1
 64
     0
275
    -2
285
     1
 65
     0
276
    -2
286
     1
 66
     0
277
    -2
287
     1
 67
     0
278
    -2
288
     1
 68
     0
279
    -2
289
     1
 69
     0
  7
STANDARD
140
0.18
170
     5
 62
     0
 63
     7
283
     0
274
    -2
284
     1
 64
     0
275
    -2
285
     1
 65
     0
276
    -2
286
     1
 66
     0
277
    -2
287
     1
 67
     0
278
    -2
288
     1
 68
     0
279
    -2
289
     1
 69
     0
  0
VISUALSTYLE
  5
D92A
102
{ACAD_REACTORS
330
D924
102
}
330
D924
100
AcDbVisualStyle
  2
2dWireframe
 70
     4
 71
     0
 72
     2
 73
     0
 90
        0
 40
-0.6
 41
-30.0
 62
     5
 63
     7
 74
     1
 91
        4
 64
     7
 65
   257
 75
     1
175
     1
 42
1.0
 92
        0
 66
   257
 43
1.0
 76
     1
 77
     6
 78
     2
 67
     7
 79
     5
170
     0
171
     0
290
     0
174
     0
 93
        1
 44
0.0
173
     0
291
     0
 45
0.0
1001
ACAD
1000
AcDbSavedByObjectVersion
1070
     0
  0
VISUALSTYLE
  5
D92C
102
{ACAD_REACTORS
330
D924
102
}
330
D924
100
AcDbVisualStyle
  2
3D Hidden
 70
     6
 71
     1
 72
     2
 73
     2
 90
        0
 40
-0.6
 41
-30.0
 62
     5
 63
     7
 74
     2
 91
        2
 64
     7
 65
   257
 75
     2
175
     1
 42
40.0
 92
        0
 66
   257
 43
1.0
 76
     1
 77
     6
 78
     2
 67
     7
 79
     3
170
     0
171
     0
290
     0
174
     0
 93
        1
 44
0.0
173
     0
291
     0
 45
0.0
1001
ACAD
1000
AcDbSavedByObjectVersion
1070
     0
  0
VISUALSTYLE
  5
D92B
102
{ACAD_REACTORS
330
D924
102
}
330
D924
100
AcDbVisualStyle
  2
3dWireframe
 70
     5
 71
     0
 72
     2
 73
     0
 90
        0
 40
-0.6
 41
-30.0
 62
     5
 63
     7
 74
     1
 91
        4
 64
     7
 65
   257
 75
     1
175
     1
 42
1.0
 92
        0
 66
   257
 43
1.0
 76
     1
 77
     6
 78
     2
 67
     7
 79
     5
170
     0
171
     0
290
     0
174
     0
 93
        1
 44
0.0
173
     0
291
     0
 45
0.0
1001
ACAD
1000
AcDbSavedByObjectVersion
1070
     0
  0
VISUALSTYLE
  5
D929
102
{ACAD_REACTORS
330
D924
102
}
330
D924
100
AcDbVisualStyle
  2
Basic
 70
     7
 71
     1
 72
     0
 73
     1
 90
        0
 40
-0.6
 41
-30.0
 62
     5
 63
     7
 74
     0
 91
        4
 64
     7
 65
   257
 75
     1
175
     1
 42
1.0
 92
        8
 66
     7
 43
1.0
 76
     1
 77
     6
 78
     2
 67
     7
 79
     5
170
     0
171
     0
290
     0
174
     0
 93
        1
 44
0.0
173
     0
291
     1
 45
0.0
1001
ACAD
1000
AcDbSavedByObjectVersion
1070
     0
  0
VISUALSTYLE
  5
D930
102
{ACAD_REACTORS
330
D924
102
}
330
D924
100
AcDbVisualStyle
  2
Brighten
 70
    12
 71
     2
 72
     2
 73
     0
 90
        0
 40
-0.6
 41
-30.0
 62
     5
 63
     7
 74
     1
 91
        4
 64
     7
 65
   257
 75
     1
175
     1
 42
1.0
 92
        8
 66
     7
 43
1.0
 76
     1
 77
     6
 78
     2
 67
     7
 79
     5
170
     0
171
     0
290
     0
174
     0
 93
        1
 44
50.0
173
     0
291
     1
 45
0.0
1001
ACAD
1000
AcDbSavedByObjectVersion
1070
     0
  0
VISUALSTYLE
  5
D934
102
{ACAD_REACTORS
330
D924
102
}
330
D924
100
AcDbVisualStyle
  2
ColorChange
 70
    16
 71
     2
 72
     2
 73
     3
 90
        0
 40
-0.6
 41
-30.0
 62
     5
 63
     8
 74
     1
 91
        4
 64
     7
 65
   257
 75
     1
175
     1
 42
1.0
 92
        8
 66
     8
 43
1.0
 76
     1
 77
     6
 78
     2
 67
     7
 79
     5
170
     0
171
     0
290
     0
174
     0
 93
        1
 44
0.0
173
     0
291
     1
 45
0.0
1001
ACAD
1000
AcDbSavedByObjectVersion
1070
     0
  0
VISUALSTYLE
  5
D92D
102
{ACAD_REACTORS
330
D924
102
}
330
D924
100
AcDbVisualStyle
  2
Conceptual
 70
     9
 71
     3
 72
     2
 73
     0
 90
        0
 40
-0.6
 41
-30.0
 62
     5
 63
     7
 74
     2
 91
        2
 64
     7
 65
   257
 75
     1
175
     1
 42
40.0
 92
        8
 66
     7
 43
1.0
 76
     1
 77
     6
 78
     2
 67
     7
 79
     3
170
     0
171
     0
290
     0
174
     0
 93
        1
 44
0.0
173
     0
291
     0
 45
0.0
1001
ACAD
1000
AcDbSavedByObjectVersion
1070
     0
  0
VISUALSTYLE
  5
D92F
102
{ACAD_REACTORS
330
D924
102
}
330
D924
100
AcDbVisualStyle
  2
Dim
 70
    11
 71
     2
 72
     2
 73
     0
 90
        0
 40
-0.6
 41
-30.0
 62
     5
 63
     7
 74
     1
 91
        4
 64
     7
 65
   257
 75
     1
175
     1
 42
1.0
 92
        8
 66
     7
 43
1.0
 76
     1
 77
     6
 78
     2
 67
     7
 79
     5
170
     0
171
     0
290
     0
174
     0
 93
        1
 44
-50.0
173
     0
291
     1
 45
0.0
1001
ACAD
1000
AcDbSavedByObjectVersion
1070
     0
  0
VISUALSTYLE
  5
D933
102
{ACAD_REACTORS
330
D924
102
}
330
D924
100
AcDbVisualStyle
  2
Facepattern
 70
    15
 71
     2
 72
     2
 73
     0
 90
        0
 40
-0.6
 41
-30.0
 62
     5
 63
     7
 74
     1
 91
        4
 64
     7
 65
   257
 75
     1
175
     1
 42
1.0
 92
        8
 66
     7
 43
1.0
 76
     1
 77
     6
 78
     2
 67
     7
 79
     5
170
     0
171
     0
290
     0
174
     0
 93
        1
 44
0.0
173
     0
291
     1
 45
0.0
1001
ACAD
1000
AcDbSavedByObjectVersion
1070
     0
  0
VISUALSTYLE
  5
D925
102
{ACAD_REACTORS
330
D924
102
}
330
D924
100
AcDbVisualStyle
  2
Flat
 70
     0
 71
     2
 72
     1
 73
     1
 90
        2
 40
-0.6
 41
30.0
 62
     5
 63
     7
 74
     0
 91
        4
 64
     7
 65
   257
 75
     1
175
     1
 42
1.0
 92
        8
 66
     7
 43
1.0
 76
     1
 77
     6
 78
     2
 67
     7
 79
     5
170
     0
171
     0
290
     0
174
     0
 93
       13
 44
0.0
173
     0
291
     1
 45
0.0
1001
ACAD
1000
AcDbSavedByObjectVersion
1070
     0
  0
VISUALSTYLE
  5
D926
102
{ACAD_REACTORS
330
D924
102
}
330
D924
100
AcDbVisualStyle
  2
FlatWithEdges
 70
     1
 71
     2
 72
     1
 73
     1
 90
        2
 40
-0.6
 41
30.0
 62
     5
 63
     7
 74
     1
 91
        4
 64
     7
 65
   257
 75
     1
175
     1
 42
1.0
 92
        0
 66
   257
 43
1.0
 76
     1
 77
     6
 78
     2
 67
     7
 79
     5
170
     0
171
     0
290
     0
174
     0
 93
       13
 44
0.0
173
     0
291
     1
 45
0.0
1001
ACAD
1000
AcDbSavedByObjectVersion
1070
     0
  0
VISUALSTYLE
  5
D927
102
{ACAD_REACTORS
330
D924
102
}
330
D924
100
AcDbVisualStyle
  2
Gouraud
 70
     2
 71
     2
 72
     2
 73
     1
 90
        2
 40
-0.6
 41
30.0
 62
     5
 63
     7
 74
     0
 91
        4
 64
     7
 65
   257
 75
     1
175
     1
 42
1.0
 92
        0
 66
     7
 43
1.0
 76
     1
 77
     6
 78
     2
 67
     7
 79
     5
170
     0
171
     0
290
     0
174
     0
 93
       13
 44
0.0
173
     0
291
     1
 45
0.0
1001
ACAD
1000
AcDbSavedByObjectVersion
1070
     0
  0
VISUALSTYLE
  5
D928
102
{ACAD_REACTORS
330
D924
102
}
330
D924
100
AcDbVisualStyle
  2
GouraudWithEdges
 70
     3
 71
     2
 72
     2
 73
     1
 90
        2
 40
-0.6
 41
30.0
 62
     5
 63
     7
 74
     1
 91
        4
 64
     7
 65
   257
 75
     1
175
     1
 42
1.0
 92
        0
 66
   257
 43
1.0
 76
     1
 77
     6
 78
     2
 67
     7
 79
     5
170
     0
171
     0
290
     0
174
     0
 93
       13
 44
0.0
173
     0
291
     1
 45
0.0
1001
ACAD
1000
AcDbSavedByObjectVersion
1070
     0
  0
VISUALSTYLE
  5
D932
102
{ACAD_REACTORS
330
D924
102
}
330
D924
100
AcDbVisualStyle
  2
Linepattern
 70
    14
 71
     2
 72
     2
 73
     0
 90
        0
 40
-0.6
 41
-30.0
 62
     5
 63
     7
 74
     1
 91
        4
 64
     7
 65
   257
 75
     7
175
     7
 42
1.0
 92
        8
 66
     7
 43
1.0
 76
     1
 77
     6
 78
     2
 67
     7
 79
     5
170
     0
171
     0
290
     0
174
     0
 93
        1
 44
0.0
173
     0
291
     1
 45
0.0
1001
ACAD
1000
AcDbSavedByObjectVersion
1070
     0
  0
VISUALSTYLE
  5
D92E
102
{ACAD_REACTORS
330
D924
102
}
330
D924
100
AcDbVisualStyle
  2
Realistic
 70
     8
 71
     2
 72
     2
 73
     0
 90
        0
 40
-0.6
 41
-30.0
 62
     5
 63
     7
 74
     1
 91
        0
 64
     7
 65
   257
 75
     1
175
     1
 42
1.0
 92
        8
 66
     8
 43
1.0
 76
     1
 77
     6
 78
     2
 67
     7
 79
     5
170
     0
171
     0
290
     0
174
     0
 93
       13
 44
0.0
173
     0
291
     0
 45
0.0
1001
ACAD
1000
AcDbSavedByObjectVersion
1070
     0
  0
VISUALSTYLE
  5
D931
102
{ACAD_REACTORS
330
D924
102
}
330
D924
100
AcDbVisualStyle
  2
Thicken
 70
    13
 71
     2
 72
     2
 73
     0
 90
        0
 40
-0.6
 41
-30.0
 62
     5
 63
     7
 74
     1
 91
        4
 64
     7
 65
   257
 75
     1
175
     1
 42
1.0
 92
       12
 66
     7
 43
1.0
 76
     1
 77
     6
 78
     2
 67
     7
 79
     5
170
     0
171
     0
290
     0
174
     0
 93
        1
 44
0.0
173
     0
291
     1
 45
0.0
1001
ACAD
1000
AcDbSavedByObjectVersion
1070
     0
  0
DICTIONARYVAR
  5
B3B3
102
{ACAD_REACTORS
330
4501
102
}
330
4501
100
DictionaryVariables
280
     0
  1
STANDARD
  0
DICTIONARYVAR
  5
B2BD
102
{ACAD_REACTORS
330
4501
102
}
330
4501
100
DictionaryVariables
280
     0
  1
1
  0
DICTIONARYVAR
  5
D943
102
{ACAD_REACTORS
330
4501
102
}
330
4501
100
DictionaryVariables
280
     0
  1
0
  0
DICTIONARYVAR
  5
D38B
102
{ACAD_REACTORS
330
4501
102
}
330
4501
100
DictionaryVariables
280
     0
  1

  0
DICTIONARYVAR
  5
4502
102
{ACAD_REACTORS
330
4501
102
}
330
4501
100
DictionaryVariables
280
     0
  1
96
  0
XRECORD
  5
D3E9
102
{ACAD_REACTORS
330
D3E8
102
}
330
D3E8
100
AcDbXrecord
280
     1
330
4057
330
4076
330
47CC
330
47CD
330
47CE
330
47CF
330
47D0
330
47D1
330
47D2
330
47D3
330
47D4
330
47F9
330
47FA
330
47FB
330
47FC
330
47FD
330
47FE
330
47FF
330
4800
330
4801
330
4802
330
4803
330
4804
330
4805
330
4806
330
4807
330
4808
330
4809
330
480A
330
480B
330
480C
330
480D
330
480E
330
480F
330
4810
330
4811
330
4812
330
4813
330
B2BC
  0
DICTIONARY
  5
B58C
330
B4A5
100
AcDbDictionary
280
     1
281
     1
  3
ACAD_XREC_ROUNDTRIP
360
D94F
  3
ADSK_XREC_LAYOUTTHUMBNAIL
360
B58D
  0
DICTIONARY
  5
D94B
330
B385
100
AcDbDictionary
280
     1
281
     1
  3
ACAD_XREC_ROUNDTRIP
360
D94C
  0
DICTIONARY
  5
D958
330
D923
100
AcDbDictionary
280
     1
281
     1
  3
ACAD_XREC_ROUNDTRIP
360
D959
  0
DICTIONARY
  5
D956
330
D922
100
AcDbDictionary
280
     1
281
     1
  3
ACAD_XREC_ROUNDTRIP
360
D957
  0
DICTIONARY
  5
D954
330
D431
100
AcDbDictionary
280
     1
281
     1
  3
ACAD_XREC_ROUNDTRIP
360
D955
  0
DICTIONARY
  5
D947
330
AF91
100
AcDbDictionary
280
     1
281
     1
  3
ACAD_XREC_ROUNDTRIP
360
D948
  0
DICTIONARY
  5
D949
330
AFF2
100
AcDbDictionary
280
     1
281
     1
  3
ACAD_XREC_ROUNDTRIP
360
D94A
  0
DICTIONARY
  5
D94D
330
B399
100
AcDbDictionary
280
     1
281
     1
  3
ACAD_XREC_ROUNDTRIP
360
D94E
  0
XRECORD
  5
D94F
102
{ACAD_REACTORS
330
B58C
102
}
330
B58C
100
AcDbXrecord
280
     1
102
SHADEPLOT
 70
     0
102
SHADEPLOTRESLEVEL
 70
     2
102
SHADEPLOTCUSTOMDPI
 70
   300
  0
XRECORD
  5
B58D
102
{ACAD_REACTORS
330
B58C
102
}
330
B58C
100
AcDbXrecord
280
     1
310
28000000B40000007F00000001000800000000004C590000000000000000000000010000000000000000000000000000FFFFFF000000000000000000000000000000000000000000000000000000000000000000330000006600000099000000CC000000FF00000000330000333300006633000099330000CC330000FF3300
310
0000660000336600006666000099660000CC660000FF66000000990000339900006699000099990000CC990000FF99000000CC000033CC000066CC000099CC0000CCCC0000FFCC000000FF000033FF000066FF000099FF0000CCFF0000FFFF000000003300330033006600330099003300CC003300FF003300003333003333
310
33006633330099333300CC333300FF33330000663300336633006666330099663300CC663300FF66330000993300339933006699330099993300CC993300FF99330000CC330033CC330066CC330099CC3300CCCC3300FFCC330000FF330033FF330066FF330099FF3300CCFF3300FFFF330000006600330066006600660099
310
006600CC006600FF00660000336600333366006633660099336600CC336600FF33660000666600336666006666660099666600CC666600FF66660000996600339966006699660099996600CC996600FF99660000CC660033CC660066CC660099CC6600CCCC6600FFCC660000FF660033FF660066FF660099FF6600CCFF6600
310
FFFF660000009900330099006600990099009900CC009900FF00990000339900333399006633990099339900CC339900FF33990000669900336699006666990099669900CC669900FF66990000999900339999006699990099999900CC999900FF99990000CC990033CC990066CC990099CC9900CCCC9900FFCC990000FF99
310
0033FF990066FF990099FF9900CCFF9900FFFF99000000CC003300CC006600CC009900CC00CC00CC00FF00CC000033CC003333CC006633CC009933CC00CC33CC00FF33CC000066CC003366CC006666CC009966CC00CC66CC00FF66CC000099CC003399CC006699CC009999CC00CC99CC00FF99CC0000CCCC0033CCCC0066CC
310
CC0099CCCC00CCCCCC00FFCCCC0000FFCC0033FFCC0066FFCC0099FFCC00CCFFCC00FFFFCC000000FF003300FF006600FF009900FF00CC00FF00FF00FF000033FF003333FF006633FF009933FF00CC33FF00FF33FF000066FF003366FF006666FF009966FF00CC66FF00FF66FF000099FF003399FF006699FF009999FF00CC
310
99FF00FF99FF0000CCFF0033CCFF0066CCFF0099CCFF00CCCCFF00FFCCFF0000FFFF0033FFFF0066FFFF0099FFFF00CCFFFF00FFFFFF00000000000D0D0D001A1A1A00282828003535350043434300505050005D5D5D006B6B6B00787878008686860093939300A1A1A100AEAEAE00BBBBBB00C9C9C900D6D6D600E4E4E400
310
F1F1F100FFFFFF0000000000000000000000000000000000000000000000000000000000000000000000000000000000E2E2E2E2E2E2E2E2E2E2E2E2E2E2E2E2E2E2E2E2E2E2E2E2E2E2E2E2E2E2E2E2E2E2E2E2E2E2E2E2E2E2E2E2E2E2E2E2E2E2E2E2E2E2E2E2E2E2E2E2E2E2E2E2E2E2E2E2E2E2E2E2E2E2E2E2E2E2E2
310
E2E2E2E2E2E2E2E2E2E2E2E2E2E2E2E2E2E2E2E2E2E2E2E2E2E2E2E2E2E2E2E2E2E2E2E2E2E2E2E2E2E2E2E2E2E2E2E2E2E2E2E2E2E2E2E2E2E2E2E2E2E2E2E2E2E2E2E2E2E2E2E2E2E2E2E2E2E2E2E2E2E2E2E2E2E2E2E2E2E2E2E2E2E2E2E2E2E2E2E2E2E2E2E2F5F5F5F5F5F5E2E2E2E2E2E2E2E2E2E2E2E2E2E2E2E2E2
310
E2E2E2E2E2E2E2E2E2E2E2E2E2E2E2E2E2E2E2E2E2E2E2E2E2E2E2E2E2E2E2E2E2E2E2E2E2E2E2E2E2E2E2E2E2E2E2E2E2E2E2E2E2E2E2E2E2E2E2E2E2E2E2E2E2E2E2E2E2E2E2E2E2E2E2E2E2E2E2E2E2E2E2E2E2E2E2E2E2E2E2E2E2E2E2E2E2E2E2E2E2E2E2E2E2E2E2E2E2E2E2E2E2E2E2E2E2E2E2E2E2E2E2E2E2E2E2
310
E2E2E2E2E2E2E2E2E2E2E2E2E2E2E2E2E2E2E2E2E2E2E2E2E2E2E2E2E2E2F5F5F5F5F5F5E2E2E2E2E2E2E2E2E2E2E2E2E2E2E2E2E2E2E2E2E2E2E2E2E2E2E2E2E2E2E2E2E2E2E2E2E2E2E2E2E2E2E2E2E2E2E2E2E2E2E2E2E2E2E2E2E2E2E2E2E2E2E2E2E2E2E2E2E2E2E2E2E2E2E2E2E2E2E2E2E2E2E2E2E2E2E2E2E2E2E2
310
E2E2E2E2E2E2E2E2E2E2E2E2E2E2E2E2E2E2E2E2E2E2E2E2E2E2E2E2E2E2E2E2E2E2E2E2E2E2E2E2E2E2E2E2E2E2E2E2E2E2E2E2E2E2E2E2E2E2E2E2E2E2E2E2E2E2E2E2E2E2E2E2E2E2E2E2E2E2E2E2E2E2E2F5F5F5F5F5F5E2E2E2E2E2E2E2E2E2E2E2E2E2E2E2E2E2E2E2E2E2E2E2E2E2E2E2E2E2E2E2E2E2E2E2E2E2E2
310
E2E2E2E2E2E2E2E2E2E2E2E2E2E2E2E2E2E2E2E2E2E2E2E2E2E2E2E2E2E2E2E2E2E2E2E2E2E2E2E2E2E2E2E2E2E2E2E2E2E2E2E2E2E2E2E2E2E2E2E2E2E2E2E2E2E2E2E2E2E2E2E2E2E2E2E2E2E2E2E2E2E2E2E2E2E2E2E2E2E2E2E2E2E2E2E2E2E2E2E2E2E2E2E2E2E2E2E2E2E2E2E2E2E2E2E2E2E2E2E2E2E2E2E2E2E2E2
310
E2E2E2E2E2E2E2E2E2F5F5F5F5F5F5E2E2E2E2E2E2E2E2E2E2E2E2E2E2E2E2E2E2E2E2E2E2E2E2E2E2E2E2E2E2E2E2E2E2E2E2E2E2E2E2E2E2E2E2E2E2E2E2E2E2E2E2E2E2E2E2E2E2E2E2E2E2E2E2E2E2E2E2E2E2E2E2E2E2E2E2E2E2E2E2E2E2E2E2E2E2E2E2E2E2E2E2E2E2E2E2E2E2E2E2E2E2E2E2E2E2E2E2E2E2E2E2
310
E2E2E2E2E2E2E2E2E2E2E2E2E2E2E2E2E2E2E2E2E2E2E2E2E2E2E2E2E2E2E2E2E2E2E2E2E2E2E2E2E2E2E2E2E2E2E2E2E2E2E2E2E2E2E2E2E2E2E2E2E2E2E2E2E2E2E2E2E2E2E2E2E2E2E2E2E2E2E2E2E2E2E2E2E2E2E2E2E2E2E2E2E2E2E2E2E2E2E2E2E2E2E2E2E2E2E2E2E2E2E2E2E2E2E2E2E2E2E2E2E2E2E2E2E2E2E2
310
E2E2E2E2E2E2E2E2E2E2E2E2E2E2E2E2E2E2E2E2E2E2E2E2E2E2E2E2E2E2E2E2E2E2E2E2E2E2E2E2E2E2E2E2E2E2E2E2E2E2E2E2E2E2E2E2E2E2E2E2E2E2E2E2E2E2E2E2E2E2E2E2E2E2E2E2E2E2E2E2E2E2E2E2E2E2E2E2E2E2E2E2E2E2E2E2E2E2E2E2E2E2E2E2E2E2E2E2E2E2E2E2E2E2E2E2E2E2E2E2E2E2E2E2E2E2E2
310
E2E2E2E2E2E2E2E2E2E2E2E2E2E2E2E2E2E2E2E2E2E2E2E2E2E2E2E2E2E2E2E2E2E2E2E2E2E2E2E2E2E2E2E2E2E2E2E2E2E2E2E2E2E2E2E2E2E2E2E2E2E2E2E2E2E2E2E2E2E2E2E2E2E2E2E2E2E2E2E2E2E2E2E2E2E2E2E2E2E2E2E2E2E2E2E2E2E2E2E2E2E2E2E2E2E2E2E2E2E2E2E2E2E2E2E2E2E2E2E2E2E2E2E2E2E2E2
310
E2E2E2E2E2E2E2E2E2E2E2E2E2E2E2E2E2E2E2E2E2E2E2E2E2E2E2E2E2E2E2E2E2E2E2E2E2E2E2E2E2E2E2E2E2E2E2E2E2E2E2E2E2E2E2E2E2E2E2E2E2E2E2E2E2E2E2E2E2E2E2E2E2E2E2E2E2E2E2E2E2E2E2E2E2E2E2E2E2E2E2E2E2E2E2E2E2E2E2E2E2E2E2E2E2E2E2E2E2E2E2E2E2E2E2E2E2E2E2E2E2E2E2E2E2E2E2
310
E2E2E2E2E2E2E2E2E2E2E2E2E2E2E2E2E2E2E2E2E2E2E2E2E2E2E2E2E2E2E2E2E2E2E2E2E2E2E2E2E2E2E2E2E2E2E2E2E2E2E2E2E2E2E2E2E2E2E2E2E2E2E2E2E2E2E2E2E2E2E2E2E2E2E2E2E2E2E2E2E2E2E2E2E2E2E2E2E2E2E2E2E2E2E2E2E2E2E2E2E2E2E2E2E2E2E2E2E2E2E2E2E2E2E2E2E2E2E2E2E2E2E2E2E2E2E2
310
E2E2E2E2E2E2E2E2E2E2E2E2E2E2E2E2E2E2E2E2E2E2E2E2E2E2E2E2E2E2E2E2E2E2E2E2E2E2E2E2E2E2E2E2E2E2E2E2E2E2E2E2E2E2E2E2E2E2E2E2E2E2E2E2E2E2E2E2E2E2E2E2E2E2E2E2E2E2E2E2E2E2E2E2E2E2E2E2E2E2E2E2E2E2E2E2E2E2E2E2E2E2E2E2E2E2E2E2E2E2E2E2E2E2E2E2E2E2E2E2E2E2E2E2E2E2E2
310
E2E2E2E2E2E2E2E2E2E2E2E2E2E2E2E2E2E2E2E2E2E2E2E2E2E2E2E2E2E2E2E2E2E2E2E2E2E2E2E2E2E2E2E2E2E2E2E2E2E2E2E2E2E2E2E2E2E2E2E2E2E2E2E2E2E2E2E2E2E2E2E2E2E2E2E2E2E2E2E2E2E2E2E2E2E2E2E2E2E2E2E2E2E2E2E2E2E2E2E2E2E2E2E2E2E2E2E2E2E2E2E2E2E2E2E2E2E2E2E2E2E2E2E2E2E2E2
310
E2E2E2E2E2E2E2E2E2E2E2E2E2E2E2E2E2E2E2E2E2E2E2E2E2E2E2E2E2E2E2E2E2E2E2E2E2E2E2E2E2E2E2E2E2E2E2E2E2E2E2E2E2E2E2E2E2E2E2E2E2E2E2E2E2E2E2E2E2E2E2E2E2E2E2E2E2E2E2E2E2E2E2E2E2E2E2E2E2E2E2E2E2E2E2E2E2E2E2E2E2E2E2E2E2E2E2E2E2E2E2E2E2E2E2E2E2E2E2E2E2E2E2E2E2E2E2
310
E2E2E2E2E2E2E2E2E2E2E2E2E2E2E2E2E2E2E2E2E2E2E2E2E2E2E2E2E2E2E2E2E2E2E2E2E2E2E2E2E2E2E2E2E2E2E2E2E2E2E2E2E2E2E2E2E2E2E2E2E2E2E2E2E2E2E2E2E2E2E2E2E2E2E2E2E2E2E2E2E2E2E2E2E2E2E2E2E2E2E2E2E2E2E2E2E2E2E2E2E2E2E2E2E2E2E2E2E2E2E2E2E2E2E2E2E2E2E2E2E2E2E2E2E2E2E2
310
E2E2E2E2E2E2E2E2E2E2E2E2E2E2E2E2E2E2E2E2E2E2E2E2E2E2E2E2E2E2E2E2E2E2E2E2E2E2E2E2E2E2E2E2E2E2E2E2E2E2E2E2E2E2E2E2E2E2E2E2E2E2E2E2E2E2E2E2E2E2E2E2E2E2E2E2E2E2E2E2E2E2E2E2E2E2E2E2E2E2E2E2E2E2E2E2E2E2E2E2E2E2E2E2E2E2E2E2E2E2E2E2E2E2E2E2E2E2E2E2E2E2E2E2E2E2E2
310
E2E2E2E2E2E2E2E2E2E2E2E2E2E2E2E2E2E2E2E2E2E2E2E2E2E2E2E2E2E2E2E2E2E2E2E2E2E2E2E2E2E2E2E2E2E2E2E2E2E2E2E2E2E2E2E2E2E2E2E2E2E2E2E2E2E2E2E2E2E2E2E2E2E2E2E2E2E2E2E2E2E2E2E2E2E2E2E2E2E2E2E2E2E2E2E2E2E2E2E2E2E2E2E2E2E2E2E2E2E2E2E2E2E2E2E2E2E2E2E2E2E2E2E2E2E2E2
310
E2E2E2E2E2E2E2E2E2E2E2E2E2E2E2E2E2E2E2E2E2E2E2E2E2E2E2E2E2E2E2E2E2E2E2E2E2E2E2E2E2E2E2E2E2E2E2E2E2E2E2E2E2E2E2E2E2E2E2E2E2E2E2E2E2E2E2E2E2E2E2E2E2E2E2E2E2E2E2E2E2E2E2E2E2E2E2E2E2E2E2E2E2E2E2E2E2E2E2E2E2E2E2E2E2E2E2E2E2E2E2E2E2E2E2E2E2E2E2E2E2E2E2E2E2E2E2
310
E2E2E2E2E2E2E2E2E2E2E2E2E2E2E2E2E2E2E2E2E2E2E2E2E2E2E2E2E2E2E2E2E2E2E2E2E2E2E2E2E2E2E2E2E2E2E2E2E2E2E2E2E2E2E2E2E2E2E2E2E2E2E2E2E2E2E2E2E2E2E2E2E2E2E2E2E2E2E2E2E2E2E2E2E2E2E2E2E2E2E2E2E2E2E2E2E2E2E2E2E2E2E2E2E2E2E2E2E2E2E2E2E2E2E2E2E2E2E2E2E2E2E2E2E2E2E2
310
E2E2E2E2E2E2E2E2E2E2E2E2E2E2E2E2E2E2E2E2E2E2E2E2E2E2E2E2E2E2E2E2E2E2E2E2E2E2E2E2E2E2E2E2E2E2E2E2E2E2E2E2E2E2E2E2E2E2E2E2E2E2E2E2E2E2E2E2E2E2E2E2E2E2E2E2E2E2E2E2E2E2E2E2E2E2E2E2E2E2E2E2E2E2E2E2E2E2E2E2E2E2E2E2E2E2E2E2E2E2E2E2E2E2E2E2E2E2E2E2E2E2E2E2E2E2E2
310
E2E2E2E2E2E2E2E2E2E2E2E2E2E2E2E2E2E2E2E2E2E2E2E2E2E2E2E2E2E2E2E2E2E2E2E2E2E2E2E2E2E2E2E2E2E2E2E2E2E2E2E2E2E2E2E2E2E2E2E2E2E2E2E2E2E2E2E2E2E2E2E2E2E2E2E2E2E2E2E2E2E2E2E2E2E2E2E2E2E2E2E2E2E2E2E2E2E2E2E2E2E2E2E2E2E2E2E2E2E2E2E2E2E2E2E2E2E2E2E2E2E2E2E2E2E2E2
310
E2E2E2E2E2E2E2E2E2E2E2E2E2E2E2E2E2E2E2E2E2E2E2E2E2E2E2E2E2E2E2E2E2E2E2E2E2E2E2E2E2E2E2E2E2E2E2E2E2E2E2E2E2E2E2E2E2E2E2E2E2E2E2E2E2E2E2E2E2E2E2E2E2E2E2E2E2E2E2E2E2E2E2E2E2E2E2E2E2E2E2E2E2E2E2E2E2E2E2E2E2E2E2E2E2E2E2E2E2E2E2E2E2E2E2E2E2E2E2E2E2E2E2E2E2E2E2
310
E2E2E2E2E2E2E2E2E2E2E2E2E2E2E2E2E2E2E2E2E2E2E2E2E2E2E2E2E2E2E2E2E2E2E2E2E2E2E2E2E2E2E2E2E2E2E2E2E2E2E2E2E2E2E2E2E2E2E2E2E2E2E2E2E2E2E2E2E2E2E2E2E2E2E2E2E2E2E2E2E2E2E2E2E2E2E2E2E2E2E2E2E2E2E2E2E2E2E2E2E2E2E2E2E2E2E2E2E2E2E2E2E2E2E2E2E2E2E2E2E2E2E2E2E2E2E2
310
E2E2E2E2E2E2E2E2E2E2E2E2E2E2E2E2E2E2E2E2E2E2E2E2E2E2E2E2E2E2E2E2E2E2E2E2E2E2E2E2E2E2E2E2E2E2E2E2E2E2E2E2E2E2E2E2E2E2E2E2E2E2E2E2E2E2E2E2E2E2E2E2E2E2E2E2E2E2E2E2E2E2E2E2E2E2E2E2E2E2E2E2E2E2E2E2E2E2E2E2E2E2E2E2E2E2E2E2E2E2E2E2E2E2E2E2E2E2E2E2E2E2E2E2E2E2E2
310
E2E2E2E2E2E2E2E2E2E2E2E2E2E2E2E2E2E2E2E2E2E2E2E2E2E2E2E2E2E2E2E2E2E2E2E2E2E2E2E2E2E2E2E2E2E2E2E2E2E2E2E2E2E2E2E2E2E2E2E2E2E2E2E2E2E2E2E2E2E2E2E2E2E2E2E2E2E2E2E2E2E2E2E2E2E2E2E2E2E2E2E2E2E2E2E2E2E2E2E2E2E2E2E2E2E2E2E2E2E2E2E2E2E2E2E2E2E2E2E2E2E2E2E2E2E2E2
310
E2E2E2E2E2E2E2E2E2E2E2E2E2E2E2E2E2E2E2E2E2E2E2E2E2E2E2E2E2E2E2E2E2E2E2E2E2E2E2E2E2E2E2E2E2E2E2E2E2E2E2E2E2E2E2E2E2E2E2E2E2E2E2E2E2E2E2E2E2E2E2E2E2E2E2E2E2E2E2E2E2E2E2E2E2E2E2E2E2E2E2E2E2E2E2E2E2E2E2E2E2E2E2E2E2E2E2E2E2E2E2E2E2E2E2E2E2E2E2E2E2E2E2E2E2E2E2
310
E2E2E2E2E2E2E2E2E2E2E2E2E2E2E2E2E2E2E2E2E2E2E2E2E2E2E2E2E2E2E2E2E2E2E2E2E2E2E2E2E2E2E2E2E2E2E2E2E2E2E2E2E2E2E2E2E2E2E2E2E2E2E2E2E2E2E2E2E2E2E2E2E2E2E2E2E2E2E2E2E2E2E2E2E2E2E2E2E2E2E2E2E2E2E2E2E2E2E2E2E2E2E2E2E2E2E2E2E2E2E2E2E2E2E2E2E2E2E2E2E2E2E2E2E2E2E2
310
E2E2E2E2E2E2E2E2E2E2E2E2E2E2E2E2E2E2E2E2E2E2E2E2E2E2E2E2E2E2E2E2E2E2E2E2E2E2E2E2E2E2E2E2E2E2E2E2E2E2E2E2E2E2E2E2E2E2E2E2E2E2E2E2E2E2E2E2E2E2E2E2E2E2E2E2E2E2E2E2E2E2E2E2E2E2E2E2E2E2E2E2E2E2E2E2E2E2E2E2E2E2E2E2E2E2E2E2E2E2E2E2E2E2E2E2E2E2E2E2E2E2E2E2E2E2E2
310
E2E2E2E2E2E2E2E2E2E2E2E2E2E2E2E2E2E2E2E2E2E2E2E2E2E2E2E2E2E2E2E2E2E2E2E2E2E2E2E2E2E2E2E2E2E2E2E2E2E2E2E2E2E2E2E2E2E2E2E2E2E2E2E2E2E2E2E2E2E2E2E2E2E2E2E2E2E2E2E2E2E2E2E2E2E2E2E2E2E2E2E2E2E2E2E2E2E2E2E2E2E2E2E2E2E2E2E2E2E2E2E2E2E2E2E2E2E2E2E2E2E2E2E2E2E2E2
310
E2E2E2E2E2E2E2E2E2E2E2E2E2E2E2E2E2E2E2E2E2E2E2E2E2E2E2E2E2E2E2E2E2E2E2E2E2E2E2E2E2E2E2E2E2E2E2E2E2E2E2E2E2E2E2E2E2E2E2E2E2E2E2E2E2E2E2E2E2E2E2E2E2E2E2E2E2E2E2E2E2E2E2E2E2E2E2E2E2E2E2E2E2E2E2E2E2E2E2E2E2E2E2E2E2E2E2E2E2E2E2E2E2E2E2E2E2E2E2E2E2E2E2E2E2E2E2
310
E2E2E2E2E2E2E2E2E2E2E2E2E2E2E2E2E2E2E2E2E2E2E2E2E2E2E2E2E2E2E2E2E2E2E2E2E2E2E2E2E2E2E2E2E2E2E2E2E2E2E2E2E2E2E2E2E2E2E2E2E2E2E2E2E2E2E2E2E2E2E2E2E2E2E2E2E2E2E2E2E2E2E2E2E2E2E2E2E2E2E2E2E2E2E2E2E2E2E2E2E2E2E2E2E2E2E2E2E2E2E2E2E2E2E2E2E2E2E2E2E2E2E2E2E2E2E2
310
E2E2E2E2E2E2E2E2E2E2E2E2E2E2E2E2E2E2E2E2E2E2E2E2E2E2E2E2E2E2E2E2E2E2E2E2E2E2E2E2E2E2E2E2E2E2E2E2E2E2E2E2E2E2E2E2E2E2E2E2E2E2E2E2E2E2E2E2E2E2E2E2E2E2E2E2E2E2E2E2E2E2E2E2E2E2E2E2E2E2E2E2E2E2E2E2E2E2E2E2E2E2E2E2E2E2E2E2E2E2E2E2E2E2E2E2E2E2E2E2E2E2E2E2E2E2E2
310
E2E2E2E2E2E2E2E2E2E2E2E2E2E2E2E2E2E2E2E2E2E2E2E2E2E2E2E2E2E2E2E2E2E2E2E2E2E2E2E2E2E2E2E2E2E2E2E2E2E2E2E2E2E2E2E2E2E2E2E2E2E2E2E2E2E2E2E2E2E2E2E2E2E2E2E2E2E2E2E2E2E2E2E2E2E2E2E2E2E2E2E2E2E2E2E2E2E2E2E2E2E2E2E2E2E2E2E2E2E2E2E2E2E2E2E2E2E2E2E2E2E2E2E2E2E2E2
310
E2E2E2E2E2E2E2E2E2E2E2E2E2E2E2E2E2E2E2E2E2E2E2E2E2E2E2E2E2E2E2E2E2E2E2E2E2E2E2E2E2E2E2E2E2E2E2E2E2E2E2E2E2E2E2E2E2E2E2E2E2E2E2E2E2E2E2E2E2E2E2E2E2E2E2E2E2E2E2E2E2E2E2E2E2E2E2E2E2E2E2E2E2E2E2E2E2E2E2E2E2E2E2E2E2E2E2E2E2E2E2E2E2E2E2E2E2E2E2E2E2E2E2E2E2E2E2
310
E2E2E2E2E2E2E2E2E2E2E2E2E2E2E2E2E2E2E2E2E2E2E2E2E2E2E2E2E2E2E2E2E2E2E2E2E2E2E2E2E2E2E2E2E2E2E2E2E2E2E2E2E2E2E2E2E2E2E2E2E2E2E2E2E2E2E2E2E2E2E2E2E2E2E2E2E2E2E2E2E2E2E2E2E2E2E2E2E2E2E2E2E2E2E2E2E2E2E2E2E2E2E2E2E2E2E2E2E2E2E2E2E2E2E2E2E2E2E2E2E2E2E2E2E2E2E2
310
E2E2E2E2E2E2E2E2E2E2E2E2E2E2E2E2E2E2E2E2E2E2E2E2E2E2E2E2E2E2E2E2E2E2E2E2E2E2E2E2E2E2E2E2E2E2E2E2E2E2E2E2E2E2E2E2E2E2E2E2E2E2E2E2E2E2E2E2E2E2E2E2E2E2E2E2E2E2E2E2E2E2E2E2E2E2E2E2E2E2E2E2E2E2E2E2E2E2E2E2E2E2E2E2E2E2E2E2E2E2E2E2E2E2E2E2E2E2E2E2E2E2E2E2E2E2E2
310
E2E2E2E2E2E2E2E2E2E2E2E2E2E2E2E2E2E2E2E2E2E2E2E2E2E2E2E2E2E2E2E2E2E2E2E2E2E2E2E2E2E2E2E2E2E2E2E2E2E2E2E2E2E2E2E2E2E2E2E2E2E2E2E2E2E2E2E2E2E2E2E2E2E2E2E2E2E2E2E2E2E2E2E2E2E2E2E2E2E2E2E2E2E2E2E2E2E2E2E2E2E2E2E2E2E2E2E2E2E2E2E2E2E2E2E2E2E2E2E2E2E2E2E2E2E2E2
310
E2E2E2E2E2E2E2E2E2E2E2E2E2E2E2E2E2E2E2E2E2E2E2E2E2E2E2E2E2E2E2E2E2E2E2E2E2E2E2E2E2E2E2E2E2E2E2E2E2E2E2E2E2E2E2E2E2E2E2E2E2E2E2E2E2E2E2E2E2E2E2E2E2E2E2E2E2E2E2E2E2E2E2E2E2E2E2E2E2E2E2E2E2E2E2E2E2E2E2E2E2E2E2E2E2E2E2E2E2E2E2E2E2E2E2E2E2E2E2E2E2E2E2E2E2E2E2
310
E2E2E2E2E2E2E2E2E2E2E2E2E2E2E2E2E2E2E2E2E2E2E2E2E2E2E2E2E2E2E2E2E2E2E2E2E2E2E2E2E2E2E2E2E2E2E2E2E2E2E2E2E2E2E2E2E2E2E2E2E2E2E2E2E2E2E2E2E2E2E2E2E2E2E2E2E2E2E2E2E2E2E2E2E2E2E2E2E2E2E2E2E2E2E2E2E2E2E2E2E2E2E2E2E2E2E2E2E2E2E2E2E2E2E2E2E2E2E2E2E2E2E2E2E2E2E2
310
E2E2E2E2E2E2E2E2E2E2E2E2E2E2E2E2E2E2E2E2E2E2E2E2E2E2E2E2E2E2E2E2E2E2E2E2E2E2E2E2E2E2E2E2E2E2E2E2E2E2E2E2E2E2E2E2E2E2E2E2E2E2E2E2E2E2E2E2E2E2E2E2E2E2E2E2E2E2E2E2E2E2E2E2E2E2E2E2E2E2E2E2E2E2E2E2E2E2E2E2E2E2E2E2E2E2E2E2E2E2E2E2E2E2E2E2E2E2E2E2E2E2E2E2E2E2E2
310
E2E2E2E2E2E2E2E2E2E2E2E2E2E2E2E2E2E2E2E2E2E2E2E2E2E2E2E2E2E2E2E2E2E2E2E2E2E2E2E2E2E2E2E2E2E2E2E2E2E2E2E2E2E2E2E2E2E2E2E2E2E2E2E2E2E2E2E2E2E2E2E2E2E2E2E2E2E2E2E2E2E2E2E2E2E2E2E2E2E2E2E2E2E2E2E2E2E2E2E2E2E2E2E2E2E2E2E2E2E2E2E2E2E2E2E2E2E2E2E2E2E2E2E2E2E2E2
310
E2E2E2E2E2E2E2E2E2E2E2E2E2E2E2E2E2E2E2E2E2E2E2E2E2E2E2E2E2E2E2E2E2E2E2E2E2E2E2E2E2E2E2E2E2E2E2E2E2E2E2E2E2E2E2E2E2E2E2E2E2E2E2E2E2E2E2E2E2E2E2E2E2E2E2E2E2E2E2E2E2E2E2E2E2E2E2E2E2E2E2E2E2E2E2E2E2E2E2E2E2E2E2E2E2E2E2E2E2E2E2E2E2E2E2E2E2E2E2E2E2E2E2E2E2E2E2
310
E2E2E2E2E2E2E2E2E2E2E2E2E2E2E2E2E2E2E2E2E2E2E2E2E2E2E2E2E2E2E2E2E2E2E2E2E2E2E2E2E2E2E2E2E2E2E2E2E2E2E2E2E2E2E2E2E2E2E2E2E2E2E2E2E2E2E2E2E2E2E2E2E2E2E2E2E2E2E2E2E2E2E2E2E2E2E2E2E2E2E2E2E2E2E2E2E2E2E2E2E2E2E2E2E2E2E2E2E2E2E2E2E2E2E2E2E2E2E2E2E2E2E2E2E2E2E2
310
E2E2E2E2E2E2E2E2E2E2E2E2E2E2E2E2E2E2E2E2E2E2E2E2E2E2E2E2E2E2E2E2E2E2E2E2E2E2E2E2E2E2E2E2E2E2E2E2E2E2E2E2E2E2E2E2E2E2E2E2E2E2E2E2E2E2E2E2E2E2E2E2E2E2E2E2E2E2E2E2E2E2E2E2E2E2E2E2E2E2E2E2E2E2E2E2E2E2E2E2E2E2E2E2E2E2E2E2E2E2E2E2E2E2E2E2E2E2E2E2E2E2E2E2E2E2E2
310
E2E2E2E2E2E2E2E2E2E2E2E2E2E2E2E2E2E2E2E2E2E2E2E2E2E2E2E2E2E2E2E2E2E2E2E2E2E2E2E2E2E2E2E2E2E2E2E2E2E2E2E2E2E2E2E2E2E2E2E2E2E2E2E2E2E2E2E2E2E2E2E2E2E2E2E2E2E2E2E2E2E2E2E2E2E2E2E2E2E2E2E2E2E2E2E2E2E2E2E2E2E2E2E2E2E2E2E2E2E2E2E2E2E2E2E2E2E2E2E2E2E2E2E2E2E2E2
310
E2E2E2E2E2E2E2E2E2E2E2E2E2E2E2E2E2E2E2E2E2E2E2E2E2E2E2E2E2E2E2E2E2E2E2E2E2E2E2E2E2E2E2E2E2E2E2E2E2E2E2E2E2E2E2E2E2E2E2E2E2E2E2E2E2E2E2E2E2E2E2E2E2E2E2E2E2E2E2E2E2E2E2E2E2E2E2E2E2E2E2E2E2E2E2E2E2E2E2E2E2E2E2E2E2E2E2E2E2E2E2E2E2E2E2E2E2E2E2E2E2E2E2E2E2E2E2
310
E2E2E2E2E2E2E2E2E2E2E2E2E2E2E2E2E2E2E2E2E2E2E2E2E2E2E2E2E2E2E2E2E2E2E2E2E2E2E2E2E2E2E2E2E2E2E2E2E2E2E2E2E2E2E2E2E2E2E2E2E2E2E2E2E2E2E2E2E2E2E2E2E2E2E2E2E2E2E2E2E2E2E2E2E2E2E2E2E2E2E2E2E2E2E2E2E2E2E2E2E2E2E2E2E2E2E2E2E2E2E2E2E2E2E2E2E2E2E2E2E2E2E2E2E2E2E2
310
E2E2E2E2E2E2E2E2E2E2E2E2E2E2E2E2E2E2E2E2E2E2E2E2E2E2E2E2E2E2E2E2E2E2E2E2E2E2E2E2E2E2E2E2E2E2E2E2E2E2E2E2E2E2E2E2E2E2E2E2E2E2E2E2E2E2E2E2E2E2E2E2E2E2E2E2E2E2E2E2E2E2E2E2E2E2E2E2E2E2E2E2E2E2E2E2E2E2E2E2E2E2E2E2E2E2E2E2E2E2E2E2E2E2E2E2E2E2E2E2E2E2E2E2E2E2E2
310
E2E2E2E2E2E2E2E2E2E2E2E2E2E2E2E2E2E2E2E2E2E2E2E2E2E2E2E2E2E2E2E2E2E2E2E2E2E2E2E2E2E2E2E2E2E2E2E2E2E2E2E2E2E2E2E2E2E2E2E2E2E2E2E2E2E2E2E2E2E2E2E2E2E2E2E2E2E2E2E2E2E2E2E2E2E2E2E2E2E2E2E2E2E2E2E2E2E2E2E2E2E2E2E2E2E2E2E2E2E2E2E2E2E2E2E2E2E2E2E2E2E2E2E2E2E2E2
310
E2E2E2E2E2E2E2E2E2E2E2E2E2E2E2E2E2E2E2E2E2E2E2E2E2E2E2E2E2E2E2E2E2E2E2E2E2E2E2E2E2E2E2E2E2E2E2E2E2E2E2E2E2E2E2E2E2E2E2E2E2E2E2E2E2E2E2E2E2E2E2E2E2E2E2E2E2E2E2E2E2E2E2E2E2E2E2E2E2E2E2E2E2E2E2E2E2E2E2E2E2E2E2E2E2E2E2E2E2E2E2E2E2E2E2E2E2E2E2E2E2E2E2E2E2E2E2
310
E2E2E2E2E2E2E2E2E2E2E2E2E2E2E2E2E2E2E2E2E2E2E2E2E2E2E2E2E2E2E2E2E2E2E2E2E2E2E2E2E2E2E2E2E2E2E2E2E2E2E2E2E2E2E2E2E2E2E2E2E2E2E2E2E2E2E2E2E2E2E2E2E2E2E2E2E2E2E2E2E2E2E2E2E2E2E2E2E2E2E2E2E2E2E2E2E2E2E2E2E2E2E2E2E2E2E2E2E2E2E2E2E2E2E2E2E2E2E2E2E2E2E2E2E2E2E2
310
E2E2E2E2E2E2E2E2E2E2E2E2E2E2E2E2E2E2E2E2E2E2E2E2E2E2E2E2E2E2E2E2E2E2E2E2E2E2E2E2E2E2E2E2E2E2E2E2E2E2E2E2E2E2E2E2E2E2E2E2E2E2E2E2E2E2E2E2E2E2E2E2E2E2E2E2E2E2E2E2E2E2E2E2E2E2E2E2E2E2E2E2E2E2E2E2E2E2E2E2E2E2E2E2E2E2E2E2E2E2E2E2E2E2E2E2E2E2E2E2E2E2E2E2E2E2E2
310
E2E2E2E2E2E2E2E2E2E2E2E2E2E2E2E2E2E2E2E2E2E2E2E2E2E2E2E2E2E2E2E2E2E2E2E2E2E2E2E2E2E2E2E2E2E2E2E2E2E2E2E2E2E2E2E2E2E2E2E2E2E2E2E2E2E2E2E2E2E2E2E2E2E2E2E2E2E2E2E2E2E2E2E2E2E2E2E2E2E2E2E2E2E2E2E2E2E2E2E2E2E2E2E2E2E2E2E2E2E2E2E2E2E2E2E2E2E2E2E2E2E2E2E2E2E2E2
310
E2E2E2E2E2E2E2E2E2E2E2E2E2E2E2E2E2E2E2E2E2E2E2E2E2E2E2E2E2E2E2E2E2E2E2E2E2E2E2E2E2E2E2E2E2E2E2E2E2E2E2E2E2E2E2E2E2E2E2E2E2E2E2E2E2E2E2E2E2E2E2E2E2E2E2E2E2E2E2E2E2E2E2E2E2E2E2E2E2E2E2E2E2E2E2E2E2E2E2E2E2E2E2E2E2E2E2E2E2E2E2E2E2E2E2E2E2E2E2E2E2E2E2E2E2E2E2
310
E2E2E2E2E2E2E2E2E2E2E2E2E2E2E2E2E2E2E2E2E2E2E2E2E2E2E2E2E2E2E2E2E2E2E2E2E2E2E2E2E2E2E2E2E2E2E2E2E2E2E2E2E2E2E2E2E2E2E2E2E2E2E2E2E2E2E2E2E2E2E2E2E2E2E2E2E2E2E2E2E2E2E2E2E2E2E2E2E2E2E2E2E2E2E2E2E2E2E2E2E2E2E2E2E2E2E2E2E2E2E2E2E2E2E2E2E2E2E2E2E2E2E2E2E2E2E2
310
E2E2E2E2E2E2E2E2E2E2E2E2E2E2E2E2E2E2E2E2E2E2E2E2E2E2E2E2E2E2E2E2E2E2E2E2E2E2E2E2E2E2E2E2E2E2E2E2E2E2E2E2E2E2E2E2E2E2E2E2E2E2E2E2E2E2E2E2E2E2E2E2E2E2E2E2E2E2E2E2E2E2E2E2E2E2E2E2E2E2E2E2E2E2E2E2E2E2E2E2E2E2E2E2E2E2E2E2E2E2E2E2E2E2E2E2E2E2E2E2E2E2E2E2E2E2E2
310
E2E2E2E2E2E2E2E2E2E2E2E2E2E2E2E2E2E2E2E2E2E2E2E2E2E2E2E2E2E2E2E2E2E2E2E2E2E2E2E2E2E2E2E2E2E2E2E2E2E2E2E2E2E2E2E2E2E2E2E2E2E2E2E2E2E2E2E2E2E2E2E2E2E2E2E2E2E2E2E2E2E2E2E2E2E2E2E2E2E2E2E2E2E2E2E2E2E2E2E2E2E2E2E2E2E2E2E2E2E2E2E2E2E2E2E2E2E2E2E2E2E2E2E2E2E2E2
310
E2E2E2E2E2E2E2E2E2E2E2E2E2E2E2E2E2E2E2E2E2E2E2E2E2E2E2E2E2E2E2E2E2E2E2E2E2E2E2E2E2E2E2E2E2E2E2E2E2E2E2E2E2E2E2E2E2E2E2E2E2E2E2E2E2E2E2E2E2E2E2E2E2E2E2E2E2E2E2E2E2E2E2E2E2E2E2E2E2E2E2E2E2E2E2E2E2E2E2E2E2E2E2E2E2E2E2E2E2E2E2E2E2E2E2E2E2E2E2E2E2E2E2E2E2E2E2
310
E2E2E2E2E2E2E2E2E2E2E2E2E2E2E2E2E2E2E2E2E2E2E2E2E2E2E2E2E2E2E2E2E2E2E2E2E2E2E2E2E2E2E2E2E2E2E2E2E2E2E2E2E2E2E2E2E2E2E2E2E2E2E2E2E2E2E2E2E2E2E2E2E2E2E2E2E2E2E2E2E2E2E2E2E2E2E2E2E2E2E2E2E2E2E2E2E2E2E2E2E2E2E2E2E2E2E2E2E2E2E2E2E2E2E2E2E2E2E2E2E2E2E2E2E2E2E2
310
E2E2E2E2E2E2E2E2E2E2E2E2E2E2E2E2E2E2E2E2E2E2E2E2E2E2E2E2E2E2E2E2E2E2E2E2E2E2E2E2E2E2E2E2E2E2E2E2E2E2E2E2E2E2E2E2E2E2E2E2E2E2E2E2E2E2E2E2E2E2E2E2E2E2E2E2E2E2E2E2E2E2E2E2E2E2E2E2E2E2E2E2E2E2E2E2E2E2E2E2E2E2E2E2E2E2E2E2E2E2E2E2E2E2E2E2E2E2E2E2E2E2E2E2E2E2E2
310
E2E2E2E2E2E2E2E2E2E2E2E2E2E2E2E2E2E2E2E2E2E2E2E2E2E2E2E2E2E2E2E2E2E2E2E2E2E2E2E2E2E2E2E2E2E2E2E2E2E2E2E2E2E2E2E2E2E2E2E2E2E2E2E2E2E2E2E2E2E2E2E2E2E2E2E2E2E2E2E2E2E2E2E2E2E2E2E2E2E2E2E2E2E2E2E2E2E2E2E2E2E2E2E2E2E2E2E2E2E2E2E2E2E2E2E2E2E2E2E2E2E2E2E2E2E2E2
310
E2E2E2E2E2E2E2E2E2E2E2E2E2E2E2E2E2E2E2E2E2E2E2E2E2E2E2E2E2E2E2E2E2E2E2E2E2E2E2E2E2E2E2E2E2E2E2E2E2E2E2E2E2E2E2E2E2E2E2E2E2E2E2E2E2E2E2E2E2E2E2E2E2E2E2E2E2E2E2E2E2E2E2E2E2E2E2E2E2E2E2E2E2E2E2E2E2E2E2E2E2E2E2E2E2E2E2E2E2E2E2E2E2E2E2E2E2E2E2E2E2E2E2E2E2E2E2
310
E2E2E2E2E2E2E2E2E2E2E2E2E2E2E2E2E2E2E2E2E2E2E2E2E2E2E2E2E2E2E2E2E2E2E2E2E2E2E2E2E2E2E2E2E2E2E2E2E2E2E2E2E2E2E2E2E2E2E2E2E2E2E2E2E2E2E2E2E2E2E2E2E2E2E2E2E2E2E2E2E2E2E2E2E2E2E2E2E2E2E2E2E2E2E2E2E2E2E2E2E2E2E2E2E2E2E2E2E2E2E2E2E2E2E2E2E2E2E2E2E2E2E2E2E2E2E2
310
E2E2E2E2E2E2E2E2E2E2E2E2E2E2E2E2E2E2E2E2E2E2E2E2E2E2E2E2E2E2E2E2E2E2E2E2E2E2E2E2E2E2E2E2E2E2E2E2E2E2E2E2E2E2E2E2E2E2E2E2E2E2E2E2E2E2E2E2E2E2E2E2E2E2E2E2E2E2E2E2E2E2E2E2E2E2E2E2E2E2E2E2E2E2E2E2E2E2E2E2E2E2E2E2E2E2E2E2E2E2E2E2E2E2E2E2E2E2E2E2E2E2E2E2E2E2E2
310
E2E2E2E2E2E2E2E2E2E2E2E2E2E2E2E2E2E2E2E2E2E2E2E2E2E2E2E2E2E2E2E2E2E2E2E2E2E2E2E2E2E2E2E2E2E2E2E2E2E2E2E2E2E2E2E2E2E2E2E2E2E2E2E2E2E2E2E2E2E2E2E2E2E2E2E2E2E2E2E2E2E2E2E2E2E2E2E2E2E2E2E2E2E2E2E2E2E2E2E2E2E2E2E2E2E2E2E2E2E2E2E2E2E2E2E2E2E2E2E2E2E2E2E2E2E2E2
310
E2E2E2E2E2E2E2E2E2E2E2E2E2E2E2E2E2E2E2E2E2E2E2E2E2E2E2E2E2E2E2E2E2E2E2E2E2E2E2E2E2E2E2E2E2E2E2E2E2E2E2E2E2E2E2E2E2E2E2E2E2E2E2E2E2E2E2E2E2E2E2E2E2E2E2E2E2E2E2E2E2E2E2E2E2E2E2E2E2E2E2E2E2E2E2E2E2E2E2E2E2E2E2E2E2E2E2E2E2E2E2E2E2E2E2E2E2E2E2E2E2E2E2E2E2E2E2
310
E2E2E2E2E2E2E2E2E2E2E2E2E2E2E2E2E2E2E2E2E2E2E2E2E2E2E2E2E2E2E2E2E2E2E2E2E2E2E2E2E2E2E2E2E2E2E2E2E2E2E2E2E2E2E2E2E2E2E2E2E2E2E2E2E2E2E2E2E2E2E2E2E2E2E2E2E2E2E2E2E2E2E2E2E2E2E2E2E2E2E2E2E2E2E2E2E2E2E2E2E2E2E2E2E2E2E2E2E2E2E2E2E2E2E2E2E2E2E2E2E2E2E2E2E2E2E2
310
E2E2E2E2E2E2E2E2E2E2E2E2E2E2E2E2E2E2E2E2E2E2E2E2E2E2E2E2E2E2E2E2E2E2E2E2E2E2E2E2E2E2E2E2E2E2E2E2E2E2E2E2E2E2E2E2E2E2E2E2E2E2E2E2E2E2E2E2E2E2E2E2E2E2E2E2E2E2E2E2E2E2E2E2E2E2E2E2E2E2E2E2E2E2E2E2E2E2E2E2E2E2E2E2E2E2E2E2E2E2E2E2E2E2E2E2E2E2E2E2E2E2E2E2E2E2E2
310
E2E2E2E2E2E2E2E2E2E2E2E2E2E2E2E2E2E2E2E2E2E2E2E2E2E2E2E2E2E2E2E2E2E2E2E2E2E2E2E2E2E2E2E2E2E2E2E2E2E2E2E2E2E2E2E2E2E2E2E2E2E2E2E2E2E2E2E2E2E2E2E2E2E2E2E2E2E2E2E2E2E2E2E2E2E2E2E2E2E2E2E2E2E2E2E2E2E2E2E2E2E2E2E2E2E2E2E2E2E2E2E2E2E2E2E2E2E2E2E2E2E2E2E2E2E2E2
310
E2E2E2E2E2E2E2E2E2E2E2E2E2E2E2E2E2E2E2E2E2E2E2E2E2E2E2E2E2E2E2E2E2E2E2E2E2E2E2E2E2E2E2E2E2E2E2E2E2E2E2E2E2E2E2E2E2E2E2E2E2E2E2E2E2E2E2E2E2E2E2E2E2E2E2E2E2E2E2E2E2E2E2E2E2E2E2E2E2E2E2E2E2E2E2E2E2E2E2E2E2E2E2E2E2E2E2E2E2E2E2E2E2E2E2E2E2E2E2E2E2E2E2E2E2E2E2
310
E2E2E2E2E2E2E2E2E2E2E2E2E2E2E2E2E2E2E2E2E2E2E2E2E2E2E2E2E2E2E2E2E2E2E2E2E2E2E2E2E2E2E2E2E2E2E2E2E2E2E2E2E2E2E2E2E2E2E2E2E2E2E2E2E2E2E2E2E2E2E2E2E2E2E2E2E2E2E2E2E2E2E2E2E2E2E2E2E2E2E2E2E2E2E2E2E2E2E2E2E2E2E2E2E2E2E2E2E2E2E2E2E2E2E2E2E2E2E2E2E2E2E2E2E2E2E2
310
E2E2E2E2E2E2E2E2E2E2E2E2E2E2E2E2E2E2E2E2E2E2E2E2E2E2E2E2E2E2E2E2E2E2E2E2E2E2E2E2E2E2E2E2E2E2E2E2E2E2E2E2E2E2E2E2E2E2E2E2E2E2E2E2E2E2E2E2E2E2E2E2E2E2E2E2E2E2E2E2E2E2E2E2E2E2E2E2E2E2E2E2E2E2E2E2E2E2E2E2E2E2E2E2E2E2E2E2E2E2E2E2E2E2E2E2E2E2E2E2E2E2E2E2E2E2E2
310
E2E2E2E2E2E2E2E2E2E2E2E2E2E2E2E2E2E2E2E2E2E2E2E2E2E2E2E2E2E2E2E2E2E2E2E2E2E2E2E2E2E2E2E2E2E2E2E2E2E2E2E2E2E2E2E2E2E2E2E2E2E2E2E2E2E2E2E2E2E2E2E2E2E2E2E2E2E2E2E2E2E2E2E2E2E2E2E2E2E2E2E2E2E2E2E2E2E2E2E2E2E2E2E2E2E2E2E2E2E2E2E2E2E2E2E2E2E2E2E2E2E2E2E2E2E2E2
310
E2E2E2E2E2E2E2E2E2E2E2E2E2E2E2E2E2E2E2E2E2E2E2E2E2E2E2E2E2E2E2E2E2E2E2E2E2E2E2E2E2E2E2E2E2E2E2E2E2E2E2E2E2E2E2E2E2E2E2E2E2E2E2E2E2E2E2E2E2E2E2E2E2E2E2E2E2E2E2E2E2E2E2E2E2E2E2E2E2E2E2E2E2E2E2E2E2E2E2E2E2E2E2E2E2E2E2E2E2E2E2E2E2E2E2E2E2E2E2E2E2E2E2E2E2E2E2
310
E2E2E2E2E2E2E2E2E2E2E2E2E2E2E2E2E2E2E2E2E2E2E2E2E2E2E2E2E2E2E2E2E2E2E2E2E2E2E2E2E2E2E2E2E2E2E2E2E2E2E2E2E2E2E2E2E2E2E2E2E2E2E2E2E2E2E2E2E2E2E2E2E2E2E2E2E2E2E2E2E2E2E2E2E2E2E2E2E2E2E2E2E2E2E2E2E2E2E2E2E2E2E2E2E2E2E2E2E2E2E2E2E2E2E2E2E2E2E2E2E2E2E2E2E2E2E2
310
E2E2E2E2E2E2E2E2E2E2E2E2E2E2E2E2E2E2E2E2E2E2E2E2E2E2E2E2E2E2E2E2E2E2E2E2E2E2E2E2E2E2E2E2E2E2E2E2E2E2E2E2E2E2E2E2E2E2E2E2E2E2E2E2E2E2E2E2E2E2E2E2E2E2E2E2E2E2E2E2E2E2E2E2E2E2E2E2E2E2E2E2E2E2E2E2E2E2E2E2E2E2E2E2E2E2E2E2E2E2E2E2E2E2E2E2E2E2E2E2E2E2E2E2E2E2E2
310
E2E2E2E2E2E2E2E2E2E2E2E2E2E2E2E2E2E2E2E2E2E2E2E2E2E2E2E2E2E2E2E2E2E2E2E2E2E2E2E2E2E2E2E2E2E2E2E2E2E2E2E2E2E2E2E2E2E2E2E2E2E2E2E2E2E2E2E2E2E2E2E2E2E2E2E2E2E2E2E2E2E2E2E2E2E2E2E2E2E2E2E2E2E2E2E2E2E2E2E2E2E2E2E2E2E2E2E2E2E2E2E2E2E2E2E2E2E2E2E2E2E2E2E2E2E2E2
310
E2E2E2E2E2E2E2E2E2E2E2E2E2E2E2E2E2E2E2E2E2E2E2E2E2E2E2E2E2E2E2E2E2E2E2E2E2E2E2E2E2E2E2E2E2E2E2E2E2E2E2E2E2E2E2E2E2E2E2E2E2E2E2E2E2E2E2E2E2E2E2E2E2E2E2E2E2E2E2E2E2E2E2E2E2E2E2E2E2E2E2E2E2E2E2E2E2E2E2E2E2E2E2E2E2E2E2E2E2E2E2E2E2E2E2E2E2E2E2E2E2E2E2E2E2E2E2
310
E2E2E2E2E2E2E2E2E2E2E2E2E2E2E2E2E2E2E2E2E2E2E2E2E2E2E2E2E2E2E2E2E2E2E2E2E2E2E2E2E2E2E2E2E2E2E2E2E2E2E2E2E2E2E2E2E2E2E2E2E2E2E2E2E2E2E2E2E2E2E2E2E2E2E2E2E2E2E2E2E2E2E2E2E2E2E2E2E2E2E2E2E2E2E2E2E2E2E2E2E2E2E2E2E2E2E2E2E2E2E2E2E2E2E2E2E2E2E2E2E2E2E2E2E2E2E2
310
E2E2E2E2E2E2E2E2E2E2E2E2E2E2E2E2E2E2E2E2E2E2E2E2E2E2E2E2E2E2E2E2E2E2E2E2E2E2E2E2E2E2E2E2E2E2E2E2E2E2E2E2E2E2E2E2E2E2E2E2E2E2E2E2E2E2E2E2E2E2E2E2E2E2E2E2E2E2E2E2E2E2E2E2E2E2E2E2E2E2E2E2E2E2E2E2E2E2E2E2E2E2E2E2E2E2E2E2E2E2E2E2E2E2E2E2E2E2E2E2E2E2E2E2E2E2E2
310
E2E2E2E2E2E2E2E2E2E2E2E2E2E2E2E2E2E2E2E2E2E2E2E2E2E2E2E2E2E2E2E2E2E2E2E2E2E2E2E2E2E2E2E2E2E2E2E2E2E2E2E2E2E2E2E2E2E2E2E2E2E2E2E2E2E2E2E2E2E2E2E2E2E2E2E2E2E2E2E2E2E2E2E2E2E2E2E2E2E2E2E2E2E2E2E2E2E2E2E2E2E2E2E2E2E2E2E2E2E2E2E2E2E2E2E2E2E2E2E2E2E2E2E2E2E2E2
310
E2E2E2E2E2E2E2E2E2E2E2E2E2E2E2E2E2E2E2E2E2E2E2E2E2E2E2E2E2E2E2E2E2E2E2E2E2E2E2E2E2E2E2E2E2E2E2E2E2E2E2E2E2E2E2E2E2E2E2E2E2E2E2E2E2E2E2E2E2E2E2E2E2E2E2E2E2E2E2E2E2E2E2E2E2E2E2E2E2E2E2E2E2E2E2E2E2E2E2E2E2E2E2E2E2E2E2E2E2E2E2E2E2E2E2E2E2E2E2E2E2E2E2E2E2E2E2
310
E2E2E2E2E2E2E2E2E2E2E2E2E2E2E2E2E2E2E2E2E2E2E2E2E2E2E2E2E2E2E2E2E2E2E2E2E2E2E2E2E2E2E2E2E2E2E2E2E2E2E2E2E2E2E2E2E2E2E2E2E2E2E2E2E2E2E2E2E2E2E2E2E2E2E2E2E2E2E2E2E2E2E2E2E2E2E2E2E2E2E2E2E2E2E2E2E2E2E2E2E2E2E2E2E2E2E2E2E2E2E2E2E2E2E2E2E2E2E2E2E2E2E2E2E2E2E2
310
E2E2E2E2E2E2E2E2E2E2E2E2E2E2E2E2E2E2E2E2E2E2E2E2E2E2E2E2E2E2E2E2E2E2E2E2E2E2E2E2E2E2E2E2E2E2E2E2E2E2E2E2E2E2E2E2E2E2E2E2E2E2E2E2E2E2E2E2E2E2E2E2E2E2E2E2E2E2E2E2E2E2E2E2E2E2E2E2E2E2E2E2E2E2E2E2E2E2E2E2E2E2E2E2E2E2E2E2E2E2E2E2E2E2E2E2E2E2E2E2E2E2E2E2E2E2E2
310
E2E2E2E2E2E2E2E2E2E2E2E2E2E2E2E2E2E2E2E2E2E2E2E2E2E2E2E2E2E2E2E2E2E2E2E2E2E2E2E2E2E2E2E2E2E2E2E2E2E2E2E2E2E2E2E2E2E2E2E2E2E2E2E2E2E2E2E2E2E2E2E2E2E2E2E2E2E2E2E2E2E2E2E2E2E2E2E2E2E2E2E2E2E2E2E2E2E2E2E2E2E2E2E2E2E2E2E2E2E2E2E2E2E2E2E2E2E2E2E2E2E2E2E2E2E2E2
310
E2E2E2E2E2E2E2E2E2E2E2E2E2E2E2E2E2E2E2E2E2E2E2E2E2E2E2E2E2E2E2E2E2E2E2E2E2E2E2E2E2E2E2E2E2E2E2E2E2E2E2E2E2E2E2E2E2E2E2E2E2E2E2E2E2E2E2E2E2E2E2E2E2E2E2E2E2E2E2E2E2E2E2E2E2E2E2E2E2E2E2E2E2E2E2E2E2E2E2E2E2E2E2E2E2E2E2E2E2E2E2E2E2E2E2E2E2E2E2E2E2E2E2E2E2E2E2
310
E2E2E2E2E2E2E2E2E2E2E2E2E2E2E2E2E2E2E2E2E2E2E2E2E2E2E2E2E2E2E2E2E2E2E2E2E2E2E2E2E2E2E2E2E2E2E2E2E2E2E2E2E2E2E2E2E2E2E2E2E2E2E2E2E2E2E2E2E2E2E2E2E2E2E2E2E2E2E2E2E2E2E2E2E2E2E2E2E2E2E2E2E2E2E2E2E2E2E2E2E2E2E2E2E2E2E2E2E2E2E2E2E2E2E2E2E2E2E2E2E2E2E2E2E2E2E2
310
E2E2E2E2E2E2E2E2E2E2E2E2E2E2E2E2E2E2E2E2E2E2E2E2E2E2E2E2E2E2E2E2E2E2E2E2E2E2E2E2E2E2E2E2E2E2E2E2E2E2E2E2E2E2E2E2E2E2E2E2E2E2E2E2E2E2E2E2E2E2E2E2E2E2E2E2E2E2E2E2E2E2E2E2E2E2E2E2E2E2E2E2E2E2E2E2E2E2E2E2E2E2E2E2E2E2E2E2E2E2E2E2E2E2E2E2E2E2E2E2E2E2E2E2E2E2E2
310
E2E2E2E2E2E2E2E2E2E2E2E2E2E2E2E2E2E2E2E2E2E2E2E2E2E2E2E2E2E2E2E2E2E2E2E2E2E2E2E2E2E2E2E2E2E2E2E2E2E2E2E2E2E2E2E2E2E2E2E2E2E2E2E2E2E2E2E2E2E2E2E2E2E2E2E2E2E2E2E2E2E2E2E2E2E2E2E2E2E2E2E2E2E2E2E2E2E2E2E2E2E2E2E2E2E2E2E2E2E2E2E2E2E2E2E2E2E2E2E2E2E2E2E2E2E2E2
310
E2E2E2E2E2E2E2E2E2E2E2E2E2E2E2E2E2E2E2E2E2E2E2E2E2E2E2E2E2E2E2E2E2E2E2E2E2E2E2E2E2E2E2E2E2E2E2E2E2E2E2E2E2E2E2E2E2E2E2E2E2E2E2E2E2E2E2E2E2E2E2E2E2E2E2E2E2E2E2E2E2E2E2E2E2E2E2E2E2E2E2E2E2E2E2E2E2E2E2E2E2E2E2E2E2E2E2E2E2E2E2E2E2E2E2E2E2E2E2E2E2E2E2E2E2E2E2
310
E2E2E2E2E2E2E2E2E2E2E2E2E2E2E2E2E2E2E2E2E2E2E2E2E2E2E2E2E2E2E2E2E2E2E2E2E2E2E2E2E2E2E2E2E2E2E2E2E2E2E2E2E2E2E2E2E2E2E2E2E2E2E2E2E2E2E2E2E2E2E2E2E2E2E2E2E2E2E2E2E2E2E2E2E2E2E2E2E2E2E2E2E2E2E2E2E2E2E2E2E2E2E2E2E2E2E2E2E2E2E2E2E2E2E2E2E2E2E2E2E2E2E2E2E2E2E2
310
E2E2E2E2E2E2E2E2E2E2E2E2E2E2E2E2E2E2E2E2E2E2E2E2E2E2E2E2E2E2E2E2E2E2E2E2E2E2E2E2E2E2E2E2E2E2E2E2E2E2E2E2E2E2E2E2E2E2E2E2E2E2E2E2E2E2E2E2E2E2E2E2E2E2E2E2E2E2E2E2E2E2E2E2E2E2E2E2E2E2E2E2E2E2E2E2E2E2E2E2E2E2E2E2E2E2E2E2E2E2E2E2E2E2E2E2E2E2E2E2E2E2E2E2E2E2E2
310
E2E2E2E2E2E2E2E2E2E2E2E2E2E2E2E2E2E2E2E2E2E2E2E2E2E2E2E2E2E2E2E2E2E2E2E2E2E2E2E2E2E2E2E2E2E2E2E2E2E2E2E2E2E2E2E2E2E2E2E2E2E2E2E2E2E2E2E2E2E2E2E2E2E2E2E2E2E2E2E2E2E2E2E2E2E2E2E2E2E2E2E2E2E2E2E2E2E2E2E2E2E2E2E2E2E2E2E2E2E2E2E2E2E2E2E2E2E2E2E2E2E2E2E2E2E2E2
310
E2E2E2E2E2E2E2E2E2E2E2E2E2E2E2E2E2E2E2E2E2E2E2E2E2E2E2E2E2E2E2E2E2E2E2E2E2E2E2E2E2E2E2E2E2E2E2E2E2E2E2E2E2E2E2E2E2E2E2E2E2E2E2E2E2E2E2E2E2E2E2E2E2E2E2E2E2E2E2E2E2E2E2E2E2E2E2E2E2E2E2E2E2E2E2E2E2E2E2E2E2E2E2E2E2E2E2E2E2E2E2E2E2E2E2E2E2E2E2E2E2E2E2E2E2E2E2
310
E2E2E2E2E2E2E2E2E2E2E2E2E2E2E2E2E2E2E2E2E2E2E2E2E2E2E2E2E2E2E2E2E2E2E2E2E2E2E2E2E2E2E2E2E2E2E2E2E2E2E2E2E2E2E2E2E2E2E2E2E2E2E2E2E2E2E2E2E2E2E2E2E2E2E2E2E2E2E2E2E2E2E2E2E2E2E2E2E2E2E2E2E2E2E2E2E2E2E2E2E2E2E2E2E2E2E2E2E2E2E2E2E2E2E2E2E2E2E2E2E2E2E2E2E2E2E2
310
E2E2E2E2E2E2E2E2E2E2E2E2E2E2E2E2E2E2E2E2E2E2E2E2E2E2E2E2E2E2E2E2E2E2E2E2E2E2E2E2E2E2E2E2E2E2E2E2E2E2E2E2E2E2E2E2E2E2E2E2E2E2E2E2E2E2E2E2E2E2E2E2E2E2E2E2E2E2E2E2E2E2E2E2E2E2E2E2E2E2E2E2E2E2E2E2E2E2E2E2E2E2E2E2E2E2E2E2E2E2E2E2E2E2E2E2E2E2E2E2E2E2E2E2E2E2E2
310
E2E2E2E2E2E2E2E2E2E2E2E2E2E2E2E2E2E2E2E2E2E2E2E2E2E2E2E2E2E2E2E2E2E2E2E2E2E2E2E2E2E2E2E2E2E2E2E2E2E2E2E2E2E2E2E2E2E2E2E2E2E2E2E2E2E2E2E2E2E2E2E2E2E2E2E2E2E2E2E2E2E2E2E2E2E2E2E2E2E2E2E2E2E2E2E2E2E2E2E2E2E2E2E2E2E2E2E2E2E2E2E2E2E2E2E2E2E2E2E2E2E2E2E2E2E2E2
310
E2E2E2E2E2E2E2E2E2E2E2E2E2E2E2E2E2E2E2E2E2E2E2E2E2E2E2E2E2E2E2E2E2E2E2E2E2E2E2E2E2E2E2E2E2E2E2E2E2E2E2E2E2E2E2E2E2E2E2E2E2E2E2E2E2E2E2E2E2E2E2E2E2E2E2E2E2E2E2E2E2E2E2E2E2E2E2E2E2E2E2E2E2E2E2E2E2E2E2E2E2E2E2E2E2E2E2E2E2E2E2E2E2E2E2E2E2E2E2E2E2E2E2E2E2E2E2
310
E2E2E2E2E2E2E2E2E2E2E2E2E2E2E2E2E2E2E2E2E2E2E2E2E2E2E2E2E2E2E2E2E2E2E2E2E2E2E2E2E2E2E2E2E2E2E2E2E2E2E2E2E2E2E2E2E2E2E2E2E2E2E2E2E2E2E2E2E2E2E2E2E2E2E2E2E2E2E2E2E2E2E2E2E2E2E2E2E2E2E2E2E2E2E2E2E2E2E2E2E2E2E2E2E2E2E2E2E2E2E2E2E2E2E2E2E2E2E2E2E2E2E2E2E2E2E2
310
E2E2E2E2E2E2E2E2E2E2E2E2E2E2E2E2E2E2E2E2E2E2E2E2E2E2E2E2E2E2E2E2E2E2E2E2E2E2E2E2E2E2E2E2E2E2E2E2E2E2E2E2E2E2E2E2E2E2E2E2E2E2E2E2E2E2E2E2E2E2E2E2E2E2E2E2E2E2E2E2E2E2E2E2E2E2E2E2E2E2E2E2E2E2E2E2E2E2E2E2E2E2E2E2E2E2E2E2E2E2E2E2E2E2E2E2E2E2E2E2E2E2E2E2E2E2E2
310
E2E2E2E2E2E2E2E2E2E2E2E2E2E2E2E2E2E2E2E2E2E2E2E2E2E2E2E2E2E2E2E2E2E2E2E2E2E2E2E2E2E2E2E2E2E2E2E2E2E2E2E2E2E2E2E2E2E2E2E2E2E2E2E2E2E2E2E2E2E2E2E2E2E2E2E2E2E2E2E2E2E2E2E2E2E2E2E2E2E2E2E2E2E2E2E2E2E2E2E2E2E2E2E2E2E2E2E2E2E2E2E2E2E2E2E2E2E2E2E2E2E2E2E2E2E2E2
310
E2E2E2E2E2E2E2E2E2E2E2E2E2E2E2E2E2E2E2E2E2E2E2E2E2E2E2E2E2E2E2E2E2E2E2E2E2E2E2E2E2E2E2E2E2E2E2E2E2E2E2E2E2E2E2E2E2E2E2E2E2E2E2E2E2E2E2E2E2E2E2E2E2E2E2E2E2E2E2E2E2E2E2E2E2E2E2E2E2E2E2E2E2E2E2E2E2E2E2E2E2E2E2E2E2E2E2E2E2E2E2E2E2E2E2E2E2E2E2E2E2E2E2E2E2E2E2
310
E2E2E2E2E2E2E2E2E2E2E2E2E2E2E2E2E2E2E2E2E2E2E2E2E2E2E2E2E2E2E2E2E2E2E2E2E2E2E2E2E2E2E2E2E2E2E2E2E2E2E2E2E2E2E2E2E2E2E2E2E2E2E2E2E2E2E2E2E2E2E2E2E2E2E2E2E2E2E2E2E2E2E2E2E2E2E2E2E2E2E2E2E2E2E2E2E2E2E2E2E2E2E2E2E2E2E2E2E2E2E2E2E2E2E2E2E2E2E2E2E2E2E2E2E2E2E2
310
E2E2E2E2E2E2E2E2E2E2E2E2E2E2E2E2E2E2E2E2E2E2E2E2E2E2E2E2E2E2E2E2E2E2E2E2E2E2E2E2E2E2E2E2E2E2E2E2E2E2E2E2E2E2E2E2E2E2E2E2E2E2E2E2E2E2E2E2E2E2E2E2E2E2E2E2E2E2E2E2E2E2E2E2E2E2E2E2E2E2E2E2E2E2E2E2E2E2E2E2E2E2E2E2E2E2E2E2E2E2E2E2E2E2E2E2E2E2E2E2E2E2E2E2E2E2E2
310
E2E2E2E2E2E2E2E2E2E2E2E2E2E2E2E2E2E2E2E2E2E2E2E2E2E2E2E2E2E2E2E2E2E2E2E2E2E2E2E2E2E2E2E2E2E2E2E2E2E2E2E2E2E2E2E2E2E2E2E2E2E2E2E2E2E2E2E2E2E2E2E2E2E2E2E2E2E2E2E2E2E2E2E2E2E2E2E2E2E2E2E2E2E2E2E2E2E2E2E2E2E2E2E2E2E2E2E2E2E2E2E2E2E2E2E2E2E2E2E2E2E2E2E2E2E2E2
310
E2E2E2E2E2E2E2E2E2E2E2E2E2E2E2E2E2E2E2E2E2E2E2E2E2E2E2E2E2E2E2E2E2E2E2E2E2E2E2E2E2E2E2E2E2E2E2E2E2E2E2E2E2E2E2E2E2E2E2E2E2E2E2E2E2E2E2E2E2E2E2E2E2E2E2E2E2E2E2E2E2E2E2E2E2E2E2E2E2E2E2E2E2E2E2E2E2E2E2E2E2E2E2E2E2E2E2E2E2E2E2E2E2E2E2E2E2E2E2E2E2E2E2E2E2E2E2
310
E2E2E2E2E2E2E2E2E2E2E2E2E2E2E2E2E2E2E2E2E2E2E2E2E2E2E2E2E2E2E2E2E2E2E2E2E2E2E2E2E2E2E2E2E2E2E2E2E2E2E2E2E2E2E2E2E2E2E2E2E2E2E2E2E2E2E2E2E2E2E2E2E2E2E2E2E2E2E2E2E2E2E2E2E2E2E2E2E2E2E2E2E2E2E2E2E2E2E2E2E2E2E2E2E2E2E2E2E2E2E2E2E2E2E2E2E2E2E2E2E2E2E2E2E2E2E2
310
E2E2E2E2E2E2E2E2E2E2E2E2E2E2E2E2E2E2E2E2E2E2E2E2E2E2E2E2E2E2E2E2E2E2E2E2E2E2E2E2E2E2E2E2E2E2E2E2E2E2E2E2E2E2E2E2E2E2E2E2E2E2E2E2E2E2E2E2E2E2E2E2E2E2E2E2E2E2E2E2E2E2E2E2E2E2E2E2E2E2E2E2E2E2E2E2E2E2E2E2E2E2E2E2E2E2E2E2E2E2E2E2E2E2E2E2E2E2E2E2E2E2E2E2E2E2E2
310
E2E2E2E2E2E2E2E2E2E2E2E2E2E2E2E2E2E2E2E2E2E2E2E2E2E2E2E2E2E2E2E2E2E2E2E2E2E2E2E2E2E2E2E2E2E2E2E2E2E2E2E2E2E2E2E2E2E2E2E2E2E2E2E2E2E2E2E2E2E2E2E2E2E2E2E2E2E2E2E2E2E2E2E2E2E2E2E2E2E2E2E2E2E2E2E2E2E2E2E2E2E2E2E2E2E2E2E2E2E2E2E2E2E2E2E2E2E2E2E2E2E2E2E2E2E2E2
310
E2E2E2E2E2E2E2E2E2E2E2E2E2E2E2E2E2E2E2E2E2E2E2E2E2E2E2E2E2E2E2E2E2E2E2E2E2E2E2E2E2E2E2E2E2E2E2E2E2E2E2E2E2E2E2E2E2E2E2E2E2E2E2E2E2E2E2E2E2E2E2E2E2E2E2E2E2E2E2E2E2E2E2E2E2E2E2E2E2E2E2E2E2E2E2E2E2E2E2E2E2E2E2E2E2E2E2E2E2E2E2E2E2E2E2E2E2E2E2E2E2E2E2E2E2E2E2
310
E2E2E2E2E2E2E2E2E2E2E2E2E2E2E2E2E2E2E2E2E2E2E2E2E2E2E2E2E2E2E2E2E2E2E2E2E2E2E2E2E2E2E2E2E2E2E2E2E2E2E2E2E2E2E2E2E2E2E2E2E2E2E2E2E2E2E2E2E2E2E2E2E2E2E2E2E2E2E2E2E2E2E2E2E2E2E2E2E2E2E2E2E2E2E2E2E2E2E2E2E2E2E2E2E2E2E2E2E2E2E2E2E2E2E2E2E2E2E2E2E2E2E2E2E2E2E2
310
E2E2E2E2E2E2E2E2E2E2E2E2E2E2E2E2E2E2E2E2E2E2E2E2E2E2E2E2E2E2E2E2E2E2E2E2E2E2E2E2E2E2E2E2E2E2E2E2E2E2E2E2E2E2E2E2E2E2E2E2E2E2E2E2E2E2E2E2E2E2E2E2E2E2E2E2E2E2E2E2E2E2E2E2E2E2E2E2E2E2E2E2E2E2E2E2E2E2E2E2E2E2E2E2E2E2E2E2E2E2E2E2E2E2E2E2E2E2E2E2E2E2E2E2E2E2E2
310
E2E2E2E2E2E2E2E2E2E2E2E2E2E2E2E2E2E2E2E2E2E2E2E2E2E2E2E2E2E2E2E2E2E2E2E2E2E2E2E2E2E2E2E2E2E2E2E2E2E2E2E2E2E2E2E2E2E2E2E2E2E2E2E2E2E2E2E2E2E2E2E2E2E2E2E2E2E2E2E2E2E2E2E2E2E2E2E2E2E2E2E2E2E2E2E2E2E2E2E2E2E2E2E2E2E2E2E2E2E2E2E2E2E2E2E2E2E2E2E2E2E2E2E2E2E2E2
310
E2E2E2E2E2E2E2E2E2E2E2E2E2E2E2E2E2E2E2E2E2E2E2E2E2E2E2E2E2E2E2E2E2E2E2E2E2E2E2E2E2E2E2E2E2E2E2E2E2E2E2E2E2E2E2E2E2E2E2E2E2E2E2E2E2E2E2E2E2E2E2E2E2E2E2E2E2E2E2E2E2E2E2E2E2E2E2E2E2E2E2E2E2E2E2E2E2E2E2E2E2E2E2E2E2E2E2E2E2E2E2E2E2E2E2E2E2E2E2E2E2E2E2E2E2E2E2
310
E2E2E2E2E2E2E2E2E2E2E2E2E2E2E2E2E2E2E2E2E2E2E2E2E2E2E2E2E2E2E2E2E2E2E2E2E2E2E2E2E2E2E2E2E2E2E2E2E2E2E2E2E2E2E2E2E2E2E2E2E2E2E2E2E2E2E2E2E2E2E2E2E2E2E2E2E2E2E2E2E2E2E2E2E2E2E2E2E2E2E2E2E2E2E2E2E2E2E2E2E2E2E2E2E2E2E2E2E2E2E2E2E2E2E2E2E2E2E2E2E2E2E2E2E2E2E2
310
E2E2E2E2E2E2E2E2E2E2E2E2E2E2E2E2E2E2E2E2E2E2E2E2E2E2E2E2E2E2E2E2E2E2E2E2E2E2E2E2E2E2E2E2E2E2E2E2E2E2E2E2E2E2E2E2E2E2E2E2E2E2E2E2E2E2E2E2E2E2E2E2E2E2E2E2E2E2E2E2E2E2E2E2E2E2E2E2E2E2E2E2E2E2E2E2E2E2E2E2E2E2E2E2E2E2E2E2E2E2E2E2E2E2E2E2E2E2E2E2E2E2E2E2E2E2E2
310
E2E2E2E2E2E2E2E2E2E2E2E2E2E2E2E2E2E2E2E2E2E2E2E2E2E2E2E2E2E2E2E2E2E2E2E2E2E2E2E2E2E2E2E2E2E2E2E2E2E2E2E2E2E2E2E2E2E2E2E2E2E2E2E2E2E2E2E2E2E2E2E2E2E2E2E2E2E2E2E2E2E2E2E2E2E2E2E2E2E2E2E2E2E2E2E2E2E2E2E2E2E2E2E2E2E2E2E2E2E2E2E2E2E2E2E2E2E2E2E2E2E2E2E2E2E2E2
310
E2E2E2E2E2E2E2E2E2E2E2E2E2E2E2E2E2E2E2E2E2E2E2E2E2E2E2E2E2E2E2E2E2E2E2E2E2E2E2E2E2E2E2E2E2E2E2E2E2E2E2E2E2E2E2E2E2E2E2E2E2E2E2E2E2E2E2E2E2E2E2E2E2E2E2E2E2E2E2E2E2E2E2E2E2E2E2E2E2E2E2E2E2E2E2E2E2E2E2E2E2E2E2E2E2E2E2E2E2E2E2E2E2E2E2E2E2E2E2E2E2E2E2E2E2E2E2
310
E2E2E2E2E2E2E2E2E2E2E2E2E2E2E2E2E2E2E2E2E2E2E2E2E2E2E2E2E2E2E2E2E2E2E2E2E2E2E2E2E2E2E2E2E2E2E2E2E2E2E2E2E2E2E2E2E2E2E2E2E2E2E2E2E2E2E2E2E2E2E2E2E2E2E2E2E2E2E2E2E2E2E2E2E2E2E2E2E2E2E2E2E2E2E2E2E2E2E2E2E2E2E2E2E2E2E2E2E2E2E2E2E2E2E2E2E2E2E2E2E2E2E2E2E2E2E2
310
E2E2E2E2E2E2E2E2E2E2E2E2E2E2E2E2E2E2E2E2E2E2E2E2E2E2E2E2E2E2E2E2E2E2E2E2E2E2E2E2E2E2E2E2E2E2E2E2E2E2E2E2E2E2E2E2E2E2E2E2E2E2E2E2E2E2E2E2E2E2E2E2E2E2E2E2E2E2E2E2E2E2E2E2E2E2E2E2E2E2E2E2E2E2E2E2E2E2E2E2E2E2E2E2E2E2E2E2E2E2E2E2E2E2E2E2E2E2E2E2E2E2E2E2E2E2E2
310
E2E2E2E2E2E2E2E2E2E2E2E2E2E2E2E2E2E2E2E2E2E2E2E2E2E2E2E2E2E2E2E2E2E2E2E2E2E2E2E2E2E2E2E2E2E2E2E2E2E2E2E2E2E2E2E2E2E2E2E2E2E2E2E2E2E2E2E2E2E2E2E2E2E2E2E2E2E2E2E2E2E2E2E2E2E2E2E2E2E2E2E2E2E2E2E2E2E2E2E2E2E2E2E2E2E2E2E2E2E2E2E2E2E2E2E2E2E2E2E2E2E2E2E2E2E2E2
310
E2E2E2E2E2E2E2E2E2E2E2E2E2E2E2E2E2E2E2E2E2E2E2E2E2E2E2E2E2E2E2E2E2E2E2E2E2E2E2E2E2E2E2E2E2E2E2E2E2E2E2E2E2E2E2E2E2E2E2E2E2E2E2E2E2E2E2E2E2E2E2E2E2E2E2E2E2E2E2E2E2E2E2E2E2E2E2E2E2E2E2E2E2E2E2E2E2E2E2E2E2E2E2E2E2E2E2E2E2E2E2E2E2E2E2E2E2E2E2E2E2E2E2E2E2E2E2
310
E2E2E2E2E2E2E2E2E2E2E2E2E2E2E2E2E2E2E2E2E2E2E2E2E2E2E2E2E2E2E2E2E2E2E2E2E2E2E2E2E2E2E2E2E2E2E2E2E2E2E2E2E2E2E2E2E2E2E2E2E2E2E2E2E2E2E2E2E2E2E2E2E2E2E2E2E2E2E2E2E2E2E2E2E2E2E2E2E2E2E2E2E2E2E2E2E2E2E2E2E2E2E2E2E2E2E2E2E2E2E2E2E2E2E2E2E2E2E2E2E2E2E2E2E2E2E2
310
E2E2E2E2E2E2E2E2E2E2E2E2E2E2E2E2E2E2E2E2E2E2E2E2E2E2E2E2E2E2E2E2E2E2E2E2E2E2E2E2E2E2E2E2E2E2E2E2E2E2E2E2E2E2E2E2E2E2E2E2E2E2E2E2E2E2E2E2E2E2E2E2E2E2E2E2E2E2E2E2E2E2E2E2E2E2E2E2E2E2E2E2E2E2E2E2E2E2E2E2E2E2E2E2E2E2E2E2E2E2E2E2E2E2E2E2E2E2E2E2E2E2E2E2E2E2E2
310
E2E2E2E2E2E2E2E2E2E2E2E2E2E2E2E2E2E2E2E2E2E2E2E2E2E2E2E2E2E2E2E2E2E2E2E2E2E2E2E2E2E2E2E2E2E2E2E2E2E2E2E2E2E2E2E2E2E2E2E2E2E2E2E2E2E2E2E2E2E2E2E2E2E2E2E2E2E2E2E2E2E2E2E2E2E2E2E2E2E2E2E2E2E2E2E2E2E2E2E2E2E2E2E2E2E2E2E2E2E2E2E2E2E2E2E2E2E2E2E2E2E2E2E2E2E2E2
310
E2E2E2E2E2E2E2E2E2E2E2E2E2E2E2E2E2E2E2E2E2E2E2E2E2E2E2E2E2E2E2E2E2E2E2E2E2E2E2E2E2E2E2E2E2E2E2E2E2E2E2E2E2E2E2E2E2E2E2E2E2E2E2E2E2E2E2E2E2E2E2E2E2E2E2E2E2E2E2E2E2E2E2E2E2E2E2E2E2E2E2E2E2E2E2E2E2E2E2E2E2E2E2E2E2E2E2E2E2E2E2E2E2E2E2E2E2E2E2E2E2E2E2E2E2E2E2
310
E2E2E2E2E2E2E2E2E2E2E2E2E2E2E2E2E2E2E2E2E2E2E2E2E2E2E2E2E2E2E2E2E2E2E2E2E2E2E2E2E2E2E2E2E2E2E2E2E2E2E2E2E2E2E2E2E2E2E2E2E2E2E2E2E2E2E2E2E2E2E2E2E2E2E2E2E2E2E2E2E2E2E2E2E2E2E2E2E2E2E2E2E2E2E2E2E2E2E2E2E2E2E2E2E2E2E2E2E2E2E2E2E2E2E2E2E2E2E2E2E2E2E2E2E2E2E2
310
E2E2E2E2E2E2E2E2E2E2E2E2E2E2E2E2E2E2E2E2E2E2E2E2E2E2E2E2E2E2E2E2E2E2E2E2E2E2E2E2E2E2E2E2E2E2E2E2E2E2E2E2E2E2E2E2E2E2E2E2E2E2E2E2E2E2E2E2E2E2E2E2E2E2E2E2E2E2E2E2E2E2E2E2E2E2E2E2E2E2E2E2E2E2E2E2E2E2E2E2E2E2E2E2E2E2E2E2E2E2E2E2E2E2E2E2E2E2E2E2E2E2E2E2E2E2E2
310
E2E2E2E2E2E2E2E2E2E2E2E2E2E2E2E2E2E2E2E2E2E2E2E2E2E2E2E2E2E2E2E2E2E2E2E2E2E2E2E2E2E2E2E2E2E2E2E2E2E2E2E2E2E2E2E2E2E2E2E2E2E2E2E2E2E2E2E2E2E2E2E2E2E2E2E2E2E2E2E2E2E2E2E2E2E2E2E2E2E2E2E2E2E2E2E2E2E2E2E2E2E2E2E2E2E2E2E2E2E2E2E2E2E2E2E2E2E2E2E2E2E2E2E2E2E2E2
310
E2E2E2E2E2E2E2E2E2E2E2E2E2E2E2E2E2E2E2E2E2E2E2E2E2E2E2E2E2E2E2E2E2E2E2E2E2E2E2E2E2E2E2E2E2E2E2E2E2E2E2E2E2E2E2E2E2E2E2E2E2E2E2E2E2E2E2E2E2E2E2E2E2E2E2E2E2E2E2E2E2E2E2E2E2E2E2E2E2E2E2E2E2E2E2E2E2E2E2E2E2E2E2E2E2E2E2E2E2E2E2E2E2E2E2E2E2E2E2E2E2E2E2E2E2E2E2
310
E2E2E2E2E2E2E2E2E2E2E2E2E2E2E2E2E2E2E2E2E2E2E2E2E2E2E2E2E2E2E2E2E2E2E2E2E2E2E2E2E2E2E2E2E2E2E2E2E2E2E2E2E2E2E2E2E2E2E2E2E2E2E2E2E2E2E2E2E2E2E2E2E2E2E2E2E2E2E2E2E2E2E2E2E2E2E2E2E2E2E2E2E2E2E2E2E2E2E2E2E2E2E2E2E2E2E2E2E2E2E2E2E2E2E2E2E2E2E2E2E2E2E2E2E2E2E2
310
E2E2E2E2E2E2E2E2E2E2E2E2E2E2E2E2E2E2E2E2E2E2E2E2E2E2E2E2E2E2E2E2E2E2E2E2E2E2E2E2E2E2E2E2E2E2E2E2E2E2E2E2E2E2E2E2E2E2E2E2E2E2E2E2E2E2E2E2E2E2E2E2E2E2E2E2E2E2E2E2E2E2E2E2E2E2E2E2E2E2E2E2E2E2E2E2E2E2E2E2E2E2E2E2E2E2E2E2E2E2E2E2E2E2E2E2E2E2E2E2E2E2E2E2E2E2E2
310
E2E2E2E2E2E2E2E2E2E2E2E2E2E2E2E2E2E2E2E2E2E2E2E2E2E2E2E2E2E2E2E2E2E2E2E2E2E2E2E2E2E2E2E2E2E2E2E2E2E2E2E2E2E2E2E2E2E2E2E2E2E2E2E2E2E2E2E2E2E2E2E2E2E2E2E2E2E2E2E2E2E2E2E2E2E2E2E2E2E2E2E2E2E2E2E2E2E2E2E2E2E2E2E2E2E2E2E2E2E2E2E2E2E2E2E2E2E2E2E2E2E2E2E2E2E2E2
310
E2E2E2E2E2E2E2E2E2E2E2E2E2E2E2E2E2E2E2E2E2E2E2E2E2E2E2E2E2E2E2E2E2E2E2E2E2E2E2E2E2E2E2E2E2E2E2E2E2E2E2E2E2E2E2E2E2E2E2E2E2E2E2E2E2E2E2E2E2E2E2E2E2E2E2E2E2E2E2E2E2E2E2E2E2E2E2E2E2E2E2E2E2E2E2E2E2E2E2E2E2E2E2E2E2E2E2E2E2E2E2E2E2E2E2E2E2E2E2E2E2E2E2E2E2E2E2
310
E2E2E2E2E2E2E2E2E2E2E2E2E2E2E2E2E2E2E2E2E2E2E2E2E2E2E2E2E2E2E2E2E2E2E2E2E2E2E2E2E2E2E2E2E2E2E2E2E2E2E2E2E2E2E2E2E2E2E2E2E2E2E2E2E2E2E2E2E2E2E2E2E2E2E2E2E2E2E2E2E2E2E2E2E2E2E2E2E2E2E2E2E2E2E2E2E2E2E2E2E2E2E2E2E2E2E2E2E2E2E2E2E2E2E2E2E2E2E2E2E2E2E2E2E2E2E2
310
E2E2E2E2E2E2E2E2E2E2E2E2E2E2E2E2E2E2E2E2E2E2E2E2E2E2E2E2E2E2E2E2E2E2E2E2E2E2E2E2E2E2E2E2E2E2E2E2E2E2E2E2E2E2E2E2E2E2E2E2E2E2E2E2E2E2E2E2E2E2E2E2E2E2E2E2E2E2E2E2E2E2E2E2E2E2E2E2E2E2E2E2E2E2E2E2E2E2E2E2E2E2E2E2E2E2E2E2E2E2E2E2E2E2E2E2E2E2E2E2E2E2E2E2E2E2E2
310
E2E2E2E2E2E2E2E2E2E2E2E2E2E2E2E2E2E2E2E2E2E2E2E2E2E2E2E2E2E2E2E2E2E2E2E2E2E2E2E2E2E2E2E2E2E2E2E2E2E2E2E2E2E2E2E2E2E2E2E2E2E2E2E2E2E2E2E2E2E2E2E2E2E2E2E2E2E2E2E2E2E2E2E2E2E2E2E2E2E2E2E2E2E2E2E2E2E2E2E2E2E2E2E2E2E2E2E2E2E2E2E2E2E2E2E2E2E2E2E2E2E2E2E2E2E2E2
310
E2E2E2E2E2E2E2E2E2E2E2E2E2E2E2E2E2E2E2E2E2E2E2E2E2E2E2E2E2E2E2E2E2E2E2E2E2E2E2E2E2E2E2E2E2E2E2E2E2E2E2E2E2E2E2E2E2E2E2E2E2E2E2E2E2E2E2E2E2E2E2E2E2E2E2E2E2E2E2E2E2E2E2E2E2E2E2E2E2E2E2E2E2E2E2E2E2E2E2E2E2E2E2E2E2E2E2E2E2E2E2E2E2E2E2E2E2E2E2E2E2E2E2E2E2E2E2
310
E2E2E2E2E2E2E2E2E2E2E2E2E2E2E2E2E2E2E2E2E2E2E2E2E2E2E2E2E2E2E2E2E2E2E2E2E2E2E2E2E2E2E2E2E2E2E2E2E2E2E2E2E2E2E2E2E2E2E2E2E2E2E2E2E2E2E2E2E2E2E2E2E2E2E2E2E2E2E2E2E2E2E2E2E2E2E2E2E2E2E2E2E2E2E2E2E2E2E2E2E2E2E2E2E2E2E2E2E2E2E2E2E2E2E2E2E2E2E2E2E2E2E2E2E2E2E2
310
E2E2E2E2E2E2E2E2E2E2E2E2E2E2E2E2E2E2E2E2E2E2E2E2E2E2E2E2E2E2E2E2E2E2E2E2E2E2E2E2E2E2E2E2E2E2E2E2E2E2E2E2E2E2E2E2E2E2E2E2E2E2E2E2E2E2E2E2E2E2E2E2E2E2E2E2E2E2E2E2E2E2E2E2E2E2E2E2E2E2E2E2E2E2E2E2E2E2E2E2E2E2E2E2E2E2E2E2E2E2E2E2E2E2E2E2E2E2E2E2E2E2E2E2E2E2E2
310
E2E2E2E2E2E2E2E2E2E2E2E2E2E2E2E2E2E2E2E2E2E2E2E2E2E2E2E2E2E2E2E2E2E2E2E2E2E2E2E2E2E2E2E2E2E2E2E2E2E2E2E2E2E2E2E2E2E2E2E2E2E2E2E2E2E2E2E2E2E2E2E2E2E2E2E2E2E2E2E2E2E2E2E2E2E2E2E2E2E2E2E2E2E2E2E2E2E2E2E2E2E2E2E2E2E2E2E2E2E2E2E2E2E2E2E2E2E2E2E2E2E2E2E2E2E2E2
310
E2E2E2E2E2E2E2E2E2E2E2E2E2E2E2E2E2E2E2E2E2E2E2E2E2E2E2E2E2E2E2E2E2E2E2E2E2E2E2E2E2E2E2E2E2E2E2E2E2E2E2E2E2E2E2E2E2E2E2E2E2E2E2E2E2E2E2E2E2E2E2E2E2E2E2E2E2E2E2E2E2E2E2E2E2E2E2E2E2E2E2E2E2E2E2E2E2E2E2E2E2E2E2E2E2E2E2E2E2E2E2E2E2E2E2E2E2E2E2E2E2E2E2E2E2E2E2
310
E2E2E2E2E2E2E2E2E2E2E2E2E2E2E2E2E2E2E2E2E2E2E2E2E2E2E2E2E2E2E2E2E2E2E2E2E2E2E2E2E2E2E2E2E2E2E2E2E2E2E2E2E2E2E2E2E2E2E2E2E2E2E2E2E2E2E2E2E2E2E2E2E2E2E2E2E2E2E2E2E2E2E2E2E2E2E2E2E2E2E2E2E2E2E2E2E2E2E2E2E2E2E2E2E2E2E2E2E2E2E2E2E2E2E2E2E2E2E2E2E2E2E2E2E2E2E2
310
E2E2E2E2E2E2E2E2E2E2E2E2E2E2E2E2E2E2E2E2E2E2E2E2E2E2E2E2E2E2E2E2E2E2E2E2E2E2E2E2E2E2E2E2E2E2E2E2E2E2E2E2E2E2E2E2E2E2E2E2E2E2E2E2E2E2E2E2E2E2E2E2E2E2E2E2E2E2E2E2E2E2E2E2E2E2E2E2E2E2E2E2E2E2E2E2E2E2E2E2E2E2E2E2E2E2E2E2E2E2E2E2E2E2E2E2E2E2E2E2E2E2E2E2E2E2E2
310
E2E2E2E2E2E2E2E2E2E2E2E2E2E2E2E2E2E2E2E2E2E2E2E2E2E2E2E2E2E2E2E2E2E2E2E2E2E2E2E2E2E2E2E2E2E2E2E2E2E2E2E2E2E2E2E2E2E2E2E2E2E2E2E2E2E2E2E2E2E2E2E2E2E2E2E2E2E2E2E2E2E2E2E2E2E2E2E2E2E2E2E2E2E2E2E2E2E2E2E2E2E2E2E2E2E2E2E2E2E2E2E2E2E2E2E2E2E2E2E2E2E2E2E2E2E2E2
310
E2E2E2E2E2E2E2E2E2E2E2E2E2E2E2E2E2E2E2E2E2E2E2E2E2E2E2E2E2E2E2E2E2E2E2E2E2E2E2E2E2E2E2E2E2E2E2E2E2E2E2E2E2E2E2E2E2E2E2E2E2E2E2E2E2E2E2E2E2E2E2E2E2E2E2E2E2E2E2E2E2E2E2E2E2E2E2E2E2E2E2E2E2E2E2E2E2E2E2E2E2E2E2E2E2E2E2E2E2E2E2E2E2E2E2E2E2E2E2E2E2E2E2E2E2E2E2
310
E2E2E2E2E2E2E2E2E2E2E2E2E2E2E2E2E2E2E2E2E2E2E2E2E2E2E2E2E2E2E2E2E2E2E2E2E2E2E2E2E2E2E2E2E2E2E2E2E2E2E2E2E2E2E2E2E2E2E2E2E2E2E2E2E2E2E2E2E2E2E2E2E2E2E2E2E2E2E2E2E2E2E2E2E2E2E2E2E2E2E2E2E2E2E2E2E2E2E2E2E2E2E2E2E2E2E2E2E2E2E2E2E2E2E2E2E2E2E2E2E2E2E2E2E2E2E2
310
E2E2E2E2E2E2E2E2E2E2E2E2E2E2E2E2E2E2E2E2E2E2E2E2E2E2E2E2E2E2E2E2E2E2E2E2E2E2E2E2E2E2E2E2E2E2E2E2E2E2E2E2E2E2E2E2E2E2E2E2E2E2E2E2E2E2E2E2E2E2E2E2E2E2E2E2E2E2E2E2E2E2E2E2E2E2E2E2E2E2E2E2E2E2E2E2E2E2E2E2E2E2E2E2E2E2E2E2E2E2E2E2E2E2E2E2E2E2E2E2E2E2E2E2E2E2E2
310
E2E2E2E2E2E2E2E2E2E2E2E2E2E2E2E2E2E2E2E2E2E2E2E2E2E2E2E2E2E2E2E2E2E2E2E2E2E2E2E2E2E2E2E2E2E2E2E2E2E2E2E2E2E2E2E2E2E2E2E2E2E2E2E2E2E2E2E2E2E2E2E2E2E2E2E2E2E2E2E2E2E2E2E2E2E2E2E2E2E2E2E2E2E2E2E2E2E2E2E2E2E2E2E2E2E2E2E2E2E2E2E2E2E2E2E2E2E2E2E2E2E2E2E2E2E2E2
310
E2E2E2E2E2E2E2E2E2E2E2E2E2E2E2E2E2E2E2E2E2E2E2E2E2E2E2E2E2E2E2E2E2E2E2E2E2E2E2E2E2E2E2E2E2E2E2E2E2E2E2E2E2E2E2E2E2E2E2E2E2E2E2E2E2E2E2E2E2E2E2E2E2E2E2E2E2E2E2E2E2E2E2E2E2E2E2E2E2E2E2E2E2E2E2E2E2E2E2E2E2E2E2E2E2E2E2E2E2E2E2E2E2E2E2E2E2E2E2E2E2E2E2E2E2E2E2
310
E2E2E2E2E2E2E2E2E2E2E2E2E2E2E2E2E2E2E2E2E2E2E2E2E2E2E2E2E2E2E2E2E2E2E2E2E2E2E2E2E2E2E2E2E2E2E2E2E2E2E2E2E2E2E2E2E2E2E2E2E2E2E2E2E2E2E2E2E2E2E2E2E2E2E2E2E2E2E2E2E2E2E2E2E2E2E2E2E2E2E2E2E2E2E2E2E2E2E2E2E2E2E2E2E2E2E2E2E2E2E2E2E2E2E2E2E2E2E2E2E2E2E2E2E2E2E2
310
E2E2E2E2E2E2E2E2E2E2E2E2E2E2E2E2E2E2E2E2E2E2E2E2E2E2E2E2E2E2E2E2E2E2E2E2E2E2E2E2E2E2E2E2E2E2E2E2E2E2E2E2E2E2E2E2E2E2E2E2E2E2E2E2E2E2E2E2E2E2E2E2E2E2E2E2E2E2E2E2E2E2E2E2E2E2E2E2E2E2E2E2E2E2E2E2E2E2E2E2E2E2E2E2E2E2E2E2E2E2E2E2E2E2E2E2E2E2E2E2E2E2E2E2E2E2E2
310
E2E2E2E2E2E2E2E2E2E2E2E2E2E2E2E2E2E2E2E2E2E2E2E2E2E2E2E2E2E2E2E2E2E2E2E2E2E2E2E2E2E2E2E2E2E2E2E2E2E2E2E2E2E2E2E2E2E2E2E2E2E2E2E2E2E2E2E2E2E2E2E2E2E2E2E2E2E2E2E2E2E2E2E2E2E2E2E2E2E2E2E2E2E2E2E2E2E2E2E2E2E2E2E2E2E2E2E2E2E2E2E2E2E2E2E2E2E2E2E2E2E2E2E2E2E2E2
310
E2E2E2E2E2E2E2E2E2E2E2E2E2E2E2E2E2E2E2E2E2E2E2E2E2E2E2E2E2E2E2E2E2E2E2E2E2E2E2E2E2E2E2E2E2E2E2E2E2E2E2E2E2E2E2E2E2E2E2E2E2E2E2E2E2E2E2E2E2E2E2E2E2E2E2E2E2E2E2E2E2E2E2E2E2E2E2E2E2E2E2E2E2E2E2E2E2E2E2E2E2E2E2E2E2E2E2E2E2E2E2E2E2E2E2E2E2E2E2E2E2E2E2E2E2E2E2
310
E2E2E2E2E2E2E2E2E2E2E2E2E2E2E2E2E2E2E2E2E2E2E2E2E2E2E2E2E2E2E2E2E2E2E2E2E2E2E2E2E2E2E2E2E2E2E2E2E2E2E2E2E2E2E2E2E2E2E2E2E2E2E2E2E2E2E2E2E2E2E2E2E2E2E2E2E2E2E2E2E2E2E2E2E2E2E2E2E2E2E2E2E2E2E2E2E2E2E2E2E2E2E2E2E2E2E2E2E2E2E2E2E2E2E2E2E2E2E2E2E2E2E2E2E2E2E2
310
E2E2E2E2E2E2E2E2E2E2E2E2E2E2E2E2E2E2E2E2E2E2E2E2E2E2E2E2E2E2E2E2E2E2E2E2E2E2E2E2E2E2E2E2E2E2E2E2E2E2E2E2E2E2E2E2E2E2E2E2E2E2E2E2E2E2E2E2E2E2E2E2E2E2E2E2E2E2E2E2E2E2E2E2E2E2E2E2E2E2E2E2E2E2E2E2E2E2E2E2E2E2E2E2E2E2E2E2E2E2E2E2E2E2E2E2E2E2E2E2E2E2E2E2E2E2E2
310
E2E2E2E2E2E2E2E2E2E2E2E2E2E2E2E2E2E2E2E2E2E2E2E2E2E2E2E2E2E2E2E2E2E2E2E2E2E2E2E2E2E2E2E2E2E2E2E2E2E2E2E2E2E2E2E2E2E2E2E2E2E2E2E2E2E2E2E2E2E2E2E2E2E2E2E2E2E2E2E2E2E2E2E2E2E2E2E2E2E2E2E2E2E2E2E2E2E2E2E2E2E2E2E2E2E2E2E2E2E2E2E2E2E2E2E2E2E2E2E2E2E2E2E2E2E2E2
310
E2E2E2E2E2E2E2E2E2E2E2E2E2E2E2E2E2E2E2E2E2E2E2E2E2E2E2E2E2E2E2E2E2E2E2E2E2E2E2E2E2E2E2E2E2E2E2E2E2E2E2E2E2E2E2E2E2E2E2E2E2E2E2E2E2E2E2E2E2E2E2E2E2E2E2E2E2E2E2E2E2E2E2E2E2E2E2E2E2E2E2E2E2E2E2E2E2E2E2E2E2E2E2E2E2E2E2E2E2E2E2E2E2E2E2E2E2E2E2E2E2E2E2E2E2E2E2
310
E2E2E2E2E2E2E2E2E2E2E2E2E2E2E2E2E2E2E2E2E2E2E2E2E2E2E2E2E2E2E2E2E2E2E2E2E2E2E2E2E2E2E2E2E2E2E2E2E2E2E2E2E2E2E2E2E2E2E2E2E2E2E2E2E2E2E2E2E2E2E2E2E2E2E2E2E2E2E2E2E2E2E2E2E2E2E2E2E2E2E2E2E2E2E2E2E2E2E2E2E2E2E2E2E2E2E2E2E2E2E2E2E2E2E2E2E2E2E2E2E2E2E2E2E2E2E2
310
E2E2E2E2E2E2E2E2E2E2E2E2E2E2E2E2E2E2E2E2E2E2E2E2E2E2E2E2E2E2E2E2E2E2E2E2E2E2E2E2E2E2E2E2E2E2E2E2E2E2E2E2E2E2E2E2E2E2E2E2E2E2E2E2E2E2E2E2E2E2E2E2E2E2E2E2E2E2E2E2E2E2E2E2E2E2E2E2E2E2E2E2E2E2E2E2E2E2E2E2E2E2E2E2E2E2E2E2E2E2E2E2E2E2E2E2E2E2E2E2E2E2E2E2E2E2E2
310
E2E2E2E2E2E2E2E2E2E2E2E2E2E2E2E2E2E2E2E2E2E2E2E2E2E2E2E2E2E2E2E2E2E2E2E2E2E2E2E2E2E2E2E2E2E2E2E2E2E2E2E2E2E2E2E2E2E2E2E2E2E2E2E2E2E2E2E2E2E2E2E2E2E2E2E2E2E2E2E2E2E2E2E2E2E2E2E2E2E2E2E2E2E2E2E2E2E2E2E2E2E2E2E2E2E2E2E2E2E2E2E2E2E2E2E2E2E2E2E2E2E2E2E2E2E2E2
310
E2E2E2E2E2E2E2E2E2E2E2E2E2E2E2E2E2E2E2E2E2E2E2E2E2E2E2E2E2E2E2E2E2E2E2E2E2E2E2E2E2E2E2E2E2E2E2E2E2E2E2E2E2E2E2E2E2E2E2E2E2E2E2E2E2E2E2E2E2E2E2E2E2E2E2E2E2E2E2E2E2E2E2E2E2E2E2E2E2E2E2E2E2E2E2E2E2E2E2E2E2E2E2E2E2E2E2E2E2E2E2E2E2E2E2E2E2E2E2E2E2E2E2E2E2E2E2
310
E2E2E2E2E2E2E2E2E2E2E2E2E2E2E2E2E2E2E2E2E2E2E2E2E2E2E2E2E2E2E2E2E2E2E2E2E2E2E2E2E2E2E2E2E2E2E2E2E2E2E2E2E2E2E2E2E2E2E2E2E2E2E2E2E2E2E2E2E2E2E2E2E2E2E2E2E2E2E2E2E2E2E2E2E2E2E2E2E2E2E2E2E2E2E2E2E2E2E2E2E2E2E2E2E2E2E2E2E2E2E2E2E2E2E2E2E2E2E2E2E2E2E2E2E2E2E2
310
E2E2E2E2E2E2E2E2E2E2E2E2E2E2E2E2E2E2E2E2E2E2E2E2E2E2E2E2E2E2E2E2E2E2E2E2E2E2E2E2E2E2E2E2E2E2E2E2E2E2E2E2E2E2E2E2E2E2E2E2E2E2E2E2E2E2E2E2E2E2E2E2E2E2E2E2E2E2E2E2E2E2E2E2E2E2E2E2E2E2E2E2E2E2E2E2E2E2E2E2E2E2E2E2E2E2E2E2E2E2E2E2E2E2E2E2E2E2E2E2E2E2E2E2E2E2E2
310
E2E2E2E2E2E2E2E2E2E2E2E2E2E2E2E2E2E2E2E2E2E2E2E2E2E2E2E2E2E2E2E2E2E2E2E2E2E2E2E2E2E2E2E2E2E2E2E2E2E2E2E2E2E2E2E2E2E2E2E2E2E2E2E2E2E2E2E2E2E2E2E2E2E2E2E2E2E2E2E2E2E2E2E2E2E2E2E2E2E2E2E2E2E2E2E2E2E2E2E2E2E2E2E2E2E2E2E2E2E2E2E2E2E2E2E2E2E2E2E2E2E2E2E2E2E2E2
310
E2E2E2E2E2E2E2E2E2E2E2E2E2E2E2E2E2E2E2E2E2E2E2E2E2E2E2E2E2E2E2E2E2E2E2E2E2E2E2E2E2E2E2E2E2E2E2E2E2E2E2E2E2E2E2E2E2E2E2E2E2E2E2E2E2E2E2E2E2E2E2E2E2E2E2E2E2E2E2E2E2E2E2E2E2E2E2E2E2E2E2E2E2E2E2E2E2E2E2E2E2E2E2E2E2E2E2E2E2E2E2E2E2E2E2E2E2E2E2E2E2E2E2E2E2E2E2
310
E2E2E2E2E2E2E2E2E2E2E2E2E2E2E2E2E2E2E2E2E2E2E2E2E2E2E2E2E2E2E2E2E2E2E2E2E2E2E2E2E2E2E2E2E2E2E2E2E2E2E2E2E2E2E2E2E2E2E2E2E2E2E2E2E2E2E2E2E2E2E2E2E2E2E2E2E2E2E2E2E2E2E2E2E2E2E2E2E2E2E2E2E2E2E2E2E2E2E2E2E2E2E2E2E2E2E2E2E2E2E2E2E2E2E2E2E2E2E2E2E2E2E2E2E2E2E2
310
E2E2E2E2E2E2E2E2E2E2E2E2E2E2E2E2E2E2E2E2E2E2E2E2E2E2E2E2E2E2E2E2E2E2E2E2E2E2E2E2E2E2E2E2E2E2E2E2E2E2E2E2E2E2E2E2E2E2E2E2E2E2E2E2E2E2E2E2E2E2E2E2E2E2E2E2E2E2E2E2E2E2E2E2E2E2E2E2E2E2E2E2E2E2E2E2E2E2E2E2E2E2E2E2E2E2E2E2E2E2E2E2E2E2E2E2E2E2E2E2E2E2E2E2E2E2E2
310
E2E2E2E2E2E2E2E2E2E2E2E2E2E2E2E2E2E2E2E2E2E2E2E2E2E2E2E2E2E2E2E2E2E2E2E2E2E2E2E2E2E2E2E2E2E2E2E2E2E2E2E2E2E2E2E2E2E2E2E2E2E2E2E2E2E2E2E2E2E2E2E2E2E2E2E2E2E2E2E2E2E2E2E2E2E2E2E2E2E2E2E2E2E2E2E2E2E2E2E2E2E2E2E2E2E2E2E2E2E2E2E2E2E2E2E2E2E2E2E2E2E2E2E2E2E2E2
310
E2E2E2E2E2E2E2E2E2E2E2E2E2E2E2E2E2E2E2E2E2E2E2E2E2E2E2E2E2E2E2E2E2E2E2E2E2E2E2E2E2E2E2E2E2E2E2E2E2E2E2E2E2E2E2E2E2E2E2E2E2E2E2E2E2E2E2E2E2E2E2E2E2E2E2E2E2E2E2E2E2E2E2E2E2E2E2E2E2E2E2E2E2E2E2E2E2E2E2E2E2E2E2E2E2E2E2E2E2E2E2E2E2E2E2E2E2E2E2E2E2E2E2E2E2E2E2
310
E2E2E2E2E2E2E2E2E2E2E2E2E2E2E2E2E2E2E2E2E2E2E2E2E2E2E2E2E2E2E2E2E2E2E2E2E2E2E2E2E2E2E2E2E2E2E2E2E2E2E2E2E2E2E2E2E2E2E2E2E2E2E2E2E2E2E2E2E2E2E2E2E2E2E2E2E2E2E2E2E2E2E2E2E2E2E2E2E2E2E2E2E2E2E2E2E2E2E2E2E2E2E2E2E2E2E2E2E2E2E2E2E2E2E2E2E2E2E2E2E2E2E2E2E2E2E2
310
E2E2E2E2E2E2E2E2E2E2E2E2E2E2E2E2E2E2E2E2E2E2E2E2E2E2E2E2E2E2E2E2E2E2E2E2E2E2E2E2E2E2E2E2E2E2E2E2E2E2E2E2E2E2E2E2E2E2E2E2E2E2E2E2E2E2E2E2E2E2E2E2E2E2E2E2E2E2E2E2E2E2E2E2E2E2E2E2E2E2E2E2E2E2E2E2E2E2E2E2E2E2E2E2E2E2E2E2E2E2E2E2E2E2E2E2E2E2E2E2E2E2E2E2E2E2E2
310
E2E2E2E2E2E2E2E2E2E2E2E2E2E2E2E2E2E2E2E2E2E2E2E2E2E2E2E2E2E2E2E2E2E2E2E2E2E2E2E2E2E2E2E2E2E2E2E2E2E2E2E2E2E2E2E2E2E2E2E2E2E2E2E2E2E2E2E2E2E2E2E2E2E2E2E2E2E2E2E2E2E2E2E2E2E2E2E2E2E2E2E2E2E2E2E2E2E2E2E2E2E2E2E2E2E2E2E2E2E2E2E2E2E2E2E2E2E2E2E2E2E2E2E2E2E2E2
310
E2E2E2E2E2E2E2E2E2E2E2E2E2E2E2E2E2E2E2E2E2E2E2E2E2E2E2E2E2E2E2E2E2E2E2E2E2E2E2E2E2E2E2E2E2E2E2E2E2E2E2E2E2E2E2E2E2E2E2E2E2E2E2E2E2E2E2E2E2E2E2E2E2E2E2E2E2E2E2E2E2E2E2E2E2E2E2E2E2E2E2E2E2E2E2E2E2E2E2E2E2E2E2E2E2E2E2E2E2E2E2E2E2E2E2E2E2E2E2E2E2E2E2E2E2E2E2
310
E2E2E2E2E2E2E2E2E2E2E2E2E2E2E2E2E2E2E2E2E2E2E2E2E2E2E2E2E2E2E2E2E2E2E2E2E2E2E2E2E2E2E2E2E2E2E2E2E2E2E2E2E2E2E2E2E2E2E2E2E2E2E2E2E2E2E2E2E2E2E2E2E2E2E2E2E2E2E2E2E2E2E2E2E2E2E2E2E2E2E2E2E2E2E2E2E2E2E2E2E2E2E2E2E2E2E2E2E2E2E2E2E2E2E2E2E2E2E2E2E2E2E2E2E2E2E2
310
E2E2E2E2E2E2E2E2E2E2E2E2E2E2E2E2E2E2E2E2E2E2E2E2E2E2E2E2E2E2E2E2E2E2E2E2E2E2E2E2E2E2E2E2E2E2E2E2E2E2E2E2E2E2E2E2E2E2E2E2E2E2E2E2E2E2E2E2E2E2E2E2E2E2E2E2E2E2E2E2E2E2E2E2E2E2E2E2E2E2E2E2E2E2E2E2E2E2E2E2E2E2E2E2E2E2E2E2E2E2E2E2E2E2E2E2E2E2E2E2E2E2E2E2E2E2E2
310
E2E2E2E2E2E2E2E2E2E2E2E2E2E2E2E2E2E2E2E2E2E2E2E2E2E2E2E2E2E2E2E2E2E2E2E2E2E2E2E2E2E2E2E2E2E2E2E2E2E2E2E2E2E2E2E2E2E2E2E2E2E2E2E2E2E2E2E2E2E2E2E2E2E2E2E2E2E2E2E2E2E2E2E2E2E2E2E2E2E2E2E2E2E2E2E2E2E2E2E2E2E2E2E2E2E2E2E2E2E2E2E2E2E2E2E2E2E2E2E2E2E2E2E2E2E2E2
310
E2E2E2E2E2E2E2E2E2E2E2E2E2E2E2E2E2E2E2E2E2E2E2E2E2E2E2E2E2E2E2E2E2E2E2E2E2E2E2E2E2E2E2E2E2E2E2E2E2E2E2E2E2E2E2E2E2E2E2E2E2E2E2E2E2E2E2E2E2E2E2E2E2E2E2E2E2E2E2E2E2E2E2E2E2E2E2E2E2E2E2E2E2E2E2E2E2E2E2E2E2E2E2E2E2E2E2E2E2E2E2E2E2E2E2E2E2E2E2E2E2E2E2E2E2E2E2
310
E2E2E2E2E2E2E2E2E2E2E2E2E2E2E2E2E2E2E2E2E2E2E2E2E2E2E2E2E2E2E2E2E2E2E2E2E2E2E2E2E2E2E2E2E2E2E2E2E2E2E2E2E2E2E2E2E2E2E2E2E2E2E2E2E2E2E2E2E2E2E2E2E2E2E2E2E2E2E2E2E2E2E2E2E2E2E2E2E2E2E2E2E2E2E2E2E2E2E2E2E2E2E2E2E2E2E2E2E2E2E2E2E2E2E2E2E2E2E2E2E2E2E2E2E2E2E2
310
E2E2E2E2E2E2E2E2E2E2E2E2E2E2E2E2E2E2E2E2E2E2E2E2E2E2E2E2E2E2E2E2E2E2E2E2E2E2E2E2E2E2E2E2E2E2E2E2
  0
XRECORD
  5
D94C
102
{ACAD_REACTORS
330
D94B
102
}
330
D94B
100
AcDbXrecord
280
     1
102
SHADEPLOT
 70
     0
102
SHADEPLOTRESLEVEL
 70
     2
102
SHADEPLOTCUSTOMDPI
 70
   300
  0
XRECORD
  5
D959
102
{ACAD_REACTORS
330
D958
102
}
330
D958
100
AcDbXrecord
280
     1
102
MATERIAL
148
0.0
149
0.0
149
0.0
 93
        0
 94
       63
282
     0
 72
     1
 77
     1
171
     1
175
     1
179
     1
273
     0
  0
XRECORD
  5
D957
102
{ACAD_REACTORS
330
D956
102
}
330
D956
100
AcDbXrecord
280
     1
102
MATERIAL
148
0.0
149
0.0
149
0.0
 93
        0
 94
       63
282
     0
 72
     1
 77
     1
171
     1
175
     1
179
     1
273
     0
  0
XRECORD
  5
D955
102
{ACAD_REACTORS
330
D954
102
}
330
D954
100
AcDbXrecord
280
     1
102
MATERIAL
148
0.0
149
0.0
149
0.0
 93
        0
 94
       63
282
     0
 72
     1
 77
     1
171
     1
175
     1
179
     1
273
     0
  0
XRECORD
  5
D948
102
{ACAD_REACTORS
330
D947
102
}
330
D947
100
AcDbXrecord
280
     1
102
SHADEPLOT
 70
     0
102
SHADEPLOTRESLEVEL
 70
     2
102
SHADEPLOTCUSTOMDPI
 70
   300
  0
XRECORD
  5
D94A
102
{ACAD_REACTORS
330
D949
102
}
330
D949
100
AcDbXrecord
280
     1
102
SHADEPLOT
 70
     0
102
SHADEPLOTRESLEVEL
 70
     2
102
SHADEPLOTCUSTOMDPI
 70
   300
  0
XRECORD
  5
D94E
102
{ACAD_REACTORS
330
D94D
102
}
330
D94D
100
AcDbXrecord
280
     1
102
ACAD_ROUNDTRIP_PRE2007_TABLESTYLE
 90
        4
 91
        0
  1

 92
        4
 93
        0
  2

 94
        4
 95
        0
  3

  0
ENDSEC
  0
EOF
