  0
SECTION
  2
HEADER
  9
$ACADVER
  1
AC1018
  9
$ACADMAINTVER
 70
    76
  9
$DWGCODEPAGE
  3
ANSI_1252
  9
$INSBASE
 10
0.0
 20
0.0
 30
0.0
  9
$EXTMIN
 10
175.7086284572826
 20
78.550236761619
 30
0.0
  9
$EXTMAX
 10
211.7086284572827
 20
104.1872697873767
 30
0.0
  9
$LIMMIN
 10
0.0
 20
0.0
  9
$LIMMAX
 10
12.0
 20
9.0
  9
$ORTHOMODE
 70
     0
  9
$REGENMODE
 70
     1
  9
$FILLMODE
 70
     1
  9
$QTEXTMODE
 70
     0
  9
$MIRRTEXT
 70
     1
  9
$LTSCALE
 40
1.0
  9
$ATTMODE
 70
     1
  9
$TEXTSIZE
 40
0.2
  9
$TRACEWID
 40
0.05
  9
$TEXTSTYLE
  7
STANDARD
  9
$CLAYER
  8
GRS_GAMBAR
  9
$CELTYPE
  6
BYLAYER
  9
$CECOLOR
 62
   256
  9
$CELTSCALE
 40
10.0
  9
$DISPSILH
 70
     0
  9
$DIMSCALE
 40
1.0
  9
$DIMASZ
 40
0.25
  9
$DIMEXO
 40
0.25
  9
$DIMDLI
 40
5.0
  9
$DIMRND
 40
0.0
  9
$DIMDLE
 40
0.0
  9
$DIMEXE
 40
0.25
  9
$DIMTP
 40
0.0
  9
$DIMTM
 40
0.0
  9
$DIMTXT
 40
0.125
  9
$DIMCEN
 40
0.0
  9
$DIMTSZ
 40
0.0
  9
$DIMTOL
 70
     0
  9
$DIMLIM
 70
     0
  9
$DIMTIH
 70
     1
  9
$DIMTOH
 70
     1
  9
$DIMSE1
 70
     0
  9
$DIMSE2
 70
     0
  9
$DIMTAD
 70
     1
  9
$DIMZIN
 70
     0
  9
$DIMBLK
  1

  9
$DIMASO
 70
     1
  9
$DIMSHO
 70
     1
  9
$DIMPOST
  1
\X
  9
$DIMAPOST
  1
mm
  9
$DIMALT
 70
     1
  9
$DIMALTD
 70
     2
  9
$DIMALTF
 40
25.4
  9
$DIMLFAC
 40
1.0
  9
$DIMTOFL
 70
     0
  9
$DIMTVP
 40
0.0
  9
$DIMTIX
 70
     1
  9
$DIMSOXD
 70
     0
  9
$DIMSAH
 70
     0
  9
$DIMBLK1
  1

  9
$DIMBLK2
  1

  9
$DIMSTYLE
  2
STANDARD
  9
$DIMCLRD
 70
     0
  9
$DIMCLRE
 70
     0
  9
$DIMCLRT
 70
     0
  9
$DIMTFAC
 40
1.0
  9
$DIMGAP
 40
0.0625
  9
$DIMJUST
 70
     0
  9
$DIMSD1
 70
     0
  9
$DIMSD2
 70
     0
  9
$DIMTOLJ
 70
     1
  9
$DIMTZIN
 70
     0
  9
$DIMALTZ
 70
     0
  9
$DIMALTTZ
 70
     0
  9
$DIMUPT
 70
     0
  9
$DIMDEC
 70
     3
  9
$DIMTDEC
 70
     3
  9
$DIMALTU
 70
     2
  9
$DIMALTTD
 70
     2
  9
$DIMTXSTY
  7
STANDARD
  9
$DIMAUNIT
 70
     0
  9
$DIMADEC
 70
     0
  9
$DIMALTRND
 40
0.0
  9
$DIMAZIN
 70
     0
  9
$DIMDSEP
 70
    46
  9
$DIMATFIT
 70
     3
  9
$DIMFRAC
 70
     0
  9
$DIMLDRBLK
  1

  9
$DIMLUNIT
 70
     4
  9
$DIMLWD
 70
    -2
  9
$DIMLWE
 70
    -2
  9
$DIMTMOVE
 70
     0
  9
$LUNITS
 70
     2
  9
$LUPREC
 70
     4
  9
$SKETCHINC
 40
0.1
  9
$FILLETRAD
 40
1.0
  9
$AUNITS
 70
     0
  9
$AUPREC
 70
     0
  9
$MENU
  1
acad
  9
$ELEVATION
 40
0.0
  9
$PELEVATION
 40
0.0
  9
$THICKNESS
 40
0.0
  9
$LIMCHECK
 70
     0
  9
$CHAMFERA
 40
0.0
  9
$CHAMFERB
 40
0.0
  9
$CHAMFERC
 40
0.0
  9
$CHAMFERD
 40
0.0
  9
$SKPOLY
 70
     0
  9
$TDCREATE
 40
2450438.559596643
  9
$TDUCREATE
 40
2450438.726263310
  9
$TDUPDATE
 40
2455684.610506296
  9
$TDUUPDATE
 40
2455684.777172963
  9
$TDINDWG
 40
2.1709904630
  9
$TDUSRTIMER
 40
2.1709901042
  9
$USRTIMER
 70
     1
  9
$ANGBASE
 50
0.0
  9
$ANGDIR
 70
     0
  9
$PDMODE
 70
     0
  9
$PDSIZE
 40
0.0
  9
$PLINEWID
 40
0.0
  9
$SPLFRAME
 70
     0
  9
$SPLINETYPE
 70
     6
  9
$SPLINESEGS
 70
     8
  9
$HANDSEED
  5
5287
  9
$SURFTAB1
 70
     6
  9
$SURFTAB2
 70
     6
  9
$SURFTYPE
 70
     6
  9
$SURFU
 70
     6
  9
$SURFV
 70
     6
  9
$UCSBASE
  2

  9
$UCSNAME
  2

  9
$UCSORG
 10
0.0
 20
0.0
 30
0.0
  9
$UCSXDIR
 10
1.0
 20
0.0
 30
0.0
  9
$UCSYDIR
 10
0.0
 20
1.0
 30
0.0
  9
$UCSORTHOREF
  2

  9
$UCSORTHOVIEW
 70
     0
  9
$UCSORGTOP
 10
0.0
 20
0.0
 30
0.0
  9
$UCSORGBOTTOM
 10
0.0
 20
0.0
 30
0.0
  9
$UCSORGLEFT
 10
0.0
 20
0.0
 30
0.0
  9
$UCSORGRIGHT
 10
0.0
 20
0.0
 30
0.0
  9
$UCSORGFRONT
 10
0.0
 20
0.0
 30
0.0
  9
$UCSORGBACK
 10
0.0
 20
0.0
 30
0.0
  9
$PUCSBASE
  2

  9
$PUCSNAME
  2

  9
$PUCSORG
 10
0.0
 20
0.0
 30
0.0
  9
$PUCSXDIR
 10
1.0
 20
0.0
 30
0.0
  9
$PUCSYDIR
 10
0.0
 20
1.0
 30
0.0
  9
$PUCSORTHOREF
  2

  9
$PUCSORTHOVIEW
 70
     0
  9
$PUCSORGTOP
 10
0.0
 20
0.0
 30
0.0
  9
$PUCSORGBOTTOM
 10
0.0
 20
0.0
 30
0.0
  9
$PUCSORGLEFT
 10
0.0
 20
0.0
 30
0.0
  9
$PUCSORGRIGHT
 10
0.0
 20
0.0
 30
0.0
  9
$PUCSORGFRONT
 10
0.0
 20
0.0
 30
0.0
  9
$PUCSORGBACK
 10
0.0
 20
0.0
 30
0.0
  9
$USERI1
 70
     0
  9
$USERI2
 70
     0
  9
$USERI3
 70
     0
  9
$USERI4
 70
     0
  9
$USERI5
 70
     0
  9
$USERR1
 40
0.0
  9
$USERR2
 40
0.0
  9
$USERR3
 40
0.0
  9
$USERR4
 40
0.0
  9
$USERR5
 40
0.0
  9
$WORLDVIEW
 70
     1
  9
$SHADEDGE
 70
     3
  9
$SHADEDIF
 70
    70
  9
$TILEMODE
 70
     1
  9
$MAXACTVP
 70
    16
  9
$PINSBASE
 10
0.0
 20
0.0
 30
0.0
  9
$PLIMCHECK
 70
     0
  9
$PEXTMIN
 10
0.0
 20
0.0
 30
0.0
  9
$PEXTMAX
 10
36.0
 20
24.0
 30
0.0
  9
$PLIMMIN
 10
5.461243195735853
 20
-7.772606877588986
  9
$PLIMMAX
 10
842.5900149148343
 20
639.0996216582719
  9
$UNITMODE
 70
     0
  9
$VISRETAIN
 70
     0
  9
$PLINEGEN
 70
     0
  9
$PSLTSCALE
 70
     1
  9
$TREEDEPTH
 70
  3020
  9
$CMLSTYLE
  2
STANDARD
  9
$CMLJUST
 70
     0
  9
$CMLSCALE
 40
1.0
  9
$PROXYGRAPHICS
 70
     1
  9
$MEASUREMENT
 70
     0
  9
$CELWEIGHT
370
    -1
  9
$ENDCAPS
280
     0
  9
$JOINSTYLE
280
     0
  9
$LWDISPLAY
290
     0
  9
$INSUNITS
 70
     0
  9
$HYPERLINKBASE
  1

  9
$STYLESHEET
  1
MONOCHROME.CTB
  9
$XEDIT
290
     1
  9
$CEPSNTYPE
380
     0
  9
$PSTYLEMODE
290
     1
  9
$FINGERPRINTGUID
  2
{3DFF78D6-CC7F-11D3-AC06-00A0C98A02AE}
  9
$VERSIONGUID
  2
{99BECE02-78B3-4098-9381-07AFB76205D4}
  9
$EXTNAMES
290
     1
  9
$PSVPSCALE
 40
0.0
  9
$OLESTARTUP
290
     0
  9
$SORTENTS
280
    96
  9
$INDEXCTL
280
     0
  9
$HIDETEXT
280
     0
  9
$XCLIPFRAME
290
     0
  9
$HALOGAP
280
     0
  9
$OBSCOLOR
 70
   257
  9
$OBSLTYPE
280
     0
  9
$INTERSECTIONDISPLAY
280
     0
  9
$INTERSECTIONCOLOR
 70
   257
  9
$DIMASSOC
280
     1
  9
$PROJECTNAME
  1

  0
ENDSEC
  0
SECTION
  2
CLASSES
  0
CLASS
  1
ACDBDICTIONARYWDFLT
  2
AcDbDictionaryWithDefault
  3
ObjectDBX Classes
 90
        0
 91
        1
280
     0
281
     0
  0
CLASS
  1
DICTIONARYVAR
  2
AcDbDictionaryVar
  3
ObjectDBX Classes
 90
        0
 91
        4
280
     0
281
     0
  0
CLASS
  1
PLOTSETTINGS
  2
AcDbPlotSettings
  3
ObjectDBX Classes
 90
        0
 91
        4
280
     0
281
     0
  0
CLASS
  1
TABLESTYLE
  2
AcDbTableStyle
  3
ObjectDBX Classes
 90
     2047
 91
        1
280
     0
281
     0
  0
CLASS
  1
DIMASSOC
  2
AcDbDimAssoc
  3
"AcDbDimAssoc|Product Desc:     AcDim ARX App For Dimension|Company:          Autodesk, Inc.|WEB Address:      www.autodesk.com"
 90
        0
 91
        2
280
     0
281
     0
  0
CLASS
  1
SORTENTSTABLE
  2
AcDbSortentsTable
  3
ObjectDBX Classes
 90
        0
 91
        2
280
     0
281
     0
  0
ENDSEC
  0
SECTION
  2
TABLES
  0
TABLE
  2
VPORT
  5
8
330
0
100
AcDbSymbolTable
 70
     5
  0
VPORT
  5
5286
330
8
100
AcDbSymbolTableRecord
100
AcDbViewportTableRecord
  2
*Active
 70
     0
 10
0.0
 20
0.0
 11
1.0
 21
1.0
 12
193.7457065820418
 22
91.281012541451
 13
0.0
 23
0.0
 14
1.0
 24
1.0
 15
0.0
 25
0.0
 16
0.0
 26
0.0
 36
1.0
 17
0.0
 27
0.0
 37
0.0
 40
26.84098547519452
 41
1.774253731343283
 42
50.0
 43
0.0
 44
0.0
 50
0.0
 51
0.0
 71
     0
 72
   100
 73
     1
 74
     1
 75
     0
 76
     0
 77
     0
 78
     0
281
     0
 65
     1
110
0.0
120
0.0
130
0.0
111
1.0
121
0.0
131
0.0
112
0.0
122
1.0
132
0.0
 79
     0
146
0.0
  0
ENDTAB
  0
TABLE
  2
LTYPE
  5
5
330
0
100
AcDbSymbolTable
 70
     6
  0
LTYPE
  5
13
330
5
100
AcDbSymbolTableRecord
100
AcDbLinetypeTableRecord
  2
BYBLOCK
 70
     0
  3

 72
    65
 73
     0
 40
0.0
  0
LTYPE
  5
14
330
5
100
AcDbSymbolTableRecord
100
AcDbLinetypeTableRecord
  2
BYLAYER
 70
     0
  3

 72
    65
 73
     0
 40
0.0
  0
LTYPE
  5
15
330
5
100
AcDbSymbolTableRecord
100
AcDbLinetypeTableRecord
  2
CONTINUOUS
 70
     0
  3
Solid line
 72
    65
 73
     0
 40
0.0
  0
LTYPE
  5
48F
330
5
100
AcDbSymbolTableRecord
100
AcDbLinetypeTableRecord
  2
CENTER
 70
     0
  3
Center ____ _ ____ _ ____ _ ____ _ ____ _ ____
 72
    65
 73
     4
 40
2.0
 49
1.25
 74
     0
 49
-0.25
 74
     0
 49
0.25
 74
     0
 49
-0.25
 74
     0
  0
LTYPE
  5
26D5
330
5
100
AcDbSymbolTableRecord
100
AcDbLinetypeTableRecord
  2
HIDDEN
 70
     0
  3
Hidden __ __ __ __ __ __ __ __ __ __ __ __ __ __
 72
    65
 73
     2
 40
1.905
 49
1.27
 74
     0
 49
-0.635
 74
     0
  0
LTYPE
  5
26D6
330
5
100
AcDbSymbolTableRecord
100
AcDbLinetypeTableRecord
  2
CENTERX2
 70
     0
  3
Center (2x) ________  __  ________  __  _____
 72
    65
 73
     4
 40
20.32
 49
12.7
 74
     0
 49
-2.54
 74
     0
 49
2.54
 74
     0
 49
-2.54
 74
     0
  0
LTYPE
  5
2779
330
5
100
AcDbSymbolTableRecord
100
AcDbLinetypeTableRecord
  2
PHANTOMX2
 70
     0
  3
Phantom (2x) ____________    ____    ____   _
 72
    65
 73
     6
 40
5.0
 49
2.5
 74
     0
 49
-0.5
 74
     0
 49
0.5
 74
     0
 49
-0.5
 74
     0
 49
0.5
 74
     0
 49
-0.5
 74
     0
  0
LTYPE
  5
2780
330
5
100
AcDbSymbolTableRecord
100
AcDbLinetypeTableRecord
  2
PHANTOM
 70
     0
  3
Phantom ______  __  __  ______  __  __  ______
 72
    65
 73
     6
 40
2.5
 49
1.25
 74
     0
 49
-0.25
 74
     0
 49
0.25
 74
     0
 49
-0.25
 74
     0
 49
0.25
 74
     0
 49
-0.25
 74
     0
  0
ENDTAB
  0
TABLE
  2
LAYER
  5
2
102
{ACAD_XDICTIONARY
360
277A
102
}
330
0
100
AcDbSymbolTable
 70
    15
  0
LAYER
  5
10
330
2
100
AcDbSymbolTableRecord
100
AcDbLayerTableRecord
  2
0
 70
     0
 62
     7
  6
CONTINUOUS
370
    -3
390
F
  0
LAYER
  5
54
330
2
100
AcDbSymbolTableRecord
100
AcDbLayerTableRecord
  2
DIVIDE
 70
     0
 62
     7
  6
CONTINUOUS
370
    -3
390
F
  0
LAYER
  5
257
330
2
100
AcDbSymbolTableRecord
100
AcDbLayerTableRecord
  2
BESAR
 70
     0
 62
     7
  6
CONTINUOUS
370
    -3
390
F
  0
LAYER
  5
258
330
2
100
AcDbSymbolTableRecord
100
AcDbLayerTableRecord
  2
ASHADE
 70
     0
 62
     7
  6
CONTINUOUS
370
    -3
390
F
  0
LAYER
  5
490
330
2
100
AcDbSymbolTableRecord
100
AcDbLayerTableRecord
  2
GRS_GAMBAR
 70
     0
 62
     7
  6
CONTINUOUS
370
    -3
390
F
  0
LAYER
  5
166A
330
2
100
AcDbSymbolTableRecord
100
AcDbLayerTableRecord
  2
DIM
 70
     0
 62
     7
  6
CONTINUOUS
370
    -3
390
F
  0
LAYER
  5
1E62
330
2
100
AcDbSymbolTableRecord
100
AcDbLayerTableRecord
  2
1
 70
     0
 62
     7
  6
CONTINUOUS
370
    -3
390
F
  0
LAYER
  5
1E63
330
2
100
AcDbSymbolTableRecord
100
AcDbLayerTableRecord
  2
G__TOTO
 70
     0
 62
     7
  6
CONTINUOUS
370
    -3
390
F
  0
LAYER
  5
255D
330
2
100
AcDbSymbolTableRecord
100
AcDbLayerTableRecord
  2
KOP
 70
     0
 62
    -7
  6
CONTINUOUS
370
    -3
390
F
  0
LAYER
  5
255F
330
2
100
AcDbSymbolTableRecord
100
AcDbLayerTableRecord
  2
VP
 70
     0
 62
    -7
  6
CONTINUOUS
370
    -3
390
F
  0
LAYER
  5
26D7
330
2
100
AcDbSymbolTableRecord
100
AcDbLayerTableRecord
  2
PIC06
 70
     0
 62
     7
  6
CONTINUOUS
370
    -3
390
F
  0
LAYER
  5
2775
330
2
100
AcDbSymbolTableRecord
100
AcDbLayerTableRecord
  2
PH
 70
     0
 62
     7
  6
PHANTOMX2
370
    -3
390
F
1001
AcAecLayerStandard
1000

1000

  0
LAYER
  5
277F
330
2
100
AcDbSymbolTableRecord
100
AcDbLayerTableRecord
  2
PH1
 70
     0
 62
     7
  6
PHANTOM
370
    -3
390
F
1001
AcAecLayerStandard
1000

1000

  0
LAYER
  5
27EC
330
2
100
AcDbSymbolTableRecord
100
AcDbLayerTableRecord
  2
Defpoints
 70
     0
 62
     7
  6
CONTINUOUS
290
     0
370
    -3
390
F
  0
LAYER
  5
40DC
330
2
100
AcDbSymbolTableRecord
100
AcDbLayerTableRecord
  2
viewport
 70
     0
 62
     7
  6
CONTINUOUS
370
    -3
390
F
  0
ENDTAB
  0
TABLE
  2
STYLE
  5
3
330
0
100
AcDbSymbolTable
 70
    12
  0
STYLE
  5
11
330
3
100
AcDbSymbolTableRecord
100
AcDbTextStyleTableRecord
  2
STANDARD
 70
     0
 40
0.0
 41
1.0
 50
0.0
 71
     0
 42
0.2
  3
ARIAL.TTF
  4

1001
ACAD
1000
Arial
1071
       34
  0
STYLE
  5
35
330
3
100
AcDbSymbolTableRecord
100
AcDbTextStyleTableRecord
  2
ROMANS
 70
     0
 40
0.0
 41
1.0
 50
0.0
 71
     0
 42
6.0
  3
romans.shx
  4

  0
STYLE
  5
881
330
3
100
AcDbSymbolTableRecord
100
AcDbTextStyleTableRecord
  2
BLACK
 70
     0
 40
0.4
 41
1.0
 50
0.0
 71
     0
 42
0.4
  3
ARIAL.TTF
  4

1001
ACAD
1000
Arial
1071
       34
  0
STYLE
  5
1E64
330
3
100
AcDbSymbolTableRecord
100
AcDbTextStyleTableRecord
  2
SWISS
 70
     0
 40
0.0
 41
1.0
 50
0.0
 71
     0
 42
0.5
  3
swissel.ttf
  4

1001
ACAD
1000
Swis721 LtEx BT
1071
       34
  0
STYLE
  5
1E65
330
3
100
AcDbSymbolTableRecord
100
AcDbTextStyleTableRecord
  2
DUTCH
 70
     0
 40
0.0
 41
1.0
 50
0.0
 71
     0
 42
0.2
  3
dutcheb.ttf
  4

1001
ACAD
1000
Dutch801 XBd BT
1071
       18
  0
STYLE
  5
1E66
330
3
100
AcDbSymbolTableRecord
100
AcDbTextStyleTableRecord
  2
STYLE4
 70
     0
 40
0.0
 41
1.0
 50
0.0
 71
     0
 42
0.25
  3
swisscl.ttf
  4

1001
ACAD
1000
Swis721 LtCn BT
1071
       34
  0
STYLE
  5
2566
330
3
100
AcDbSymbolTableRecord
100
AcDbTextStyleTableRecord
  2
CLARENDON
 70
     0
 40
0.0
 41
1.0
 50
0.0
 71
     0
 42
0.2
  3
clar45w.ttf
  4

1001
ACAD
1000
Clarendon
1071
        2
  0
STYLE
  5
2567
330
3
100
AcDbSymbolTableRecord
100
AcDbTextStyleTableRecord
  2
ARIAL_REGULER
 70
     0
 40
0.0
 41
1.0
 50
0.0
 71
     0
 42
0.2
  3
ARIAL.TTF
  4

1001
ACAD
1000
Arial
1071
       34
  0
STYLE
  5
256B
330
3
100
AcDbSymbolTableRecord
100
AcDbTextStyleTableRecord
  2
TIMES_NEW_ROMANS
 70
     0
 40
0.0
 41
1.0
 50
0.0
 71
     0
 42
3.0
  3
TIMESI.TTF
  4

1001
ACAD
1000
Times New Roman
1071
 16777234
  0
STYLE
  5
2778
330
3
100
AcDbSymbolTableRecord
100
AcDbTextStyleTableRecord
  2

 70
     1
 40
0.0
 41
1.0
 50
0.0
 71
     0
 42
6.0
  3
ltypeshp.shx
  4

  0
STYLE
  5
28F0
330
3
100
AcDbSymbolTableRecord
100
AcDbTextStyleTableRecord
  2
SLDTEXTSTYLE0
 70
     0
 40
0.0
 41
0.75
 50
0.0
 71
     0
 42
0.0
  3
txt
  4

  0
STYLE
  5
28F1
330
3
100
AcDbSymbolTableRecord
100
AcDbTextStyleTableRecord
  2
SLDTEXTSTYLE1
 70
     0
 40
0.0
 41
0.6547619345
 50
0.0
 71
     0
 42
0.0
  3
txt
  4

  0
ENDTAB
  0
TABLE
  2
VIEW
  5
6
330
0
100
AcDbSymbolTable
 70
     1
  0
ENDTAB
  0
TABLE
  2
UCS
  5
7
330
0
100
AcDbSymbolTable
 70
     0
  0
ENDTAB
  0
TABLE
  2
APPID
  5
9
330
0
100
AcDbSymbolTable
 70
    18
  0
APPID
  5
12
330
9
100
AcDbSymbolTableRecord
100
AcDbRegAppTableRecord
  2
ACAD
 70
     0
  0
APPID
  5
25C
330
9
100
AcDbSymbolTableRecord
100
AcDbRegAppTableRecord
  2
AVE_RENDER
 70
     0
  0
APPID
  5
25D
330
9
100
AcDbSymbolTableRecord
100
AcDbRegAppTableRecord
  2
AVE_MATERIAL
 70
     0
  0
APPID
  5
25E
330
9
100
AcDbSymbolTableRecord
100
AcDbRegAppTableRecord
  2
AVE_ENTITY_MATERIAL
 70
     0
  0
APPID
  5
25F
330
9
100
AcDbSymbolTableRecord
100
AcDbRegAppTableRecord
  2
AVE_FINISH
 70
     0
  0
APPID
  5
260
330
9
100
AcDbSymbolTableRecord
100
AcDbRegAppTableRecord
  2
AVE_GLOBAL
 70
     0
  0
APPID
  5
26D8
330
9
100
AcDbSymbolTableRecord
100
AcDbRegAppTableRecord
  2
DCO15
 70
     0
  0
APPID
  5
2765
330
9
100
AcDbSymbolTableRecord
100
AcDbRegAppTableRecord
  2
ACAD_EXEMPT_FROM_CAD_STANDARDS
 70
     0
  0
APPID
  5
276C
330
9
100
AcDbSymbolTableRecord
100
AcDbRegAppTableRecord
  2
ACAD_PSEXT
 70
     0
  0
APPID
  5
2776
330
9
100
AcDbSymbolTableRecord
100
AcDbRegAppTableRecord
  2
AcAecLayerStandard
 70
     0
  0
APPID
  5
2C93
330
9
100
AcDbSymbolTableRecord
100
AcDbRegAppTableRecord
  2
ACAD_DSTYLE_DIMTEXT_FILL
 70
     0
  0
APPID
  5
2C94
330
9
100
AcDbSymbolTableRecord
100
AcDbRegAppTableRecord
  2
ACAD_DSTYLE_DIMEXT_LENGTH
 70
     0
  0
APPID
  5
2C95
330
9
100
AcDbSymbolTableRecord
100
AcDbRegAppTableRecord
  2
ACAD_DSTYLE_DIMEXT_ENABLED
 70
     0
  0
APPID
  5
2C96
330
9
100
AcDbSymbolTableRecord
100
AcDbRegAppTableRecord
  2
ACAD_DSTYLE_DIM_LINETYPE
 70
     0
  0
APPID
  5
2C97
330
9
100
AcDbSymbolTableRecord
100
AcDbRegAppTableRecord
  2
ACAD_DSTYLE_DIM_EXT1_LINETYPE
 70
     0
  0
APPID
  5
2C98
330
9
100
AcDbSymbolTableRecord
100
AcDbRegAppTableRecord
  2
ACAD_DSTYLE_DIM_EXT2_LINETYPE
 70
     0
  0
APPID
  5
2E14
330
9
100
AcDbSymbolTableRecord
100
AcDbRegAppTableRecord
  2
ACAD_DSTYLE_DIMJOGGED_JOGANGLE_SYMBOL
 70
     0
  0
APPID
  5
4078
330
9
100
AcDbSymbolTableRecord
100
AcDbRegAppTableRecord
  2
ACAD_DSTYLE_DIMARC_LENGTH_SYMBOL
 70
     0
  0
ENDTAB
  0
TABLE
  2
DIMSTYLE
  5
A
330
0
100
AcDbSymbolTable
 70
     2
100
AcDbDimStyleTable
 71
     2
340
1C4
340
27E4
  0
DIMSTYLE
105
1C4
102
{ACAD_REACTORS
330
40F8
330
40FB
330
40FE
330
27FD
330
4CC0
102
}
330
A
100
AcDbSymbolTableRecord
100
AcDbDimStyleTableRecord
  2
STANDARD
 70
     0
  3
\X
  4
mm
 41
0.25
 42
0.25
 43
5.0
 44
0.25
 77
     1
140
0.125
141
0.0
147
0.0625
170
     1
174
     1
271
     3
272
     3
277
     4
340
11
1001
ACAD_DSTYLE_DIMEXT_LENGTH
1070
   378
1040
3.0
1001
ACAD_DSTYLE_DIMEXT_ENABLED
1070
   383
1070
     0
1001
ACAD_DSTYLE_DIMARC_LENGTH_SYMBOL
1070
   379
1070
     0
1001
ACAD_DSTYLE_DIMJOGGED_JOGANGLE_SYMBOL
1070
   384
1040
0.7853981633974483
  0
DIMSTYLE
105
27E4
330
A
100
AcDbSymbolTableRecord
100
AcDbDimStyleTableRecord
  2
COPY_OF_STANDARD
 70
     0
  3
mm
  4
"
 41
3.0
 42
2.0
 43
9.5
 44
1.0
 73
     0
 74
     0
 77
     1
140
3.0
141
2.0
143
0.03937
144
6.0
170
     1
171
     3
271
     0
272
     0
273
     7
274
     3
340
11
  0
ENDTAB
  0
TABLE
  2
BLOCK_RECORD
  5
1
330
0
100
AcDbSymbolTable
 70
    25
  0
BLOCK_RECORD
  5
1E
102
{ACAD_XDICTIONARY
360
1CF
102
}
330
1
100
AcDbSymbolTableRecord
100
AcDbBlockTableRecord
  2
*MODEL_SPACE
340
26D1
  0
BLOCK_RECORD
  5
2572
102
{ACAD_XDICTIONARY
360
26BF
102
}
330
1
100
AcDbSymbolTableRecord
100
AcDbBlockTableRecord
  2
*PAPER_SPACE
340
26D2
  0
BLOCK_RECORD
  5
20A
330
1
100
AcDbSymbolTableRecord
100
AcDbBlockTableRecord
  2
AVE_RENDER
340
0
102
{BLKREFS
331
2BB
331
2BC
331
2BD
331
2BE
331
2BF
331
2C0
331
2C1
331
2C2
102
}
  0
BLOCK_RECORD
  5
20D
330
1
100
AcDbSymbolTableRecord
100
AcDbBlockTableRecord
  2
AVE_GLOBAL
340
0
102
{BLKREFS
331
2C3
102
}
  0
BLOCK_RECORD
  5
210
330
1
100
AcDbSymbolTableRecord
100
AcDbBlockTableRecord
  2
*X2
340
0
102
{BLKREFS
331
2C4
102
}
  0
BLOCK_RECORD
  5
213
330
1
100
AcDbSymbolTableRecord
100
AcDbBlockTableRecord
  2
*X3
340
0
102
{BLKREFS
331
2C5
102
}
  0
BLOCK_RECORD
  5
27E5
102
{ACAD_XDICTIONARY
360
27E8
102
}
330
1
100
AcDbSymbolTableRecord
100
AcDbBlockTableRecord
  2
A$C3B3B7E48
340
0
1001
ACAD
1000
DesignCenter Data
1002
{
1070
     1
1070
     0
1002
}
  0
BLOCK_RECORD
  5
2830
330
1
100
AcDbSymbolTableRecord
100
AcDbBlockTableRecord
  2
COMP1
340
0
  0
BLOCK_RECORD
  5
283F
330
1
100
AcDbSymbolTableRecord
100
AcDbBlockTableRecord
  2
COMP2
340
0
  0
BLOCK_RECORD
  5
284D
330
1
100
AcDbSymbolTableRecord
100
AcDbBlockTableRecord
  2
COMP3
340
0
  0
BLOCK_RECORD
  5
285B
330
1
100
AcDbSymbolTableRecord
100
AcDbBlockTableRecord
  2
COMP4
340
0
  0
BLOCK_RECORD
  5
2869
330
1
100
AcDbSymbolTableRecord
100
AcDbBlockTableRecord
  2
COMP5
340
0
  0
BLOCK_RECORD
  5
2877
330
1
100
AcDbSymbolTableRecord
100
AcDbBlockTableRecord
  2
COMP6
340
0
  0
BLOCK_RECORD
  5
2884
330
1
100
AcDbSymbolTableRecord
100
AcDbBlockTableRecord
  2
COMP7
340
0
  0
BLOCK_RECORD
  5
2891
330
1
100
AcDbSymbolTableRecord
100
AcDbBlockTableRecord
  2
COMP8
340
0
  0
BLOCK_RECORD
  5
28A0
330
1
100
AcDbSymbolTableRecord
100
AcDbBlockTableRecord
  2
COMP9
340
0
  0
BLOCK_RECORD
  5
28AC
330
1
100
AcDbSymbolTableRecord
100
AcDbBlockTableRecord
  2
COMP10
340
0
  0
BLOCK_RECORD
  5
28B9
330
1
100
AcDbSymbolTableRecord
100
AcDbBlockTableRecord
  2
COMP11
340
0
  0
BLOCK_RECORD
  5
28C7
330
1
100
AcDbSymbolTableRecord
100
AcDbBlockTableRecord
  2
COMP12
340
0
  0
BLOCK_RECORD
  5
28D5
330
1
100
AcDbSymbolTableRecord
100
AcDbBlockTableRecord
  2
COMP13
340
0
  0
BLOCK_RECORD
  5
28E2
330
1
100
AcDbSymbolTableRecord
100
AcDbBlockTableRecord
  2
COMP14
340
0
  0
BLOCK_RECORD
  5
40AE
330
1
100
AcDbSymbolTableRecord
100
AcDbBlockTableRecord
  2
A$C25F94DAA
340
0
  0
BLOCK_RECORD
  5
4101
330
1
100
AcDbSymbolTableRecord
100
AcDbBlockTableRecord
  2
*D20
340
0
  0
BLOCK_RECORD
  5
410F
330
1
100
AcDbSymbolTableRecord
100
AcDbBlockTableRecord
  2
*D21
340
0
  0
BLOCK_RECORD
  5
411D
330
1
100
AcDbSymbolTableRecord
100
AcDbBlockTableRecord
  2
*D22
340
0
  0
ENDTAB
  0
ENDSEC
  0
SECTION
  2
BLOCKS
  0
BLOCK
  5
57
330
1E
100
AcDbEntity
  8
0
 62
     6
100
AcDbBlockBegin
  2
*MODEL_SPACE
 70
     0
 10
0.0
 20
0.0
 30
0.0
  3
*MODEL_SPACE
  1

  0
ENDBLK
  5
58
330
1E
100
AcDbEntity
  8
0
 62
     6
100
AcDbBlockEnd
  0
BLOCK
  5
25C2
330
2572
100
AcDbEntity
 67
     1
  8
0
 62
     6
100
AcDbBlockBegin
  2
*PAPER_SPACE
 70
     0
 10
0.0
 20
0.0
 30
0.0
  3
*PAPER_SPACE
  1

  0
ENDBLK
  5
25C3
330
2572
100
AcDbEntity
 67
     1
  8
0
100
AcDbBlockEnd
  0
BLOCK
  5
20B
330
20A
100
AcDbEntity
  8
0
100
AcDbBlockBegin
  2
AVE_RENDER
 70
     0
 10
0.0
 20
0.0
 30
0.0
  3
AVE_RENDER
  1
AVE_RENDER
  0
ENDBLK
  5
20C
330
20A
100
AcDbEntity
  8
0
100
AcDbBlockEnd
  0
BLOCK
  5
20E
330
20D
100
AcDbEntity
  8
0
100
AcDbBlockBegin
  2
AVE_GLOBAL
 70
     0
 10
0.0
 20
0.0
 30
0.0
  3
AVE_GLOBAL
  1
AVE_GLOBAL
  0
ENDBLK
  5
20F
330
20D
100
AcDbEntity
  8
0
100
AcDbBlockEnd
  0
BLOCK
  5
211
330
210
100
AcDbEntity
  8
0
100
AcDbBlockBegin
  2
*X2
 70
     1
 10
0.0
 20
0.0
 30
0.0
  3
*X2
  1

  0
ENDBLK
  5
212
330
210
100
AcDbEntity
  8
0
100
AcDbBlockEnd
  0
BLOCK
  5
214
330
213
100
AcDbEntity
  8
0
100
AcDbBlockBegin
  2
*X3
 70
     1
 10
0.0
 20
0.0
 30
0.0
  3
*X3
  1

  0
ENDBLK
  5
215
330
213
100
AcDbEntity
  8
0
100
AcDbBlockEnd
  0
BLOCK
  5
27E9
330
27E5
100
AcDbEntity
  8
0
 48
10.0
100
AcDbBlockBegin
  2
A$C3B3B7E48
 70
     0
 10
0.0
 20
0.0
 30
0.0
  3
A$C3B3B7E48
  1

  0
LEADER
  5
27E6
330
27E5
100
AcDbEntity
  8
0
100
AcDbLeader
  3
COPY_OF_STANDARD
 73
     0
 40
1.034788540245564
 41
12.60914051841746
 76
     3
 10
22.45505690009171
 20
21.74300246144742
 30
0.0
 10
15.98368698420026
 20
1.992608097354916
 30
0.0
 10
13.06356149712323
 20
1.992608097354916
 30
0.0
340
27E7
213
0.0
223
1.5
233
0.0
1001
ACAD
1000
DSTYLE
1002
{
1070
   147
1040
0.09
1070
    77
1070
     0
1002
}
  0
MTEXT
  5
27E7
102
{ACAD_REACTORS
330
27E6
102
}
330
27E5
100
AcDbEntity
  8
DIM
  6
Continuous
 62
     7
100
AcDbMText
 10
12.97356149712323
 20
0.4926080973549177
 30
0.0
 40
1.0
 41
0.0
 71
     9
 72
     1
  1
\A1;RIM OF LAVATORY
  7
BLACK
 73
     1
 44
1.0
  0
ENDBLK
  5
27EA
330
27E5
100
AcDbEntity
  8
0
 48
10.0
100
AcDbBlockEnd
  0
BLOCK
  5
2831
330
2830
100
AcDbEntity
  8
0
 62
     0
100
AcDbBlockBegin
  2
COMP1
 70
     0
 10
0.0
 20
0.0
 30
0.0
  3
COMP1
  1

  0
MTEXT
  5
2832
330
2830
100
AcDbEntity
  8
0
 62
     7
100
AcDbMText
 10
242.4893277755999
 20
132.4918626083
 30
0.0
 40
2.5
 41
0.0
 71
     1
 72
     5
  1
1
  7
SLDTEXTSTYLE0
 11
0.0
 21
1.0
 31
0.0
 73
     1
 44
1.0
  0
MTEXT
  5
2833
330
2830
100
AcDbEntity
  8
0
 62
     7
100
AcDbMText
 10
242.4893283373
 20
134.2106126083
 30
0.0
 40
2.5
 41
0.0
 71
     1
 72
     5
  1
3
  7
SLDTEXTSTYLE0
 11
0.0
 21
1.0
 31
0.0
 73
     1
 44
1.0
  0
LINE
  5
2834
330
2830
100
AcDbEntity
  8
PIC06
  6
Continuous
 62
     7
100
AcDbLine
 10
246.3210600957
 20
129.3644808273999
 30
0.0
 11
246.3210600957
 21
126.3644819610999
 31
0.0
  0
LINE
  5
2835
330
2830
100
AcDbEntity
  8
0
  6
Continuous
 62
     7
100
AcDbLine
 10
245.6960600957
 20
126.8644808274
 30
0.0
 11
246.3210600957
 21
129.3644808273999
 31
0.0
  0
LINE
  5
2836
330
2830
100
AcDbEntity
  8
0
  6
Continuous
 62
     7
100
AcDbLine
 10
246.3210600957
 20
129.3644808273999
 30
0.0
 11
246.9460600956999
 21
126.8644808274
 31
0.0
  0
LINE
  5
2837
330
2830
100
AcDbEntity
  8
PIC06
  6
Continuous
 62
     7
100
AcDbLine
 10
246.3210600957
 20
129.3644808273999
 30
0.0
 11
246.3210600957
 21
130.4478357922
 31
0.0
  0
LINE
  5
2838
330
2830
100
AcDbEntity
  8
PIC06
  6
Continuous
 62
     7
100
AcDbLine
 10
246.3210600957
 20
131.5311907571
 30
0.0
 11
246.3210600957
 21
130.4478357922
 31
0.0
  0
LINE
  5
2839
330
2830
100
AcDbEntity
  8
PIC06
  6
Continuous
 62
     7
100
AcDbLine
 10
246.3210600957
 20
131.5311907571
 30
0.0
 11
246.3210600957
 21
134.5311896234
 31
0.0
  0
LINE
  5
283A
330
2830
100
AcDbEntity
  8
0
  6
Continuous
 62
     7
100
AcDbLine
 10
246.9460600956999
 20
134.0311907570999
 30
0.0
 11
246.3210600957
 21
131.5311907571
 31
0.0
  0
LINE
  5
283B
330
2830
100
AcDbEntity
  8
0
  6
Continuous
 62
     7
100
AcDbLine
 10
246.3210600957
 20
131.5311907571
 30
0.0
 11
245.6960600957
 21
134.0311907570999
 31
0.0
  0
LINE
  5
283C
330
2830
100
AcDbEntity
  8
PIC06
  6
Continuous
 62
     7
100
AcDbLine
 10
233.9949472789999
 20
129.3644808273999
 30
0.0
 11
246.4877300903
 21
129.3644808273999
 31
0.0
  0
LINE
  5
283D
330
2830
100
AcDbEntity
  8
PIC06
  6
Continuous
 62
     7
100
AcDbLine
 10
233.9949472789999
 20
131.5311907571
 30
0.0
 11
246.4877300903
 21
131.5311907571
 31
0.0
  0
ENDBLK
  5
283E
330
2830
100
AcDbEntity
  8
0
100
AcDbBlockEnd
  0
BLOCK
  5
2840
330
283F
100
AcDbEntity
  8
0
 62
     0
100
AcDbBlockBegin
  2
COMP2
 70
     0
 10
0.0
 20
0.0
 30
0.0
  3
COMP2
  1

  0
MTEXT
  5
2841
330
283F
100
AcDbEntity
  8
0
 62
     7
100
AcDbMText
 10
191.3170728249999
 20
156.1241408422999
 30
0.0
 40
2.5
 41
0.0
 71
     1
 72
     5
  1
4
  7
SLDTEXTSTYLE0
 73
     1
 44
1.0
  0
MTEXT
  5
2842
330
283F
100
AcDbEntity
  8
0
 62
     7
100
AcDbMText
 10
193.035822825
 20
156.1241408422999
 30
0.0
 40
2.5
 41
0.0
 71
     1
 72
     5
  1
8
  7
SLDTEXTSTYLE0
 73
     1
 44
1.0
  0
MTEXT
  5
2843
330
283F
100
AcDbEntity
  8
0
 62
     7
100
AcDbMText
 10
194.7545728249999
 20
156.1241408422999
 30
0.0
 40
2.5
 41
0.0
 71
     1
 72
     5
  1
8
  7
SLDTEXTSTYLE0
 73
     1
 44
1.0
  0
LINE
  5
2844
330
283F
100
AcDbEntity
  8
PIC06
  6
Continuous
 62
     7
100
AcDbLine
 10
152.9933502524
 20
153.0241431036
 30
0.0
 11
193.6608085875999
 21
153.0241431036
 31
0.0
  0
LINE
  5
2845
330
283F
100
AcDbEntity
  8
0
  6
Continuous
 62
     7
100
AcDbLine
 10
155.4933502524
 20
152.3991431036
 30
0.0
 11
152.9933502524
 21
153.0241431036
 31
0.0
  0
LINE
  5
2846
330
283F
100
AcDbEntity
  8
0
  6
Continuous
 62
     7
100
AcDbLine
 10
152.9933502524
 20
153.0241431036
 30
0.0
 11
155.4933502524
 21
153.6491431036
 31
0.0
  0
LINE
  5
2847
330
283F
100
AcDbEntity
  8
PIC06
  6
Continuous
 62
     7
100
AcDbLine
 10
234.3282872681999
 20
153.0241431036
 30
0.0
 11
193.6608085875999
 21
153.0241431036
 31
0.0
  0
LINE
  5
2848
330
283F
100
AcDbEntity
  8
0
  6
Continuous
 62
     7
100
AcDbLine
 10
231.8282872681999
 20
153.6491431036
 30
0.0
 11
234.3282872681999
 21
153.0241431036
 31
0.0
  0
LINE
  5
2849
330
283F
100
AcDbEntity
  8
0
  6
Continuous
 62
     7
100
AcDbLine
 10
234.3282872681999
 20
153.0241431036
 30
0.0
 11
231.8282872681999
 21
152.3991431036
 31
0.0
  0
LINE
  5
284A
330
283F
100
AcDbEntity
  8
PIC06
  6
Continuous
 62
     7
100
AcDbLine
 10
152.9933502524
 20
203.8522759169
 30
0.0
 11
152.9933502524
 21
152.0241434815
 31
0.0
  0
LINE
  5
284B
330
283F
100
AcDbEntity
  8
PIC06
  6
Continuous
 62
     7
100
AcDbLine
 10
234.3282872681999
 20
203.8522759169
 30
0.0
 11
234.3282872681999
 21
152.0241434815
 31
0.0
  0
ENDBLK
  5
284C
330
283F
100
AcDbEntity
  8
0
100
AcDbBlockEnd
  0
BLOCK
  5
284E
330
284D
100
AcDbEntity
  8
0
 62
     0
100
AcDbBlockBegin
  2
COMP3
 70
     0
 10
0.0
 20
0.0
 30
0.0
  3
COMP3
  1

  0
MTEXT
  5
284F
330
284D
100
AcDbEntity
  8
0
 62
     7
100
AcDbMText
 10
191.3170728249999
 20
163.9790034922
 30
0.0
 40
2.5
 41
0.0
 71
     1
 72
     5
  1
4
  7
SLDTEXTSTYLE0
 73
     1
 44
1.0
  0
MTEXT
  5
2850
330
284D
100
AcDbEntity
  8
0
 62
     7
100
AcDbMText
 10
193.035822825
 20
163.9790034922
 30
0.0
 40
2.5
 41
0.0
 71
     1
 72
     5
  1
3
  7
SLDTEXTSTYLE0
 73
     1
 44
1.0
  0
MTEXT
  5
2851
330
284D
100
AcDbEntity
  8
0
 62
     7
100
AcDbMText
 10
194.7545728249999
 20
163.9790034922
 30
0.0
 40
2.5
 41
0.0
 71
     1
 72
     5
  1
2
  7
SLDTEXTSTYLE0
 73
     1
 44
1.0
  0
LINE
  5
2852
330
284D
100
AcDbEntity
  8
PIC06
  6
Continuous
 62
     7
100
AcDbLine
 10
157.6600999283
 20
160.8789955807
 30
0.0
 11
193.6608085875999
 21
160.8789955807
 31
0.0
  0
LINE
  5
2853
330
284D
100
AcDbEntity
  8
0
  6
Continuous
 62
     7
100
AcDbLine
 10
160.1600999282999
 20
160.2539955807
 30
0.0
 11
157.6600999283
 21
160.8789955807
 31
0.0
  0
LINE
  5
2854
330
284D
100
AcDbEntity
  8
0
  6
Continuous
 62
     7
100
AcDbLine
 10
157.6600999283
 20
160.8789955807
 30
0.0
 11
160.1600999282999
 21
161.5039955807
 31
0.0
  0
LINE
  5
2855
330
284D
100
AcDbEntity
  8
PIC06
  6
Continuous
 62
     7
100
AcDbLine
 10
229.6615274195999
 20
160.8789955807
 30
0.0
 11
193.6608085875999
 21
160.8789955807
 31
0.0
  0
LINE
  5
2856
330
284D
100
AcDbEntity
  8
0
  6
Continuous
 62
     7
100
AcDbLine
 10
227.1615274195999
 20
161.5039955807
 30
0.0
 11
229.6615274195999
 21
160.8789955807
 31
0.0
  0
LINE
  5
2857
330
284D
100
AcDbEntity
  8
0
  6
Continuous
 62
     7
100
AcDbLine
 10
229.6615274195999
 20
160.8789955807
 30
0.0
 11
227.1615274195999
 21
160.2539955807
 31
0.0
  0
LINE
  5
2858
330
284D
100
AcDbEntity
  8
PIC06
  6
Continuous
 62
     7
100
AcDbLine
 10
157.6600999283
 20
203.8522759169
 30
0.0
 11
157.6600999283
 21
159.8789959586
 31
0.0
  0
LINE
  5
2859
330
284D
100
AcDbEntity
  8
PIC06
  6
Continuous
 62
     7
100
AcDbLine
 10
229.6615274195999
 20
203.8522759169
 30
0.0
 11
229.6615274195999
 21
159.8789959586
 31
0.0
  0
ENDBLK
  5
285A
330
284D
100
AcDbEntity
  8
0
100
AcDbBlockEnd
  0
BLOCK
  5
285C
330
285B
100
AcDbEntity
  8
0
 62
     0
100
AcDbBlockBegin
  2
COMP4
 70
     0
 10
0.0
 20
0.0
 30
0.0
  3
COMP4
  1

  0
MTEXT
  5
285D
330
285B
100
AcDbEntity
  8
0
 62
     7
100
AcDbMText
 10
251.0228640514999
 20
201.5084587724
 30
0.0
 40
2.5
 41
0.0
 71
     1
 72
     5
  1
4
  7
SLDTEXTSTYLE0
 11
0.0
 21
1.0
 31
0.0
 73
     1
 44
1.0
  0
MTEXT
  5
285E
330
285B
100
AcDbEntity
  8
0
 62
     7
100
AcDbMText
 10
251.0228646132
 20
203.2272087723999
 30
0.0
 40
2.5
 41
0.0
 71
     1
 72
     5
  1
1
  7
SLDTEXTSTYLE0
 11
0.0
 21
1.0
 31
0.0
 73
     1
 44
1.0
  0
MTEXT
  5
285F
330
285B
100
AcDbEntity
  8
0
 62
     7
100
AcDbMText
 10
251.0228651748
 20
204.9459587723999
 30
0.0
 40
2.5
 41
0.0
 71
     1
 72
     5
  1
1
  7
SLDTEXTSTYLE0
 11
0.0
 21
1.0
 31
0.0
 73
     1
 44
1.0
  0
LINE
  5
2860
330
285B
100
AcDbEntity
  8
PIC06
  6
Continuous
 62
     7
100
AcDbLine
 10
254.1228719629
 20
169.6015920280999
 30
0.0
 11
254.1228719629
 21
203.8522148804999
 31
0.0
  0
LINE
  5
2861
330
285B
100
AcDbEntity
  8
0
  6
Continuous
 62
     7
100
AcDbLine
 10
254.7478719629
 20
172.1015920280999
 30
0.0
 11
254.1228719629
 21
169.6015920280999
 31
0.0
  0
LINE
  5
2862
330
285B
100
AcDbEntity
  8
0
  6
Continuous
 62
     7
100
AcDbLine
 10
254.1228719629
 20
169.6015920280999
 30
0.0
 11
253.4978719629
 21
172.1015920280999
 31
0.0
  0
LINE
  5
2863
330
285B
100
AcDbEntity
  8
PIC06
  6
Continuous
 62
     7
100
AcDbLine
 10
254.1228719629
 20
238.1028173875
 30
0.0
 11
254.1228719629
 21
203.8522148804999
 31
0.0
  0
LINE
  5
2864
330
285B
100
AcDbEntity
  8
0
  6
Continuous
 62
     7
100
AcDbLine
 10
253.4978719629
 20
235.6028173874999
 30
0.0
 11
254.1228719629
 21
238.1028173875
 31
0.0
  0
LINE
  5
2865
330
285B
100
AcDbEntity
  8
0
  6
Continuous
 62
     7
100
AcDbLine
 10
254.1228719629
 20
238.1028173875
 30
0.0
 11
254.7478719629
 21
235.6028173874999
 31
0.0
  0
LINE
  5
2866
330
285B
100
AcDbEntity
  8
PIC06
  6
Continuous
 62
     7
100
AcDbLine
 10
193.6608085875999
 20
169.6015920280999
 30
0.0
 11
255.122871585
 21
169.6015920280999
 31
0.0
  0
LINE
  5
2867
330
285B
100
AcDbEntity
  8
PIC06
  6
Continuous
 62
     7
100
AcDbLine
 10
193.6608085875999
 20
238.1028173875
 30
0.0
 11
255.122871585
 21
238.1028173875
 31
0.0
  0
ENDBLK
  5
2868
330
285B
100
AcDbEntity
  8
0
100
AcDbBlockEnd
  0
BLOCK
  5
286A
330
2869
100
AcDbEntity
  8
0
 62
     0
100
AcDbBlockBegin
  2
COMP5
 70
     0
 10
0.0
 20
0.0
 30
0.0
  3
COMP5
  1

  0
MTEXT
  5
286B
330
2869
100
AcDbEntity
  8
0
 62
     7
100
AcDbMText
 10
243.2210318387999
 20
201.5084587724
 30
0.0
 40
2.5
 41
0.0
 71
     1
 72
     5
  1
3
  7
SLDTEXTSTYLE0
 11
0.0
 21
1.0
 31
0.0
 73
     1
 44
1.0
  0
MTEXT
  5
286C
330
2869
100
AcDbEntity
  8
0
 62
     7
100
AcDbMText
 10
243.2210324005
 20
203.2272087723999
 30
0.0
 40
2.5
 41
0.0
 71
     1
 72
     5
  1
5
  7
SLDTEXTSTYLE0
 11
0.0
 21
1.0
 31
0.0
 73
     1
 44
1.0
  0
MTEXT
  5
286D
330
2869
100
AcDbEntity
  8
0
 62
     7
100
AcDbMText
 10
243.2210329620999
 20
204.9459587723999
 30
0.0
 40
2.5
 41
0.0
 71
     1
 72
     5
  1
5
  7
SLDTEXTSTYLE0
 11
0.0
 21
1.0
 31
0.0
 73
     1
 44
1.0
  0
LINE
  5
286E
330
2869
100
AcDbEntity
  8
PIC06
  6
Continuous
 62
     7
100
AcDbLine
 10
246.3210600957
 20
174.2682501493999
 30
0.0
 11
246.3210600957
 21
203.8522148804999
 31
0.0
  0
LINE
  5
286F
330
2869
100
AcDbEntity
  8
0
  6
Continuous
 62
     7
100
AcDbLine
 10
246.9460600956999
 20
176.7682501493999
 30
0.0
 11
246.3210600957
 21
174.2682501493999
 31
0.0
  0
LINE
  5
2870
330
2869
100
AcDbEntity
  8
0
  6
Continuous
 62
     7
100
AcDbLine
 10
246.3210600957
 20
174.2682501493999
 30
0.0
 11
245.6960600957
 21
176.7682501493999
 31
0.0
  0
LINE
  5
2871
330
2869
100
AcDbEntity
  8
PIC06
  6
Continuous
 62
     7
100
AcDbLine
 10
246.3210600957
 20
233.4361592661
 30
0.0
 11
246.3210600957
 21
203.8522148804999
 31
0.0
  0
LINE
  5
2872
330
2869
100
AcDbEntity
  8
0
  6
Continuous
 62
     7
100
AcDbLine
 10
245.6960600957
 20
230.9361592660999
 30
0.0
 11
246.3210600957
 21
233.4361592661
 31
0.0
  0
LINE
  5
2873
330
2869
100
AcDbEntity
  8
0
  6
Continuous
 62
     7
100
AcDbLine
 10
246.3210600957
 20
233.4361592661
 30
0.0
 11
246.9460600956999
 21
230.9361592660999
 31
0.0
  0
LINE
  5
2874
330
2869
100
AcDbEntity
  8
PIC06
  6
Continuous
 62
     7
100
AcDbLine
 10
193.6608085875999
 20
174.2682501493999
 30
0.0
 11
247.3210393722999
 21
174.2682501493999
 31
0.0
  0
LINE
  5
2875
330
2869
100
AcDbEntity
  8
PIC06
  6
Continuous
 62
     7
100
AcDbLine
 10
193.6608085875999
 20
233.4361592661
 30
0.0
 11
247.3210393722999
 21
233.4361592661
 31
0.0
  0
ENDBLK
  5
2876
330
2869
100
AcDbEntity
  8
0
100
AcDbBlockEnd
  0
BLOCK
  5
2878
330
2877
100
AcDbEntity
  8
0
 62
     0
100
AcDbBlockBegin
  2
COMP6
 70
     0
 10
0.0
 20
0.0
 30
0.0
  3
COMP6
  1

  0
MTEXT
  5
2879
330
2877
100
AcDbEntity
  8
0
 62
     7
100
AcDbMText
 10
338.0152941264
 20
94.13295351030001
 30
0.0
 40
2.5
 41
0.0
 71
     1
 72
     5
  1
9
  7
SLDTEXTSTYLE0
 73
     1
 44
1.0
  0
MTEXT
  5
287A
330
2877
100
AcDbEntity
  8
0
 62
     7
100
AcDbMText
 10
339.7340441264
 20
94.13295351030001
 30
0.0
 40
2.5
 41
0.0
 71
     1
 72
     5
  1
5
  7
SLDTEXTSTYLE0
 73
     1
 44
1.0
  0
LINE
  5
287B
330
2877
100
AcDbEntity
  8
PIC06
  6
Continuous
 62
     7
100
AcDbLine
 10
347.416482818
 20
91.0329557716
 30
0.0
 11
339.4996580747999
 21
91.0329557716
 31
0.0
  0
LINE
  5
287C
330
2877
100
AcDbEntity
  8
0
  6
Continuous
 62
     7
100
AcDbLine
 10
344.916482818
 20
91.6579557716
 30
0.0
 11
347.416482818
 21
91.0329557716
 31
0.0
  0
LINE
  5
287D
330
2877
100
AcDbEntity
  8
0
  6
Continuous
 62
     7
100
AcDbLine
 10
347.416482818
 20
91.0329557716
 30
0.0
 11
344.916482818
 21
90.4079557716
 31
0.0
  0
LINE
  5
287E
330
2877
100
AcDbEntity
  8
PIC06
  6
Continuous
 62
     7
100
AcDbLine
 10
331.5828129862
 20
91.0329557716
 30
0.0
 11
339.4996580747999
 21
91.0329557716
 31
0.0
  0
LINE
  5
287F
330
2877
100
AcDbEntity
  8
0
  6
Continuous
 62
     7
100
AcDbLine
 10
334.0828129861999
 20
90.4079557716
 30
0.0
 11
331.5828129862
 21
91.0329557716
 31
0.0
  0
LINE
  5
2880
330
2877
100
AcDbEntity
  8
0
  6
Continuous
 62
     7
100
AcDbLine
 10
331.5828129862
 20
91.0329557716
 30
0.0
 11
334.0828129861999
 21
91.6579557716
 31
0.0
  0
LINE
  5
2881
330
2877
100
AcDbEntity
  8
PIC06
  6
Continuous
 62
     7
100
AcDbLine
 10
347.416482818
 20
129.5311508219999
 30
0.0
 11
347.416482818
 21
90.03295614949999
 31
0.0
  0
LINE
  5
2882
330
2877
100
AcDbEntity
  8
PIC06
  6
Continuous
 62
     7
100
AcDbLine
 10
331.5828129862
 20
96.03031914520002
 30
0.0
 11
331.5828129862
 21
90.03295614949999
 31
0.0
  0
ENDBLK
  5
2883
330
2877
100
AcDbEntity
  8
0
100
AcDbBlockEnd
  0
BLOCK
  5
2885
330
2884
100
AcDbEntity
  8
0
 62
     0
100
AcDbBlockBegin
  2
COMP7
 70
     0
 10
0.0
 20
0.0
 30
0.0
  3
COMP7
  1

  0
MTEXT
  5
2886
330
2884
100
AcDbEntity
  8
0
 62
     7
100
AcDbMText
 10
189.9398073691999
 20
123.1327797874
 30
0.0
 40
2.5
 41
0.0
 71
     1
 72
     5
  1
6
  7
SLDTEXTSTYLE0
 73
     1
 44
1.0
  0
MTEXT
  5
2887
330
2884
100
AcDbEntity
  8
0
 62
     7
100
AcDbMText
 10
191.6585573691999
 20
123.1327797874
 30
0.0
 40
2.5
 41
0.0
 71
     1
 72
     5
  1
3
  7
SLDTEXTSTYLE0
 73
     1
 44
1.0
  0
LINE
  5
2888
330
2884
100
AcDbEntity
  8
PIC06
  6
Continuous
 62
     7
100
AcDbLine
 10
188.4107037578998
 20
119.3792757546
 30
0.0
 11
193.6608085875999
 21
119.3792757546
 31
0.0
  0
LINE
  5
2889
330
2884
100
AcDbEntity
  8
0
  6
Continuous
 62
     7
100
AcDbLine
 10
190.9107037579
 20
118.7542757546
 30
0.0
 11
188.4107037578998
 21
119.3792757546
 31
0.0
  0
LINE
  5
288A
330
2884
100
AcDbEntity
  8
0
  6
Continuous
 62
     7
100
AcDbLine
 10
188.4107037578998
 20
119.3792757546
 30
0.0
 11
190.9107037579
 21
120.0042757545999
 31
0.0
  0
LINE
  5
288B
330
2884
100
AcDbEntity
  8
PIC06
  6
Continuous
 62
     7
100
AcDbLine
 10
198.9109134173
 20
119.3792757546
 30
0.0
 11
193.6608085875999
 21
119.3792757546
 31
0.0
  0
LINE
  5
288C
330
2884
100
AcDbEntity
  8
0
  6
Continuous
 62
     7
100
AcDbLine
 10
196.4109134173
 20
120.0042757545999
 30
0.0
 11
198.9109134173
 21
119.3792757546
 31
0.0
  0
LINE
  5
288D
330
2884
100
AcDbEntity
  8
0
  6
Continuous
 62
     7
100
AcDbLine
 10
198.9109134173
 20
119.3792757546
 30
0.0
 11
196.4109134173
 21
118.7542757546
 31
0.0
  0
LINE
  5
288E
330
2884
100
AcDbEntity
  8
PIC06
  6
Continuous
 62
     7
100
AcDbLine
 10
188.4107037578998
 20
127.6144458841999
 30
0.0
 11
188.4107037578998
 21
118.3792761324999
 31
0.0
  0
LINE
  5
288F
330
2884
100
AcDbEntity
  8
PIC06
  6
Continuous
 62
     7
100
AcDbLine
 10
198.9109134173
 20
127.6144458841999
 30
0.0
 11
198.9109134173
 21
118.3792761324999
 31
0.0
  0
ENDBLK
  5
2890
330
2884
100
AcDbEntity
  8
0
100
AcDbBlockEnd
  0
BLOCK
  5
2892
330
2891
100
AcDbEntity
  8
0
 62
     0
100
AcDbBlockBegin
  2
COMP8
 70
     0
 10
0.0
 20
0.0
 30
0.0
  3
COMP8
  1

  0
MTEXT
  5
2893
330
2891
100
AcDbEntity
  8
0
 62
     7
100
AcDbMText
 10
178.4049386548
 20
120.0623439997
 30
0.0
 40
2.5
 41
0.0
 71
     1
 72
     5
  1
1
  7
SLDTEXTSTYLE0
 11
0.0
 21
1.0
 31
0.0
 73
     1
 44
1.0
  0
MTEXT
  5
2894
330
2891
100
AcDbEntity
  8
0
 62
     7
100
AcDbMText
 10
178.4049392164
 20
121.7810939997
 30
0.0
 40
2.5
 41
0.0
 71
     1
 72
     5
  1
3
  7
SLDTEXTSTYLE0
 11
0.0
 21
1.0
 31
0.0
 73
     1
 44
1.0
  0
LINE
  5
2895
330
2891
100
AcDbEntity
  8
PIC06
  6
Continuous
 62
     7
100
AcDbLine
 10
181.5049465661999
 20
126.5310909192999
 30
0.0
 11
181.5049465661999
 21
119.5623441885999
 31
0.0
  0
LINE
  5
2896
330
2891
100
AcDbEntity
  8
0
  6
Continuous
 62
     7
100
AcDbLine
 10
180.8799465662
 20
124.0310909193
 30
0.0
 11
181.5049465661999
 21
126.5310909192999
 31
0.0
  0
LINE
  5
2897
330
2891
100
AcDbEntity
  8
0
  6
Continuous
 62
     7
100
AcDbLine
 10
181.5049465661999
 20
126.5310909192999
 30
0.0
 11
182.1299465662
 21
124.0310909193
 31
0.0
  0
LINE
  5
2898
330
2891
100
AcDbEntity
  8
PIC06
  6
Continuous
 62
     7
100
AcDbLine
 10
181.5049465661999
 20
126.5310909192999
 30
0.0
 11
181.5049465661999
 21
127.6144458841999
 31
0.0
  0
LINE
  5
2899
330
2891
100
AcDbEntity
  8
PIC06
  6
Continuous
 62
     7
100
AcDbLine
 10
181.5049465661999
 20
128.6978008489999
 30
0.0
 11
181.5049465661999
 21
127.6144458841999
 31
0.0
  0
LINE
  5
289A
330
2891
100
AcDbEntity
  8
PIC06
  6
Continuous
 62
     7
100
AcDbLine
 10
181.5049465661999
 20
128.6978008489999
 30
0.0
 11
181.5049465661999
 21
131.6977997153
 31
0.0
  0
LINE
  5
289B
330
2891
100
AcDbEntity
  8
0
  6
Continuous
 62
     7
100
AcDbLine
 10
182.1299465662
 20
131.197800849
 30
0.0
 11
181.5049465661999
 21
128.6978008489999
 31
0.0
  0
LINE
  5
289C
330
2891
100
AcDbEntity
  8
0
  6
Continuous
 62
     7
100
AcDbLine
 10
181.5049465661999
 20
128.6978008489999
 30
0.0
 11
180.8799465662
 21
131.197800849
 31
0.0
  0
LINE
  5
289D
330
2891
100
AcDbEntity
  8
PIC06
  6
Continuous
 62
     7
100
AcDbLine
 10
189.4940587227999
 20
126.5310909192999
 30
0.0
 11
180.5049469440999
 21
126.5310909192999
 31
0.0
  0
LINE
  5
289E
330
2891
100
AcDbEntity
  8
PIC06
  6
Continuous
 62
     7
100
AcDbLine
 10
189.4940587227999
 20
128.6978008489999
 30
0.0
 11
180.5049469440999
 21
128.6978008489999
 31
0.0
  0
ENDBLK
  5
289F
330
2891
100
AcDbEntity
  8
0
100
AcDbBlockEnd
  0
BLOCK
  5
28A1
330
28A0
100
AcDbEntity
  8
0
 62
     0
100
AcDbBlockBegin
  2
COMP9
 70
     0
 10
0.0
 20
0.0
 30
0.0
  3
COMP9
  1

  0
MTEXT
  5
28A2
330
28A0
100
AcDbEntity
  8
0
 62
     7
100
AcDbMText
 10
308.8349314801
 20
132.3235039406
 30
0.0
 40
2.5
 41
0.0
 71
     1
 72
     5
  1
3
  7
SLDTEXTSTYLE0
 11
0.0
 21
1.0
 31
0.0
 73
     1
 44
1.0
  0
MTEXT
  5
28A3
330
28A0
100
AcDbEntity
  8
0
 62
     7
100
AcDbMText
 10
308.8349320416999
 20
134.0422539406
 30
0.0
 40
2.5
 41
0.0
 71
     1
 72
     5
  1
0
  7
SLDTEXTSTYLE0
 11
0.0
 21
1.0
 31
0.0
 73
     1
 44
1.0
  0
LINE
  5
28A4
330
28A0
100
AcDbEntity
  8
PIC06
  6
Continuous
 62
     7
100
AcDbLine
 10
312.5531564881
 20
131.5311907571
 30
0.0
 11
312.5531564881
 21
134.5311896234
 31
0.0
  0
LINE
  5
28A5
330
28A0
100
AcDbEntity
  8
0
  6
Continuous
 62
     7
100
AcDbLine
 10
313.1781564880999
 20
134.0311907570999
 30
0.0
 11
312.5531564881
 21
131.5311907571
 31
0.0
  0
LINE
  5
28A6
330
28A0
100
AcDbEntity
  8
0
  6
Continuous
 62
     7
100
AcDbLine
 10
312.5531564881
 20
131.5311907571
 30
0.0
 11
311.9281564881
 21
134.0311907570999
 31
0.0
  0
LINE
  5
28A7
330
28A0
100
AcDbEntity
  8
PIC06
  6
Continuous
 62
     7
100
AcDbLine
 10
312.5531564881
 20
131.5311907571
 30
0.0
 11
312.5531564881
 21
129.0311408381999
 31
0.0
  0
LINE
  5
28A8
330
28A0
100
AcDbEntity
  8
PIC06
  6
Continuous
 62
     7
100
AcDbLine
 10
312.5531564881
 20
126.5310909192999
 30
0.0
 11
312.5531564881
 21
129.0311408381999
 31
0.0
  0
LINE
  5
28A9
330
28A0
100
AcDbEntity
  8
PIC06
  6
Continuous
 62
     7
100
AcDbLine
 10
313.4272584140999
 20
131.5311907571
 30
0.0
 11
311.5531568659999
 21
131.5311907571
 31
0.0
  0
LINE
  5
28AA
330
28A0
100
AcDbEntity
  8
PIC06
  6
Continuous
 62
     7
100
AcDbLine
 10
314.70198276
 20
126.5310909192999
 30
0.0
 11
311.5531568659999
 21
126.5310909192999
 31
0.0
  0
ENDBLK
  5
28AB
330
28A0
100
AcDbEntity
  8
0
100
AcDbBlockEnd
  0
BLOCK
  5
28AD
330
28AC
100
AcDbEntity
  8
0
 62
     0
100
AcDbBlockBegin
  2
COMP10
 70
     0
 10
0.0
 20
0.0
 30
0.0
  3
COMP10
  1

  0
MTEXT
  5
28AE
330
28AC
100
AcDbEntity
  8
0
 62
     7
100
AcDbMText
 10
309.4531485767
 20
115.0204952814
 30
0.0
 40
2.5
 41
0.0
 71
     1
 72
     5
  1
1
  7
SLDTEXTSTYLE0
 11
0.0
 21
1.0
 31
0.0
 73
     1
 44
1.0
  0
MTEXT
  5
28AF
330
28AC
100
AcDbEntity
  8
0
 62
     7
100
AcDbMText
 10
309.4531491384
 20
116.7392452814
 30
0.0
 40
2.5
 41
0.0
 71
     1
 72
     5
  1
1
  7
SLDTEXTSTYLE0
 11
0.0
 21
1.0
 31
0.0
 73
     1
 44
1.0
  0
MTEXT
  5
28B0
330
28AC
100
AcDbEntity
  8
0
 62
     7
100
AcDbMText
 10
309.4531497001
 20
118.4579952813999
 30
0.0
 40
2.5
 41
0.0
 71
     1
 72
     5
  1
0
  7
SLDTEXTSTYLE0
 11
0.0
 21
1.0
 31
0.0
 73
     1
 44
1.0
  0
LINE
  5
28B1
330
28AC
100
AcDbEntity
  8
PIC06
  6
Continuous
 62
     7
100
AcDbLine
 10
312.5531564881
 20
126.5310909192999
 30
0.0
 11
312.5531564881
 21
117.3642412166999
 31
0.0
  0
LINE
  5
28B2
330
28AC
100
AcDbEntity
  8
0
  6
Continuous
 62
     7
100
AcDbLine
 10
311.9281564881
 20
124.0310909193
 30
0.0
 11
312.5531564881
 21
126.5310909192999
 31
0.0
  0
LINE
  5
28B3
330
28AC
100
AcDbEntity
  8
0
  6
Continuous
 62
     7
100
AcDbLine
 10
312.5531564881
 20
126.5310909192999
 30
0.0
 11
313.1781564880999
 21
124.0310909193
 31
0.0
  0
LINE
  5
28B4
330
28AC
100
AcDbEntity
  8
PIC06
  6
Continuous
 62
     7
100
AcDbLine
 10
312.5531564881
 20
108.1973915141
 30
0.0
 11
312.5531564881
 21
117.3642412166999
 31
0.0
  0
LINE
  5
28B5
330
28AC
100
AcDbEntity
  8
0
  6
Continuous
 62
     7
100
AcDbLine
 10
313.1781564880999
 20
110.6973915141
 30
0.0
 11
312.5531564881
 21
108.1973915141
 31
0.0
  0
LINE
  5
28B6
330
28AC
100
AcDbEntity
  8
0
  6
Continuous
 62
     7
100
AcDbLine
 10
312.5531564881
 20
108.1973915141
 30
0.0
 11
311.9281564881
 21
110.6973915141
 31
0.0
  0
LINE
  5
28B7
330
28AC
100
AcDbEntity
  8
PIC06
  6
Continuous
 62
     7
100
AcDbLine
 10
325.847489321
 20
108.1973915141
 30
0.0
 11
311.5531568659999
 21
108.1973915141
 31
0.0
  0
ENDBLK
  5
28B8
330
28AC
100
AcDbEntity
  8
0
100
AcDbBlockEnd
  0
BLOCK
  5
28BA
330
28B9
100
AcDbEntity
  8
0
 62
     0
100
AcDbBlockBegin
  2
COMP11
 70
     0
 10
0.0
 20
0.0
 30
0.0
  3
COMP11
  1

  0
MTEXT
  5
28BB
330
28B9
100
AcDbEntity
  8
0
 62
     7
100
AcDbMText
 10
329.2390772237
 20
120.2335316307999
 30
0.0
 40
2.5
 41
0.0
 71
     1
 72
     5
  1
%%c
  7
SLDTEXTSTYLE0
 73
     1
 44
1.0
  0
MTEXT
  5
28BC
330
28B9
100
AcDbEntity
  8
0
 62
     7
100
AcDbMText
 10
330.9578272237
 20
120.2335316307999
 30
0.0
 40
2.5
 41
0.0
 71
     1
 72
     5
  1
6
  7
SLDTEXTSTYLE0
 73
     1
 44
1.0
  0
MTEXT
  5
28BD
330
28B9
100
AcDbEntity
  8
0
 62
     7
100
AcDbMText
 10
332.6765772237
 20
120.2335316307999
 30
0.0
 40
2.5
 41
0.0
 71
     1
 72
     5
  1
4
  7
SLDTEXTSTYLE0
 73
     1
 44
1.0
  0
LINE
  5
28BE
330
28B9
100
AcDbEntity
  8
PIC06
  6
Continuous
 62
     7
100
AcDbLine
 10
326.2493731593
 20
117.1335338921
 30
0.0
 11
331.5828129862
 21
117.1335338921
 31
0.0
  0
LINE
  5
28BF
330
28B9
100
AcDbEntity
  8
0
  6
Continuous
 62
     7
100
AcDbLine
 10
328.7493731592999
 20
116.5085338921
 30
0.0
 11
326.2493731593
 21
117.1335338921
 31
0.0
  0
LINE
  5
28C0
330
28B9
100
AcDbEntity
  8
0
  6
Continuous
 62
     7
100
AcDbLine
 10
326.2493731593
 20
117.1335338921
 30
0.0
 11
328.7493731592999
 21
117.7585338921
 31
0.0
  0
LINE
  5
28C1
330
28B9
100
AcDbEntity
  8
PIC06
  6
Continuous
 62
     7
100
AcDbLine
 10
336.9162731587
 20
117.1335338921
 30
0.0
 11
331.5828129862
 21
117.1335338921
 31
0.0
  0
LINE
  5
28C2
330
28B9
100
AcDbEntity
  8
0
  6
Continuous
 62
     7
100
AcDbLine
 10
334.4162731587
 20
117.7585338921
 30
0.0
 11
336.9162731587
 21
117.1335338921
 31
0.0
  0
LINE
  5
28C3
330
28B9
100
AcDbEntity
  8
0
  6
Continuous
 62
     7
100
AcDbLine
 10
336.9162731587
 20
117.1335338921
 30
0.0
 11
334.4162731587
 21
116.5085338921
 31
0.0
  0
LINE
  5
28C4
330
28B9
100
AcDbEntity
  8
PIC06
  6
Continuous
 62
     7
100
AcDbLine
 10
326.2493731593
 20
108.1973915141
 30
0.0
 11
326.2493731593
 21
118.1335335141999
 31
0.0
  0
LINE
  5
28C5
330
28B9
100
AcDbEntity
  8
PIC06
  6
Continuous
 62
     7
100
AcDbLine
 10
336.9162731587
 20
108.1973915141
 30
0.0
 11
336.9162731587
 21
118.1335335141999
 31
0.0
  0
ENDBLK
  5
28C6
330
28B9
100
AcDbEntity
  8
0
100
AcDbBlockEnd
  0
BLOCK
  5
28C8
330
28C7
100
AcDbEntity
  8
0
 62
     0
100
AcDbBlockBegin
  2
COMP12
 70
     0
 10
0.0
 20
0.0
 30
0.0
  3
COMP12
  1

  0
MTEXT
  5
28C9
330
28C7
100
AcDbEntity
  8
0
 62
     7
100
AcDbMText
 10
329.2390772237
 20
115.0031517229
 30
0.0
 40
2.5
 41
0.0
 71
     1
 72
     5
  1
%%c
  7
SLDTEXTSTYLE0
 73
     1
 44
1.0
  0
MTEXT
  5
28CA
330
28C7
100
AcDbEntity
  8
0
 62
     7
100
AcDbMText
 10
330.9578272237
 20
115.0031517229
 30
0.0
 40
2.5
 41
0.0
 71
     1
 72
     5
  1
4
  7
SLDTEXTSTYLE0
 73
     1
 44
1.0
  0
MTEXT
  5
28CB
330
28C7
100
AcDbEntity
  8
0
 62
     7
100
AcDbMText
 10
332.6765772237
 20
115.0031517229
 30
0.0
 40
2.5
 41
0.0
 71
     1
 72
     5
  1
4
  7
SLDTEXTSTYLE0
 73
     1
 44
1.0
  0
LINE
  5
28CC
330
28C7
100
AcDbEntity
  8
PIC06
  6
Continuous
 62
     7
100
AcDbLine
 10
327.9160731051999
 20
111.9031539842
 30
0.0
 11
331.5828129862
 21
111.9031539842
 31
0.0
  0
LINE
  5
28CD
330
28C7
100
AcDbEntity
  8
0
  6
Continuous
 62
     7
100
AcDbLine
 10
330.4160731051999
 20
111.2781539842
 30
0.0
 11
327.9160731051999
 21
111.9031539842
 31
0.0
  0
LINE
  5
28CE
330
28C7
100
AcDbEntity
  8
0
  6
Continuous
 62
     7
100
AcDbLine
 10
327.9160731051999
 20
111.9031539842
 30
0.0
 11
330.4160731051999
 21
112.5281539841999
 31
0.0
  0
LINE
  5
28CF
330
28C7
100
AcDbEntity
  8
PIC06
  6
Continuous
 62
     7
100
AcDbLine
 10
335.2495528672999
 20
111.9031539842
 30
0.0
 11
331.5828129862
 21
111.9031539842
 31
0.0
  0
LINE
  5
28D0
330
28C7
100
AcDbEntity
  8
0
  6
Continuous
 62
     7
100
AcDbLine
 10
332.7495528672999
 20
112.5281539841999
 30
0.0
 11
335.2495528672999
 21
111.9031539842
 31
0.0
  0
LINE
  5
28D1
330
28C7
100
AcDbEntity
  8
0
  6
Continuous
 62
     7
100
AcDbLine
 10
335.2495528672999
 20
111.9031539842
 30
0.0
 11
332.7495528672999
 21
111.2781539842
 31
0.0
  0
LINE
  5
28D2
330
28C7
100
AcDbEntity
  8
PIC06
  6
Continuous
 62
     7
100
AcDbLine
 10
327.9160731051999
 20
106.5306915682
 30
0.0
 11
327.9160731051999
 21
112.9031536062999
 31
0.0
  0
LINE
  5
28D3
330
28C7
100
AcDbEntity
  8
PIC06
  6
Continuous
 62
     7
100
AcDbLine
 10
335.2495528672999
 20
106.5306915682
 30
0.0
 11
335.2495528672999
 21
112.9031536062999
 31
0.0
  0
ENDBLK
  5
28D4
330
28C7
100
AcDbEntity
  8
0
100
AcDbBlockEnd
  0
BLOCK
  5
28D6
330
28D5
100
AcDbEntity
  8
0
 62
     0
100
AcDbBlockBegin
  2
COMP13
 70
     0
 10
0.0
 20
0.0
 30
0.0
  3
COMP13
  1

  0
MTEXT
  5
28D7
330
28D5
100
AcDbEntity
  8
0
 62
     7
100
AcDbMText
 10
309.0136866769
 20
101.4501559609
 30
0.0
 40
2.5
 41
0.0
 71
     1
 72
     5
  1
4
  7
SLDTEXTSTYLE0
 11
0.0
 21
1.0
 31
0.0
 73
     1
 44
1.0
  0
MTEXT
  5
28D8
330
28D5
100
AcDbEntity
  8
0
 62
     7
100
AcDbMText
 10
309.0136872386
 20
103.1689059609
 30
0.0
 40
2.5
 41
0.0
 71
     1
 72
     5
  1
8
  7
SLDTEXTSTYLE0
 11
0.0
 21
1.0
 31
0.0
 73
     1
 44
1.0
  0
LINE
  5
28D9
330
28D5
100
AcDbEntity
  8
PIC06
  6
Continuous
 62
     7
100
AcDbLine
 10
312.5531564881
 20
108.1973915141
 30
0.0
 11
312.5531564881
 21
104.1973116439
 31
0.0
  0
LINE
  5
28DA
330
28D5
100
AcDbEntity
  8
0
  6
Continuous
 62
     7
100
AcDbLine
 10
311.9281564881
 20
105.6973915141
 30
0.0
 11
312.5531564881
 21
108.1973915141
 31
0.0
  0
LINE
  5
28DB
330
28D5
100
AcDbEntity
  8
0
  6
Continuous
 62
     7
100
AcDbLine
 10
312.5531564881
 20
108.1973915141
 30
0.0
 11
313.1781564880999
 21
105.6973915141
 31
0.0
  0
LINE
  5
28DC
330
28D5
100
AcDbEntity
  8
PIC06
  6
Continuous
 62
     7
100
AcDbLine
 10
312.5531564881
 20
100.1972317736999
 30
0.0
 11
312.5531564881
 21
104.1973116439
 31
0.0
  0
LINE
  5
28DD
330
28D5
100
AcDbEntity
  8
0
  6
Continuous
 62
     7
100
AcDbLine
 10
313.1781564880999
 20
102.6972317737
 30
0.0
 11
312.5531564881
 21
100.1972317736999
 31
0.0
  0
LINE
  5
28DE
330
28D5
100
AcDbEntity
  8
0
  6
Continuous
 62
     7
100
AcDbLine
 10
312.5531564881
 20
100.1972317736999
 30
0.0
 11
311.9281564881
 21
102.6972317737
 31
0.0
  0
LINE
  5
28DF
330
28D5
100
AcDbEntity
  8
PIC06
  6
Continuous
 62
     7
100
AcDbLine
 10
325.847489321
 20
108.1973915141
 30
0.0
 11
311.5531568659999
 21
108.1973915141
 31
0.0
  0
LINE
  5
28E0
330
28D5
100
AcDbEntity
  8
PIC06
  6
Continuous
 62
     7
100
AcDbLine
 10
327.1464044168
 20
100.1972317736999
 30
0.0
 11
311.5531568659999
 21
100.1972317736999
 31
0.0
  0
ENDBLK
  5
28E1
330
28D5
100
AcDbEntity
  8
0
100
AcDbBlockEnd
  0
BLOCK
  5
28E3
330
28E2
100
AcDbEntity
  8
0
 62
     0
100
AcDbBlockBegin
  2
COMP14
 70
     0
 10
0.0
 20
0.0
 30
0.0
  3
COMP14
  1

  0
MTEXT
  5
28E4
330
28E2
100
AcDbEntity
  8
0
 62
     7
100
AcDbMText
 10
251.0228640514999
 20
113.5204653301
 30
0.0
 40
2.5
 41
0.0
 71
     1
 72
     5
  1
1
  7
SLDTEXTSTYLE0
 11
0.0
 21
1.0
 31
0.0
 73
     1
 44
1.0
  0
MTEXT
  5
28E5
330
28E2
100
AcDbEntity
  8
0
 62
     7
100
AcDbMText
 10
251.0228646132
 20
115.2392153300999
 30
0.0
 40
2.5
 41
0.0
 71
     1
 72
     5
  1
8
  7
SLDTEXTSTYLE0
 11
0.0
 21
1.0
 31
0.0
 73
     1
 44
1.0
  0
MTEXT
  5
28E6
330
28E2
100
AcDbEntity
  8
0
 62
     7
100
AcDbMText
 10
251.0228651748
 20
116.9579653300999
 30
0.0
 40
2.5
 41
0.0
 71
     1
 72
     5
  1
8
  7
SLDTEXTSTYLE0
 11
0.0
 21
1.0
 31
0.0
 73
     1
 44
1.0
  0
LINE
  5
28E7
330
28E2
100
AcDbEntity
  8
PIC06
  6
Continuous
 62
     7
100
AcDbLine
 10
254.1228719629
 20
131.5311907571
 30
0.0
 11
254.1228719629
 21
115.8642112654
 31
0.0
  0
LINE
  5
28E8
330
28E2
100
AcDbEntity
  8
0
  6
Continuous
 62
     7
100
AcDbLine
 10
253.4978719629
 20
129.0311907571
 30
0.0
 11
254.1228719629
 21
131.5311907571
 31
0.0
  0
LINE
  5
28E9
330
28E2
100
AcDbEntity
  8
0
  6
Continuous
 62
     7
100
AcDbLine
 10
254.1228719629
 20
131.5311907571
 30
0.0
 11
254.7478719629
 21
129.0311907571
 31
0.0
  0
LINE
  5
28EA
330
28E2
100
AcDbEntity
  8
PIC06
  6
Continuous
 62
     7
100
AcDbLine
 10
254.1228719629
 20
100.1972317736999
 30
0.0
 11
254.1228719629
 21
115.8642112654
 31
0.0
  0
LINE
  5
28EB
330
28E2
100
AcDbEntity
  8
0
  6
Continuous
 62
     7
100
AcDbLine
 10
254.7478719629
 20
102.6972317737
 30
0.0
 11
254.1228719629
 21
100.1972317736999
 31
0.0
  0
LINE
  5
28EC
330
28E2
100
AcDbEntity
  8
0
  6
Continuous
 62
     7
100
AcDbLine
 10
254.1228719629
 20
100.1972317736999
 30
0.0
 11
253.4978719629
 21
102.6972317737
 31
0.0
  0
LINE
  5
28ED
330
28E2
100
AcDbEntity
  8
PIC06
  6
Continuous
 62
     7
100
AcDbLine
 10
233.9949472789999
 20
131.5311907571
 30
0.0
 11
255.122871585
 21
131.5311907571
 31
0.0
  0
LINE
  5
28EE
330
28E2
100
AcDbEntity
  8
PIC06
  6
Continuous
 62
     7
100
AcDbLine
 10
197.6370435807
 20
100.1972317736999
 30
0.0
 11
255.122871585
 21
100.1972317736999
 31
0.0
  0
ENDBLK
  5
28EF
330
28E2
100
AcDbEntity
  8
0
100
AcDbBlockEnd
  0
BLOCK
  5
40AF
330
40AE
100
AcDbEntity
  8
0
100
AcDbBlockBegin
  2
A$C25F94DAA
 70
     0
 10
0.0
 20
0.0
 30
0.0
  3
A$C25F94DAA
  1

  0
HATCH
  5
40B0
330
40AE
100
AcDbEntity
  8
G__TOTO
100
AcDbHatch
 10
0.0
 20
0.0
 30
0.0
210
0.0
220
0.0
230
1.0
  2
SOLID
 70
     1
 71
     0
 91
       10
 92
        7
 72
     1
 73
     1
 93
       20
 10
13.19402521885484
 20
18.25712700364507
 42
0.0
 10
15.01373159391248
 20
18.25712700364507
 42
-0.4142752124674323
 10
19.08352437970567
 20
14.18647750956153
 42
0.0
 10
19.08329368943001
 20
13.09046800649559
 42
0.0
 10
21.49480086177953
 20
13.09046800649559
 42
0.0
 10
21.49639592936968
 20
20.6686341225768
 42
0.0
 10
0.0001576684527933
 20
20.6686341225768
 42
0.0
 10
0.0000006681085978
 20
13.09046800649559
 42
0.0
 10
2.411028174539453
 20
13.09046800649559
 42
0.0
 10
2.411259225421126
 20
14.18819074583983
 42
-0.4141519149660894
 10
6.481052011214764
 20
18.25712700364507
 42
0.0
 10
8.302581603377056
 20
18.25712700364507
 42
0.0
 10
8.299611386899577
 20
4.615898124752447
 42
-0.4141497897727592
 10
6.783678509421122
 20
3.10029528781956
 42
0.0
 10
4.200018873120541
 20
3.10029528781956
 42
0.0
 10
4.199493795927252
 20
0.6887881688869584
 42
0.0
 10
17.28946242972519
 20
0.6887881688869584
 42
0.0
 10
17.2899875069185
 20
3.10029528781956
 42
0.0
 10
14.70698802359418
 20
3.10029528781956
 42
-0.4142773378492039
 10
13.19105514611615
 20
4.616558277712782
 42
0.0
 97
        0
 92
        7
 72
     1
 73
     1
 93
       20
 10
64.73632732604989
 20
18.25712700364507
 42
0.0
 10
66.55603370110809
 20
18.25712700364507
 42
-0.4142752124674332
 10
70.62582648690121
 20
14.18647750956153
 42
0.0
 10
70.62559579662601
 20
13.09046800649559
 42
0.0
 10
73.037102968976
 20
13.09046800649559
 42
0.0
 10
73.03869803656571
 20
20.6686341225768
 42
0.0
 10
51.54245977564932
 20
20.6686341225768
 42
0.0
 10
51.54230277530465
 20
13.09046800649559
 42
0.0
 10
53.95333028173549
 20
13.09046800649559
 42
0.0
 10
53.95356133261721
 20
14.18819074583983
 42
-0.414151914966089
 10
58.02335411840989
 20
18.25712700364507
 42
0.0
 10
59.84488371057349
 20
18.25712700364507
 42
0.0
 10
59.84191349409511
 20
4.615898124752447
 42
-0.41414978977276
 10
58.32598061661709
 20
3.10029528781956
 42
0.0
 10
55.7423209803165
 20
3.10029528781956
 42
0.0
 10
55.74179590312279
 20
0.6887881688869584
 42
0.0
 10
68.83176453692171
 20
0.6887881688869584
 42
0.0
 10
68.832289614115
 20
3.10029528781956
 42
0.0
 10
66.24929013078972
 20
3.10029528781956
 42
-0.4142773378492051
 10
64.73335725331221
 20
4.616558277712782
 42
0.0
 97
        0
 92
       16
 93
        4
 72
     2
 10
36.51755001847156
 20
7.987251252895021
 40
5.57574368554687
 50
199.1202649999999
 51
340.867675
 73
     1
 72
     2
 10
28.76763787198722
 20
10.67579613375378
 40
13.77875638476562
 50
340.867675
 51
379.193527
 73
     1
 72
     2
 10
36.51811670206568
 20
13.37381659078562
 40
5.572097973632804
 50
19.193527
 51
160.7944129999999
 73
     1
 72
     2
 10
44.26802742472154
 20
10.67416513863689
 40
13.77875638476562
 50
160.7944129999999
 51
199.1202649999999
 73
     1
 97
        0
 92
        1
 93
        4
 72
     2
 10
35.24335697452639
 20
10.67511483199655
 40
10.33431681445309
 50
142.997119
 51
216.4375859999998
 73
     1
 72
     2
 10
36.51816012882331
 20
12.40118037691831
 40
12.40118060449218
 50
219.356321
 51
320.61032
 73
     1
 72
     2
 10
37.7923090340961
 20
10.67484644039484
 40
10.33431681445309
 50
323.5257889999999
 51
396.965523
 73
     1
 72
     2
 10
36.51750659171391
 20
8.956241754848292
 40
12.40118060449218
 50
39.769149
 51
140.196876
 73
     1
 97
        0
 92
        1
 93
        4
 72
     2
 10
86.7847006405419
 20
10.67511483199655
 40
10.33431681445309
 50
142.997119
 51
216.4375859999998
 73
     1
 72
     2
 10
88.0595037948388
 20
12.40118037691831
 40
12.40118060449218
 50
219.356321
 51
320.61032
 73
     1
 72
     2
 10
89.33365270011208
 20
10.67484644039484
 40
10.33431681445309
 50
323.5257889999999
 51
396.965523
 73
     1
 72
     2
 10
88.058850257729
 20
8.956241754848292
 40
12.40118060449218
 50
39.769149
 51
140.196876
 73
     1
 97
        0
 92
       16
 93
        4
 72
     2
 10
88.05889368448708
 20
7.987251252895021
 40
5.57574368554687
 50
199.1202649999999
 51
340.867675
 73
     1
 72
     2
 10
80.3089815380032
 20
10.67579613375378
 40
13.77875638476562
 50
340.867675
 51
379.193527
 73
     1
 72
     2
 10
88.05946036808121
 20
13.37381659078562
 40
5.572097973632804
 50
19.193527
 51
160.7944129999999
 73
     1
 72
     2
 10
95.80937109073699
 20
10.67416513863689
 40
13.77875638476562
 50
160.7944129999999
 51
199.1202649999999
 73
     1
 97
        0
 92
        0
 93
       67
 72
     1
 10
102.9465800946437
 20
19.89683811129339
 11
102.9627405438624
 21
19.89661670601957
 72
     1
 10
102.9627405438624
 20
19.89661670601957
 11
102.9959477753077
 21
19.8955096796528
 72
     1
 10
102.9959477753074
 20
19.89550967965237
 11
103.0280479803854
 21
19.89307493355886
 72
     1
 10
103.0280479803852
 20
19.89307493355907
 11
103.0594832577288
 21
19.88953244918398
 72
     1
 10
103.059483257729
 20
19.88953244918376
 11
103.0898122206197
 21
19.88466224508215
 72
     1
 10
103.0898122206199
 20
19.88466224508215
 11
103.1194776796044
 21
19.87846360933986
 72
     1
 10
103.1194776796044
 20
19.87846360933986
 11
103.1482568055813
 21
19.87137935250416
 72
     1
 10
103.1482568055813
 20
19.87137935250439
 11
103.1759289051906
 21
19.86274525875399
 72
     1
 10
103.1759289051906
 20
19.86274525875407
 11
103.2029375008935
 21
19.85300485055097
 72
     1
 10
103.2029375008932
 20
19.85300485055106
 11
103.2290604755027
 21
19.84215741598096
 72
     1
 10
103.2290604755027
 20
19.84215741598061
 11
103.2542978290182
 21
19.82998154976985
 72
     1
 10
103.2542978290186
 20
19.82998154977006
 11
103.2786495614402
 21
19.81669865719128
 72
     1
 10
103.2786495614405
 20
19.81669865719128
 11
103.3018942674952
 21
19.80208733297319
 72
     1
 10
103.3018942674952
 20
19.80208733297306
 11
103.3244747577297
 21
19.78636969430089
 72
     1
 10
103.3244747577297
 20
19.78636969430112
 11
103.3461703387842
 21
19.7693236239886
 72
     1
 10
103.3461703387839
 20
19.76932362398918
 11
103.3643234354638
 21
19.75294105758234
 72
     1
 10
103.3643234354636
 20
19.75294105758234
 11
103.3844684676902
 21
19.73257462008198
 72
     1
 10
103.3844684676906
 20
19.73257462008198
 11
103.4028429696437
 21
19.71110044430109
 72
     1
 10
103.4028429696437
 20
19.71110044430122
 11
103.4196683465967
 21
19.68874135934004
 72
     1
 10
103.4196683465967
 20
19.68874135934004
 11
103.4349431747217
 21
19.66527524801232
 72
     1
 10
103.4349431747215
 20
19.66527524801221
 11
103.4486688778462
 21
19.64092351558962
 72
     1
 10
103.4486688778465
 20
19.64092351558952
 11
103.460623338784
 21
19.61546475680073
 72
     1
 10
103.460623338784
 20
19.61546475680107
 11
103.4710279628074
 21
19.5888989716451
 72
     1
 10
103.4710279628072
 20
19.58889897164462
 11
103.4798834618305
 21
19.56144827730894
 72
     1
 10
103.4798834618315
 20
19.56144827730907
 11
103.4869677186672
 21
19.53311124996503
 72
     1
 10
103.4869677186667
 20
19.53311124996503
 11
103.492723543862
 21
19.50344650289503
 72
     1
 10
103.4927235438616
 20
19.50344650289503
 11
103.4967081268696
 21
19.47311754000439
 72
     1
 10
103.4967081268696
 20
19.47311754000407
 11
103.4991435848773
 21
19.44146014547344
 72
     1
 10
103.4991435848773
 20
19.441460145473
 11
103.4998078006978
 21
19.4089178417621
 72
     1
 10
103.4998078006984
 20
19.40891784176232
 11
103.4995863954248
 21
19.38522961324656
 72
     1
 10
103.4995863954246
 20
19.38522961324656
 11
103.4987007743307
 21
19.35113747262153
 72
     1
 10
103.4987007743312
 20
19.35113747262153
 11
103.4967081268702
 21
19.31815164644955
 72
     1
 10
103.4967081268696
 20
19.31815164644945
 11
103.4936091649556
 21
19.28627355855883
 72
     1
 10
103.4936091649562
 20
19.28627355855883
 11
103.4898452753077
 21
19.25528037984769
 72
     1
 10
103.4898452753074
 20
19.25528037984816
 11
103.485196476479
 21
19.22517282223087
 72
     1
 10
103.4851964764794
 20
19.22517282223087
 11
103.4794406512842
 21
19.19639298434002
 72
     1
 10
103.4794406512842
 20
19.19639298434002
 11
103.4730206102684
 21
19.16827807418394
 72
     1
 10
103.473020610268
 20
19.16827807418405
 11
103.4654935428853
 21
19.1414908837538
 72
     1
 10
103.4654935428857
 20
19.1414908837538
 11
103.4570815663234
 21
19.11558931441857
 72
     1
 10
103.4570815663228
 20
19.11558931441834
 11
103.4477832567524
 21
19.09057336617604
 72
     1
 10
103.4477832567527
 20
19.09057336617604
 11
103.4376000380027
 21
19.06688584957407
 72
     1
 10
103.4376000380024
 20
19.06688584957439
 11
103.4265311981588
 21
19.04386254879341
 72
     1
 10
103.426531198159
 20
19.04386254879305
 11
103.4143546200338
 21
19.02216767965251
 72
     1
 10
103.4143546200338
 20
19.02216767965251
 11
103.4015152499168
 21
19.00135771969132
 72
     1
 10
103.401515249917
 20
19.00135771969121
 11
103.3875681415185
 21
18.98143338082457
 72
     1
 10
103.3875681415185
 20
18.98143338082502
 11
103.3729568172997
 21
18.96261606832455
 72
     1
 10
103.3729568172991
 20
18.96261606832479
 11
103.3572391786274
 21
18.94490578219188
 72
     1
 10
103.3572391786284
 20
18.94490578219188
 11
103.3406359188626
 21
18.92830252242582
 72
     1
 10
103.3406359188622
 20
18.92830252242605
 11
103.3231463260886
 21
18.91236347848098
 72
     1
 10
103.323146326089
 20
18.91236347848098
 11
103.3047718241359
 21
18.89775215426232
 72
     1
 10
103.304771824136
 20
18.8977521542622
 11
103.2852910077298
 21
18.88402645113717
 72
     1
 10
103.285291007729
 20
18.88402645113704
 11
103.265145263588
 21
18.87140777437855
 72
     1
 10
103.2651452635892
 20
18.87140777437921
 11
103.2438924930815
 21
18.85967471871503
 72
     1
 10
103.2438924930813
 20
18.85967471871503
 11
103.2219762186668
 21
18.84904868941839
 72
     1
 10
103.2219762186667
 20
18.84904868941862
 11
103.1989529178857
 21
18.83930756930087
 72
     1
 10
103.1989529178858
 20
18.83930756930087
 11
103.175043996011
 21
18.83067418746509
 72
     1
 10
103.1750439960104
 20
18.83067418746509
 11
103.1502494530417
 21
18.8231471200821
 72
     1
 10
103.1502494530422
 20
18.82314712008246
 11
103.1245692889799
 21
18.81650567379346
 72
     1
 10
103.1245692889789
 20
18.81650567379323
 11
103.097782098549
 21
18.81097125387143
 72
     1
 10
103.09778209855
 20
18.81097125387157
 11
103.0703314042139
 21
18.80632245504373
 72
     1
 10
103.0703314042139
 20
18.80632245504341
 11
103.0417729715968
 21
18.80277997066842
 72
     1
 10
103.0417729715964
 20
18.80277997066809
 11
103.0125510350728
 21
18.80034522457446
 72
     1
 10
103.0125510350724
 20
18.80034522457469
 11
102.9822220721821
 21
18.79879538766031
 72
     1
 10
102.9822220721821
 20
18.79879538766067
 11
102.9510074881978
 21
18.79813117184005
 72
     1
 10
102.9510074881982
 20
18.79813117184005
 11
101.8753245614405
 21
18.79813117184005
 72
     1
 10
101.8753245614403
 20
18.79813117184005
 11
101.8753245614403
 21
19.89683811129339
 72
     1
 10
101.8753245614403
 20
19.89683811129339
 11
102.9465800946432
 21
19.89683811129339
 97
        0
 92
        0
 93
      207
 72
     1
 10
103.5896876630027
 20
18.5725455390276
 11
103.5602443212057
 21
18.59446181344207
 72
     1
 10
103.5602443212056
 20
18.59446181344194
 11
103.5288083319479
 21
18.61704301558995
 72
     1
 10
103.5288083319483
 20
18.61704301559007
 11
103.495601100503
 21
18.64006631637153
 72
     1
 10
103.4956011005023
 20
18.64006631637153
 11
103.5150826288228
 21
18.65423483004314
 72
     1
 10
103.5150826288237
 20
18.65423483004337
 11
103.5420912245267
 21
18.67482267281705
 72
     1
 10
103.5420912245264
 20
18.67482267281705
 11
103.5679920819482
 21
18.69541122750387
 72
     1
 10
103.567992081948
 20
18.69541122750342
 11
103.5930080301902
 21
18.71644259273841
 72
     1
 10
103.5930080301906
 20
18.71644259273819
 11
103.6171383573391
 21
18.73769465133214
 72
     1
 10
103.6171383573387
 20
18.7376946513325
 11
103.6403837753075
 21
18.75916882711385
 72
     1
 10
103.6403837753073
 20
18.75916882711385
 11
103.6625214549947
 21
18.78086369625407
 72
     1
 10
103.6625214549949
 20
18.78086369625407
 11
103.6837742255029
 21
18.8030013759411
 72
     1
 10
103.6837742255029
 20
18.80300137594155
 11
103.7041406630029
 21
18.8253611728171
 72
     1
 10
103.7041406630023
 20
18.8253611728171
 11
103.7236221913225
 21
18.84794166305162
 72
     1
 10
103.7236221913235
 20
18.8479416630513
 11
103.7419966932765
 21
18.87074355855963
 72
     1
 10
103.7419966932767
 20
18.87074355855907
 11
103.7594855741362
 21
18.89398897652753
 72
     1
 10
103.7594855741353
 20
18.89398897652753
 11
103.7760888339011
 21
18.91723368258248
 72
     1
 10
103.7760888339007
 20
18.91723368258248
 11
103.7915857792133
 21
18.94092119918444
 72
     1
 10
103.7915857792142
 20
18.940921199184
 11
103.8061971034327
 21
18.96483012105908
 72
     1
 10
103.8061971034327
 20
18.96483012105919
 11
103.8199220946438
 21
18.98918185348088
 72
     1
 10
103.8199220946435
 20
18.98918185348088
 11
103.8327621766748
 21
19.01353358590256
 72
     1
 10
103.8327621766748
 20
19.01353358590245
 11
103.844495232339
 21
19.0383281288715
 72
     1
 10
103.844495232339
 20
19.0383281288715
 11
103.855343378823
 21
19.06334407711347
 72
     1
 10
103.8553433788234
 20
19.06334407711357
 11
103.8653051922999
 21
19.08858143062957
 72
     1
 10
103.8653051922991
 20
19.08858143062934
 11
103.8743813846821
 21
19.11426159469192
 72
     1
 10
103.8743813846823
 20
19.11426159469215
 11
103.8823512626119
 21
19.13994104684023
 72
     1
 10
103.8823512626119
 20
19.13994104684001
 11
103.8894355194478
 21
19.16606402144964
 72
     1
 10
103.889435519448
 20
19.16606402144964
 11
103.89563415519
 21
19.19240840133261
 72
     1
 10
103.89563415519
 20
19.19240840133237
 11
103.9007257645653
 21
19.21919559176204
 72
     1
 10
103.9007257645653
 20
19.21919559176204
 11
103.9051531581202
 21
19.24598207027792
 72
     1
 10
103.9051531581199
 20
19.24598207027759
 11
103.908252831948
 21
19.27321207125442
 72
     1
 10
103.9082528319478
 20
19.27321207125396
 11
103.9106875780414
 21
19.30066276559021
 72
     1
 10
103.9106875780418
 20
19.30066276559
 11
103.9122374149557
 21
19.3283355771133
 72
     1
 10
103.9122374149556
 20
19.3283355771133
 11
103.9126802255027
 21
19.3562290819965
 72
     1
 10
103.9126802255023
 20
19.3562290819965
 11
103.9124588202288
 21
19.38235205660587
 72
     1
 10
103.9124588202294
 20
19.38235205660587
 11
103.9115731991357
 21
19.41843684469153
 72
     1
 10
103.9115731991353
 20
19.41843684469153
 11
103.9100240741354
 21
19.45385741695712
 72
     1
 10
103.9100240741352
 20
19.45385741695712
 11
103.9078100214011
 21
19.48817167476931
 72
     1
 10
103.9078100214011
 20
19.48817167476931
 11
103.9049317528462
 21
19.52204241012123
 72
     1
 10
103.9049317528462
 20
19.52204241012189
 11
103.9011685751118
 21
19.55480683101995
 72
     1
 10
103.9011685751126
 20
19.55480683101995
 11
103.8967411815577
 21
19.58712772945714
 72
     1
 10
103.8967411815574
 20
19.5871277294575
 11
103.8916495721821
 21
19.6183423134421
 72
     1
 10
103.8916495721821
 20
19.6183423134421
 11
103.8858937469872
 21
19.64889268160607
 72
     1
 10
103.8858937469873
 20
19.64889268160595
 11
103.8794737059717
 21
19.67855814059009
 72
     1
 10
103.8794737059717
 20
19.67855814058998
 11
103.8723894491357
 21
19.70755867184003
 72
     1
 10
103.8723894491359
 20
19.70755867184003
 11
103.8644195712062
 21
19.73567358199659
 72
     1
 10
103.8644195712059
 20
19.73567358199669
 11
103.8557854774559
 21
19.76290358297307
 72
     1
 10
103.8557854774562
 20
19.76290358297296
 11
103.8464878797998
 21
19.78946865621503
 72
     1
 10
103.8464878797995
 20
19.78946865621503
 11
103.8365260663228
 21
19.81537022555128
 72
     1
 10
103.8365260663228
 20
19.81537022555128
 11
103.8258993251122
 21
19.84016476852001
 72
     1
 10
103.8258993251125
 20
19.84016476851968
 11
103.8143876747219
 21
19.86429509566821
 72
     1
 10
103.8143876747217
 20
19.86429509566821
 11
103.8024332137843
 21
19.88776120699628
 72
     1
 10
103.8024332137839
 20
19.88776120699583
 11
103.7895931317524
 21
19.91034240914496
 72
     1
 10
103.7895931317524
 20
19.9103424091446
 11
103.7760888339011
 21
19.93203727828563
 72
     1
 10
103.7760888339007
 20
19.93203727828563
 11
103.7619210321429
 21
19.95306864351926
 72
     1
 10
103.7619210321437
 20
19.95306864351926
 11
103.7468668973781
 21
19.97321367574636
 72
     1
 10
103.7468668973779
 20
19.97321367574659
 11
103.7313706639794
 21
19.99247379879318
 72
     1
 10
103.7313706639797
 20
19.99247379879363
 11
103.7149880975735
 21
20.01106970601994
 72
     1
 10
103.714988097573
 20
20.01106970601961
 11
103.7003774852685
 21
20.02634524605878
 72
     1
 10
103.7003774852684
 20
20.026345246059
 11
103.6831100096822
 21
20.04272710055113
 72
     1
 10
103.6831100096822
 20
20.04272710055113
 11
103.6651783182761
 21
20.05866685641057
 72
     1
 10
103.6651783182761
 20
20.05866685641057
 11
103.6465824110497
 21
20.07394168453561
 72
     1
 10
103.6465824110497
 20
20.07394168453504
 11
103.6271008827293
 21
20.0885530087537
 72
     1
 10
103.6271008827297
 20
20.08855300875438
 11
103.6067337333157
 21
20.10272081051243
 72
     1
 10
103.6067337333149
 20
20.10272081051196
 11
103.5857030799949
 21
20.11622510836355
 72
     1
 10
103.5857030799952
 20
20.11622510836355
 11
103.5640074989407
 21
20.1290651903946
 72
     1
 10
103.5640074989407
 20
20.12906519039427
 11
103.5414270087058
 21
20.14146246187862
 72
     1
 10
103.5414270087057
 20
20.14146246187896
 11
103.5181823026511
 21
20.15319551754316
 72
     1
 10
103.5181823026515
 20
20.15319551754271
 11
103.4940512635887
 21
20.16426435738707
 72
     1
 10
103.4940512635885
 20
20.1642643573873
 11
103.4692574325337
 21
20.17489109859798
 72
     1
 10
103.4692574325337
 20
20.17489109859821
 11
103.4435772684713
 21
20.18463150680087
 72
     1
 10
103.4435772684709
 20
20.18463150680064
 11
103.4172328885883
 21
20.19392910445707
 72
     1
 10
103.4172328885889
 20
20.1939291044572
 11
103.3900028876123
 21
20.20278460348071
 72
     1
 10
103.3900028876119
 20
20.20278460348083
 11
103.362109382729
 21
20.21075448141059
 72
     1
 10
103.3621093827294
 20
20.2107544814105
 11
103.3333302567529
 21
20.21828083687931
 72
     1
 10
103.3333302567527
 20
20.21828083687954
 11
103.3038869149556
 21
20.22514368844213
 72
     1
 10
103.303886914956
 20
20.2251436884411
 11
103.2737786454247
 21
20.23156372945674
 72
     1
 10
103.2737786454245
 20
20.23156372945709
 11
103.2425647733542
 21
20.23709814937955
 72
     1
 10
103.2425647733544
 20
20.23709814937955
 11
103.2109073788231
 21
20.24241187594191
 72
     1
 10
103.2109073788229
 20
20.24241187594191
 11
103.1783643631978
 21
20.24683926949648
 72
     1
 10
103.178364363198
 20
20.2468392694966
 11
103.1451571317528
 21
20.2506024472309
 72
     1
 10
103.145157131753
 20
20.25060244723067
 11
103.1110649911276
 21
20.25392352633218
 72
     1
 10
103.1110649911274
 20
20.25392352633218
 11
103.0760872294087
 21
20.25680108297307
 72
     1
 10
103.076087229409
 20
20.25680108297295
 11
103.0404452518701
 21
20.25879373043403
 72
     1
 10
103.0404452518697
 20
20.25879373043403
 11
103.0041383465958
 21
20.26034356734816
 72
     1
 10
103.0041383465966
 20
20.26034356734816
 11
102.9669465321437
 21
20.26122847652755
 72
     1
 10
102.9669465321432
 20
20.26122847652755
 11
102.9290912137841
 21
20.26144988180055
 72
     1
 10
102.9290912137839
 20
20.26144988180111
 11
101.4626728299949
 21
20.26144988180111
 72
     1
 10
101.4626728299951
 20
20.26144988180111
 11
101.4626728299951
 21
17.05808790621563
 72
     1
 10
101.4626728299951
 20
17.0580879062154
 11
101.8753245614403
 21
17.0580879062154
 72
     1
 10
101.8753245614403
 20
17.0580879062154
 11
101.8753245614403
 21
18.43351940133254
 72
     1
 10
101.8753245614403
 20
18.43351940133209
 11
102.9510074881982
 21
18.43351940133209
 72
     1
 10
102.9510074881982
 20
18.43351940133209
 11
102.9753592206199
 21
18.4330765907855
 72
     1
 10
102.9753592206196
 20
18.43307659078573
 11
103.0041383465962
 21
18.43152675387158
 72
     1
 10
103.0041383465966
 20
18.43152675387158
 11
103.0322539686671
 21
18.42886989059001
 72
     1
 10
103.0322539686667
 20
18.42886989059001
 11
103.0592618524559
 21
18.42510671285594
 72
     1
 10
103.0592618524559
 20
18.42510671285561
 11
103.0853848270653
 21
18.42023650875398
 72
     1
 10
103.0853848270653
 20
18.42023650875455
 11
103.110622180581
 21
18.41403787301237
 72
     1
 10
103.1106221805812
 20
18.41403787301237
 11
103.1349739130031
 21
18.40695361617621
 72
     1
 10
103.1349739130027
 20
18.40695361617621
 11
103.1584400243307
 21
18.3985409276994
 72
     1
 10
103.158440024331
 20
18.3985409276994
 11
103.1810212264794
 21
18.38902192476982
 72
     1
 10
103.1810212264792
 20
18.38902192476982
 11
103.2024946903463
 21
18.37817449019961
 72
     1
 10
103.2024946903467
 20
18.37817449019961
 11
103.2233046503076
 21
18.36644143453542
 72
     1
 10
103.2233046503076
 20
18.36644143453566
 11
103.2430068719869
 21
18.35337994723124
 72
     1
 10
103.2430068719873
 20
18.35337994723112
 11
103.2618241844873
 21
18.33943283883229
 72
     1
 10
103.2618241844875
 20
18.33943283883229
 11
103.2797558758939
 21
18.32415801070737
 72
     1
 10
103.2797558758935
 20
18.32415801070737
 11
103.2968026581201
 21
18.30777544430157
 72
     1
 10
103.2968026581199
 20
18.30777544430111
 11
103.3129631073385
 21
18.2900651581682
 72
     1
 10
103.3129631073389
 20
18.29006515816809
 11
103.3282386473779
 21
18.27146925094166
 72
     1
 10
103.3282386473775
 20
18.27146925094189
 11
103.3424064491353
 21
18.25154491207455
 72
     1
 10
103.3424064491355
 20
18.25154491207431
 11
103.3559107469872
 21
18.23051425875417
 72
     1
 10
103.3559107469874
 20
18.23051425875417
 11
103.3683080184715
 21
18.20837586715231
 72
     1
 10
103.3683080184709
 20
18.20837586715253
 11
103.3800410741352
 21
18.18513116109807
 72
     1
 10
103.380041074136
 20
18.18513116109818
 11
103.390667103433
 21
18.16077942867626
 72
     1
 10
103.390667103433
 20
18.16077942867626
 11
103.40040822355
 21
18.13509926461346
 72
     1
 10
103.4004082235497
 20
18.13509926461346
 11
103.409263010659
 21
18.10853419137151
 72
     1
 10
103.4092630106588
 20
18.10853419137151
 11
103.4172328885887
 21
18.08063997457417
 72
     1
 10
103.4172328885889
 20
18.08063997457417
 11
103.4240957401515
 21
18.05163944332468
 72
     1
 10
103.4240957401512
 20
18.05163944332457
 11
103.4302943758932
 21
18.0213104804338
 72
     1
 10
103.4302943758935
 20
18.02131048043418
 11
103.4353859852686
 21
17.99009589645002
 72
     1
 10
103.4353859852682
 20
17.99009589644902
 11
103.4398133788227
 21
17.95755288082455
 72
     1
 10
103.4398133788237
 20
17.95755288082466
 11
103.4431344579251
 21
17.92412495601955
 72
     1
 10
103.4431344579244
 20
17.92412495601968
 11
103.4455692040181
 21
17.88936859957425
 72
     1
 10
103.4455692040182
 20
17.88936859957448
 11
103.4471190409324
 21
17.85350450484816
 72
     1
 10
103.4471190409328
 20
17.85350450484816
 11
103.446233419839
 21
17.83358087789497
 72
     1
 10
103.4462334198386
 20
17.83358087789497
 11
103.4444628895653
 21
17.79572484762172
 72
     1
 10
103.4444628895653
 20
17.79572484762161
 11
103.4429130526514
 21
17.758975843715
 72
     1
 10
103.4429130526514
 20
17.75897584371512
 11
103.441806026284
 21
17.72333386617628
 72
     1
 10
103.441806026284
 20
17.72333386617606
 11
103.4411418104639
 21
17.68879820308982
 72
     1
 10
103.4411418104635
 20
17.68879820308982
 11
103.4409204051903
 21
17.6553702782853
 72
     1
 10
103.4409204051903
 20
17.65537027828566
 11
103.4409204051903
 21
17.62282726266005
 72
     1
 10
103.4409204051903
 20
17.62282726266062
 11
103.4411418104635
 21
17.59139127340256
 72
     1
 10
103.4411418104635
 20
17.59139127340277
 11
103.4420274315574
 21
17.56106231051228
 72
     1
 10
103.4420274315571
 20
17.56106231051203
 11
103.442913052651
 21
17.53184037398864
 72
     1
 10
103.4429130526514
 20
17.53184037398864
 11
103.4444628895653
 21
17.50372475191841
 72
     1
 10
103.4444628895653
 20
17.50372475191873
 11
103.4462334198386
 21
17.47649546285595
 72
     1
 10
103.4462334198386
 20
17.47649546285559
 11
103.4482260672997
 21
17.45059389351956
 72
     1
 10
103.4482260672991
 20
17.45059389352
 11
103.4508829305807
 21
17.42557794527761
 72
     1
 10
103.4508829305806
 20
17.42557794527761
 11
103.4535390819477
 21
17.40166902340263
 72
     1
 10
103.4535390819482
 20
17.40166902340273
 11
103.4568601610498
 21
17.37864572262196
 72
     1
 10
103.45686016105
 20
17.37864572262151
 11
103.4604019335108
 21
17.35695014156613
 72
     1
 10
103.4604019335102
 20
17.35695014156613
 11
103.4617303651508
 21
17.34853816500435
 72
     1
 10
103.4617303651512
 20
17.34853816500458
 11
103.4672647850729
 21
17.31798779684095
 72
     1
 10
103.4672647850733
 20
17.31798779684061
 11
103.4732420155419
 21
17.2878802392231
 72
     1
 10
103.4732420155419
 20
17.2878802392231
 11
103.4798834618309
 21
17.25799408687942
 72
     1
 10
103.4798834618315
 20
17.25799408687919
 11
103.4867463133938
 21
17.22832862789505
 72
     1
 10
103.4867463133932
 20
17.22832862789505
 11
103.4942726688619
 21
17.19910669137175
 72
     1
 10
103.4942726688619
 20
17.19910669137151
 11
103.5024639520649
 21
17.1703275653947
 72
     1
 10
103.5024639520649
 20
17.17032756539458
 11
103.5108766405417
 21
17.14176984469145
 72
     1
 10
103.5108766405419
 20
17.14176984469156
 11
103.5199528329248
 21
17.11343281734809
 72
     1
 10
103.5199528329248
 20
17.11343281734809
 11
103.5294725477684
 21
17.08553931246513
 72
     1
 10
103.5294725477676
 20
17.08553931246501
 11
103.5394343612445
 21
17.05808790621495
 72
     1
 10
103.5394343612452
 20
17.0580879062154
 11
104.0355459139794
 21
17.0580879062154
 72
     1
 10
104.0355459139792
 20
17.0580879062154
 11
104.0355459139792
 21
17.16346471383292
 72
     1
 10
104.0355459139792
 20
17.16346471383292
 11
104.0154001698387
 21
17.18073218941901
 72
     1
 10
104.0154001698384
 20
17.18073218941845
 11
103.9937053006976
 21
17.2015421493794
 72
     1
 10
103.993705300698
 20
17.20154214937918
 11
103.9740023671043
 21
17.22345842379354
 72
     1
 10
103.9740023671039
 20
17.22345842379309
 11
103.9562920809709
 21
17.24626031930097
 72
     1
 10
103.9562920809717
 20
17.24626031930142
 11
103.9405744422999
 21
17.27039135836377
 72
     1
 10
103.9405744422994
 20
17.27039135836377
 11
103.9266273339009
 21
17.29540659469205
 72
     1
 10
103.9266273339007
 20
17.29540659469205
 11
103.914672872963
 21
17.32130816402775
 72
     1
 10
103.9146728729636
 20
17.32130816402752
 11
103.9047103475732
 21
17.34853816500435
 72
     1
 10
103.9047103475732
 20
17.34853816500458
 11
103.8965197762842
 21
17.37665307516067
 72
     1
 10
103.8965197762842
 20
17.37665307516067
 11
103.8905425458154
 21
17.40565360641084
 72
     1
 10
103.8905425458156
 20
17.40565360641062
 11
103.8863358456203
 21
17.4359825693009
 72
     1
 10
103.8863358456201
 20
17.43598256930113
 11
103.8858937469874
 21
17.4424026103162
 72
     1
 10
103.8858937469873
 20
17.44240261031666
 11
103.8832368837059
 21
17.48380112496533
 72
     1
 10
103.8832368837057
 20
17.4838011249651
 11
103.8805800204245
 21
17.52409190133255
 72
     1
 10
103.8805800204245
 20
17.52409190133221
 11
103.8781452743307
 21
17.56327636324613
 72
     1
 10
103.8781452743311
 20
17.56327636324636
 11
103.8757098163231
 21
17.60135379879307
 72
     1
 10
103.8757098163231
 20
17.60135379879341
 11
103.8734964755031
 21
17.63854490133256
 72
     1
 10
103.8734964755027
 20
17.63854490133256
 11
103.8712824227682
 21
17.67440899605935
 72
     1
 10
103.8712824227687
 20
17.67440899605901
 11
103.8690683700342
 21
17.70938675777755
 72
     1
 10
103.8690683700344
 20
17.70938675777755
 11
103.8672978397607
 21
17.74325749312901
 72
     1
 10
103.8672978397604
 20
17.74325749312867
 11
103.8653051922995
 21
17.77602191402752
 72
     1
 10
103.8653051922991
 20
17.77602191402752
 11
103.8635339501116
 21
17.80767930855903
 72
     1
 10
103.8635339501126
 20
17.80767930855903
 11
103.8619841131983
 21
17.83822967672301
 72
     1
 10
103.8619841131978
 20
17.83822967672278
 11
103.8604349881977
 21
17.86767301851989
 72
     1
 10
103.8604349881981
 20
17.86767301851966
 11
103.8591065565573
 21
17.89623073922314
 72
     1
 10
103.8591065565571
 20
17.89623073922347
 11
103.8577781249164
 21
17.92346074019985
 72
     1
 10
103.8577781249168
 20
17.92346074019961
 11
103.8564496932764
 21
17.94980512008214
 72
     1
 10
103.8564496932764
 20
17.94980512008214
 11
103.8555640721824
 21
17.97504247359813
 72
     1
 10
103.8555640721825
 20
17.97504247359813
 11
103.8544577577297
 21
17.99917280074678
 72
     1
 10
103.8544577577295
 20
17.99917280074657
 11
103.8535721366357
 21
18.02241750680104
 72
     1
 10
103.8535721366357
 20
18.02241750680082
 11
103.8529079208154
 21
18.04433378121427
 72
     1
 10
103.8529079208156
 20
18.0443337812146
 11
103.8522437049952
 21
18.06536514644948
 72
     1
 10
103.8522437049951
 20
18.06536514644971
 11
103.8515794891748
 21
18.08506808004357
 72
     1
 10
103.8515794891746
 20
18.08506808004334
 11
103.8511366786277
 21
18.10388539254313
 72
     1
 10
103.8511366786277
 20
18.10388539254313
 11
103.8482591219872
 21
18.13421435543409
 72
     1
 10
103.8482591219872
 20
18.13421435543421
 11
103.8436096112449
 21
18.17162686324683
 72
     1
 10
103.8436096112447
 20
18.17162686324694
 11
103.8382965965964
 21
18.20660533687964
 72
     1
 10
103.8382965965965
 20
18.20660533687896
 11
103.8323193661278
 21
18.23936904586378
 72
     1
 10
103.8323193661282
 20
18.23936904586355
 11
103.8256779198386
 21
18.26969800875406
 72
     1
 10
103.8256779198385
 20
18.2696980087536
 11
103.8181515643701
 21
18.29759222555128
 72
     1
 10
103.8181515643701
 20
18.29759222555105
 11
103.8099602811668
 21
18.3230509843398
 72
     1
 10
103.8099602811672
 20
18.3230509843398
 11
103.8011047821437
 21
18.34607428512128
 72
     1
 10
103.8011047821432
 20
18.34607428512128
 11
103.7913643739402
 21
18.36688424508247
 72
     1
 10
103.7913643739402
 20
18.36688424508213
 11
103.7809597499169
 21
18.38503734176208
 72
     1
 10
103.7809597499164
 20
18.38503734176253
 11
103.7716614403458
 21
18.39920514351955
 72
     1
 10
103.7716614403459
 20
18.39920514351955
 11
103.758821358315
 21
18.4162519257469
 72
     1
 10
103.7588213583159
 20
18.41625192574655
 11
103.7442107460112
 21
18.43396221187902
 72
     1
 10
103.7442107460101
 20
18.43396221187902
 11
103.7278281796037
 21
18.45211530855905
 72
     1
 10
103.7278281796043
 20
18.45211530855905
 11
103.7094536776514
 21
18.47093262105886
 72
     1
 10
103.7094536776514
 20
18.47093262105886
 11
103.6893086454248
 21
18.49019203219109
 72
     1
 10
103.6893086454244
 20
18.49019203219109
 11
103.6671702538228
 21
18.50989496578528
 72
     1
 10
103.6671702538233
 20
18.50989496578563
 11
103.6432613319482
 21
18.53026211519943
 72
     1
 10
103.6432613319479
 20
18.53026211519943
 11
103.6173597626121
 21
18.55129276851959
 72
     1
 10
103.6173597626121
 20
18.55129276851959
 11
103.5896876630027
 21
18.57254553902714
 97
        0
 92
       16
 93
        1
 72
     2
 10
102.5156257645654
 20
18.50976610934003
 40
2.49169921875
 50
0.0
 51
360.0
 73
     1
 97
        0
 92
        1
 93
        1
 72
     2
 10
102.5156257645654
 20
18.50976610934003
 40
2.84765625
 50
0.0
 51
360.0
 73
     1
 97
        0
 75
     0
 76
     1
 47
0.5016490000000001
 98
        2
 10
10.22341418253398
 20
10.3606381855121
 10
63.48569476456501
 20
11.43203183004309
450
        0
451
        0
460
0.0
461
0.0
452
        0
462
0.0
453
        0
470

  0
ENDBLK
  5
40B1
330
40AE
100
AcDbEntity
  8
0
100
AcDbBlockEnd
  0
BLOCK
  5
410D
330
4101
100
AcDbEntity
  8
0
 48
10.0
100
AcDbBlockBegin
  2
*D20
 70
     1
 10
0.0
 20
0.0
 30
0.0
  3
*D20
  1

  0
LINE
  5
5149
330
4101
100
AcDbEntity
  8
0
 62
     0
370
    -2
100
AcDbLine
 10
182.3014561238245
 20
101.3564374502508
 30
0.0
 11
181.7947208124147
 21
101.3564374502508
 31
0.0
  0
LINE
  5
514A
330
4101
100
AcDbEntity
  8
0
 62
     0
370
    -2
100
AcDbLine
 10
182.3014561238245
 20
99.35643748785068
 30
0.0
 11
181.7947208124147
 21
99.35643748785068
 31
0.0
  0
LINE
  5
514B
330
4101
100
AcDbEntity
  8
0
 62
     0
370
    -2
100
AcDbLine
 10
182.0447208124147
 20
101.1064374502508
 30
0.0
 11
182.0447208124147
 21
100.6243007023386
 31
0.0
  0
LINE
  5
514C
330
4101
100
AcDbEntity
  8
0
 62
     0
370
    -2
100
AcDbLine
 10
182.0447208124147
 20
99.60643748785068
 30
0.0
 11
182.0447208124147
 21
100.0885742357629
 31
0.0
  0
SOLID
  5
514D
330
4101
100
AcDbEntity
  8
0
 62
     0
100
AcDbTrace
 10
182.003054145748
 20
101.1064374502508
 30
0.0
 11
182.0863874790813
 21
101.1064374502508
 31
0.0
 12
182.0447208124147
 22
101.3564374502508
 32
0.0
 13
182.0447208124147
 23
101.3564374502508
 33
0.0
  0
SOLID
  5
514E
330
4101
100
AcDbEntity
  8
0
 62
     0
100
AcDbTrace
 10
182.003054145748
 20
99.60643748785068
 30
0.0
 11
182.0863874790813
 21
99.60643748785068
 31
0.0
 12
182.0447208124147
 22
99.35643748785068
 32
0.0
 13
182.0447208124147
 23
99.35643748785068
 33
0.0
  0
MTEXT
  5
514F
330
4101
100
AcDbEntity
  8
0
 62
     0
100
AcDbMText
 10
182.0447208124146
 20
100.4816932671408
 30
0.0
 40
0.125
 41
0.0
 71
     5
 72
     1
  1
\A1;2"
 73
     1
 44
1.0
  0
MTEXT
  5
5150
330
4101
100
AcDbEntity
  8
0
 62
     0
100
AcDbMText
 10
182.0447208124146
 20
100.2138300338529
 30
0.0
 40
0.125
 41
0.0
 71
     5
 72
     1
  1
\A1;[50.80mm]
 73
     1
 44
1.0
  0
POINT
  5
5151
330
4101
100
AcDbEntity
  8
Defpoints
 62
     0
100
AcDbPoint
 10
182.5514561238246
 20
101.3564374502508
 30
0.0
  0
POINT
  5
5152
330
4101
100
AcDbEntity
  8
Defpoints
 62
     0
100
AcDbPoint
 10
182.5514561238246
 20
99.35643748785068
 30
0.0
  0
POINT
  5
5153
330
4101
100
AcDbEntity
  8
Defpoints
 62
     0
100
AcDbPoint
 10
182.0447208124147
 20
99.35643748785068
 30
0.0
  0
ENDBLK
  5
410E
330
4101
100
AcDbEntity
  8
0
 48
10.0
100
AcDbBlockEnd
  0
BLOCK
  5
411B
330
410F
100
AcDbEntity
  8
0
 48
10.0
100
AcDbBlockBegin
  2
*D21
 70
     1
 10
0.0
 20
0.0
 30
0.0
  3
*D21
  1

  0
LINE
  5
5154
330
410F
100
AcDbEntity
  8
0
 62
     0
370
    -2
100
AcDbLine
 10
182.3014561238245
 20
99.35643748785068
 30
0.0
 11
180.1585534793608
 21
99.35643748785068
 31
0.0
  0
LINE
  5
5155
330
410F
100
AcDbEntity
  8
0
 62
     0
370
    -2
100
AcDbLine
 10
192.1931861599206
 20
94.31709190856691
 30
0.0
 11
180.1585534793608
 21
94.31709190856691
 31
0.0
  0
LINE
  5
5156
330
410F
100
AcDbEntity
  8
0
 62
     0
370
    -2
100
AcDbLine
 10
180.4085534793608
 20
99.10643748785069
 30
0.0
 11
180.4085534793608
 21
97.10543795878178
 31
0.0
  0
LINE
  5
5157
330
410F
100
AcDbEntity
  8
0
 62
     0
370
    -2
100
AcDbLine
 10
180.4085534793608
 20
94.5670919085669
 30
0.0
 11
180.4085534793608
 21
96.56809143763581
 31
0.0
  0
SOLID
  5
5158
330
410F
100
AcDbEntity
  8
0
 62
     0
100
AcDbTrace
 10
180.3668868126941
 20
99.10643748785069
 30
0.0
 11
180.4502201460274
 21
99.10643748785069
 31
0.0
 12
180.4085534793608
 22
99.35643748785068
 32
0.0
 13
180.4085534793608
 23
99.35643748785068
 33
0.0
  0
SOLID
  5
5159
330
410F
100
AcDbEntity
  8
0
 62
     0
100
AcDbTrace
 10
180.3668868126941
 20
94.5670919085669
 30
0.0
 11
180.4502201460274
 21
94.5670919085669
 31
0.0
 12
180.4085534793608
 22
94.31709190856691
 32
0.0
 13
180.4085534793608
 23
94.31709190856691
 33
0.0
  0
MTEXT
  5
515A
330
410F
100
AcDbEntity
  8
0
 62
     0
100
AcDbMText
 10
180.4085534793607
 20
96.96283052358401
 30
0.0
 40
0.125
 41
0.0
 71
     5
 72
     1
  1
\A1;5"
 73
     1
 44
1.0
  0
MTEXT
  5
515B
330
410F
100
AcDbEntity
  8
0
 62
     0
100
AcDbMText
 10
180.4085534793607
 20
96.694157263011
 30
0.0
 40
0.125
 41
0.0
 71
     5
 72
     1
  1
\A1;[128.00mm]
 73
     1
 44
1.0
  0
POINT
  5
515C
330
410F
100
AcDbEntity
  8
Defpoints
 62
     0
100
AcDbPoint
 10
182.5514561238246
 20
99.35643748785068
 30
0.0
  0
POINT
  5
515D
330
410F
100
AcDbEntity
  8
Defpoints
 62
     0
100
AcDbPoint
 10
192.4431861599206
 20
94.31709190856691
 30
0.0
  0
POINT
  5
515E
330
410F
100
AcDbEntity
  8
Defpoints
 62
     0
100
AcDbPoint
 10
180.4085534793608
 20
94.31709190856691
 30
0.0
  0
ENDBLK
  5
411C
330
410F
100
AcDbEntity
  8
0
 48
10.0
100
AcDbBlockEnd
  0
BLOCK
  5
4129
330
411D
100
AcDbEntity
  8
0
 48
10.0
100
AcDbBlockBegin
  2
*D22
 70
     1
 10
0.0
 20
0.0
 30
0.0
  3
*D22
  1

  0
LINE
  5
515F
330
411D
100
AcDbEntity
  8
0
 62
     0
370
    -2
100
AcDbLine
 10
193.9155131804996
 20
98.09659499185077
 30
0.0
 11
183.003578487658
 21
98.09659499185077
 31
0.0
  0
LINE
  5
5160
330
411D
100
AcDbEntity
  8
0
 62
     0
370
    -2
100
AcDbLine
 10
183.5036799654663
 20
99.35643748785068
 30
0.0
 11
183.003578487658
 21
99.35643748785068
 31
0.0
  0
LINE
  5
5161
330
411D
100
AcDbEntity
  8
0
 62
     0
370
    -2
100
AcDbLine
 10
183.2535784876581
 20
97.84659499185076
 30
0.0
 11
183.2535784876581
 21
97.59659499185076
 31
0.0
  0
LINE
  5
5162
330
411D
100
AcDbEntity
  8
0
 62
     0
370
    -2
100
AcDbLine
 10
183.2535784876581
 20
99.60643748785068
 30
0.0
 11
183.2535784876581
 21
99.85643748785069
 31
0.0
  0
SOLID
  5
5163
330
411D
100
AcDbEntity
  8
0
 62
     0
100
AcDbTrace
 10
183.2119118209915
 20
97.84659499185076
 30
0.0
 11
183.2952451543247
 21
97.84659499185076
 31
0.0
 12
183.2535784876581
 22
98.09659499185077
 32
0.0
 13
183.2535784876581
 23
98.09659499185077
 33
0.0
  0
SOLID
  5
5164
330
411D
100
AcDbEntity
  8
0
 62
     0
100
AcDbTrace
 10
183.2119118209915
 20
99.60643748785068
 30
0.0
 11
183.2952451543247
 21
99.60643748785068
 31
0.0
 12
183.2535784876581
 22
99.35643748785068
 32
0.0
 13
183.2535784876581
 23
99.35643748785068
 33
0.0
  0
MTEXT
  5
5165
330
411D
100
AcDbEntity
  8
0
 62
     0
100
AcDbMText
 10
183.2535784876581
 20
98.93510537127413
 30
0.0
 40
0.125
 41
0.0
 71
     5
 72
     1
  1
\A1;1{\H1.000000x;\S1/4;}"
 73
     1
 44
1.0
  0
MTEXT
  5
5166
330
411D
100
AcDbEntity
  8
0
 62
     0
100
AcDbMText
 10
183.2535784876581
 20
98.58390880465293
 30
0.0
 40
0.125
 41
0.0
 71
     5
 72
     1
  1
\A1;[32.00mm]
 73
     1
 44
1.0
  0
POINT
  5
5167
330
411D
100
AcDbEntity
  8
Defpoints
 62
     0
100
AcDbPoint
 10
194.1655131804996
 20
98.09659499185077
 30
0.0
  0
POINT
  5
5168
330
411D
100
AcDbEntity
  8
Defpoints
 62
     0
100
AcDbPoint
 10
183.7536799654663
 20
99.35643748785068
 30
0.0
  0
POINT
  5
5169
330
411D
100
AcDbEntity
  8
Defpoints
 62
     0
100
AcDbPoint
 10
183.2535784876581
 20
99.35643748785068
 30
0.0
  0
ENDBLK
  5
412A
330
411D
100
AcDbEntity
  8
0
 48
10.0
100
AcDbBlockEnd
  0
ENDSEC
  0
SECTION
  2
ENTITIES
  0
INSERT
  5
2BB
330
1E
100
AcDbEntity
  8
ASHADE
  6
Continuous
 62
     1
100
AcDbBlockReference
  2
AVE_RENDER
 10
-209.6768904976978
 20
8.631977759637322
 30
0.0
1001
AVE_RENDER
1002
{
1070
     7
1000
Pref
1070
    30
1070
    20
1070
     1
1070
     0
1000

1070
    10
1070
     1
1070
    10
1040
1.0
1070
     1
1040
0.3
1040
0.7
1040
0.0
1040
10.0
1010
-1.0
1020
-1.0
1030
-1.0
1040
0.3
1070
    49
1070
     0
1070
     0
1010
1.0
1020
1.0
1030
1.0
1040
45.0
1070
     1
1070
     0
1000
WCS
1040
0.0
1070
     0
1040
10.0
1002
}
  0
INSERT
  5
2BC
330
1E
100
AcDbEntity
  8
ASHADE
  6
Continuous
 62
     3
100
AcDbBlockReference
  2
AVE_RENDER
 10
-209.6768904976978
 20
8.631977759637322
 30
0.0
1001
AVE_RENDER
1002
{
1070
     0
1000
Full Opt
1070
     0
1070
     1
1070
     1
1070
     1
1070
     0
1070
     0
1070
     0
1070
     1
1070
     1
1040
0.0001
1040
0.0001
1002
}
  0
INSERT
  5
2BD
330
1E
100
AcDbEntity
  8
ASHADE
  6
Continuous
 62
     4
100
AcDbBlockReference
  2
AVE_RENDER
 10
-209.6768904976978
 20
8.631977759637322
 30
0.0
1001
AVE_RENDER
1002
{
1070
     0
1000
Quick Opt
1070
     0
1070
     1
1070
     1
1070
     1
1070
     0
1070
     0
1070
     1
1002
}
  0
INSERT
  5
2BE
330
1E
100
AcDbEntity
  8
ASHADE
  6
Continuous
 62
     5
100
AcDbBlockReference
  2
AVE_RENDER
 10
-209.6768904976978
 20
8.631977759637322
 30
0.0
1001
AVE_RENDER
1002
{
1070
     1
1000
Scanl Opt
1070
     2
1070
     0
1070
     2
1040
2.0
1040
4.0
1070
     0
1070
     1
1070
     0
1040
0.03
1002
}
  0
INSERT
  5
2BF
330
1E
100
AcDbEntity
  8
ASHADE
  6
Continuous
 62
     6
100
AcDbBlockReference
  2
AVE_RENDER
 10
-209.6768904976978
 20
8.631977759637322
 30
0.0
1001
AVE_RENDER
1002
{
1070
     2
1000
Raytr Opt
1070
     2
1070
     0
1070
     2
1040
2.0
1040
4.0
1070
     0
1070
     1
1070
     1
1040
0.03
1070
     3
1040
0.03
1002
}
  0
INSERT
  5
2C0
330
1E
100
AcDbEntity
  8
ASHADE
  6
Continuous
 62
     7
100
AcDbBlockReference
  2
AVE_RENDER
 10
-209.6768904976978
 20
8.631977759637322
 30
0.0
1001
AVE_RENDER
1002
{
1070
     0
1000
RFile Opt
1070
     1
1070
   640
1070
   480
1070
 10000
1070
     1
1070
     8
1070
     8
1070
     0
1070
     0
1070
     0
1070
     0
1070
     0
1070
     0
1070
     0
1002
}
  0
INSERT
  5
2C1
330
1E
100
AcDbEntity
  8
ASHADE
  6
Continuous
 62
     8
100
AcDbBlockReference
  2
AVE_RENDER
 10
-209.6768904976978
 20
8.631977759637322
 30
0.0
1001
AVE_RENDER
1002
{
1070
     0
1000
Fog Opt
1070
     0
1070
     0
1040
0.0
1040
1.0
1040
0.0
1040
1.0
1010
0.5
1020
0.5
1030
0.5
1002
}
  0
INSERT
  5
2C2
330
1E
100
AcDbEntity
  8
ASHADE
  6
Continuous
 62
     9
100
AcDbBlockReference
  2
AVE_RENDER
 10
-209.6768904976978
 20
8.631977759637322
 30
0.0
1001
AVE_RENDER
1002
{
1070
     0
1000
BG Opt
1070
     0
1070
     1
1010
0.0
1020
0.0
1030
0.0
1010
1.0
1020
0.0
1030
0.0
1010
0.0
1020
1.0
1030
0.0
1010
0.0
1020
0.0
1030
1.0
1040
0.5
1040
0.33
1040
0.0
1000

1070
     1
1000

1070
     1
1070
     1
1040
1.0
1040
1.0
1040
0.0
1040
0.0
1070
     0
1002
}
  0
INSERT
  5
2C3
330
1E
100
AcDbEntity
  8
ASHADE
  6
Continuous
 62
     1
100
AcDbBlockReference
  2
AVE_GLOBAL
 10
-209.6768904976978
 20
8.631977759637322
 30
0.0
1001
AVE_MATERIAL
1002
{
1000
*GLOBAL*
1000
1
1000
Global finish.
1002
{
1002
}
1002
{
1070
    63
1002
{
1002
{
1010
-1.0
1020
-1.0
1030
-1.0
1002
}
1040
0.1000000014901161
1000

1040
0.0
1002
{
1002
}
1040
0.0
1002
{
1002
}
1040
0.0
1002
}
1002
{
1002
{
1010
-1.0
1020
-1.0
1030
-1.0
1002
}
1040
0.6999999880790711
1000

1040
0.0
1002
{
1002
}
1040
0.0
1002
{
1002
}
1040
0.0
1002
}
1002
{
1002
{
1010
-1.0
1020
-1.0
1030
-1.0
1002
}
1040
0.2000000029802322
1000

1040
0.0
1002
{
1002
}
1040
0.0
1002
{
1002
}
1040
0.0
1002
}
1002
{
1070
     0
1002
{
1070
     1
1002
{
1040
1.0
1040
1.0
1000

1040
0.0
1002
{
1002
}
1040
0.0
1002
{
1002
}
1040
0.0
1002
}
1002
}
1040
1.0
1040
0.0
1040
0.0
1002
}
1002
{
1040
1.0
1040
1.0
1000

1040
0.0
1002
{
1002
}
1040
0.0
1002
{
1002
}
1040
0.0
1002
}
1002
{
1040
0.5
1040
1.0
1000

1040
0.0
1002
{
1002
}
1040
0.0
1002
{
1002
}
1040
0.0
1002
}
1002
{
1070
     0
1040
0.0
1002
{
1002
}
1040
1.0
1002
{
1002
}
1040
0.0
1002
}
1002
{
1040
0.0
1002
{
1002
{
1010
0.0
1020
0.0
1030
0.0
1002
}
1040
1.0
1000

1040
0.0
1002
{
1002
}
1040
0.0
1002
{
1002
}
1040
0.0
1002
}
1002
}
1002
{
1002
{
1070
     1
1002
{
1040
0.0
1040
1.0
1000

1040
0.0
1002
{
1002
}
1040
0.0
1002
{
1002
}
1040
0.0
1002
}
1002
}
1040
0.0
1002
{
1002
}
1010
1.0
1020
0.0
1030
0.0
1010
0.0
1020
1.0
1030
0.0
1010
0.0
1020
0.0
1030
1.0
1070
     0
1002
}
1002
{
1002
{
1040
1.0
1040
1.0
1002
{
1070
     1
1002
{
1040
1.0
1040
1.0
1000

1040
0.0
1002
{
1002
}
1040
0.0
1002
{
1002
}
1040
0.0
1002
}
1002
}
1002
}
1070
     0
1040
0.0
1002
{
1002
}
1002
}
1002
{
1002
}
1002
}
1002
{
1071
        3
1070
     3
1070
     0
1002
{
1070
     2
1070
     0
1070
     0
1040
0.0
1002
}
1070
     0
1070
     2
1002
{
1002
}
1002
}
1002
{
1040
8030.0
1040
190.3000030517578
1040
0.3050000071525574
1040
228.0
1040
545.0
1040
14.0
1040
17.39999961853027
1040
0.4560000002384186
1002
}
1002
}
  0
INSERT
  5
2C4
330
1E
100
AcDbEntity
  8
0
  6
Continuous
100
AcDbBlockReference
  2
*X2
 10
-34.02171456750215
 20
-4.081116523027445
 30
0.0
1001
ACAD
1000
HATCH
1002
{
1070
    16
1000
AR-CONC
1040
0.9
1040
0.0
1002
}
  0
INSERT
  5
2C5
330
1E
100
AcDbEntity
  8
0
  6
Continuous
100
AcDbBlockReference
  2
*X3
 10
-34.02171456750215
 20
-4.081116523027445
 30
0.0
1001
ACAD
1000
HATCH
1002
{
1070
    16
1000
AR-CONC
1040
0.9
1040
0.0
1002
}
  0
TEXT
  5
30C
330
1E
100
AcDbEntity
  8
BESAR
100
AcDbText
 10
-39.32733514232348
 20
-36.36823431366354
 30
0.0
 40
0.9
  1

 41
0.75
  7
ROMANS
 72
     5
 11
0.409495811791203
 21
-36.36823431366354
 31
0.0
100
AcDbText
  0
ARC
  5
1E9C
330
1E
100
AcDbEntity
  8
0
  6
Continuous
 62
     7
100
AcDbCircle
 10
196.4883245340748
 20
90.00589730683776
 30
0.0
 40
5.669234630032554
100
AcDbArc
 50
308.824981139997
 51
51.17502037000431
  0
ARC
  5
1E9F
330
1E
100
AcDbEntity
  8
0
  6
Continuous
 62
     7
100
AcDbCircle
 10
191.8427018269244
 20
90.00589730683776
 30
0.0
 40
5.669234630032554
100
AcDbArc
 50
128.8249796200089
 51
231.1750218899925
  0
ARC
  5
1EA0
330
1E
100
AcDbEntity
  8
0
  6
Continuous
 62
     7
100
AcDbCircle
 10
194.0888156106817
 20
92.79700672168777
 30
0.0
 40
9.251875960316693
100
AcDbArc
 50
231.1750203700043
 51
247.0672230000039
  0
ARC
  5
1EA6
330
1E
100
AcDbEntity
  8
0
  6
Continuous
 62
     7
100
AcDbCircle
 10
194.1655131804996
 20
92.97828592182298
 30
0.0
 40
9.448712607403567
100
AcDbArc
 50
247.0672230000039
 51
292.9327769899863
  0
LINE
  5
1EA7
330
1E
100
AcDbEntity
  8
0
  6
CENTER
 62
     7
100
AcDbLine
 10
194.1655131804996
 20
83.52957331441944
 30
0.0
 11
194.1655131804996
 21
83.17427245252764
 31
0.0
  0
ARC
  5
1EAB
330
1E
100
AcDbEntity
  8
0
  6
Continuous
 62
     7
100
AcDbCircle
 10
194.2422107503175
 20
92.79700672168777
 30
0.0
 40
9.251875960316693
100
AcDbArc
 50
292.9327769899863
 51
308.8249796200089
  0
HATCH
  5
1EAC
330
1E
100
AcDbEntity
  8
0
 62
     7
100
AcDbHatch
 10
0.0
 20
0.0
 30
0.0
210
0.0
220
0.0
230
1.0
  2
SOLID
 70
     1
 71
     0
 91
       10
 92
        7
 72
     1
 73
     1
 93
       20
 10
180.4681915881715
 20
103.3638487120071
 42
0.0
 10
180.5398335700947
 20
103.3638487120071
 42
-0.4142752124674323
 10
180.7000616295152
 20
103.2035869239143
 42
0.0
 10
180.7000525472211
 20
103.1604369442899
 42
0.0
 10
180.794993772694
 20
103.1604369442899
 42
0.0
 10
180.7950565706294
 20
103.458789935377
 42
0.0
 10
179.9487479935906
 20
103.458789935377
 42
0.0
 10
179.9487418124748
 20
103.1604369442899
 42
0.0
 10
180.0436641534631
 20
103.1604369442899
 42
0.0
 10
180.0436732499543
 20
103.2036543741602
 42
-0.4141519149660894
 10
180.2039013093749
 20
103.3638487120071
 42
0.0
 10
180.2756150714976
 20
103.3638487120071
 42
0.0
 10
180.2754981338432
 20
102.8267924670292
 42
-0.4141497897727592
 10
180.2158157382141
 20
102.7671230651221
 42
0.0
 10
180.1140968568075
 20
102.7671230651221
 42
0.0
 10
180.1140761844775
 20
102.6721818417522
 42
0.0
 10
180.6294292706076
 20
102.6721818417522
 42
0.0
 10
180.6294499429377
 20
102.7671230651221
 42
0.0
 10
180.5277570518052
 20
102.7671230651221
 42
-0.4142773378492039
 10
180.4680746561762
 20
102.8268184573027
 42
0.0
 97
        0
 92
        7
 72
     1
 73
     1
 93
       20
 10
182.4974160424314
 20
103.3638487120071
 42
0.0
 10
182.5690580243545
 20
103.3638487120071
 42
-0.4142752124674332
 10
182.7292860837751
 20
103.2035869239143
 42
0.0
 10
182.7292770014809
 20
103.1604369442899
 42
0.0
 10
182.8242182269539
 20
103.1604369442899
 42
0.0
 10
182.8242810248893
 20
103.458789935377
 42
0.0
 10
181.9779724478505
 20
103.458789935377
 42
0.0
 10
181.9779662667345
 20
103.1604369442899
 42
0.0
 10
182.0728886077229
 20
103.1604369442899
 42
0.0
 10
182.0728977042142
 20
103.2036543741602
 42
-0.414151914966089
 10
182.2331257636347
 20
103.3638487120071
 42
0.0
 10
182.3048395257574
 20
103.3638487120071
 42
0.0
 10
182.3047225881031
 20
102.8267924670292
 42
-0.41414978977276
 10
182.245040192474
 20
102.7671230651221
 42
0.0
 10
182.1433213110674
 20
102.7671230651221
 42
0.0
 10
182.1433006387373
 20
102.6721818417522
 42
0.0
 10
182.6586537248675
 20
102.6721818417522
 42
0.0
 10
182.6586743971976
 20
102.7671230651221
 42
0.0
 10
182.5569815060651
 20
102.7671230651221
 42
-0.4142773378492051
 10
182.4972991104361
 20
102.8268184573027
 42
0.0
 97
        0
 92
       16
 93
        4
 72
     2
 10
181.3864405787674
 20
102.9595229026497
 40
0.2195174638079878
 50
199.1202649999999
 51
340.867675
 73
     1
 72
     2
 10
181.0813259330672
 20
103.0653711243156
 40
0.5424707136112205
 50
340.867675
 51
379.193527
 73
     1
 72
     2
 10
181.3864628891446
 20
103.1715924001546
 40
0.2193739318455655
 50
19.193527
 51
160.7944129999999
 73
     1
 72
     2
 10
181.6915774787887
 20
103.0653069119106
 40
0.5424707136112205
 50
160.7944129999999
 51
199.1202649999999
 73
     1
 97
        0
 92
        1
 93
        4
 72
     2
 10
181.3362754992402
 20
103.0653443014123
 40
0.406862859061731
 50
142.997119
 51
216.4375859999999
 73
     1
 72
     2
 10
181.3864645988594
 20
103.133299636549
 40
0.4882354476909442
 50
219.356321
 51
320.61032
 73
     1
 72
     2
 10
181.4366279406437
 20
103.065333734814
 40
0.406862859061731
 50
323.5257889999999
 51
396.965523
 73
     1
 72
     2
 10
181.3864388690525
 20
102.9976721342929
 40
0.4882354476909442
 50
39.769149
 51
140.196876
 73
     1
 97
        0
 92
        1
 93
        4
 72
     2
 10
183.3654622195961
 20
103.0653443014123
 40
0.406862859061731
 50
142.997119
 51
216.4375859999999
 73
     1
 72
     2
 10
183.4156513192153
 20
103.133299636549
 40
0.4882354476909442
 50
219.356321
 51
320.61032
 73
     1
 72
     2
 10
183.4658146609996
 20
103.065333734814
 40
0.406862859061731
 50
323.5257889999999
 51
396.965523
 73
     1
 72
     2
 10
183.4156255894084
 20
102.9976721342929
 40
0.4882354476909442
 50
39.769149
 51
140.196876
 73
     1
 97
        0
 92
       16
 93
        4
 72
     2
 10
183.4156272991232
 20
102.9595229026497
 40
0.2195174638079878
 50
199.1202649999999
 51
340.867675
 73
     1
 72
     2
 10
183.110512653423
 20
103.0653711243156
 40
0.5424707136112205
 50
340.867675
 51
379.193527
 73
     1
 72
     2
 10
183.4156496095006
 20
103.1715924001546
 40
0.2193739318455655
 50
19.193527
 51
160.7944129999999
 73
     1
 72
     2
 10
183.7207641991445
 20
103.0653069119106
 40
0.5424707136112205
 50
160.7944129999999
 51
199.1202649999999
 73
     1
 97
        0
 92
        0
 93
       67
 72
     1
 10
184.0017566743306
 20
103.4284042662126
 11
184.0023929124769
 21
103.4283955494697
 72
     1
 10
184.0023929124769
 20
103.4283955494697
 11
184.0037002837691
 21
103.4283519657553
 72
     1
 10
184.003700283769
 20
103.4283519657553
 11
184.0049640713468
 21
103.4282561096117
 72
     1
 10
184.0049640713468
 20
103.4282561096117
 11
184.0062016806678
 21
103.4281166417255
 72
     1
 10
184.0062016806678
 20
103.4281166417255
 11
184.0073957343024
 21
103.4279249014102
 72
     1
 10
184.0073957343024
 20
103.4279249014101
 11
184.0085636657365
 21
103.4276808606375
 72
     1
 10
184.0085636657365
 20
103.4276808606375
 11
184.0096967021711
 21
103.4274019528933
 72
     1
 10
184.0096967021709
 20
103.4274019528933
 11
184.0107861548911
 21
103.4270620279489
 72
     1
 10
184.0107861548911
 20
103.4270620279489
 11
184.0118494854106
 21
103.4266785473182
 72
     1
 10
184.0118494854106
 20
103.4266785473182
 11
184.0128779489585
 21
103.4262514829731
 72
     1
 10
184.0128779489585
 20
103.4262514829731
 11
184.013871545535
 21
103.4257721181706
 72
     1
 10
184.013871545535
 20
103.4257721181706
 11
184.0148302751399
 21
103.4252491696537
 72
     1
 10
184.0148302751399
 20
103.4252491696537
 11
184.0157454210303
 21
103.4246739206796
 72
     1
 10
184.0157454210303
 20
103.4246739206796
 11
184.0166344166921
 21
103.4240551160191
 72
     1
 10
184.0166344166921
 20
103.4240551160191
 11
184.0174885734105
 21
103.4233840109013
 72
     1
 10
184.0174885734105
 20
103.4233840109013
 11
184.0182032622427
 21
103.4227390279841
 72
     1
 10
184.0182032622427
 20
103.4227390279841
 11
184.0189963737328
 21
103.4219371997511
 72
     1
 10
184.0189963737328
 20
103.4219371997511
 11
184.0197197793079
 21
103.4210917597756
 72
     1
 10
184.0197197793079
 20
103.4210917597756
 11
184.0203821957109
 21
103.4202114808567
 72
     1
 10
184.0203821957109
 20
103.4202114808567
 11
184.0209835668856
 21
103.4192876182234
 72
     1
 10
184.0209835668856
 20
103.4192876182233
 11
184.0215239488883
 21
103.4183288886184
 72
     1
 10
184.0215239488883
 20
103.4183288886184
 11
184.0219945969478
 21
103.4173265752991
 72
     1
 10
184.0219945969478
 20
103.4173265752991
 11
184.0224042278071
 21
103.4162806782654
 72
     1
 10
184.022404227807
 20
103.4162806782654
 11
184.0227528694945
 21
103.4151999422882
 72
     1
 10
184.0227528694945
 20
103.4151999422883
 11
184.0230317772387
 21
103.4140843113114
 72
     1
 10
184.0230317772387
 20
103.4140843113114
 11
184.0232583845256
 21
103.4129164079054
 72
     1
 10
184.0232583845256
 20
103.4129164079054
 11
184.0234152578694
 21
103.4117223542708
 72
     1
 10
184.0234152578694
 20
103.4117223542708
 11
184.0235111420411
 21
103.4104760001788
 72
     1
 10
184.0235111420411
 20
103.4104760001788
 11
184.0235372922697
 21
103.4091948071434
 72
     1
 10
184.0235372922698
 20
103.4091948071434
 11
184.0235285755269
 21
103.4082621997391
 72
     1
 10
184.0235285755269
 20
103.4082621997391
 11
184.0234937085553
 21
103.4069199895035
 72
     1
 10
184.0234937085553
 20
103.4069199895035
 11
184.0234152578694
 21
103.4056213349542
 72
     1
 10
184.0234152578694
 20
103.4056213349542
 11
184.0232932514971
 21
103.4043662921474
 72
     1
 10
184.0232932514971
 20
103.4043662921474
 11
184.0231450668681
 21
103.4031460882841
 72
     1
 10
184.0231450668681
 20
103.4031460882841
 11
184.0229620432956
 21
103.4019607513923
 72
     1
 10
184.0229620432956
 20
103.4019607513923
 11
184.0227354360086
 21
103.4008276869297
 72
     1
 10
184.0227354360086
 20
103.4008276869297
 11
184.0224826784932
 21
103.3997208007239
 72
     1
 10
184.0224826784931
 20
103.3997208007239
 11
184.0221863372631
 21
103.3986661869473
 72
     1
 10
184.0221863372631
 20
103.3986661869473
 11
184.0218551570898
 21
103.3976464401423
 72
     1
 10
184.0218551570898
 20
103.3976464401422
 11
184.0214890819167
 21
103.3966615603087
 72
     1
 10
184.0214890819167
 20
103.3966615603087
 11
184.0210881678002
 21
103.3957289809324
 72
     1
 10
184.0210881678002
 20
103.3957289809325
 11
184.0206523867122
 21
103.3948225517849
 72
     1
 10
184.0206523867122
 20
103.3948225517849
 11
184.0201729938817
 21
103.3939684230946
 72
     1
 10
184.0201729938817
 20
103.3939684230946
 11
184.0196675068787
 21
103.3931491333478
 72
     1
 10
184.0196675068787
 20
103.3931491333478
 11
184.0191184081332
 21
103.3923647105725
 72
     1
 10
184.0191184081332
 20
103.3923647105725
 11
184.018543159159
 21
103.3916238715116
 72
     1
 10
184.018543159159
 20
103.3916238715116
 11
184.0179243544985
 21
103.3909266161652
 72
     1
 10
184.0179243544985
 20
103.3909266161652
 11
184.0172706828665
 21
103.3902729445331
 72
     1
 10
184.0172706828665
 20
103.3902729445331
 11
184.0165821162348
 21
103.3896454231298
 72
     1
 10
184.0165821162348
 20
103.3896454231298
 11
184.0158587106597
 21
103.3890701741556
 72
     1
 10
184.0158587106597
 20
103.3890701741556
 11
184.0150917493983
 21
103.388529792153
 72
     1
 10
184.0150917493983
 20
103.388529792153
 11
184.0142986098801
 21
103.3880329938647
 72
     1
 10
184.0142986098801
 20
103.3880329938647
 11
184.0134618866475
 21
103.3875710625481
 72
     1
 10
184.0134618866475
 20
103.3875710625481
 11
184.0125990412144
 21
103.3871527149458
 72
     1
 10
184.0125990412144
 20
103.3871527149458
 11
184.0116926120668
 21
103.386769206287
 72
     1
 10
184.0116926120668
 20
103.386769206287
 11
184.0107513159477
 21
103.3864293093707
 72
     1
 10
184.0107513159476
 20
103.3864293093707
 11
184.009775152857
 21
103.3861329681407
 72
     1
 10
184.009775152857
 20
103.3861329681407
 11
184.0087641227948
 21
103.3858714938823
 72
     1
 10
184.0087641227948
 20
103.3858714938823
 11
184.0077095090182
 21
103.3856536033383
 72
     1
 10
184.0077095090182
 20
103.3856536033383
 11
184.006628773041
 21
103.3854705797658
 72
     1
 10
184.006628773041
 20
103.3854705797658
 11
184.0055044253213
 21
103.3853311118797
 72
     1
 10
184.0055044253213
 20
103.3853311118797
 11
184.0043539554011
 21
103.3852352557361
 72
     1
 10
184.0043539554011
 20
103.3852352557361
 11
184.0031599017664
 21
103.3851742385359
 72
     1
 10
184.0031599017664
 20
103.3851742385359
 11
184.0019309811602
 21
103.3851480883072
 72
     1
 10
184.0019309811602
 20
103.3851480883072
 11
183.9595812604305
 21
103.3851480883072
 72
     1
 10
183.9595812604305
 20
103.3851480883072
 11
183.9595812604305
 21
103.4284042662126
 72
     1
 10
183.9595812604305
 20
103.4284042662126
 11
184.0017566743306
 21
103.4284042662126
 97
        0
 92
        0
 93
      207
 72
     1
 10
184.0270758694593
 20
103.3762667643477
 11
184.0259166827961
 21
103.3771296097809
 72
     1
 10
184.0259166827961
 20
103.3771296097808
 11
184.0246790454471
 21
103.3780186334708
 72
     1
 10
184.0246790454471
 20
103.3780186334708
 11
184.023371674155
 21
103.3789250626184
 72
     1
 10
184.0233716741549
 20
103.3789250626184
 11
184.0241386634445
 21
103.3794828781067
 72
     1
 10
184.0241386634445
 20
103.3794828781067
 11
184.025201993964
 21
103.3802934230826
 72
     1
 10
184.025201993964
 20
103.3802934230826
 11
184.026221712741
 21
103.3811039960865
 72
     1
 10
184.026221712741
 20
103.3811039960865
 11
184.0272065925745
 21
103.3819320025763
 72
     1
 10
184.0272065925745
 20
103.3819320025763
 11
184.0281566054365
 21
103.3827686977808
 72
     1
 10
184.0281566054365
 20
103.3827686977808
 11
184.0290717793551
 21
103.3836141377563
 72
     1
 10
184.0290717793551
 20
103.3836141377563
 11
184.0299433415311
 21
103.3844682664465
 72
     1
 10
184.0299433415311
 20
103.3844682664465
 11
184.0307800647637
 21
103.3853398286225
 72
     1
 10
184.0307800647637
 20
103.3853398286225
 11
184.0315818929967
 21
103.3862201355696
 72
     1
 10
184.0315818929967
 20
103.3862201355696
 11
184.0323488822862
 21
103.3871091312314
 72
     1
 10
184.0323488822862
 20
103.3871091312314
 11
184.0330722878613
 21
103.3880068436361
 72
     1
 10
184.0330722878613
 20
103.3880068436361
 11
184.0337608264649
 21
103.3889220175547
 72
     1
 10
184.0337608264649
 20
103.3889220175546
 11
184.0344144980969
 21
103.3898371634451
 72
     1
 10
184.0344144980969
 20
103.3898371634451
 11
184.0350246140426
 21
103.3907697428214
 72
     1
 10
184.0350246140426
 20
103.3907697428213
 11
184.0355998630168
 21
103.3917110389405
 72
     1
 10
184.0355998630168
 20
103.3917110389405
 11
184.0361402169913
 21
103.3926697685453
 72
     1
 10
184.0361402169913
 20
103.3926697685453
 11
184.0366457320224
 21
103.3936284981502
 72
     1
 10
184.0366457320224
 20
103.3936284981502
 11
184.037107663339
 21
103.3946046612409
 72
     1
 10
184.037107663339
 20
103.3946046612409
 11
184.0375347557123
 21
103.3955895410744
 72
     1
 10
184.0375347557123
 20
103.3955895410744
 11
184.0379269530859
 21
103.3965831376509
 72
     1
 10
184.0379269530859
 20
103.3965831376508
 11
184.038284283488
 21
103.397594167713
 72
     1
 10
184.038284283488
 20
103.3975941677131
 11
184.0385980582037
 21
103.3986051697471
 72
     1
 10
184.0385980582037
 20
103.3986051697471
 11
184.0388769659479
 21
103.3996336332951
 72
     1
 10
184.0388769659479
 20
103.3996336332951
 11
184.0391210067206
 21
103.4006708135859
 72
     1
 10
184.0391210067206
 20
103.4006708135859
 11
184.0393214637788
 21
103.4017254273626
 72
     1
 10
184.0393214637788
 20
103.4017254273626
 11
184.0394957706084
 21
103.4027800131111
 72
     1
 10
184.0394957706084
 20
103.4027800131111
 11
184.0396178050088
 21
103.4038520603735
 72
     1
 10
184.0396178050088
 20
103.4038520603734
 11
184.0397136611524
 21
103.4049327963506
 72
     1
 10
184.0397136611524
 20
103.4049327963506
 11
184.0397746783526
 21
103.4060222770987
 72
     1
 10
184.0397746783526
 20
103.4060222770987
 11
184.0397921118384
 21
103.4071204465617
 72
     1
 10
184.0397921118384
 20
103.4071204465617
 11
184.0397833950954
 21
103.4081489101097
 72
     1
 10
184.0397833950954
 20
103.4081489101097
 11
184.039748528124
 21
103.4095695710312
 72
     1
 10
184.039748528124
 20
103.4095695710312
 11
184.0396875389519
 21
103.4109640817241
 72
     1
 10
184.0396875389519
 20
103.4109640817241
 11
184.039600371523
 21
103.4123150367307
 72
     1
 10
184.039600371523
 20
103.4123150367307
 11
184.0394870538655
 21
103.4136485302234
 72
     1
 10
184.0394870538655
 20
103.4136485302234
 11
184.0393388972646
 21
103.4149384680298
 72
     1
 10
184.0393388972646
 20
103.4149384680298
 11
184.039164590435
 21
103.4162109443223
 72
     1
 10
184.039164590435
 20
103.4162109443223
 11
184.0389641333768
 21
103.4174398649285
 72
     1
 10
184.0389641333768
 20
103.4174398649285
 11
184.0387375260899
 21
103.4186426353061
 72
     1
 10
184.0387375260899
 20
103.4186426353061
 11
184.0384847685743
 21
103.4198105667402
 72
     1
 10
184.0384847685743
 20
103.4198105667402
 11
184.0382058608301
 21
103.4209523199175
 72
     1
 10
184.0382058608301
 20
103.4209523199175
 11
184.0378920861144
 21
103.4220592061234
 72
     1
 10
184.0378920861144
 20
103.4220592061234
 11
184.03755216117
 21
103.4231312533858
 72
     1
 10
184.03755216117
 20
103.4231312533858
 11
184.0371861140251
 21
103.4241771223914
 72
     1
 10
184.0371861140251
 20
103.4241771223914
 11
184.0367939166515
 21
103.4251968691965
 72
     1
 10
184.0367939166515
 20
103.4251968691965
 11
184.036375541021
 21
103.4261730322871
 72
     1
 10
184.036375541021
 20
103.4261730322871
 11
184.0359223264473
 21
103.4271230451491
 72
     1
 10
184.0359223264473
 20
103.4271230451491
 11
184.0354516783877
 21
103.4280469077824
 72
     1
 10
184.0354516783877
 20
103.4280469077824
 11
184.0349461633566
 21
103.4289359314724
 72
     1
 10
184.0349461633566
 20
103.4289359314724
 11
184.0344144980969
 21
103.4297900601627
 72
     1
 10
184.0344144980969
 20
103.4297900601626
 11
184.0338567106366
 21
103.4306180666523
 72
     1
 10
184.0338567106366
 20
103.4306180666523
 11
184.0332640281767
 21
103.4314111781424
 72
     1
 10
184.0332640281767
 20
103.4314111781424
 11
184.0326539402591
 21
103.4321694506891
 72
     1
 10
184.0326539402591
 20
103.4321694506891
 11
184.0320089573418
 21
103.4329015730071
 72
     1
 10
184.0320089573418
 20
103.4329015730071
 11
184.0314337363956
 21
103.4335029722099
 72
     1
 10
184.0314337363956
 20
103.4335029722099
 11
184.0307539145351
 21
103.434147927099
 72
     1
 10
184.030753914535
 20
103.434147927099
 11
184.0300479424456
 21
103.4347754765305
 72
     1
 10
184.0300479424456
 20
103.4347754765305
 11
184.0293158201276
 21
103.4353768477052
 72
     1
 10
184.0293158201276
 20
103.4353768477052
 11
184.0285488308382
 21
103.4359520966794
 72
     1
 10
184.0285488308382
 20
103.4359520966794
 11
184.0277469745771
 21
103.4365098841397
 72
     1
 10
184.0277469745771
 20
103.4365098841397
 11
184.0269189961155
 21
103.4370415493994
 72
     1
 10
184.0269189961155
 20
103.4370415493994
 11
184.0260648393972
 21
103.4375470644306
 72
     1
 10
184.0260648393972
 20
103.4375470644305
 11
184.0251758437353
 21
103.4380351459759
 72
     1
 10
184.0251758437353
 20
103.4380351459759
 11
184.0242606978448
 21
103.4384970772926
 72
     1
 10
184.0242606978449
 20
103.4384970772926
 11
184.0233106569548
 21
103.4389328583806
 72
     1
 10
184.0233106569548
 20
103.4389328583806
 11
184.0223345218922
 21
103.4393512340109
 72
     1
 10
184.0223345218922
 20
103.439351234011
 11
184.02132349183
 21
103.4397347146416
 72
     1
 10
184.02132349183
 20
103.4397347146416
 11
184.0202863115392
 21
103.4401007617866
 72
     1
 10
184.0202863115392
 20
103.4401007617866
 11
184.0192142642768
 21
103.4404494034739
 72
     1
 10
184.0192142642768
 20
103.4404494034739
 11
184.0181160948139
 21
103.4407631781896
 72
     1
 10
184.0181160948139
 20
103.4407631781896
 11
184.0169830583794
 21
103.4410594913915
 72
     1
 10
184.0169830583794
 20
103.4410594913915
 11
184.0158238717163
 21
103.4413296823928
 72
     1
 10
184.0158238717163
 20
103.4413296823928
 11
184.0146385067964
 21
103.4415824399083
 72
     1
 10
184.0146385067964
 20
103.4415824399083
 11
184.0134096142183
 21
103.4418003304524
 72
     1
 10
184.0134096142183
 20
103.4418003304524
 11
184.0121632601263
 21
103.4420095322816
 72
     1
 10
184.0121632601263
 20
103.4420095322816
 11
184.0108820390628
 21
103.4421838391112
 72
     1
 10
184.0108820390628
 20
103.4421838391112
 11
184.0095746677706
 21
103.4423319957121
 72
     1
 10
184.0095746677706
 20
103.4423319957121
 11
184.008232457535
 21
103.4424627468554
 72
     1
 10
184.008232457535
 20
103.4424627468554
 11
184.0068553803279
 21
103.4425760364848
 72
     1
 10
184.0068553803279
 20
103.4425760364848
 11
184.0054521528921
 21
103.4426544871707
 72
     1
 10
184.0054521528921
 20
103.4426544871707
 11
184.0040227471996
 21
103.4427155043709
 72
     1
 10
184.0040227471996
 20
103.4427155043709
 11
184.0025585025636
 21
103.4427503433143
 72
     1
 10
184.0025585025636
 20
103.4427503433143
 11
184.001068135727
 21
103.4427590600572
 72
     1
 10
184.001068135727
 20
103.4427590600572
 11
183.9433351295767
 21
103.4427590600572
 72
     1
 10
183.9433351295767
 20
103.4427590600572
 11
183.9433351295767
 21
103.3166424492162
 72
     1
 10
183.9433351295767
 20
103.3166424492162
 11
183.9595812604305
 21
103.3166424492162
 72
     1
 10
183.9595812604305
 20
103.3166424492162
 11
183.9595812604305
 21
103.3707932944626
 72
     1
 10
183.9595812604305
 20
103.3707932944626
 11
184.0019309811602
 21
103.3707932944626
 72
     1
 10
184.0019309811602
 20
103.3707932944626
 11
184.002889710765
 21
103.3707758609768
 72
     1
 10
184.002889710765
 20
103.3707758609768
 11
184.0040227471996
 21
103.3707148437766
 72
     1
 10
184.0040227471996
 20
103.3707148437766
 11
184.0051296614335
 21
103.370610242862
 72
     1
 10
184.0051296614335
 20
103.370610242862
 11
184.0061929639249
 21
103.3704620862611
 72
     1
 10
184.0061929639249
 20
103.3704620862611
 11
184.0072214274728
 21
103.3702703459457
 72
     1
 10
184.0072214274728
 20
103.3702703459457
 11
184.0082150240493
 21
103.3700263051731
 72
     1
 10
184.0082150240493
 20
103.3700263051731
 11
184.0091737536542
 21
103.3697473974289
 72
     1
 10
184.0091737536542
 20
103.3697473974289
 11
184.0100976162875
 21
103.3694161892274
 72
     1
 10
184.0100976162875
 20
103.3694161892273
 11
184.0109866399774
 21
103.3690414253395
 72
     1
 10
184.0109866399774
 20
103.3690414253395
 11
184.0118320519248
 21
103.3686143609944
 72
     1
 10
184.0118320519248
 20
103.3686143609944
 11
184.0126513416717
 21
103.3681524296777
 72
     1
 10
184.0126513416717
 20
103.3681524296777
 11
184.0134270196759
 21
103.3676381979038
 72
     1
 10
184.013427019676
 20
103.3676381979037
 11
184.0141678587368
 21
103.3670890991582
 72
     1
 10
184.0141678587368
 20
103.3670890991582
 11
184.0148738308262
 21
103.3664877279835
 72
     1
 10
184.0148738308262
 20
103.3664877279835
 11
184.0155449639721
 21
103.3658427450663
 72
     1
 10
184.0155449639721
 20
103.3658427450663
 11
184.0161812021183
 21
103.3651454897198
 72
     1
 10
184.0161812021183
 20
103.3651454897198
 11
184.0167826013212
 21
103.3644133674018
 72
     1
 10
184.0167826013212
 20
103.3644133674018
 11
184.0173403887814
 21
103.3636289446265
 72
     1
 10
184.0173403887814
 20
103.3636289446265
 11
184.0178720540411
 21
103.3628009661649
 72
     1
 10
184.0178720540411
 20
103.3628009661649
 11
184.0183601355865
 21
103.3619293759607
 72
     1
 10
184.0183601355865
 20
103.3619293759608
 11
184.0188220669032
 21
103.3610142300703
 72
     1
 10
184.0188220669032
 20
103.3610142300703
 11
184.0192404145055
 21
103.3600555004654
 72
     1
 10
184.0192404145055
 20
103.3600555004654
 11
184.0196239231643
 21
103.3590444704032
 72
     1
 10
184.0196239231643
 20
103.3590444704032
 11
184.0199725368234
 21
103.3579986013976
 72
     1
 10
184.0199725368234
 20
103.3579986013976
 11
184.0202863115392
 21
103.3569004039065
 72
     1
 10
184.0202863115392
 20
103.3569004039065
 11
184.0205565025405
 21
103.3557586507292
 72
     1
 10
184.0205565025405
 20
103.3557586507292
 11
184.0208005433131
 21
103.3545645970945
 72
     1
 10
184.0208005433131
 20
103.3545645970946
 11
184.0210010003714
 21
103.3533356764883
 72
     1
 10
184.0210010003714
 20
103.3533356764883
 11
184.021175307201
 21
103.3520544554248
 72
     1
 10
184.021175307201
 20
103.3520544554248
 11
184.0213060583443
 21
103.3507383954179
 72
     1
 10
184.0213060583442
 20
103.3507383954179
 11
184.0214019144879
 21
103.3493700349536
 72
     1
 10
184.0214019144879
 20
103.3493700349536
 11
184.0214629316881
 21
103.3479580627469
 72
     1
 10
184.0214629316881
 20
103.3479580627469
 11
184.0214280647166
 21
103.3471736679997
 72
     1
 10
184.0214280647165
 20
103.3471736679997
 11
184.0213583588015
 21
103.345683273135
 72
     1
 10
184.0213583588015
 20
103.345683273135
 11
184.0212973416014
 21
103.3442364619848
 72
     1
 10
184.0212973416014
 20
103.3442364619848
 11
184.021253757887
 21
103.342833234549
 72
     1
 10
184.0212537578869
 20
103.342833234549
 11
184.0212276076583
 21
103.3414735627995
 72
     1
 10
184.0212276076583
 20
103.3414735627995
 11
184.0212188909154
 21
103.3401575027926
 72
     1
 10
184.0212188909154
 20
103.3401575027926
 11
184.0212188909154
 21
103.3388762817291
 72
     1
 10
184.0212188909154
 20
103.3388762817291
 11
184.0212276076583
 21
103.33763864438
 72
     1
 10
184.0212276076583
 20
103.33763864438
 11
184.0212624746298
 21
103.3364445907454
 72
     1
 10
184.0212624746298
 20
103.3364445907454
 11
184.0212973416013
 21
103.3352941208251
 72
     1
 10
184.0212973416014
 20
103.3352941208251
 11
184.0213583588015
 21
103.3341872065912
 72
     1
 10
184.0213583588015
 20
103.3341872065912
 11
184.0214280647165
 21
103.3331151873569
 72
     1
 10
184.0214280647165
 20
103.3331151873569
 11
184.0215065154024
 21
103.3320954405518
 72
     1
 10
184.0215065154024
 20
103.3320954405518
 11
184.0216111163171
 21
103.3311105607183
 72
     1
 10
184.0216111163171
 20
103.3311105607183
 11
184.0217156892036
 21
103.3301692645992
 72
     1
 10
184.0217156892036
 20
103.3301692645992
 11
184.0218464403469
 21
103.3292628354516
 72
     1
 10
184.0218464403469
 20
103.3292628354516
 11
184.021985880205
 21
103.3284086787332
 72
     1
 10
184.0219858802049
 20
103.3284086787332
 11
184.0220381806622
 21
103.3280774985598
 72
     1
 10
184.0220381806622
 20
103.3280774985598
 11
184.0222560712063
 21
103.3268747281823
 72
     1
 10
184.0222560712063
 20
103.3268747281823
 11
184.022491395236
 21
103.3256893912905
 72
     1
 10
184.022491395236
 20
103.3256893912905
 11
184.0227528694945
 21
103.3245127711416
 72
     1
 10
184.0227528694945
 20
103.3245127711416
 11
184.0230230604958
 21
103.3233448397075
 72
     1
 10
184.0230230604958
 20
103.3233448397075
 11
184.0233193736976
 21
103.3221943697873
 72
     1
 10
184.0233193736976
 20
103.3221943697872
 11
184.0236418651563
 21
103.3210613333528
 72
     1
 10
184.0236418651563
 20
103.3210613333528
 11
184.0239730733578
 21
103.3199370136612
 72
     1
 10
184.0239730733578
 20
103.3199370136612
 11
184.0243304037598
 21
103.3188213826844
 72
     1
 10
184.0243304037598
 20
103.3188213826844
 11
184.0247051956758
 21
103.3177232132215
 72
     1
 10
184.0247051956757
 20
103.3177232132215
 11
184.0250973930493
 21
103.3166424492162
 72
     1
 10
184.0250973930493
 20
103.3166424492162
 11
184.0446293435773
 21
103.3166424492162
 72
     1
 10
184.0446293435772
 20
103.3166424492162
 11
184.0446293435772
 21
103.3207911423515
 72
     1
 10
184.0446293435772
 20
103.3207911423515
 11
184.043836204059
 21
103.3214709642122
 72
     1
 10
184.043836204059
 20
103.3214709642121
 11
184.0429820753688
 21
103.322290253959
 72
     1
 10
184.0429820753688
 20
103.322290253959
 11
184.0422063693364
 21
103.3231530993921
 72
     1
 10
184.0422063693363
 20
103.3231530993921
 11
184.0415091139899
 21
103.3240508117968
 72
     1
 10
184.0415091139899
 20
103.3240508117968
 11
184.0408903093294
 21
103.3250008526869
 72
     1
 10
184.0408903093294
 20
103.3250008526869
 11
184.0403412105839
 21
103.3259857044924
 72
     1
 10
184.0403412105839
 20
103.3259857044924
 11
184.0398705625243
 21
103.3270054512974
 72
     1
 10
184.0398705625243
 20
103.3270054512974
 11
184.0394783371226
 21
103.3280774985598
 72
     1
 10
184.0394783371226
 20
103.3280774985598
 11
184.0391558736921
 21
103.3291843847656
 72
     1
 10
184.0391558736921
 20
103.3291843847656
 11
184.0389205496624
 21
103.330326137943
 72
     1
 10
184.0389205496624
 20
103.330326137943
 11
184.0387549315476
 21
103.3315201915776
 72
     1
 10
184.0387549315476
 20
103.3315201915776
 11
184.0387375260899
 21
103.3317729490932
 72
     1
 10
184.0387375260899
 20
103.3317729490932
 11
184.0386329251753
 21
103.333402811844
 72
     1
 10
184.0386329251753
 20
103.333402811844
 11
184.0385283242606
 21
103.3349890628523
 72
     1
 10
184.0385283242606
 20
103.3349890628522
 11
184.038432468117
 21
103.3365317581742
 72
     1
 10
184.038432468117
 20
103.3365317581742
 11
184.0383365839453
 21
103.3380308697817
 72
     1
 10
184.0383365839453
 20
103.3380308697817
 11
184.0382494445446
 21
103.3394950863896
 72
     1
 10
184.0382494445444
 20
103.3394950863896
 11
184.0381622771156
 21
103.3409070585964
 72
     1
 10
184.0381622771156
 20
103.3409070585964
 11
184.0380751096869
 21
103.3422841358035
 72
     1
 10
184.0380751096869
 20
103.3422841358035
 11
184.0380054037719
 21
103.3436176292962
 72
     1
 10
184.0380054037719
 20
103.3436176292962
 11
184.0379269530859
 21
103.3449075671025
 72
     1
 10
184.0379269530859
 20
103.3449075671025
 11
184.0378572191428
 21
103.3461539211946
 72
     1
 10
184.0378572191429
 20
103.3461539211946
 11
184.0377962019427
 21
103.3473566915721
 72
     1
 10
184.0377962019426
 20
103.3473566915721
 11
184.0377352127705
 21
103.3485158782353
 72
     1
 10
184.0377352127705
 20
103.3485158782353
 11
184.0376829123133
 21
103.3496401979268
 72
     1
 10
184.0376829123133
 20
103.3496401979268
 11
184.037630611856
 21
103.3507122451892
 72
     1
 10
184.037630611856
 20
103.3507122451892
 11
184.0375783113987
 21
103.3517494254801
 72
     1
 10
184.0375783113987
 20
103.3517494254801
 11
184.0375434444271
 21
103.3527430220565
 72
     1
 10
184.0375434444271
 20
103.3527430220565
 11
184.0374998887408
 21
103.3536930349185
 72
     1
 10
184.0374998887408
 20
103.3536930349185
 11
184.0374650217693
 21
103.3546081808089
 72
     1
 10
184.0374650217692
 20
103.3546081808089
 11
184.0374388715406
 21
103.3554710262421
 72
     1
 10
184.0374388715406
 20
103.3554710262421
 11
184.037412721312
 21
103.3562990327318
 72
     1
 10
184.0374127213119
 20
103.3562990327318
 11
184.0373865710833
 21
103.3570747387642
 72
     1
 10
184.0373865710833
 20
103.3570747387642
 11
184.0373691375975
 21
103.3578155778251
 72
     1
 10
184.0373691375975
 20
103.3578155778251
 11
184.0372558479682
 21
103.3590096314598
 72
     1
 10
184.0372558479681
 20
103.3590096314598
 11
184.0370727963675
 21
103.3604825648106
 72
     1
 10
184.0370727963675
 20
103.3604825648106
 11
184.0368636225664
 21
103.3618596700458
 72
     1
 10
184.0368636225664
 20
103.3618596700458
 11
184.0366282985366
 21
103.3631495798241
 72
     1
 10
184.0366282985366
 20
103.3631495798241
 11
184.0363668242782
 21
103.3643436334587
 72
     1
 10
184.0363668242782
 20
103.3643436334587
 11
184.0360705110763
 21
103.3654418309498
 72
     1
 10
184.0360705110764
 20
103.3654418309498
 11
184.0357480196177
 21
103.366444144269
 72
     1
 10
184.0357480196177
 20
103.366444144269
 11
184.0353993779304
 21
103.3673505734167
 72
     1
 10
184.0353993779304
 20
103.3673505734167
 11
184.0350158972997
 21
103.3681698631635
 72
     1
 10
184.0350158972997
 20
103.3681698631635
 11
184.0346062664404
 21
103.3688845519957
 72
     1
 10
184.0346062664403
 20
103.3688845519957
 11
184.0342401912673
 21
103.369442339456
 72
     1
 10
184.0342401912673
 20
103.369442339456
 11
184.0337346762362
 21
103.3701134726019
 72
     1
 10
184.0337346762362
 20
103.3701134726019
 11
184.0331594552902
 21
103.3708107279484
 72
     1
 10
184.0331594552901
 20
103.3708107279484
 11
184.0325144723729
 21
103.3715254167806
 72
     1
 10
184.0325144723729
 20
103.3715254167806
 11
184.0317910667978
 21
103.3722662558415
 72
     1
 10
184.0317910667978
 20
103.3722662558415
 11
184.0309979553077
 21
103.37302450036
 72
     1
 10
184.0309979553077
 20
103.37302450036
 11
184.0301263651035
 21
103.3738002063924
 72
     1
 10
184.0301263651036
 20
103.3738002063924
 11
184.0291850689844
 21
103.3746020626535
 72
     1
 10
184.0291850689844
 20
103.3746020626535
 11
184.0281653221794
 21
103.3754300411151
 72
     1
 10
184.0281653221794
 20
103.3754300411151
 11
184.0270758694593
 21
103.3762667643477
 97
        0
 92
       16
 93
        1
 72
     2
 10
183.984789968741
 20
103.3737951333041
 40
0.0980983925947266
 50
0.0
 51
360.0
 73
     1
 97
        0
 92
        1
 93
        1
 72
     2
 10
183.984789968741
 20
103.3737951333041
 40
0.1121124486796875
 50
0.0
 51
360.0
 73
     1
 97
        0
 75
     0
 76
     1
 47
0.5016490000000001
 98
        2
 10
180.3512383999639
 20
103.052963331311
 10
182.4481785409364
 20
103.0951441826649
450
        0
451
        0
460
0.0
461
0.0
452
        0
462
0.0
453
        0
470

  0
ARC
  5
1EAD
330
1E
100
AcDbEntity
  8
0
  6
Continuous
 62
     7
100
AcDbCircle
 10
194.0888156106817
 20
87.21478789198782
 30
0.0
 40
9.251875960316693
100
AcDbArc
 50
112.9327769899862
 51
128.8249796200089
  0
LINE
  5
1EAE
330
1E
100
AcDbEntity
  8
0
  6
CENTER
 62
     7
100
AcDbLine
 10
185.6874511997297
 20
90.00589730683776
 30
0.0
 11
186.1734671968918
 21
90.00589730683776
 31
0.0
  0
ARC
  5
1EAF
330
1E
100
AcDbEntity
  8
0
  6
Continuous
 62
     7
100
AcDbCircle
 10
194.1655131804996
 20
87.03350869185255
 30
0.0
 40
9.448712607403567
100
AcDbArc
 50
67.06722300000393
 51
112.9327769899862
  0
ARC
  5
1EC5
330
1E
100
AcDbEntity
  8
0
  6
Continuous
 62
     7
100
AcDbCircle
 10
194.2422107503175
 20
87.21478789198782
 30
0.0
 40
9.251875960316693
100
AcDbArc
 50
51.17502037000431
 51
67.06722300000393
  0
LINE
  5
1EC6
330
1E
100
AcDbEntity
  8
0
  6
CENTER
 62
     7
100
AcDbLine
 10
194.1655131804996
 20
97.11171874135857
 30
0.0
 11
194.1655131804996
 21
96.48222129925613
 31
0.0
  0
TEXT
  5
1EC7
330
1E
100
AcDbEntity
  8
0
  6
Continuous
 62
     7
100
AcDbText
 10
202.8554919123374
 20
83.63897999251429
 30
0.0
 40
0.19685039
  1
0GU118
  7
BLACK
100
AcDbText
  0
TEXT
  5
1EC8
330
1E
100
AcDbEntity
  8
0
  6
Continuous
 62
     7
100
AcDbText
 10
202.8832650558852
 20
83.3110565110609
 30
0.0
 40
0.19685039
  1
REV: May 2011
  7
BLACK
100
AcDbText
  0
LINE
  5
1EC9
330
1E
100
AcDbEntity
  8
0
  6
CENTER
 62
     7
100
AcDbLine
 10
202.1575591641074
 20
90.00589730683776
 30
0.0
 11
202.4879013598655
 21
90.00589730683776
 31
0.0
  0
ARC
  5
2728
330
1E
100
AcDbEntity
  8
0
  6
PHANTOM
 62
     7
100
AcDbCircle
 10
194.1655131804996
 20
87.0333970654452
 30
0.0
 40
11.063179156776
100
AcDbArc
 50
61.52742165431873
 51
90.0
  0
ARC
  5
2729
330
1E
100
AcDbEntity
  8
0
  6
PHANTOM
 62
     7
100
AcDbCircle
 10
196.4490232997113
 20
90.00589730683776
 30
0.0
 40
7.322980727099606
100
AcDbArc
 50
0.0
 51
54.03726322261968
  0
ARC
  5
272A
330
1E
100
AcDbEntity
  8
0
  6
PHANTOM
 62
     7
100
AcDbCircle
 10
193.7901119910846
 20
86.34121790328492
 30
0.0
 40
11.8506271496334
100
AcDbArc
 50
54.03724116838485
 51
61.52739023458513
  0
ARC
  5
272B
330
1E
100
AcDbEntity
  8
0
  6
PHANTOM
 62
     7
100
AcDbCircle
 10
194.1655131804996
 20
87.0333970654452
 30
0.0
 40
11.06319792640557
100
AcDbArc
 50
90.0
 51
118.4727575829122
  0
ARC
  5
272C
330
1E
100
AcDbEntity
  8
0
  6
PHANTOM
 62
     7
100
AcDbCircle
 10
194.5409143699381
 20
86.34121790328492
 30
0.0
 40
11.8506271496334
100
AcDbArc
 50
118.4727770929891
 51
125.9627588316151
  0
ARC
  5
272D
330
1E
100
AcDbEntity
  8
0
  6
PHANTOM
 62
     7
100
AcDbCircle
 10
191.8820030612879
 20
90.00589730683776
 30
0.0
 40
7.322980727099606
100
AcDbArc
 50
125.9629861058007
 51
180.0
  0
ARC
  5
272E
330
1E
100
AcDbEntity
  8
0
  6
PHANTOM
 62
     7
100
AcDbCircle
 10
194.1655131804996
 20
92.97839754820671
 30
0.0
 40
11.06323253516083
100
AcDbArc
 50
241.527339624215
 51
270.0
  0
ARC
  5
272F
330
1E
100
AcDbEntity
  8
0
  6
PHANTOM
 62
     7
100
AcDbCircle
 10
194.1655131804996
 20
92.97839754820671
 30
0.0
 40
11.06321376555488
100
AcDbArc
 50
270.0
 51
298.4731548286967
  0
ARC
  5
273A
330
1E
100
AcDbEntity
  8
0
  6
PHANTOM
 62
     7
100
AcDbCircle
 10
196.4490232997113
 20
90.00589730683776
 30
0.0
 40
7.322980727099606
100
AcDbArc
 50
305.9628265719156
 51
0.0
  0
ARC
  5
273B
330
1E
100
AcDbEntity
  8
0
  6
PHANTOM
 62
     7
100
AcDbCircle
 10
193.7901148441083
 20
93.67056846277657
 30
0.0
 40
11.85063010139712
100
AcDbArc
 50
298.4731548286967
 51
305.9628265719156
  0
ARC
  5
273C
330
1E
100
AcDbEntity
  8
0
  6
PHANTOM
 62
     7
100
AcDbCircle
 10
191.8820030612879
 20
90.00589730683776
 30
0.0
 40
7.322980727099606
100
AcDbArc
 50
180.0
 51
234.0371734280843
  0
ARC
  5
273D
330
1E
100
AcDbEntity
  8
0
  6
PHANTOM
 62
     7
100
AcDbCircle
 10
194.5409115169145
 20
93.67056846277657
 30
0.0
 40
11.85063010139712
100
AcDbArc
 50
234.0371734280843
 51
241.5268451713034
  0
LEADER
  5
27FD
330
1E
100
AcDbEntity
  8
0
  6
Continuous
 62
     7
100
AcDbLeader
  3
STANDARD
 40
0.511811014
 41
1.766029213142856
 76
     3
 10
200.7495094256834
 20
95.93311130751246
 30
0.0
 10
198.6083353681024
 20
92.76349559178836
 30
0.0
 10
197.9329424050047
 20
92.76349559178836
 30
0.0
213
0.0
223
0.059055117
233
0.0
1001
ACAD
1000
DSTYLE
1002
{
1070
   147
1040
0.6
1070
    77
1070
     0
1002
}
  0
LINE
  5
2AD9
330
1E
100
AcDbEntity
  8
0
  6
HIDDEN
 62
     7
100
AcDbLine
 10
194.1655131804996
 20
83.52957331441944
 30
0.0
 11
194.1655131813237
 21
96.48222129925613
 31
0.0
  0
LINE
  5
2ADB
330
1E
100
AcDbEntity
  8
0
  6
CENTERX2
 62
     7
100
AcDbLine
 10
192.4431861599206
 20
94.31709190856691
 30
0.0
 11
195.710792526707
 21
94.31709190856691
 31
0.0
  0
CIRCLE
  5
2ADC
330
1E
100
AcDbEntity
  8
0
  6
Continuous
 62
     7
100
AcDbCircle
 10
194.1655131804996
 20
94.31709190856691
 30
0.0
 40
1.25984558162225
  0
CIRCLE
  5
2ADD
330
1E
100
AcDbEntity
  8
0
  6
Continuous
 62
     7
100
AcDbCircle
 10
194.1655131804996
 20
94.31709190856691
 30
0.0
 40
0.866143837350534
  0
ARC
  5
2ADE
330
1E
100
AcDbEntity
  8
0
  6
HIDDEN
 62
     7
100
AcDbCircle
 10
194.1655131804996
 20
94.31709190856691
 30
0.0
 40
1.377956104880144
100
AcDbArc
 50
2.145626741093895
 51
177.8543767862898
  0
LINE
  5
40F4
102
{ACAD_REACTORS
330
40FA
330
40FD
102
}
330
1E
100
AcDbEntity
  8
0
  6
CENTER
 62
     7
100
AcDbLine
 10
182.5514561238246
 20
99.35643748785068
 30
0.0
 11
205.7795702371746
 21
99.35643748785068
 31
0.0
  0
LINE
  5
40F5
102
{ACAD_REACTORS
330
40FA
102
}
330
1E
100
AcDbEntity
  8
0
  6
PHANTOM
 62
     7
100
AcDbLine
 10
182.5514561238246
 20
101.3564374502508
 30
0.0
 11
205.7795702371746
 21
101.3564374502508
 31
0.0
  0
MTEXT
  5
40F6
330
1E
100
AcDbEntity
  8
0
 62
     7
100
AcDbMText
 10
196.2078278334664
 20
101.9454805522356
 30
0.0
 40
0.19685039
 41
5.218993890951871
 71
     6
 72
     5
  1
FINISHED WALL/BACK SPLASH\PPARED ACBADA/PARED POSTERIOR\PMUR FINI/DOSSERET
 73
     1
 44
1.0
1001
ACAD
1000
ACAD_MTEXT_DEFINED_HEIGHT_BEGIN
1070
    46
1040
0.0
1000
ACAD_MTEXT_DEFINED_HEIGHT_END
  0
MTEXT
  5
40F7
330
1E
100
AcDbEntity
  8
0
 62
     7
100
AcDbMText
 10
201.3281332398388
 20
100.0072544623444
 30
0.0
 40
0.19685039
 41
5.218993890951871
 71
     6
 72
     5
  1
CENTERLINE OF FITTING\PLINEA CENTRAL DEL GRIFO\PAXE DU ROBINET
 73
     1
 44
1.0
1001
ACAD
1000
ACAD_MTEXT_DEFINED_HEIGHT_BEGIN
1070
    46
1040
0.0
1000
ACAD_MTEXT_DEFINED_HEIGHT_END
  0
DIMENSION
  5
40F8
102
{ACAD_XDICTIONARY
360
40F9
102
}
102
{ACAD_REACTORS
330
40FA
102
}
330
1E
100
AcDbEntity
  8
0
 62
     7
100
AcDbDimension
  2
*D20
 10
182.0447208124147
 20
99.35643748785068
 30
0.0
 11
182.0447208124146
 21
100.3564374690508
 31
0.0
 70
    32
 71
     5
 42
1.999999962400124
  3
STANDARD
100
AcDbAlignedDimension
 13
182.5514561238246
 23
101.3564374502508
 33
0.0
 14
182.5514561238246
 24
99.35643748785068
 34
0.0
 50
90.0
100
AcDbRotatedDimension
  0
DIMENSION
  5
40FB
102
{ACAD_XDICTIONARY
360
40FC
102
}
102
{ACAD_REACTORS
330
40FD
102
}
330
1E
100
AcDbEntity
  8
0
 62
     7
100
AcDbDimension
  2
*D21
 10
180.4085534793608
 20
94.31709190856691
 30
0.0
 11
180.4085534793607
 21
96.83676469820881
 31
0.0
 70
    32
 71
     5
 42
5.039345579283788
  3
STANDARD
100
AcDbAlignedDimension
 13
182.5514561238246
 23
99.35643748785068
 33
0.0
 14
192.4431861599206
 24
94.31709190856691
 34
0.0
 50
90.0
100
AcDbRotatedDimension
  0
DIMENSION
  5
40FE
330
1E
100
AcDbEntity
  8
0
 62
     7
100
AcDbDimension
  2
*D22
 10
183.2535784876581
 20
99.35643748785068
 30
0.0
 11
183.2535784876581
 21
98.72651623985078
 31
0.0
 70
    32
 71
     5
 42
1.259842495999918
  3
STANDARD
100
AcDbAlignedDimension
 13
194.1655131804996
 23
98.09659499185077
 33
0.0
 14
183.7536799654663
 24
99.35643748785068
 34
0.0
 50
90.0
100
AcDbRotatedDimension
  0
MTEXT
  5
4226
330
1E
100
AcDbEntity
  8
0
 62
     7
100
AcDbMText
 10
197.8565258460978
 20
92.61757078520378
 30
0.0
 40
0.19685039
 41
5.218993890951871
 71
     6
 72
     5
  1
RIM OF LAVATORY\PBORDE DEL LAVABO\PBORD DU LAVABO
 73
     1
 44
1.0
1001
ACAD
1000
ACAD_MTEXT_DEFINED_HEIGHT_BEGIN
1070
    46
1040
0.0
1000
ACAD_MTEXT_DEFINED_HEIGHT_END
  0
MTEXT
  5
4227
330
1E
100
AcDbEntity
  8
0
 62
     7
100
AcDbMText
 10
196.7381589868621
 20
87.25047122772766
 30
0.0
 40
0.19685039
 41
5.431524892030432
 71
     6
 72
     5
  1
CUT ALONG THIS LINE\PCORTE A LO LARGO DE ESTA LINEA\PDECOUPER AU LONG DE CETTE LIGNE
 73
     1
 44
1.0
1001
ACAD
1000
ACAD_MTEXT_DEFINED_HEIGHT_BEGIN
1070
    46
1040
1.895578545603916
1000
ACAD_MTEXT_DEFINED_HEIGHT_END
  0
LEADER
  5
4CC0
330
1E
100
AcDbEntity
  8
0
  6
Continuous
 62
     7
100
AcDbLeader
  3
STANDARD
 40
0.511811014
 41
1.766029213142856
 76
     3
 10
200.0426145938557
 20
85.58919678933568
 30
0.0
 10
197.6341009366717
 20
87.0067565020428
 30
0.0
 10
196.958707973574
 20
87.0067565020428
 30
0.0
213
0.0
223
0.059055117
233
0.0
1001
ACAD
1000
DSTYLE
1002
{
1070
   147
1040
0.6
1070
    77
1070
     0
1002
}
  0
TEXT
  5
4CC1
330
1E
100
AcDbEntity
  8
0
  6
HIDDEN
 62
     7
 48
10.0
100
AcDbText
 10
182.1203446838808
 20
100.421866746673
 30
0.0
 40
0.125
  1
(MIN)
100
AcDbText
  0
LINE
  5
50C3
330
1E
100
AcDbEntity
  8
0
 62
     7
100
AcDbLine
 10
194.1634909052056
 20
98.58872096685091
 30
0.0
 11
194.1655131804996
 21
98.09659499185077
 31
0.0
  0
TEXT
  5
50C5
330
1E
100
AcDbEntity
  8
0
  6
Continuous
 62
     7
100
AcDbText
 10
202.8554919123374
 20
84.0120961030677
 30
0.0
 40
0.19685039
  1
LT569 / LT579(G)
  7
BLACK
100
AcDbText
  0
LWPOLYLINE
  5
50E4
330
1E
100
AcDbEntity
  8
0
 62
     7
 48
10.0
100
AcDbPolyline
 90
        4
 70
     1
 43
0.0
 10
175.7086284572826
 20
104.1872697873767
 10
175.7086284572826
 20
80.18726978737669
 10
211.7086284572827
 20
80.18726978737669
 10
211.7086284572827
 20
104.1872697873767
  0
TEXT
  5
51A6
330
1E
100
AcDbEntity
  8
DIM
  6
Continuous
 62
     7
100
AcDbText
 10
204.6499214720469
 20
79.04531929296337
 30
0.0
 40
0.23622
  1
70# OFFSET UNCOATED SHEET
  7
BLACK
100
AcDbText
  0
TEXT
  5
51A7
330
1E
100
AcDbEntity
  8
DIM
  6
Continuous
 62
     7
100
AcDbText
 10
204.6499214720469
 20
78.62016819408831
 30
0.0
 40
0.23622
  1
BRIGHTNESS FACTOR- 86%%% OR HIGHER
  7
BLACK
100
AcDbText
  0
TEXT
  5
51A8
330
1E
100
AcDbEntity
  8
DIM
  6
Continuous
 62
     7
100
AcDbText
 10
204.6499214720469
 20
79.51735830347431
 30
0.0
 40
0.23622
  1
SHT. 900mm x 600mm (36inX24in)
  7
BLACK
100
AcDbText
  0
CIRCLE
  5
5268
330
1E
100
AcDbEntity
  8
GRS_GAMBAR
  6
HIDDEN
 62
     7
 48
10.0
100
AcDbCircle
 10
186.6928909327605
 20
95.75193817599059
 30
0.0
 40
0.1250006084803678
  0
LINE
  5
5269
330
1E
100
AcDbEntity
  8
GRS_GAMBAR
  6
Continuous
 62
     7
100
AcDbLine
 10
185.9428872818781
 20
95.75193817599059
 30
0.0
 11
187.4428945836426
 21
95.75193817599059
 31
0.0
  0
LINE
  5
526A
330
1E
100
AcDbEntity
  8
GRS_GAMBAR
  6
Continuous
 62
     7
100
AcDbLine
 10
186.6928909327605
 20
95.00193452510838
 30
0.0
 11
186.6928909327605
 21
96.5019418268729
 31
0.0
  0
CIRCLE
  5
526C
330
1E
100
AcDbEntity
  8
GRS_GAMBAR
  6
HIDDEN
 62
     7
 48
10.0
100
AcDbCircle
 10
201.638135428513
 20
95.75193817749799
 30
0.0
 40
0.1250006084803678
  0
LINE
  5
526D
330
1E
100
AcDbEntity
  8
GRS_GAMBAR
  6
Continuous
 62
     7
100
AcDbLine
 10
202.3881390793953
 20
95.75193817764928
 30
0.0
 11
200.8881317776308
 21
95.75193817734669
 31
0.0
  0
LINE
  5
526E
330
1E
100
AcDbEntity
  8
GRS_GAMBAR
  6
Continuous
 62
     7
100
AcDbLine
 10
201.6381354286643
 20
95.00193452661578
 30
0.0
 11
201.6381354283617
 21
96.50194182838029
 31
0.0
  0
CIRCLE
  5
526F
330
1E
100
AcDbEntity
  8
GRS_GAMBAR
  6
HIDDEN
 62
     7
 48
10.0
100
AcDbCircle
 10
186.6928909327605
 20
84.25985643768495
 30
0.0
 40
0.1250006084803678
  0
LINE
  5
5270
330
1E
100
AcDbEntity
  8
GRS_GAMBAR
  6
Continuous
 62
     7
100
AcDbLine
 10
185.9428872818781
 20
84.25985643768495
 30
0.0
 11
187.4428945836426
 21
84.25985643768495
 31
0.0
  0
LINE
  5
5271
330
1E
100
AcDbEntity
  8
GRS_GAMBAR
  6
Continuous
 62
     7
100
AcDbLine
 10
186.6928909327605
 20
85.00986008856715
 30
0.0
 11
186.6928909327605
 21
83.50985278680264
 31
0.0
  0
CIRCLE
  5
5272
330
1E
100
AcDbEntity
  8
GRS_GAMBAR
  6
HIDDEN
 62
     7
 48
10.0
100
AcDbCircle
 10
201.638135428513
 20
84.25985643617755
 30
0.0
 40
0.1250006084803678
  0
LINE
  5
5273
330
1E
100
AcDbEntity
  8
GRS_GAMBAR
  6
Continuous
 62
     7
100
AcDbLine
 10
202.3881390793953
 20
84.25985643602626
 30
0.0
 11
200.8881317776308
 21
84.25985643632884
 31
0.0
  0
LINE
  5
5274
330
1E
100
AcDbEntity
  8
GRS_GAMBAR
  6
Continuous
 62
     7
100
AcDbLine
 10
201.6381354286643
 20
85.00986008705975
 30
0.0
 11
201.6381354283617
 21
83.50985278529524
 31
0.0
  0
LEADER
  5
527D
330
1E
100
AcDbEntity
  8
GRS_GAMBAR
  6
Continuous
 62
     7
 48
10.0
100
AcDbLeader
  3
STANDARD
 76
     3
 10
186.6102028629405
 20
95.65819472165962
 30
0.0
 10
183.4571798787694
 20
93.19103786496034
 30
0.0
 10
182.5908677537305
 20
93.19103786496034
 30
0.0
1001
ACAD
1000
DSTYLE
1002
{
1070
   147
1040
0.0625
1070
    77
1070
     0
1070
   141
1040
0.75
1002
}
  0
MTEXT
  5
527E
330
1E
100
AcDbEntity
  8
0
 62
     7
100
AcDbMText
 10
182.5908677537305
 20
93.19103786496034
 30
0.0
 40
0.1968513482367818
 41
5.219019296194453
 71
     6
 72
     5
  1
Mounting holes
 73
     1
 44
1.0
1001
ACAD
1000
ACAD_MTEXT_DEFINED_HEIGHT_BEGIN
1070
    46
1040
0.0
1000
ACAD_MTEXT_DEFINED_HEIGHT_END
  0
VIEWPORT
  5
2573
330
2572
100
AcDbEntity
 67
     1
  8
0
100
AcDbViewport
 10
21.49940413991516
 20
11.85187142068988
 30
0.0
 40
45.04435715316237
 41
25.38777648169825
 68
     1
 69
     1
 12
21.49940413991516
 22
11.85187142068988
 13
0.0
 23
0.0
 14
0.5
 24
0.5
 15
0.5
 25
0.5
 16
0.0
 26
0.0
 36
1.0
 17
0.0
 27
0.0
 37
0.0
 42
50.0
 43
0.0
 44
0.0
 45
25.38777648169825
 50
0.0
 51
0.0
 72
   100
 90
    32800
  1

281
     0
 71
     1
 74
     0
110
0.0
120
0.0
130
0.0
111
1.0
121
0.0
131
0.0
112
0.0
122
1.0
132
0.0
 79
     0
146
0.0
170
     0
  0
VIEWPORT
  5
51AC
330
2572
100
AcDbEntity
 67
     1
  8
GRS_GAMBAR
 48
10.0
100
AcDbViewport
 10
18.0
 20
12.0
 30
0.0
 40
36.0
 41
24.0
 68
     2
 69
     2
 12
193.7086284572827
 22
92.18232292114128
 13
0.0
 23
0.0
 14
1.0
 24
1.0
 15
0.0
 25
0.0
 16
0.0
 26
0.0
 36
1.0
 17
0.0
 27
0.0
 37
0.0
 42
50.0
 43
0.0
 44
0.0
 45
24.00000005005443
 50
0.0
 51
0.0
 72
   100
 90
    32800
  1

281
     0
 71
     1
 74
     0
110
0.0
120
0.0
130
0.0
111
1.0
121
0.0
131
0.0
112
0.0
122
1.0
132
0.0
 79
     0
146
0.0
170
     0
  0
ENDSEC
  0
SECTION
  2
OBJECTS
  0
DICTIONARY
  5
C
330
0
100
AcDbDictionary
281
     1
  3
ACAD_COLOR
350
26CE
  3
ACAD_GROUP
350
D
  3
ACAD_LAYOUT
350
19
  3
ACAD_MATERIAL
350
26CD
  3
ACAD_MLINESTYLE
350
16
  3
ACAD_PLOTSETTINGS
350
18
  3
ACAD_PLOTSTYLENAME
350
E
  3
ACAD_TABLESTYLE
350
26CF
  3
AcadDim
350
27FC
  3
ACDBVARIABLEDICTIONARY
350
185D
  3
ASE_INDEX_DICTIONARY
350
5249
  0
DICTIONARY
  5
277A
330
2
100
AcDbDictionary
280
     1
281
     1
  3
ACAD_LAYERFILTERS
360
2784
  3
ACAD_LAYERSTATES
360
27B7
  3
ACLYDICTIONARY
360
2783
  0
DICTIONARY
  5
1CF
330
1E
100
AcDbDictionary
280
     1
281
     1
  3
ACAD_LAYOUTSELFREF
360
26BE
  0
DICTIONARY
  5
26BF
330
2572
100
AcDbDictionary
280
     1
281
     1
  3
ACAD_LAYOUTSELFREF
360
26C0
  0
DICTIONARY
  5
27E8
330
27E5
100
AcDbDictionary
280
     1
281
     1
  0
DICTIONARY
  5
40F9
330
40F8
100
AcDbDictionary
280
     1
281
     1
  3
ACAD_DIMASSOC
360
40FA
  0
DICTIONARY
  5
40FC
330
40FB
100
AcDbDictionary
280
     1
281
     1
  3
ACAD_DIMASSOC
360
40FD
  0
DICTIONARY
  5
26CE
102
{ACAD_REACTORS
330
C
102
}
330
C
100
AcDbDictionary
281
     1
  0
DICTIONARY
  5
D
102
{ACAD_REACTORS
330
C
102
}
330
C
100
AcDbDictionary
281
     1
  3
LT579
350
2ADF
  0
DICTIONARY
  5
19
102
{ACAD_REACTORS
330
C
102
}
330
C
100
AcDbDictionary
281
     1
  3
Layout1
350
26D2
  3
Model
350
26D1
  0
DICTIONARY
  5
26CD
102
{ACAD_REACTORS
330
C
102
}
330
C
100
AcDbDictionary
281
     1
  0
DICTIONARY
  5
16
102
{ACAD_REACTORS
330
C
102
}
330
C
100
AcDbDictionary
281
     1
  3
STANDARD
350
17
  0
DICTIONARY
  5
18
102
{ACAD_REACTORS
330
C
102
}
330
C
100
AcDbDictionary
281
     1
  3
AUGUSTA
350
1CB0
  3
SANAGLOS_KOP
350
1CA6
  3
SANAGLOSS
350
1B45
  3
TEM-USA
350
1914
  0
ACDBDICTIONARYWDFLT
  5
E
102
{ACAD_REACTORS
330
C
102
}
330
C
100
AcDbDictionary
281
     1
  3
Normal
350
F
100
AcDbDictionaryWithDefault
340
F
  0
DICTIONARY
  5
26CF
102
{ACAD_REACTORS
330
C
102
}
330
C
100
AcDbDictionary
281
     1
  3
Standard
350
26D0
  0
XRECORD
  5
27FC
102
{ACAD_REACTORS
330
C
102
}
330
C
100
AcDbXrecord
280
     1
 90
   990106
  3

 60
     0
 61
     0
 62
     1
 63
     3
 64
     0
 65
     0
 66
     0
 67
     3
 68
     1
 69
     0
 70
     0
 71
     0
 72
     0
 40
0.0
170
     0
340
0
  0
DICTIONARY
  5
185D
102
{ACAD_REACTORS
330
C
102
}
330
C
100
AcDbDictionary
281
     1
  3
CTABLESTYLE
350
2790
  3
DIMASSOC
350
269B
  3
PROJECTNAME
350
2791
  3
SORTENTS
350
185E
  0
DICTIONARY
  5
5249
102
{ACAD_REACTORS
330
C
102
}
330
C
100
AcDbDictionary
281
     1
  3
ASEBlockHierarchyIndexRecord
350
524A
1001
DCO15
1040
1641017260.984
  0
DICTIONARY
  5
2784
102
{ACAD_REACTORS
330
277A
102
}
330
277A
100
AcDbDictionary
281
     1
  0
DICTIONARY
  5
27B7
102
{ACAD_REACTORS
330
277A
102
}
330
277A
100
AcDbDictionary
281
     1
  0
DICTIONARY
  5
2783
102
{ACAD_REACTORS
330
277A
102
}
330
277A
100
AcDbDictionary
281
     1
1001
ACAD
1000
<All
  0
XRECORD
  5
26BE
102
{ACAD_REACTORS
330
1CF
102
}
330
1CF
100
AcDbXrecord
280
     1
340
1E
  0
XRECORD
  5
26C0
102
{ACAD_REACTORS
330
26BF
102
}
330
26BF
100
AcDbXrecord
280
     1
340
2572
  0
DIMASSOC
  5
40FA
102
{ACAD_REACTORS
330
40F9
102
}
330
40F9
100
AcDbDimAssoc
330
40F8
 90
        3
 70
     0
 71
     0
  1
AcDbOsnapPointRef
 72
    13
331
40F5
 73
     2
 91
        0
 40
0.0
 10
0.0
 20
0.0
 30
2.000000000000000E+50
 75
     0
  1
AcDbOsnapPointRef
 72
    13
331
40F4
 73
     2
 91
        0
 40
0.0
 10
0.0
 20
0.0
 30
2.000000000000000E+50
 75
     0
  0
DIMASSOC
  5
40FD
102
{ACAD_REACTORS
330
40FC
102
}
330
40FC
100
AcDbDimAssoc
330
40FB
 90
        1
 70
     0
 71
     0
  1
AcDbOsnapPointRef
 72
    13
331
40F4
 73
     2
 91
        0
 40
0.0
 10
0.0
 20
0.0
 30
2.000000000000000E+50
 75
     0
  0
GROUP
  5
2ADF
102
{ACAD_REACTORS
330
D
102
}
330
D
100
AcDbGroup
300

 70
     0
 71
     1
  0
LAYOUT
  5
26D2
102
{ACAD_XDICTIONARY
360
27B9
102
}
102
{ACAD_REACTORS
330
19
102
}
330
19
100
AcDbPlotSettings
  1

  2
HP CLJ2830 PCL 6 - Black_White
  4
Letter
  6

 40
5.027083396911621
 41
5.027085304260253
 42
5.027084350585936
 43
5.027069091796875
 44
215.8999938964844
 45
279.3999938964844
 46
0.0
 47
0.0
 48
0.0
 49
0.0
140
0.0
141
0.0
142
1.0
143
76.10261727329495
 70
   688
 72
     0
 73
     1
 74
     1
  7
monochrome.ctb
 75
     0
147
0.0131401525444107
 76
     0
 77
     2
 78
   300
148
-521.2886922711187
149
-185.1499890653403
100
AcDbLayout
  1
Layout1
 70
     1
 71
     1
 10
5.461243195735853
 20
-7.772606877588986
 11
842.5900149148343
 21
639.0996216582719
 12
0.0
 22
0.0
 32
0.0
 14
0.0
 24
0.0
 34
0.0
 15
36.0
 25
24.0
 35
0.0
146
0.0
 13
0.0
 23
0.0
 33
0.0
 16
1.0
 26
0.0
 36
0.0
 17
0.0
 27
1.0
 37
0.0
 76
     0
330
2572
331
2573
1001
ACAD_PSEXT
1000
HP CLJ2830 PCL 6 - Black_White
1000
HP CLJ2830 PCL 6 - Black_White
1000
HPColorLaserJet2830
1000

1070
     0
  0
LAYOUT
  5
26D1
102
{ACAD_REACTORS
330
19
102
}
330
19
100
AcDbPlotSettings
  1

  2
HP CLJ2830 PCL 6 - Black_White
  4
Letter
  6

 40
5.027083396911621
 41
5.027085304260253
 42
5.027084350585936
 43
5.027069091796875
 44
215.8999938964844
 45
279.3999938964844
 46
0.0
 47
0.0
 48
0.0
 49
0.0
140
0.0
141
0.0
142
1.0
143
75.05827036487549
 70
 11952
 72
     0
 73
     1
 74
     0
  7
monochrome.ctb
 75
     0
147
0.0133229821995467
 76
     0
 77
     2
 78
   300
148
3205.844529145877
149
4745.55078955339
100
AcDbLayout
  1
Model
 70
     1
 71
     0
 10
0.0
 20
0.0
 11
12.0
 21
9.0
 12
0.0
 22
0.0
 32
0.0
 14
0.0
 24
0.0
 34
0.0
 15
0.0
 25
0.0
 35
0.0
146
0.0
 13
0.0
 23
0.0
 33
0.0
 16
1.0
 26
0.0
 36
0.0
 17
0.0
 27
1.0
 37
0.0
 76
     0
330
1E
1001
ACAD_PSEXT
1000
HP CLJ2830 PCL 6 - Black_White
1000
HP CLJ2830 PCL 6 - Black_White
1000
HPColorLaserJet2830
1000

1070
     0
  0
MLINESTYLE
  5
17
102
{ACAD_REACTORS
330
16
102
}
330
16
100
AcDbMlineStyle
  2
STANDARD
 70
     0
  3

 62
   256
 51
90.0
 52
90.0
 71
     2
 49
0.5
 62
   256
  6
BYLAYER
 49
-0.5
 62
   256
  6
BYLAYER
  0
PLOTSETTINGS
  5
1CB0
102
{ACAD_REACTORS
330
18
102
}
330
18
100
AcDbPlotSettings
  1
AUGUSTA
  2
HP DesignJet 750C_ (D_A1) by HP.pc3
  4
User271
  6

 40
4.995333194732666
 41
16.93330574035644
 42
4.99530029296875
 43
16.933349609375
 44
593.9366455078125
 45
840.8246459960937
 46
13.77
 47
0.0
 48
-319.3112628452372
 49
-100.2489204824246
140
475.3486629620174
141
456.1567913142567
142
1.0
143
1.0
 70
  1680
 72
     1
 73
     1
 74
     4
  7

 75
    16
147
1.0
 76
     0
 77
     2
 78
   300
148
319.3112628452372
149
100.2489204824246
  0
PLOTSETTINGS
  5
1CA6
102
{ACAD_REACTORS
330
18
102
}
330
18
100
AcDbPlotSettings
  1
SANAGLOS KOP
  2
HP DesignJet 750C_ (D_A1) by HP.pc3
  4
User271
  6

 40
4.995333194732666
 41
16.93330574035644
 42
4.99530029296875
 43
16.933349609375
 44
593.9366455078125
 45
840.8246459960937
 46
13.77
 47
0.0
 48
711.1707148896048
 49
-92.98960787981377
140
1506.883174174088
141
463.4161049991221
142
1.0
143
1.0
 70
  1680
 72
     1
 73
     1
 74
     4
  7

 75
    16
147
1.0
 76
     0
 77
     2
 78
   300
148
-711.1707148896048
149
92.98960787981377
  0
PLOTSETTINGS
  5
1B45
102
{ACAD_REACTORS
330
18
102
}
330
18
100
AcDbPlotSettings
  1
SANAGLOSS
  2
HP DesignJet 750C_ (D_A1) by HP.pc3
  4
User1644
  6

 40
3.174999952316281
 41
3.174999952316281
 42
3.17498779296875
 43
3.17498779296875
 44
594.0
 45
420.0
 46
46.73
 47
25.15
 48
507.9937769374105
 49
-33.47017728181299
140
1002.175992193447
141
341.8761457011038
142
1.0
143
1.0
 70
  1680
 72
     1
 73
     0
 74
     4
  7

 75
    16
147
1.0
 76
     0
 77
     2
 78
   300
148
-507.9937769374105
149
33.47017728181299
  0
PLOTSETTINGS
  5
1914
102
{ACAD_REACTORS
330
18
102
}
330
18
100
AcDbPlotSettings
  1
TEM-USA
  2
HP DesignJet 750C_ (D_A1) by HP.pc3
  4
User1644
  6

 40
3.174999952316281
 41
3.174999952316281
 42
3.17498779296875
 43
3.17498779296875
 44
594.0
 45
420.0
 46
17.42
 47
20.12999999999999
 48
-228.7633077298619
 49
-22.75333800762997
140
324.0515129779132
141
376.6328008032835
142
1.0
143
1.0
 70
  1680
 72
     1
 73
     0
 74
     4
  7

 75
    16
147
1.0
 76
     0
 77
     2
 78
   300
148
228.7633077298619
149
22.75333800762997
  0
ACDBPLACEHOLDER
  5
F
102
{ACAD_REACTORS
330
E
102
}
330
E
  0
TABLESTYLE
  5
26D0
102
{ACAD_REACTORS
330
26CF
102
}
330
26CF
100
AcDbTableStyle
  3
Standard
 70
     0
 71
     0
 40
0.06
 41
0.06
280
     0
281
     0
  7
STANDARD
140
0.18
170
     2
 62
     0
 63
     7
283
     0
274
    -2
284
     1
 64
     0
275
    -2
285
     1
 65
     0
276
    -2
286
     1
 66
     0
277
    -2
287
     1
 67
     0
278
    -2
288
     1
 68
     0
279
    -2
289
     1
 69
     0
  7
STANDARD
140
0.25
170
     5
 62
     0
 63
     7
283
     0
274
    -2
284
     1
 64
     0
275
    -2
285
     1
 65
     0
276
    -2
286
     1
 66
     0
277
    -2
287
     1
 67
     0
278
    -2
288
     1
 68
     0
279
    -2
289
     1
 69
     0
  7
STANDARD
140
0.18
170
     5
 62
     0
 63
     7
283
     0
274
    -2
284
     1
 64
     0
275
    -2
285
     1
 65
     0
276
    -2
286
     1
 66
     0
277
    -2
287
     1
 67
     0
278
    -2
288
     1
 68
     0
279
    -2
289
     1
 69
     0
  0
DICTIONARYVAR
  5
2790
102
{ACAD_REACTORS
330
185D
102
}
330
185D
100
DictionaryVariables
280
     0
  1
STANDARD
  0
DICTIONARYVAR
  5
269B
102
{ACAD_REACTORS
330
185D
102
}
330
185D
100
DictionaryVariables
280
     0
  1
1
  0
DICTIONARYVAR
  5
2791
102
{ACAD_REACTORS
330
185D
102
}
330
185D
100
DictionaryVariables
280
     0
  1

  0
DICTIONARYVAR
  5
185E
102
{ACAD_REACTORS
330
185D
102
}
330
185D
100
DictionaryVariables
280
     0
  1
96
  0
XRECORD
  5
524A
102
{ACAD_REACTORS
330
5249
102
}
330
5249
100
AcDbXrecord
280
     1
330
2C0
330
2C1
330
2C2
330
2C3
330
2C4
330
2C5
330
2BB
330
2BC
330
2BD
330
2BE
330
2BF
  0
DICTIONARY
  5
27B9
330
26D2
100
AcDbDictionary
280
     1
281
     1
  3
ADSK_XREC_LAYOUTTHUMBNAIL
360
27BA
  0
XRECORD
  5
27BA
102
{ACAD_REACTORS
330
27B9
102
}
330
27B9
100
AcDbXrecord
280
     1
310
28000000B40000008A00000001000800000000000861000000000000000000000001000000000000FFFFFF0000000000FFFFFF000000000000000000000000000000000000000000000000000000000000000000330000006600000099000000CC000000FF00000000330000333300006633000099330000CC330000FF3300
310
0000660000336600006666000099660000CC660000FF66000000990000339900006699000099990000CC990000FF99000000CC000033CC000066CC000099CC0000CCCC0000FFCC000000FF000033FF000066FF000099FF0000CCFF0000FFFF000000003300330033006600330099003300CC003300FF003300003333003333
310
33006633330099333300CC333300FF33330000663300336633006666330099663300CC663300FF66330000993300339933006699330099993300CC993300FF99330000CC330033CC330066CC330099CC3300CCCC3300FFCC330000FF330033FF330066FF330099FF3300CCFF3300FFFF330000006600330066006600660099
310
006600CC006600FF00660000336600333366006633660099336600CC336600FF33660000666600336666006666660099666600CC666600FF66660000996600339966006699660099996600CC996600FF99660000CC660033CC660066CC660099CC6600CCCC6600FFCC660000FF660033FF660066FF660099FF6600CCFF6600
310
FFFF660000009900330099006600990099009900CC009900FF00990000339900333399006633990099339900CC339900FF33990000669900336699006666990099669900CC669900FF66990000999900339999006699990099999900CC999900FF99990000CC990033CC990066CC990099CC9900CCCC9900FFCC990000FF99
310
0033FF990066FF990099FF9900CCFF9900FFFF99000000CC003300CC006600CC009900CC00CC00CC00FF00CC000033CC003333CC006633CC009933CC00CC33CC00FF33CC000066CC003366CC006666CC009966CC00CC66CC00FF66CC000099CC003399CC006699CC009999CC00CC99CC00FF99CC0000CCCC0033CCCC0066CC
310
CC0099CCCC00CCCCCC00FFCCCC0000FFCC0033FFCC0066FFCC0099FFCC00CCFFCC00FFFFCC000000FF003300FF006600FF009900FF00CC00FF00FF00FF000033FF003333FF006633FF009933FF00CC33FF00FF33FF000066FF003366FF006666FF009966FF00CC66FF00FF66FF000099FF003399FF006699FF009999FF00CC
310
99FF00FF99FF0000CCFF0033CCFF0066CCFF0099CCFF00CCCCFF00FFCCFF0000FFFF0033FFFF0066FFFF0099FFFF00CCFFFF00FFFFFF00000000000D0D0D001A1A1A00282828003535350043434300505050005D5D5D006B6B6B00787878008686860093939300A1A1A100AEAEAE00BBBBBB00C9C9C900D6D6D600E4E4E400
310
F1F1F100FFFFFF0000000000000000000000000000000000000000000000000000000000000000000000000000000000E2E2E2E2E2E2E2E2E2E2E2E2E2E2E2E2E2E2E2E2E2E2E2E2E2E2E2E2E2E2E2E2E2E2E2E2E2E2E2E2E2E2E2E2E2E2E2E2E2E2E2E2E2E2E2E2E2E2E2E2E2E2E2E2E2E2E2E2E2E2E2E2E2E2E2E2E2E2E2
310
E2E2E2E2E2E2E2E2E2E2E2E2E2E2E2E2E2E2E2E2E2E2E2E2E2E2E2E2E2E2E2E2E2E2E2E2E2E2E2E2E2E2E2E2E2E2E2E2E2E2E2E2E2E2E2E2E2E2E2E2E2E2E2E2E2E2E2E2E2E2E2E2E2E2E2E2E2E2E2E2E2E2E2E2E2E2E2E2E2E2E2E2E2E2E2E2E2E2E2E2E2E2F5F5F5F5F5F5F5F5F5F5F5F5F5F5F5F5F5F5F5F5F5F5F5F5F5
310
F5F5F5F5F5F5F5F5F5F5F5F5F5F5F5F5F5F5F5F5F5F5F5F5F5F5F5F5F5F5F5F5F5F5F5F5F5F5F5F5F5F5F5F5F5F5F5F5F5F5F5F5F5F5F5F5F5F5F5F5F5F5F5F5F5F5F5F5F5F5F5F5F5F5F5F5F5F5F5F5F5F5F5F5F5F5F5F5F5F5F5F5F5F5F5F5F5F5F5F5F5F5F5F5F5F5F5F5F5F5F5F5F5F5F5F5F5F5F5F5F5F5F5F5F5F5F5
310
F5F5F5F5F5F5F5F5F5F5F5F5F5F5F5F5F5F5F5F5F5F5F5F5F5E2E2E2E2E2E2E2E2E2E2F5F5F5F5F5F5F5F5F5F5F5F5F5F5F5F5F5F5F5F5F5F5F5F5F5F5F5F5F5F5F5F5F5F5F5F5F5F5F5F5F5F5F5F5F5F5F5F5F5F5F5F5F5F5F5F5F5F5F5F5F5F5F5F5F5F5F5F5F5F5F5F5F5F5F5F5F5F5F5F5F5F5F5F5F5F5F5F5F5F5F5F5
310
F5F5F5F5F5F5F5F5F5F5F5F5F5F5F5F5F5F5F5F5F5F5F5F5F5F5F5F5F5F5F5F5F5F5F5F5F5F5F5F5F5F5F5F5F5F5F5F5F5F5F5F5F5F5F5F5F5F5F5F5F5F5F5F5F5F5F5F5F5F5F5F5F5F5F5F5F5F5E2E2E2E2E2E2E2E2E2E2F5F5F5F5F5F5F5F5F5F5F5F5F5F5F5F5F5F5F5F5F5F5F5F5F5F5F5F5F5F5F5F5F5F5F5F5F5F5F5
310
F5F5F5F5F5F5F5F5F5F5F5F5F5F5F5F5F5F5F5F5F5F5F5F5F5F5F5F5F5F5F5F5F5F5F5F5F5F5F5F5F5F5F5F5F5F5F5F5F5F5F5F5F5F5F5F5F5F5F5F5F5F5F5F5F5F5F5F5F5F5F5F5F5F5F5F5F5F5F5F5F5F5F5F5F5F5F5F5F5F5F5F5F5F5F5F5F5F5F5F5F5F5F5F5F5F5F5F5F5F5F5F5F5F5F5F5F5F5F5F5F5F5F5F5F5F5F5
310
F5F5F5F5E2E2E2E2F5E2E2E2E2E2E2E2E2F5F5F5F5F5F5F5F5F5E2E2E2E2E2E2E2E2E2E2E2E2E2E2E2E2F5F5F5F5F5F5F5F5F5E2E2E2E2E2E2E2E2E2E2E2E2E2E2E2E2F5F5F5F5F5F5F5F5E2E2E2E2E2E2E2E2E2E2E2E2E2E2E2E2F5F5F5F5F5F5F5F5F5E2E2E2E2E2E2E2E2E2E2E2E2E2E2E2E2F5F5F5F5F5F5F5F5E2E2E2
310
E2E2E2E2E2E2E2E2E2E2E2E2E2F5F5F5F5F5F5F5F5F5E2E2E2E2E2E2E2E2E2E2E2E2E2E2E2E2F5F5F5F5F5F5F5F5F5E2E2E2E2E2E2E2E2F5F5E2E2E2E2E2E2E2E2E2E2F5F5F5F5F5F5F5F5F5F5F5F5F5F5F5F5F5F5F5F5F5F5F5F5F5F5F5F5F5F5F5F5F5F5F5F5F5F5F5F5F5F5F5F5F5F5F5F5F5F5F5F5F5F5F5F5F5F5F5F5
310
F5F5F5F5F5F5F5F5F5F5F5F5F5F5F5F5F5F5F5F5F5F5F5F5F5F5F5F5F5F5F5F5F5F5F5F5F5F5F5F5F5F5F5F5F5F5F5F5F5F5F5F5F5F5F5F5F5F5F5F5F5F5F5F5F5F5F5F5F5F5F5F5F5F5F5F5F5F5F5F5F5F5F5F5F5F5F5F5F5F5F5F5F5F5F5F5F5F5F5F5F5F5F5F5F5F5F5E2F5F5E2E2E2E2E2E2E2E2E2E2F5F5F5F5F5F5F5
310
F5F5F5F5F5F5F5F5F5F5F5F5F5F5F5F5F5F5F5F5F5F5F5F5F5F5F5F5F5F5F5F5F5F5F5F5F5F5F5F5F5F5F5F5F5F5F5F5F5F5F5F5F5F5F5F5F5F5F5F5F5F5F5F5F5F5F5F5F5F5F5F5F5F5F5F5F5F5F5F5F5F5F5F5F5F5F5F5F5F5F5F5F5F5F5F5F5F5F5F5F5F5F5F5F5F5F5F5F5F5F5F5F5F5F5F5F5F5F5F5F5F5F5F5F5F5F5
310
F5F5F5F5F5F5F5F5F5F5F5F5F5F5F5F5F5F5F5F5F5F5F5F5F5F5F5F5F5F5F5F5F5E2F5F5E2E2E2E2E2E2E2E2E2E2F5F5F5F5F5F5F5F5F5F5F5F5F5F5F5F5F5F5F5F5F5F5F5F5F5F5F5F5F5F5F5F5F5F5F5F5F5F5F5F5F5F5F5F5F5F5F5F5F5F5F5F5F5F5F5F5F5F5F5F5F5F5F5F5F5F5F5F5F5F5F5F5F5F5F5F5F5F5F5F5F5
310
F5F5F5F5F5F5F5F5F5F5F5F5F5F5F5F5F5F5F5F5F5F5F5F5F5F5F5F5F5F5F5F5F5F5F5F5F5F5F5F5F5F5F5F5F5F5F5F5F5F5F5F5F5F5F5F5F5F5F5F5F5F5F5F5F5F5F5F5F5F5F5F5F5F5F5F5F5F5F5F5F5F5F5F5F5F5E2F5F5E2E2E2F5F5E2F5F5F5F5F5F5F5F5F5F5F5F5F5F5F5F5F5F5F5F5F5F5F5F5F5F5F5F5F5F5F5F5
310
F5F5F5F5F5F5F5F5F5F5F5F5F5F5F5F5F5F5F5F5F5F5F5F5F5F5F5F5F5F5F5F5F5F5F5F5F5F5F5F5F5F5F5F5F5F5F5F5F5F5F5F5F5F5F5F5F5F5F5F5F5F5F5F5F5F5F5F5F5F5F5F5F5F5F5F5F5F5F5F5F5F5F5F5F5F5F5F5F5F5F5F5F5F5F5F5F5F5F5F5F5F5F5F5F5F5F5F5F5F5F5F5F5F5F5F5F5F5F5F5F5F5F5F5F5F5F5
310
F5F5F5F5F5F5F5F5F5F5F5F5E2F5F5E2E2E2F5F5E2F5F5F5F5F5F5F5F5F5F5F5F5F5F5F5F5F5F5F5F5F5F5F5F5F5F5F5F5F5F5F5F5F5F5F5F5F5F5F5F5F5F5F5F5F5F5F5F5F5F5F5F5F5F5F5F5F5F5F5F5F5F5F5F5F5F5F5F5F5F5F5F5F5F5F5F5F5F5F5F5F5F5F5F5F5F5F5F5F5F5F5F5F5F5F5F5F5F5F5F5F5F5F5F5F5F5
310
F5F5F5F5F5F5F5F5F5F5F5F5F5F5F5F5F5F5F5F5F5F5F5F5F5F5F5F5F5F5F5F5F5F5F5F5F5F5F5F5F5F5F5F5F5F5F5F5F5F5F5F5F5F5F5F5F5F5F5F5F5F5F5F5F5E2F5F5E2E2E2F5F5E2F5F5F5F5F5F5F5F5F5F5F5F5F5F5F5F5F5F5F5F5F5F5F5F5F5F5F5F5F5F5F5F5F5F5F5F5F5F5F5F5F5F5F5F5F5F5F5F5F5F5F5F5F5
310
F5F5F5F5F5F5F5F5F5F5F5F5F5F5F5F5F5F5F5F5F5F5F5F5F5F5F5F5F5F5F5F5F5F5F5F5F5F5F5F5F5F5F5F5F5F5F5F5F5F5F5F5F5F5F5F5F5F5F5F5F5F5F5F5F5F5F5F5F5F5F5F5F5F5F5F5F5F5F5F5F5F5F5F5F5F5F5F5F5F5F5F5F5F5F5F5F5F5F5F5F5F5F5F5F5F5F5F5F5F5F5F5F5F5F5F5F5F5E2F5F5E2E2E2F5F5E2
310
F5F5F5F5F5F5F5F5F5F5F5F5F5F5F5F5F5F5F5F5F5F5F5F5F5F5F5F5F5F5F5F5F5F5F5F5F5F5F5F5F5F5F5F5F5F5F5F5F5F5F5F5F5F5F5F5F5F5F5F5F5F5F5F5F5F5F5F5F5F5F5F5F5F5F5F5F5F5F5F5F5F5F5F5F5F5F5F5F5F5F5F5F5F5F5F5F5F5F5F5F5F5F5F5F5F5F5F5F5F5F5F5F5F5F5F5F5F5F5F5F5F5F5F5F5F5F5
310
F5F5F5F5F5F5F5F5F5F5F5F5F5F5F5F5F5F5F5F5F5F5F5F5F5F5F5F5F5F5F5F5F5F5F5F5F5F5F5F5F5F5F5F5E2F5F5E2E2E2F5F5E2F5F5F5F5F5F5F5F5F5F5F5F5F5F5F5F5F5F5F5F5F5F5F5F5F5F5F5F5F5F5F5F5F5F5F5F5F5F5F5F5F5F5F5F5F5F5F5F5F5F5F5F5F5F5F5F5F5F5F5F5F5F5F5F5F5F5F5F5F5F5F5F5F5F5
310
F5F5F5F5F5F5F5F5F5F5F5F5F5F5F5F5F5F5F5F5F5F5F5F5F5F5F5F5F5F5F5F5F5F5F5F5F5F5F5F5F5F5F5F5F5F5F5F5F5F5F5F5F5F5F5F5F5F5F5F5F5F5F5F5F5F5F5F5F5F5F5F5F5F5F5F5F5F5F5F5F5F5F5F5F5F5F5F5F5F5F5F5F5F5F5F5F5E2F5F5E2E2E2F5F5F5F5F5F5F5F5F5F5F5F5F5F5F5F5F5F5F5F5F5F5F5F5
310
F5F5F5F5F5F5F5F5F5F5F5F5F5F5F5F5F5F5F5F5F5F5F5F5F5F5F5F5F5F5F5F5F5F5F5F5F5F5F5F5F5F5F5F5F5F5F5F5F5F5F5F5F5F5F5F5F5F5F5F5F5F5F5F5F5F5F5F5F5F5F5F5F5F5F5F5F5F5F5F5F5F5F5F5F5F5F5F5F5F5F5F5F5F5F5F5F5F5F5F5F5F5F5F5F5F5F5F5F5F5F5F5F5F5F5F5F5F5F5F5F5F5F5F5F5F5F5
310
F5F5F5F5F5F5F5F5F5F5F5F5F5F5F5F5F5F5F5F5F5F5F5F5F5F5E2E2E2F5F5F5F5F5F5F5F5F5F5F5F5F5F5F5F5F5F5F5F5F5F5F5F5F5F5F5F5F5F5F5F5F5F5F5F5F5F5F5F5F5F5F5F5F5F5F5F5F5F5F5F5F5F5F5F5F5F5F5F5F5F5F5F5F5F5F5F5F5F5F5F5F5F5F5F5F5F5F5F5F5F5F5F5F5F5F5F5F5F5F5F5F5F5F5F5F5F5
310
F5F5F5F5F5F5F5F5F5F5F5F5F5F5F5F5F5F5F5F5F5F5F5F5F5F5F5F5F5F5F5F5F5F5F5F5F5F5F5F5F5F5F5F5F5F5F5F5F5F5F5F5F5F5F5F5F5F5F5F5F5F5F5F5F5F5F5F5F5F5F5F5F5F5F5F5F5F5F5E2E2E2F5F5F5F5F5F5F5F5F5F5F5F5F5F5F5F5F5F5F5F5F5F5F5F5F5F5F5F5F5F5F5F5F5F5F5F5F5F5F5F5F5F5F5F5F5
310
F5F5F5F5F5F5F5F5F5F5F5F5F5F5F5F5F5F5F5F5F5F5F5F5F5F5F5F5F5F5F5F5F5F5F5F5F5F5F5F5F5F5F5F5F5F5F5F5F5F5F5F5F5F5F5F5F5F5F5F5F5F5F5F5F5F5F5F5F5F5F5F5F5F5F5F5F5F5F5F5F5F5F5F5F5F5F5F5F5F5F5F5F5F5F5F5F5F5F5F5F5F5F5F5F5F5F5F5F5F5F5F5F5F5F5F5F5F5F5F5F5F5F5F5F5F5F5
310
F5F5F5F5F5E2E2E2F5F5F5F5F5F5F5F5F5F5F5F5F5F5F5F5F5F5F5F5F5F5F5F5F5F5F5F5F5F5F5F5F5F5F5F5F5F5F5F5F5F5F5F5F5F5F5F5F5F5F5F5F5F5F5F5F5F5F5F5F5F5F5F5F5F5F5F5F5F5F5F5F5F5F5F5F5F5F5F5F5F5F5F5F5F5F5F5F5F5F5F5F5F5F5F5F5F5F5F5F5F5F5F5F5F5F5F5F5F5F5F5F5F5F5F5F5F5F5
310
F5F5F5F5F5F5F5F5F5F5F5F5F5F5F5F5F5F5F5F5F5F5F5F5F5F5F5F5F5F5F5F5F5F5F5F5F5F5F5F5F5F5F5F5F5F5F5F5F5F5F5F5F5F5F5F5F5F5E2E2E2F5F5F5F5F5F5F5F5F5F5F5F5F5F5F5F5F5F5F5F5F5F5F5F5F5F5F5F5F5F5F5F5F5F5F5F5F5F5F5F5F5F5F5F5F5F5F5F5F5F5F5F5F5F5F5F5F5F5F5F5F5F5F5F5F5F5
310
F5F5F5F5F5F5F5F5F5F5F5F5F5F5F5F5F5F5F5F5F5F5F5F5F5F5F5F5F5F5F5F5F5F5F5F5F5F5F5F5F5F5F5F5F5F5F5F5F5F5F5F5F5F5F5F5F5F5F5F5F5F5F5F5F5F5F5F5F5F5F5F5F5F5F5F5F5F5F5F5F5F5F5F5F5F5F5F5F5F5F5F5F5F5F5F5F5F5F5F5F5F5F5F5F5F5F5F5F5F5F5E2E2E2F5F5F5F5F5F5F5F5F5F5F5F5F5
310
F5F5F5F5F5F5F5F5F5F5F5F5F5F5F5F5F5F5F5F5F5F5F5F5F5F5F5F5F5F5F5F5F5F5F5F5F5F5F5F5F5F5F5F5F5F5F5F5F5F5F5F5F5F5F5F5F5F5F5F5F5F5F5F5F5F5F5F5F5F5F5F5F5F5F5F5F5F5F5F5F5F5F5F5F5F5F5F5F5F5F5F5F5F5F5F5F5F5F5F5F5F5F5F5F5F5F5F5F5F5F5F5F5F5F5F5F5F5F5F5F5F5F5F5F5F5F5
310
F5F5F5F5F5F5F5F5F5F5F5F5F5F5F5F5F5F5F5F5F5F5F5F5F5F5F5F5F5F5F5F5F5F5F5F5F5E2E2E2F5F5F5F5F5F5F5F5F5F5F5F5F5F5F5F5F5F5F5F5F5F5F5F5F5F5F5F5F5F5F5F5F5F5F5F5F5F5F5F5F5F5F5F5F5F5F5F5F5F5F5F5F5F5F5F5F5F5F5F5F5F5F5F5F5F5F5F5F5F5F5F5F5F5F5F5F5F5F5F5F5F5F5F5F5F5F5
310
F5F5F5F5F5F5F5F5F5F5F5F5F5F5F5F5F5F5F5F5F5F5F5F5F5F5F5F5F5F5F5F5F5F5F5F5F5F5F5F5F5F5F5F5F5F5F5F5F5F5F5F5F5F5F5F5F5F5F5F5F5F5F5F5F5F5F5F5F5F5F5F5F5F5F5F5F5F5F5F5F5F5F5F5F5F5F5F5F5F5E2E2E2F5F5F5F5F5F5F5F5F5F5F5F5F5F5F5F5F5F5F5F5F5F5F5F5F5F5F5F5F5F5F5F5F5F5
310
F5F5F5F5F5F5F5F5F5F5F5F5F5F5F5F5F5F5F5F5F5F5F5F5F5F5F5F5F5F5F5F5F5F5F5F5F5F5F5F5F5F5F5F5F5F5F5F5F5F5F5F5F5F5F5F5F5F5F5F5F5F5F5F5F5F5F5F5F5F5F5F5F5F5F5F5F5F5F5F5F5F5F5F5F5F5F5F5F5F5F5F5F5F5F5F5F5F5F5F5F5F5F5F5F5F5F5F5F5F5F5F5F5F5F5F5F5F5F5F5F5F5F5F5F5F5F5
310
F5F5F5F5F5F5F5F5F5F5F5F5F5F5F5F5E2E2E2F5F5F5F5F5F5F5F5F5F5F5F5F5F5F5F5F5F5F5F5F5F5F5F5F5F5F5F5F5F5F5F5F5F5F5F5F5F5F5F5F5F5F5F5F5F5F5F5F5F5F5F5F5F5F5F5F5F5F5F5F5F5F5F5F5F5F5F5F5F5F5F5F5F5F5F5F5F5F5F5F5F5F5F5F5F5F5F5F5F5F5F5F5F5F5F5F5F5F5F5F5F5F5F5F5F5F5F5
310
F5F5F5F5F5F5F5F5F5F5F5F5F5F5F5F5F5F5F5F5F5F5F5F5F5F5F5F5F5F5F5F5F5F5F5F5F5F5F5F5F5F5F5F5F5F5F5F5F5F5F5F5F5F5F5F5F5F5F5F5F5F5F5F5F5F5F5F5F5E2E2E2F5F5E2F5F5F5F5F5F5F5F5F5F5F5F5F5F5F5F5F5F5F5F5F5F5F5F5F5F5F5F5F5F5F5F5F5F5F5F5F5F5F5F5F5F5F5F5F5F5F5F5F5F5F5F5
310
F5F5F5F5F5F5F5F5F5F5F5F5F5F5F5F5F5F5F5F5F5F5F5F5F5F5F5F5F5F5F5F5F5F5F5F5F5F5F5F5F5F5F5F5F5F5F5F5F5F5F5F5F5F5F5F5F5F5F5F5F5F5F5F5F5F5F5F5F5F5F5F5F5F5F5F5F5F5F5F5F5F5F5F5F5F5F5F5F5F5F5F5F5F5F5F5F5F5F5F5F5F5F5F5F5F5F5F5F5F5F5F5F5F5F5F5F5F5F5E2F5F5E2E2E2F5F5
310
E2F5F5F5F5F5F5F5F5F5F5F5F5F5F5F5F5F5F5F5F5F5F5F5F5F5F5F5F5F5F5F5F5F5F5F5F5F5F5F5F5F5F5F5F5F5F5F5F5F5F5F5F5F5F5F5F5F5F5F5F5F5F5F5F5F5F5F5F5F5F5F5F5F5F5F5F5F5F5F5F5F5F5F5F5F5F5F5F5F5F5F5F5F5F5F5F5F5F5F5F5F5F5F5F5F5F5F5F5F5F5F5F5F5F5F5F5F5F5F5F5F5F5F5F5F5F5
310
F5F5F5F5F5F5F5F5F5F5F5F5F5F5F5F5F5F5F5F5F5F5F5F5F5F5F5F5F5F5F5F5F5F5F5F5F5F5F5F5F5F5F5F5F5E2F5F5E2E2E2F5F5E2F5F5F5F5F5F5F5F5F5F5F5F5F5F5F5F5F5F5F5F5F5F5F5F5F5F5F5F5F5F5F5F5F5F5F5F5F5F5F5F5F5F5F5F5F5F5F5F5F5F5F5F5F5F5F5F5F5F5F5F5F5F5F5F5F5F5F5F5F5F5F5F5F5
310
F5F5F5F5F5F5F5F5F5F5F5F5F5F5F5F5F5F5F5F5F5F5F5F5F5F5F5F5F5F5F5F5F5F5F5F5F5F5F5F5F5F5F5F5F5F5F5F5F5F5F5F5F5F5F5F5F5F5F5F5F5F5F5F5F5F5F5F5F5F5F5F5F5F5F5F5F5F5F5F5F5F5F5F5F5F5F5F5F5F5F5F5F5F5F5F5F5F5E2F5F5E2E2E2F5F5E2F5F5F5F5F5F5F5F5F5F5F5F5F5F5F5F5F5F5F5F5
310
F5F5F5F5F5F5F5F5F5F5F5F5F5F5F5F5F5F5F5F5F5F5F5F5F5F5F5F5F5F5F5F5F5F5F5F5F5F5F5F5F5F5F5F5F5F5F5F5F5F5F5F5F5F5F5F5F5F5F5F5F5F5F5F5F5F5F5F5F5F5F5F5F5F5F5F5F5F5F5F5F5F5F5F5F5F5F5F5F5F5F5F5F5F5F5F5F5F5F5F5F5F5F5F5F5F5F5F5F5F5F5F5F5F5F5F5F5F5F5F5F5F5F5F5F5F5F5
310
F5F5F5F5F5F5F5F5F5F5F5F5F5F5F5F5F5F5F5F5F5F5F5F5E2F5F5E2E2E2F5F5E2F5F5F5F5F5F5F5F5F5F5F5F5F5F5F5F5F5F5F5F5F5F5F5F5F5F5F5F5F5F5F5F5F5F5F5F5F5F5F5F5F5F5F5F5F5F5F5F5F5F5F5F5F5F5F5F5F5F5F5F5F5F5F5F5F5F5F5F5F5F5F5F5F5F5F5F5F5F5F5F5F5F5F5F5F5F5F5F5F5F5F5F5F5F5
310
F5F5F5F5F5F5F5F5F5F5F5F5F5F5F5F5F5F5F5F5F5F5F5F5F5F5F5F5F5F5F5F5F5F5F5F5F5F5F5F5F5F5F5F5F5F5F5F5F5F5F5F5F5F5F5F5F5F5F5F5F5F5F5F5F5F5F5F5F5F5F5F5F5F5F5F5F5E2F5F5E2E2E2F5F5E2F5F5F5F5F5F5F5F5F5F5F5F5F5F5F5F5F5F5F5F5F5F5F5F5F5F5F5F5F5F5F5F5F5F5F5F5F5F5F5F5F5
310
F5F5F5F5F5F5F5F5F5F5F5F5F5F5F5F5F5F5F5F5F5F5F5F5F5F5F5F5F5F5F5F5F5F5F5F5F5F5F5F5F5F5F5F5F5F5F5F5F5F5F5F5F5F5F5F5F5F5F5F5F5F5F5F5F5F5F5F5F5F5F5F5F5F5F5F5F5F5F5F5F5F5F5F5F5F5F5F5F5F5F5F5F5F5F5F5F5F5F5F5F5F5F5F5F5F5F5F5F5F5F5F5F5F5F5F5F5F5F5F5F5F5F5F5F5F5F5
310
F5F5F5E2F5F5E2E2E2F5F5E2F5F5F5F5F5F5F5F5F5F5F5F5F5F5F5F5F5F5F5F5F5F5F5F5F5F5F5F5F5F5F5F5F5F5F5F5F5F5F5F5F5F5F5F5F5F5F5F5F5F5F5F5F5F5F5F5F5F5F5F5F5F5F5F5F5F5F5F5F5F5F5F5F5F5F5F5F5F5F5F5F5F5F5F5F5F5F5F5F5F5F5F5F5F5F5F5F5F5F5F5F5F5F5F5F5F5F5F5F5F5F5F5F5F5F5
310
F5F5F5F5F5F5F5F5F5F5F5F5F5F5F5F5F5F5F5F5F5F5F5F5F5F5F5F5F5F5F5F5F5F5F5F5F5F5F5F5F5F5F5F5F5F5F5F5F5F5F5F5F5F5F5F5E2F5F5E2E2E2F5F5E2F5F5F5F5F5F5F5F5F5F5F5F5F5F5F5F5F5F5F5F5F5F5F5F5F5F5F5F5F5F5F5F5F5F5F5F5F5F5F5F5F5F5F5F5F5F5F5F5F5F5F5F5F5F5F5F5F5F5F5F5F5F5
310
F5F5F5F5F5F5F5F5F5F5F5F5F5F5F5F5F5F5F5F5F5F5F5F5F5F5F5F5F5F5F5F5F5F5F5F5F5F5F5F5F5F5F5F5F5F5F5F5F5F5F5F5F5F5F5F5F5F5F5F5F5F5F5F5F5F5F5F5F5F5F5F5F5F5F5F5F5F5F5F5F5F5F5F5F5F5F5F5F5F5F5F5F5F5F5F5F5F5F5F5F5F5F5F5F5F5F5F5F5E2F5F5E2E2E2F5F5E2F5F5F5F5F5F5F5F5F5
310
F5F5F5F5F5F5F5F5F5F5F5F5F5F5F5F5F5F5F5F5F5F5F5F5F5F5F5F5F5F5F5F5F5F5F5F5F5F5F5F5F5F5F5F5F5F5F5F5F5F5F5F5F5F5F5F5F5F5F5F5F5F5F5F5F5F5F5F5F5F5F5F5F5F5F5F5F5F5F5F5F5F5F5F5F5F5F5F5F5F5F5F5F5F5F5F5F5F5F5F5F5F5F5F5F5F5F5F5F5F5F5F5F5F5F5F5F5F5F5F5F5F5F5F5F5F5F5
310
F5F5F5F5F5F5F5F5F5F5F5F5F5F5F5F5F5F5F5F5F5F5F5F5F5F5F5F5F5F5F5F5F5F5F5E2F5F5E2E2E2F5F5E2F5F5F5F5F5F5F5F5F5F5F5F5F5F5F5F5F5F5F5F5F5F5F5F5F5F5F5F5F5F5F5F5F5F5F5F5F5F5F5F5F5F5F5F5F5F5F5F5F5F5F5F5F5F5F5F5F5F5F5F5F5F5F5F5F5F5F5F5F5F5F5F5F5F5F5F5F5F5F5F5F5F5F5
310
F5F5F5F5F5F5F5F5F5F5F5F5F5F5F5F5F5F5F5F5F5F5F5F5F5F5F5F5F5F5F5F5F5F5F5F5F5F5F5F5F5F5F5F5F5F5F5F5F5F5F5F5F5F5F5F5F5F5F5F5F5F5F5F5F5F5F5F5F5F5F5F5F5F5F5F5F5F5F5F5F5F5F5F5F5F5F5F5E2F5F5E2E2E2F5F5E2F5F5F5F5F5F5F5F5F5F5F5F5F5F5F5F5F5F5F5F5F5F5F5F5F5F5F5F5F5F5
310
F5F5F5F5F5F5F5F5F5F5F5F5F5F5F5F5F5F5F5F5F5F5F5F5F5F5F5F5F5F5F5F5F5F5F5F5F5F5F5F5F5F5F5F5F5F5F5F5F5F5F5F5F5F5F5F5F5F5F5F5F5F5F5F5F5F5F5F5F5F5F5F5F5F5F5F5F5F5F5F5F5F5F5F5F5F5F5F5F5F5F5F5F5F5F5F5F5F5F5F5F5F5F5F5F5F5F5F5F5F5F5F5F5F5F5F5F5F5F5F5F5F5F5F5F5F5F5
310
F5F5F5F5F5F5F5F5F5F5F5F5F5F5E2F5F5E2E2E2F5F5E2F5F5F5F5F5F5F5F5F5F5F5F5F5F5F5F5F5F5F5F5F5F5F5F5F5F5F5F5F5F5F5F5F5F5F5F5F5F5F5F5F5F5F5F5F5F5F5F5F5F5F5F5F5F5F5F5F5F5F5F5F5F5F5F5F5F5F5F5F5F5F5F5F5F5F5F5F5F5F5F5F5F5F5F5F5F5F5F5F5F5F5F5F5F5F5F5F5F5F5F5F5F5F5F5
310
F5F5F5F5F5F5F5F5F5F5F5F5F5F5F5F5F5F5F5F5F5F5F5F5F5F5F5F5F5F5F5F5F5F5F5F5F5F5F5F5F5F5F5F5F5F5F5F5F5F5F5F5F5F5F5F5F5F5F5F5F5F5F5F5F5F5F5E2F5F5E2E2E2F5F5E2F5F5F5F5F5F5F5F5F5F5F5F5F5F5F5F5F5F5F5F5F5F5F5F5F5F5F5F5F5F5F5F5F5F5F5F5F5F5F5F5F5F5F5F5F5F5F5F5F5F5F5
310
F5F5F5F5F5F5F5F5F5F5F5F5F5F5F5F5F5F5F5F5F5F5F5F5F5F5F5F5F5F5F5F5F5F5F5F5F5F5F5F5F5F5F5F5F5F5F5F5F5F5F5F5F5F5F5F5F5F5F5F5F5F5F5F5F5F5F5F5F5F5F5F5F5F5F5F5F5F5F5F5F5F5F5F5F5F5F5F5F5F5F5F5F5F5F5F5F5F5F5F5F5F5F5F5F5F5F5F5F5F5F5F5F5F5F5F5F5F5F5F5E2F5F5E2E2E2F5
310
F5E2F5F5F5F5F5F5F5F5F5F5F5F5F5F5F5F5F5F5F5F5F5F5F5F5F5F5F5F5F5F5F5F5F5F5F5F5F5F5F5F5F5F5F5F5F5F5F5F5F5F5F5F5F5F5F5F5F5F5F5F5F5F5F5F5F5F5F5F5F5F5F5F5F5F5F5F5F5F5F5F5F5F5F5F5F5F5F5F5F5F5F5F5F5F5F5F5F5F5F5F5F5F5F5F5F5F5F5F5F5F5F5F5F5F5F5F5F5F5F5F5F5F5F5F5F5
310
F5F5F5F5F5F5F5F5F5F5F5F5F5F5F5F5F5F5F5F5F5F5F5F5F5F5F5F5F5F5F5F5F5F5F5F5F5F5F5F5F5F5F5F5F5F5E2F5F5E2E2E2F5F5E2F5F5F5F5F5F5F5F5F5F5F5F5F5F5F5F5F5F5F5F5F5F5F5F5F5F5F5F5F5F5F5F5F5F5F5F5F5F5F5F5F5F5F5F5F5F5F5F5F5F5F5F5F5F5F5F5F5F5F5F5F5F5F5F5F5F5F5F5F5F5F5F5
310
F5F5F5F5F5F5F5F5F5F5F5F5F5F5F5F5F5F5F5F5F5F5F5F5F5F5F5F5F5F5F5F5F5F5F5F5F5F5F5F5F5F5F5F5F5F5F5F5F5F5F5F5F5F5F5F5F5F5F5F5F5F5F5F5F5F5F5F5F5F5F5F5F5F5F5F5F5F5F5F5F5F5F5F5F5F5F5F5F5F5F5F5F5F5F5F5F5F5F5E2F5F5E2E2E2F5F5E2F5F5F5F5F5F5F5F5F5F5F5F5F5F5F5F5F5F5F5
310
F5F5F5F5F5F5F5F5F5F5F5F5F5F5F5F5F5F5F5F5F5F5F5F5F5F5F5F5F5F5F5F5F5F5F5F5F5F5F5F5F5F5F5F5F5F5F5F5F5F5F5F5F5F5F5F5F5F5F5F5F5F5F5F5F5F5F5F5F5F5F5F5F5F5F5F5F5F5F5F5F5F5F5F5F5F5F5F5F5F5F5F5F5F5F5F5F5F5F5F5F5F5F5F5F5F5F5F5F5F5F5F5F5F5F5F5F5F5F5F5F5F5F5F5F5F5F5
310
F5F5F5F5F5F5F5F5F5F5F5F5F5F5F5F5F5F5F5F5F5F5F5F5F5E2F5F5E2E2E2F5F5E2F5F5F5F5F5F5F5F5F5F5F5F5F5F5F5F5F5F5F5F5F5F5F5F5F5F5F5F5F5F5F5F5F5F5F5F5F5F5F5F5F5F5F5F5F5F5F5F5F5F5F5F5F5F5F5F5F5F5F5F5F5F5F5F5F5F5F5F5F5F5F5F5F5F5F5F5F5F5F5F5F5F5F5F5F5F5F5F5F5F5F5F5F5
310
F5F5F5F5F5F5F5F5F5F5F5F5F5F5F5F5F5F5F5F5F5F5F5F5F5F5F5F5F5F5F5F5F5F5F5F5F5F5F5F5F5F5F5F5F5F5F5F5F5F5F5F5F5F5F5F5F5F5F5F5F5F5F5F5F5F5F5F5F5F5F5F5F5F5F5F5F5F5E2F5F5E2E2E2F5F5F5F5F5F5F5F5F5F5F5F5F5F5F5F5F5F5F5F5F5F5F5F5F5F5F5F5F5F5F5F5F5F5F5F5F5F5F5F5F5F5F5
310
F5F5F5F5F5F5F5F5F5F5F5F5F5F5F5F5F5F5F5F5F5F5F5F5F5F5F5F5F5F5F5F5F5F5F5F5F5F5F5F5F5F5F5F5F5F5F5F5F5F5F5F5F5F5F5F5F5F5F5F5F5F5F5F5F5F5F5F5F5F5F5F5F5F5F5F5F5F5F5F5F5F5F5F5F5F5F5F5F5F5F5F5F5F5F5F5F5F5F5F5F5F5F5F5F5F5F5F5F5F5F5F5F5F5F5F5F5F5F5F5F5F5F5F5F5F5F5
310
F5F5F5F5F5F5F5E2E2E2F5F5F5F5F5F5F5F5F5F5F5F5F5F5F5F5F5F5F5F5F5F5F5F5F5F5F5F5F5F5F5F5F5F5F5F5F5F5F5F5F5F5F5F5F5F5F5F5F5F5F5F5F5F5F5F5F5F5F5F5F5F5F5F5F5F5F5F5F5F5F5F5F5F5F5F5F5F5F5F5F5F5F5F5F5F5F5F5F5F5F5F5F5F5F5F5F5F5F5F5F5F5F5F5F5F5F5F5F5F5F5F5F5F5F5F5F5
310
F5F5F5F5F5F5F5F5F5F5F5F5F5F5F5F5F5F5F5F5F5F5F5F5F5F5F5F5F5F5F5F5F5F5F5F5F5F5F5F5F5F5F5F5F5F5F5F5F5F5F5F5F5F5F5F5F5F5F5F5E2E2E2F5F5F5F5F5F5F5F5F5F5F5F5F5F5F5F5F5F5F5F5F5F5F5F5F5F5F5F5F5F5F5F5F5F5F5F5F5F5F5F5F5F5F5F5F5F5F5F5F5F5F5F5F5F5F5F5F5F5F5F5F5F5F5F5
310
F5F5F5F5F5F5F5F5F5F5F5F5F5F5F5F5F5F5F5F5F5F5F5F5F5F5F5F5F5F5F5F5F5F5F5F5F5F5F5F5F5F5F5F5F5F5F5F5F5F5F5F5F5F5F5F5F5F5F5F5F5F5F5F5F5F5F5F5F5F5F5F5F5F5F5F5F5F5F5F5F5F5F5F5F5F5F5F5F5F5F5F5F5F5F5F5F5F5F5F5F5F5F5F5F5F5F5F5F5F5F5F5F5E2E2E2F5F5F5F5F5F5F5F5F5F5F5
310
F5F5F5F5F5F5F5F5F5F5F5F5F5F5F5F5F5F5F5F5F5F5F5F5F5F5F5F5F5F5F5F5F5F5F5F5F5F5F5F5F5F5F5F5F5F5F5F5F5F5F5F5F5F5F5F5F5F5F5F5F5F5F5F5F5F5F5F5F5F5F5F5F5F5F5F5F5F5F5F5F5F5F5F5F5F5F5F5F5F5F5F5F5F5F5F5F5F5F5F5F5F5F5F5F5F5F5F5F5F5F5F5F5F5F5F5F5F5F5F5F5F5F5F5F5F5F5
310
F5F5F5F5F5F5F5F5F5F5F5F5F5F5F5F5F5F5F5F5F5F5F5F5F5F5F5F5F5F5F5F5F5F5F5F5F5F5F5E2E2E2F5F5F5F5F5F5F5F5F5F5F5F5F5F5F5F5F5F5F5F5F5F5F5F5F5F5F5F5F5F5F5F5F5F5F5F5F5F5F5F5F5F5F5F5F5F5F5F5F5F5F5F5F5F5F5F5F5F5F5F5F5F5F5F5F5F5F5F5F5F5F5F5F5F5F5F5F5F5F5F5F5F5F5F5F5
310
F5F5F5F5F5F5F5F5F5F5F5F5F5F5F5F5F5F5F5F5F5F5F5F5F5F5F5F5F5F5F5F5F5F5F5F5F5F5F5F5F5F5F5F5F5F5F5F5F5F5F5F5F5F5F5F5F5F5F5F5F5F5F5F5F5F5F5F5F5F5F5F5F5F5F5F5F5F5F5F5F5F5F5F5F5F5F5F5F5F5F5F5E2E2E2F5F5F5F5F5F5F5F5F5F5F5F5F5F5F5F5F5F5F5F5F5F5F5F5F5F5F5F5F5F5F5F5
310
F5F5F5F5F5F5F5F5F5F5F5F5F5F5F5F5F5F5F5F5F5F5F5F5F5F5F5F5F5F5F5F5F5F5F5F5F5F5F5F5F5F5F5F5F5F5F5F5F5F5F5F5F5F5F5F5F5F5F5F5F5F5F5F5F5F5F5F5F5F5F5F5F5F5F5F5F5F5F5F5F5F5F5F5F5F5F5F5F5F5F5F5F5F5F5F5F5F5F5F5F5F5F5F5F5F5F5F5F5F5F5F5F5F5F5F5F5F5F5F5F5F5F5F5F5F5F5
310
F5F5F5F5F5F5F5F5F5F5F5F5F5F5F5F5F5F5E2E2E2F5F5F5F5F5F5F5F5F5F5F5F5F5F5F5F5F5F5F5F5F5F5F5F5F5F5F5F5F5F5F5F5F5F5F5F5F5F5F5F5F5F5F5F5F5F5F5F5F5F5F5F5F5F5F5F5F5F5F5F5F5F5F5F5F5F5F5F5F5F5F5F5F5F5F5F5F5F5F5F5F5F5F5F5F5F5F5F5F5F5F5F5F5F5F5F5F5F5F5F5F5F5F5F5F5F5
310
F5F5F5F5F5F5F5F5F5F5F5F5F5F5F5F5F5F5F5F5F5F5F5F5F5F5F5F5F5F5F5F5F5F5F5F5F5F5F5F5F5F5F5F5F5F5F5F5F5F5F5F5F5F5F5F5F5F5F5F5F5F5F5F5F5F5F5F5F5F5F5E2E2E2F5F5F5F5F5F5F5F5F5F5F5F5F5F5F5F5F5F5F5F5F5F5F5F5F5F5F5F5F5F5F5F5F5F5F5F5F5F5F5F5F5F5F5F5F5F5F5F5F5F5F5F5F5
310
F5F5F5F5F5F5F5F5F5F5F5F5F5F5F5F5F5F5F5F5F5F5F5F5F5F5F5F5F5F5F5F5F5F5F5F5F5F5F5F5F5F5F5F5F5F5F5F5F5F5F5F5F5F5F5F5F5F5F5F5F5F5F5F5F5F5F5F5F5F5F5F5F5F5F5F5F5F5F5F5F5F5F5F5F5F5F5F5F5F5F5F5F5F5F5F5F5F5F5F5F5F5F5F5F5F5F5F5F5F5F5F5F5F5F5F5F5F5F5F5F5F5F5F5E2E2E2
310
F5F5F5F5F5F5F5F5F5F5F5F5F5F5F5F5F5F5F5F5F5F5F5F5F5F5F5F5F5F5F5F5F5F5F5F5F5F5F5F5F5F5F5F5F5F5F5F5F5F5F5F5F5F5F5F5F5F5F5F5F5F5F5F5F5F5F5F5F5F5F5F5F5F5F5F5F5F5F5F5F5F5F5F5F5F5F5F5F5F5F5F5F5F5F5F5F5F5F5F5F5F5F5F5F5F5F5F5F5F5F5F5F5F5F5F5F5F5F5F5F5F5F5F5F5F5F5
310
F5F5F5F5F5F5F5F5F5F5F5F5F5F5F5F5F5F5F5F5F5F5F5F5F5F5F5F5F5F5F5F5F5F5F5F5F5F5F5F5F5F5F5F5F5F5F5F5F5F5E2E2E2F5F5E2F5F5F5F5F5F5F5F5F5F5F5F5F5F5F5F5F5F5F5F5F5F5F5F5F5F5F5F5F5F5F5F5F5F5F5F5F5F5F5F5F5F5F5F5F5F5F5F5F5F5F5F5F5F5F5F5F5F5F5F5F5F5F5F5F5F5F5F5F5F5F5
310
F5F5F5F5F5F5F5F5F5F5F5F5F5F5F5F5F5F5F5F5F5F5F5F5F5F5F5F5F5F5F5F5F5F5F5F5F5F5F5F5F5F5F5F5F5F5F5F5F5F5F5F5F5F5F5F5F5F5F5F5F5F5F5F5F5F5F5F5F5F5F5F5F5F5F5F5F5F5F5F5F5F5F5F5F5F5F5F5F5F5F5F5F5F5F5F5F5F5F5F5E2F5F5E2E2E2F5F5E2F5F5F5F5F5F5F5F5F5F5F5F5F5F5F5F5F5F5
310
F5F5F5F5F5F5F5F5F5F5F5F5F5F5F5F5F5F5F5F5F5F5F5F5F5F5F5F5F5F5F5F5F5F5F5F5F5F5F5F5F5F5F5F5F5F5F5F5F5F5F5F5F5F5F5F5F5F5F5F5F5F5F5F5F5F5F5F5F5F5F5F5F5F5F5F5F5F5F5F5F5F5F5F5F5F5F5F5F5F5F5F5F5F5F5F5F5F5F5F5F5F5F5F5F5F5F5F5F5F5F5F5F5F5F5F5F5F5F5F5F5F5F5F5F5F5F5
310
F5F5F5F5F5F5F5F5F5F5F5F5F5F5F5F5F5F5F5F5F5F5F5F5F5F5E2F5F5E2E2E2F5F5E2F5F5F5F5F5F5F5F5F5F5F5F5F5F5F5F5F5F5F5F5F5F5F5F5F5F5F5F5F5F5F5F5F5F5F5F5F5F5F5F5F5F5F5F5F5F5F5F5F5F5F5F5F5F5F5F5F5F5F5F5F5F5F5F5F5F5F5F5F5F5F5F5F5F5F5F5F5F5F5F5F5F5F5F5F5F5F5F5F5F5F5F5
310
F5F5F5F5F5F5F5F5F5F5F5F5F5F5F5F5F5F5F5F5F5F5F5F5F5F5F5F5F5F5F5F5F5F5F5F5F5F5F5F5F5F5F5F5F5F5F5F5F5F5F5F5F5F5F5F5F5F5F5F5F5F5F5F5F5F5F5F5F5F5F5F5F5F5F5F5F5F5F5E2F5F5E2E2E2F5F5E2F5F5F5F5F5F5F5F5F5F5F5F5F5F5F5F5F5F5F5F5F5F5F5F5F5F5F5F5F5F5F5F5F5F5F5F5F5F5F5
310
F5F5F5F5F5F5F5F5F5F5F5F5F5F5F5F5F5F5F5F5F5F5F5F5F5F5F5F5F5F5F5F5F5F5F5F5F5F5F5F5F5F5F5F5F5F5F5F5F5F5F5F5F5F5F5F5F5F5F5F5F5F5F5F5F5F5F5F5F5F5F5F5F5F5F5F5F5F5F5F5F5F5F5F5F5F5F5F5F5F5F5F5F5F5F5F5F5F5F5F5F5F5F5F5F5F5F5F5F5F5F5F5F5F5F5F5F5F5F5F5F5F5F5F5F5F5F5
310
F5F5F5F5F5E2F5F5E2E2E2F5F5E2F5F5F5F5F5F5F5F5F5F5F5F5F5F5F5F5F5F5F5F5F5F5F5F5F5F5F5F5F5F5F5F5F5F5F5F5F5F5F5F5F5F5F5F5F5F5F5F5F5F5F5F5F5F5F5F5F5F5F5F5F5F5F5F5F5F5F5F5F5F5F5F5F5F5F5F5F5F5F5F5F5F5F5F5F5F5F5F5F5F5F5F5F5F5F5F5F5F5F5F5F5F5F5F5F5F5F5F5F5F5F5F5F5
310
F5F5F5F5F5F5F5F5F5F5F5F5F5F5F5F5F5F5F5F5F5F5F5F5F5F5F5F5F5F5F5F5F5F5F5F5F5F5F5F5F5F5F5F5F5F5F5F5F5F5F5F5F5F5F5F5F5F5E2F5F5E2E2E2F5F5E2F5F5F5F5F5F5F5F5F5F5F5F5F5F5F5F5F5F5F5F5F5F5F5F5F5F5F5F5F5F5F5F5F5F5F5F5F5F5F5F5F5F5F5F5F5F5F5F5F5F5F5F5F5F5F5F5F5F5F5F5
310
F5F5F5F5F5F5F5F5F5F5F5F5F5F5F5F5F5F5F5F5F5F5F5F5F5F5F5F5F5F5F5F5F5F5F5F5F5F5F5F5F5F5F5F5F5F5F5F5F5F5F5F5F5F5F5F5F5F5F5F5F5F5F5F5F5F5F5F5F5F5F5F5F5F5F5F5F5F5F5F5F5F5F5F5F5F5F5F5F5F5F5F5F5F5F5F5F5F5F5F5F5F5F5F5F5F5F5F5F5F5F5E2F5F5E2E2E2F5F5E2F5F5F5F5F5F5F5
310
F5F5F5F5F5F5F5F5F5F5F5F5F5F5F5F5F5F5F5F5F5F5F5F5F5F5F5F5F5F5F5F5F5F5F5F5F5F5F5F5F5F5F5F5F5F5F5F5F5F5F5F5F5F5F5F5F5F5F5F5F5F5F5F5F5F5F5F5F5F5F5F5F5F5F5F5F5F5F5F5F5F5F5F5F5F5F5F5F5F5F5F5F5F5F5F5F5F5F5F5F5F5F5F5F5F5F5F5F5F5F5F5F5F5F5F5F5F5F5F5F5F5F5F5F5F5F5
310
F5F5F5F5F5F5F5F5F5F5F5F5F5F5F5F5F5F5F5F5F5F5F5F5F5F5F5F5F5F5F5F5F5F5F5F5F5E2F5F5E2E2E2F5F5E2F5F5F5F5F5F5F5F5F5F5F5F5F5F5F5F5F5F5F5F5F5F5F5F5F5F5F5F5F5F5F5F5F5F5F5F5F5F5F5F5F5F5F5F5F5F5F5F5F5F5F5F5F5F5F5F5F5F5F5F5F5F5F5F5F5F5F5F5F5F5F5F5F5F5F5F5F5F5F5F5F5
310
F5F5F5F5F5F5F5F5F5F5F5F5F5F5F5F5F5F5F5F5F5F5F5F5F5F5F5F5F5F5F5F5F5F5F5F5F5F5F5F5F5F5F5F5F5F5F5F5F5F5F5F5F5F5F5F5F5F5F5F5F5F5F5F5F5F5F5F5F5F5F5F5F5F5F5F5F5F5F5F5F5F5F5F5F5F5F5F5F5F5E2F5F5E2E2E2F5F5E2F5F5F5F5F5F5F5F5F5F5F5F5F5F5F5F5F5F5F5F5F5F5F5F5F5F5F5F5
310
F5F5F5F5F5F5F5F5F5F5F5F5F5F5F5F5F5F5F5F5F5F5F5F5F5F5F5F5F5F5F5F5F5F5F5F5F5F5F5F5F5F5F5F5F5F5F5F5F5F5F5F5F5F5F5F5F5F5F5F5F5F5F5F5F5F5F5F5F5F5F5F5F5F5F5F5F5F5F5F5F5F5F5F5F5F5F5F5F5F5F5F5F5F5F5F5F5F5F5F5F5F5F5F5F5F5F5F5F5F5F5F5F5F5F5F5F5F5F5F5F5F5F5F5F5F5F5
310
F5F5F5F5F5F5F5F5F5F5F5F5F5F5F5F5E2F5F5E2E2E2F5F5E2F5F5F5F5F5F5F5F5F5F5F5F5F5F5F5F5F5F5F5F5F5F5F5F5F5F5F5F5F5F5F5F5F5F5F5F5F5F5F5F5F5F5F5F5F5F5F5F5F5F5F5F5F5F5F5F5F5F5F5F5F5F5F5F5F5F5F5F5F5F5F5F5F5F5F5F5F5F5F5F5F5F5F5F5F5F5F5F5F5F5F5F5F5F5F5F5F5F5F5F5F5F5
310
F5F5F5F5F5F5F5F5F5F5F5F5F5F5F5F5F5F5F5F5F5F5F5F5F5F5F5F5F5F5F5F5F5F5F5F5F5F5F5F5F5F5F5F5F5F5F5F5F5F5F5F5F5F5F5F5F5F5F5F5F5F5F5F5F5F5F5F5F5E2F5F5E2E2E2F5F5E2F5F5F5F5F5F5F5F5F5F5F5F5F5F5F5F5F5F5F5F5F5F5F5F5F5F5F5F5F5F5F5F5F5F5F5F5F5F5F5F5F5F5F5F5F5F5F5F5F5
310
F5F5F5F5F5F5F5F5F5F5F5F5F5F5F5F5F5F5F5F5F5F5F5F5F5F5F5F5F5F5F5F5F5F5F5F5F5F5F5F5F5F5F5F5F5F5F5F5F5F5F5F5F5F5F5F5F5F5F5F5F5F5F5F5F5F5F5F5F5F5F5F5F5F5F5F5F5F5F5F5F5F5F5F5F5F5F5F5F5F5F5F5F5F5F5F5F5F5F5F5F5F5F5F5F5F5F5F5F5F5F5F5F5F5F5F5F5F5F5F5F5F5E2F5F5E2E2
310
E2F5F5E2F5F5F5F5F5F5F5F5F5F5F5F5F5F5F5F5F5F5F5F5F5F5F5F5F5F5F5F5F5F5F5F5F5F5F5F5F5F5F5F5F5F5F5F5F5F5F5F5F5F5F5F5F5F5F5F5F5F5F5F5F5F5F5F5F5F5F5F5F5F5F5F5F5F5F5F5F5F5F5F5F5F5F5F5F5F5F5F5F5F5F5F5F5F5F5F5F5F5F5F5F5F5F5F5F5F5F5F5F5F5F5F5F5F5F5F5F5F5F5F5F5F5F5
310
F5F5F5F5F5F5F5F5F5F5F5F5F5F5F5F5F5F5F5F5F5F5F5F5F5F5F5F5F5F5F5F5F5F5F5F5F5F5F5F5F5F5F5F5F5F5F5F5E2F5F5E2E2E2F5F5E2F5F5F5F5F5F5F5F5F5F5F5F5F5F5F5F5F5F5F5F5F5F5F5F5F5F5F5F5F5F5F5F5F5F5F5F5F5F5F5F5F5F5F5F5F5F5F5F5F5F5F5F5F5F5F5F5F5F5F5F5F5F5F5F5F5F5F5F5F5F5
310
F5F5F5F5F5F5F5F5F5F5F5F5F5F5F5F5F5F5F5F5F5F5F5F5F5F5F5F5F5F5F5F5F5F5F5F5F5F5F5F5F5F5F5F5F5F5F5F5F5F5F5F5F5F5F5F5F5F5F5F5F5F5F5F5F5F5F5F5F5F5F5F5F5F5F5F5F5F5F5F5F5F5F5F5F5F5F5F5F5F5F5F5F5F5F5F5F5F5F5F5F5E2F5F5E2E2E2F5F5E2F5F5F5F5F5F5F5F5F5F5F5F5F5F5F5F5F5
310
F5F5F5F5F5F5F5F5F5F5F5F5F5F5F5F5F5F5F5F5F5F5F5F5F5F5F5F5F5F5F5F5F5F5F5F5F5F5F5F5F5F5F5F5F5F5F5F5F5F5F5F5F5F5F5F5F5F5F5F5F5F5F5F5F5F5F5F5F5F5F5F5F5F5F5F5F5F5F5F5F5F5F5F5F5F5F5F5F5F5F5F5F5F5F5F5F5F5F5F5F5F5F5F5F5F5F5F5F5F5F5F5F5F5F5F5F5F5F5F5F5F5F5F5F5F5F5
310
F5F5F5F5F5F5F5F5F5F5F5F5F5F5F5F5F5F5F5F5F5F5F5F5F5F5F5E2F5F5E2E2E2F5F5E2F5F5F5F5F5F5F5F5F5F5F5F5F5F5F5F5F5F5F5F5F5F5F5F5F5F5F5F5F5F5F5F5F5F5F5F5F5F5F5F5F5F5F5F5F5F5F5F5F5F5F5F5F5F5F5F5F5F5F5F5F5F5F5F5F5F5F5F5F5F5F5F5F5F5F5F5F5F5F5F5F5F5F5F5F5F5F5F5F5F5F5
310
F5F5F5F5F5F5F5F5F5F5F5F5F5F5F5F5F5F5F5F5F5F5F5F5F5F5F5F5F5F5F5F5F5F5F5F5F5F5F5F5F5F5F5F5F5F5F5F5F5F5F5F5F5F5F5F5F5F5F5F5F5F5F5F5F5F5F5F5F5F5F5F5F5F5F5F5F5F5F5F5E2F5F5E2E2E2F5F5E2F5F5F5F5F5F5F5F5F5F5F5F5F5F5F5F5F5F5F5F5F5F5F5F5F5F5F5F5F5F5F5F5F5F5F5F5F5F5
310
F5F5F5F5F5F5F5F5F5F5F5F5F5F5F5F5F5F5F5F5F5F5F5F5F5F5F5F5F5F5F5F5F5F5F5F5F5F5F5F5F5F5F5F5F5F5F5F5F5F5F5F5F5F5F5F5F5F5F5F5F5F5F5F5F5F5F5F5F5F5F5F5F5F5F5F5F5F5F5F5F5F5F5F5F5F5F5F5F5F5F5F5F5F5F5F5F5F5F5F5F5F5F5F5F5F5F5F5F5F5F5F5F5F5F5F5F5F5F5F5F5F5F5F5F5F5F5
310
F5F5F5F5F5F5E2F5F5E2E2E2F5F5E2F5F5F5F5F5F5F5F5F5F5F5F5F5F5F5F5F5F5F5F5F5F5F5F5F5F5F5F5F5F5F5F5F5F5F5F5F5F5F5F5F5F5F5F5F5F5F5F5F5F5F5F5F5F5F5F5F5F5F5F5F5F5F5F5F5F5F5F5F5F5F5F5F5F5F5F5F5F5F5F5F5F5F5F5F5F5F5F5F5F5F5F5F5F5F5F5F5F5F5F5F5F5F5F5F5F5F5F5F5F5F5F5
310
F5F5F5F5F5F5F5F5F5F5F5F5F5F5F5F5F5F5F5F5F5F5F5F5F5F5F5F5F5F5F5F5F5F5F5F5F5F5F5F5F5F5F5F5F5F5F5F5F5F5F5F5F5F5F5F5F5F5F5E2F5F5E2E2E2F5F5F5F5F5F5F5F5F5F5F5F5F5F5F5F5F5F5F5F5F5F5F5F5F5F5F5F5F5F5F5F5F5F5F5F5F5F5F5F5F5F5F5F5F5F5F5F5F5F5F5F5F5F5F5F5F5F5F5F5F5F5
310
F5F5F5F5F5F5F5F5F5F5F5F5F5F5F5F5F5F5F5F5F5F5F5F5F5F5F5F5F5F5F5F5F5F5F5F5F5F5F5F5F5F5F5F5F5F5F5F5F5F5F5F5F5F5F5F5F5F5F5F5F5F5F5F5F5F5F5F5F5F5F5F5F5F5F5F5F5F5F5F5F5F5F5F5F5F5F5F5F5F5F5F5F5F5F5F5F5F5F5F5F5F5F5F5F5F5F5F5F5F5F5F5F5F5F5E2E2E2F5F5F5F5F5F5F5F5F5
310
F5F5F5F5F5F5F5F5F5F5F5F5F5F5F5F5F5F5F5F5F5F5F5F5F5F5F5F5F5F5F5F5F5F5F5F5F5F5F5F5F5F5F5F5F5F5F5F5F5F5F5F5F5F5F5F5F5F5F5F5F5F5F5F5F5F5F5F5F5F5F5F5F5F5F5F5F5F5F5F5F5F5F5F5F5F5F5F5F5F5F5F5F5F5F5F5F5F5F5F5F5F5F5F5F5F5F5F5F5F5F5F5F5F5F5F5F5F5F5F5F5F5F5F5F5F5F5
310
F5F5F5F5F5F5F5F5F5F5F5F5F5F5F5F5F5F5F5F5F5F5F5F5F5F5F5F5F5F5F5F5F5F5F5F5F5F5F5F5F5E2E2E2F5F5F5F5F5F5F5F5F5F5F5F5F5F5F5F5F5F5F5F5F5F5F5F5F5F5F5F5F5F5F5F5F5F5F5F5F5F5F5F5F5F5F5F5F5F5F5F5F5F5F5F5F5F5F5F5F5F5F5F5F5F5F5F5F5F5F5F5F5F5F5F5F5F5F5F5F5F5F5F5F5F5F5
310
F5F5F5F5F5F5F5F5F5F5F5F5F5F5F5F5F5F5F5F5F5F5F5F5F5F5F5F5F5F5F5F5F5F5F5F5F5F5F5F5F5F5F5F5F5F5F5F5F5F5F5F5F5F5F5F5F5F5F5F5F5F5F5F5F5F5F5F5F5F5F5F5F5F5F5F5F5F5F5F5F5F5F5F5F5F5F5F5F5F5F5F5F5F5E2E2E2F5F5F5F5F5F5F5F5F5F5F5F5F5F5F5F5F5F5F5F5F5F5F5F5F5F5F5F5F5F5
310
F5F5F5F5F5F5F5F5F5F5F5F5F5F5F5F5F5F5F5F5F5F5F5F5F5F5F5F5F5F5F5F5F5F5F5F5F5F5F5F5F5F5F5F5F5F5F5F5F5F5F5F5F5F5F5F5F5F5F5F5F5F5F5F5F5F5F5F5F5F5F5F5F5F5F5F5F5F5F5F5F5F5F5F5F5F5F5F5F5F5F5F5F5F5F5F5F5F5F5F5F5F5F5F5F5F5F5F5F5F5F5F5F5F5F5F5F5F5F5F5F5F5F5F5F5F5F5
310
F5F5F5F5F5F5F5F5F5F5F5F5F5F5F5F5F5F5F5F5E2E2E2F5F5F5F5F5F5F5F5F5F5F5F5F5F5F5F5F5F5F5F5F5F5F5F5F5F5F5F5F5F5F5F5F5F5F5F5F5F5F5F5F5F5F5F5F5F5F5F5F5F5F5F5F5F5F5F5F5F5F5F5F5F5F5F5F5F5F5F5F5F5F5F5F5F5F5F5F5F5F5F5F5F5F5F5F5F5F5F5F5F5F5F5F5F5F5F5F5F5F5F5F5F5F5F5
310
F5F5F5F5F5F5F5F5F5F5F5F5F5F5F5F5F5F5F5F5F5F5F5F5F5F5F5F5F5F5F5F5F5F5F5F5F5F5F5F5F5F5F5F5F5F5F5F5F5F5F5F5F5F5F5F5F5F5F5F5F5F5F5F5F5F5F5F5F5F5F5F5F5E2E2E2F5F5F5F5F5F5F5F5F5F5F5F5F5F5F5F5F5F5F5F5F5F5F5F5F5F5F5F5F5F5F5F5F5F5F5F5F5F5F5F5F5F5F5F5F5F5F5F5F5F5F5
310
F5F5F5F5F5F5F5F5F5F5F5F5F5F5F5F5F5F5F5F5F5F5F5F5F5F5F5F5F5F5F5F5F5F5F5F5F5F5F5F5F5F5F5F5F5F5F5F5F5F5F5F5F5F5F5F5F5F5F5F5F5F5F5F5F5F5F5F5F5F5F5F5F5F5F5F5F5F5F5F5F5F5F5F5F5F5F5F5F5F5F5F5F5F5F5F5F5F5F5F5F5F5F5F5F5F5F5F5F5F5F5F5F5F5F5F5F5F5F5F5F5F5F5F5F5F5E2
310
E2E2F5F5F5F5F5F5F5F5F5F5F5F5F5F5F5F5F5F5F5F5F5F5F5F5F5F5F5F5F5F5F5F5F5F5F5F5F5F5F5F5F5F5F5F5F5F5F5F5F5F5F5F5F5F5F5F5F5F5F5F5F5F5F5F5F5F5F5F5F5F5F5F5F5F5F5F5F5F5F5F5F5F5F5F5F5F5F5F5F5F5F5F5F5F5F5F5F5F5F5F5F5F5F5F5F5F5F5F5F5F5F5F5F5F5F5F5F5F5F5F5F5F5F5F5F5
310
F5F5F5F5F5F5F5F5F5F5F5F5F5F5F5F5F5F5F5F5F5F5F5F5F5F5F5F5F5F5F5F5F5F5F5F5F5F5F5F5F5F5F5F5F5F5F5F5F5F5F5F5E2E2E2F5F5F5F5F5F5F5F5F5F5F5F5F5F5F5F5F5F5F5F5F5F5F5F5F5F5F5F5F5F5F5F5F5F5F5F5F5F5F5F5F5F5F5F5F5F5F5F5F5F5F5F5F5F5F5F5F5F5F5F5F5F5F5F5F5F5F5F5F5F5F5F5
310
F5F5F5F5F5F5F5F5F5F5F5F5F5F5F5F5F5F5F5F5F5F5F5F5F5F5F5F5F5F5F5F5F5F5F5F5F5F5F5F5F5F5F5F5F5F5F5F5F5F5F5F5F5F5F5F5F5F5F5F5F5F5F5F5F5F5F5F5F5F5F5F5F5F5F5F5F5F5F5F5F5F5F5F5F5F5F5F5F5F5F5F5F5F5F5F5F5F5F5F5F5F5F5F5F5E2E2E2F5F5F5F5F5F5F5F5F5F5F5F5F5F5F5F5F5F5F5
310
F5F5F5F5F5F5F5F5F5F5F5F5F5F5F5F5F5F5F5F5F5F5F5F5F5F5F5F5F5F5F5F5F5F5F5F5F5F5F5F5F5F5F5F5F5F5F5F5F5F5F5F5F5F5F5F5F5F5F5F5F5F5F5F5F5F5F5F5F5F5F5F5F5F5F5F5F5F5F5F5F5F5F5F5F5F5F5F5F5F5F5F5F5F5F5F5F5F5F5F5F5F5F5F5F5F5F5F5F5F5F5F5F5F5F5F5F5F5F5F5F5F5F5F5F5F5F5
310
F5F5F5F5F5F5F5F5F5F5F5F5F5F5F5F5F5F5F5F5F5F5F5F5F5F5F5F5F5F5F5E2E2E2F5F5E2F5F5F5F5F5F5F5F5F5F5F5F5F5F5F5F5F5F5F5F5F5F5F5F5F5F5F5F5F5F5F5F5F5F5F5F5F5F5F5F5F5F5F5F5F5F5F5F5F5F5F5F5F5F5F5F5F5F5F5F5F5F5F5F5F5F5F5F5F5F5F5F5F5F5F5F5F5F5F5F5F5F5F5F5F5F5F5F5F5F5
310
F5F5F5F5F5F5F5F5F5F5F5F5F5F5F5F5F5F5F5F5F5F5F5F5F5F5F5F5F5F5F5F5F5F5F5F5F5F5F5F5F5F5F5F5F5F5F5F5F5F5F5F5F5F5F5F5F5F5F5F5F5F5F5F5F5F5F5F5F5F5F5F5F5F5F5F5F5F5F5F5F5E2F5F5E2E2E2F5F5E2F5F5F5F5F5F5F5F5F5F5F5F5F5F5F5F5F5F5F5F5F5F5F5F5F5F5F5F5F5F5F5F5F5F5F5F5F5
310
F5F5F5F5F5F5F5F5F5F5F5F5F5F5F5F5F5F5F5F5F5F5F5F5F5F5F5F5F5F5F5F5F5F5F5F5F5F5F5F5F5F5F5F5F5F5F5F5F5F5F5F5F5F5F5F5F5F5F5F5F5F5F5F5F5F5F5F5F5F5F5F5F5F5F5F5F5F5F5F5F5F5F5F5F5F5F5F5F5F5F5F5F5F5F5F5F5F5F5F5F5F5F5F5F5F5F5F5F5F5F5F5F5F5F5F5F5F5F5F5F5F5F5F5F5F5F5
310
F5F5F5F5F5F5F5E2F5F5E2E2E2F5F5E2F5F5F5F5F5F5F5F5F5F5F5F5F5F5F5F5F5F5F5F5F5F5F5F5F5F5F5F5F5F5F5F5F5F5F5F5F5F5F5F5F5F5F5F5F5F5F5F5F5F5F5F5F5F5F5F5F5F5F5F5F5F5F5F5F5F5F5F5F5F5F5F5F5F5F5F5F5F5F5F5F5F5F5F5F5F5F5F5F5F5F5F5F5F5F5F5F5F5F5F5F5F5F5F5F5F5F5F5F5F5F5
310
F5F5F5F5F5F5F5F5F5F5F5F5F5F5F5F5F5F5F5F5F5F5F5F5F5F5F5F5F5F5F5F5F5F5F5F5F5F5F5F5F5F5F5F5F5F5F5F5F5F5F5F5F5F5F5F5F5F5F5F5E2F5F5E2E2E2F5F5E2F5F5F5F5F5F5F5F5F5F5F5F5F5F5F5F5F5F5F5F5F5F5F5F5F5F5F5F5F5F5F5F5F5F5F5F5F5F5F5F5F5F5F5F5F5F5F5F5F5F5F5F5F5F5F5F5F5F5
310
F5F5F5F5F5F5F5F5F5F5F5F5F5F5F5F5F5F5F5F5F5F5F5F5F5F5F5F5F5F5F5F5F5F5F5F5F5F5F5F5F5F5F5F5F5F5F5F5F5F5F5F5F5F5F5F5F5F5F5F5F5F5F5F5F5F5F5F5F5F5F5F5F5F5F5F5F5F5F5F5F5F5F5F5F5F5F5F5F5F5F5F5F5F5F5F5F5F5F5F5F5F5F5F5F5F5F5F5F5F5F5F5F5E2F5F5E2E2E2F5F5E2F5F5F5F5F5
310
F5F5F5F5F5F5F5F5F5F5F5F5F5F5F5F5F5F5F5F5F5F5F5F5F5F5F5F5F5F5F5F5F5F5F5F5F5F5F5F5F5F5F5F5F5F5F5F5F5F5F5F5F5F5F5F5F5F5F5F5F5F5F5F5F5F5F5F5F5F5F5F5F5F5F5F5F5F5F5F5F5F5F5F5F5F5F5F5F5F5F5F5F5F5F5F5F5F5F5F5F5F5F5F5F5F5F5F5F5F5F5F5F5F5F5F5F5F5F5F5F5F5F5F5F5F5F5
310
F5F5F5F5F5F5F5F5F5F5F5F5F5F5F5F5F5F5F5F5F5F5F5F5F5F5F5F5F5F5F5F5F5F5F5F5F5F5F5E2F5F5E2E2E2F5F5E2F5F5F5F5F5F5F5F5F5F5F5F5F5F5F5F5F5F5F5F5F5F5F5F5F5F5F5F5F5F5F5F5F5F5F5F5F5F5F5F5F5F5F5F5F5F5F5F5F5F5F5F5F5F5F5F5F5F5F5F5F5F5F5F5F5F5F5F5F5F5F5F5F5F5F5F5F5F5F5
310
F5F5F5F5F5F5F5F5F5F5F5F5F5F5F5F5F5F5F5F5F5F5F5F5F5F5F5F5F5F5F5F5F5F5F5F5F5F5F5F5F5F5F5F5F5F5F5F5F5F5F5F5F5F5F5F5F5F5F5F5F5F5F5F5F5F5F5F5F5F5F5F5F5F5F5F5F5F5F5F5F5F5F5F5F5F5F5F5F5F5F5F5E2F5F5E2E2E2F5F5E2F5F5F5F5F5F5F5F5F5F5F5F5F5F5F5F5F5F5F5F5F5F5F5F5F5F5
310
F5F5F5F5F5F5F5F5F5F5F5F5F5F5F5F5F5F5F5F5F5F5F5F5F5F5F5F5F5F5F5F5F5F5F5F5F5F5F5F5F5F5F5F5F5F5F5F5F5F5F5F5F5F5F5F5F5F5F5F5F5F5F5F5F5F5F5F5F5F5F5F5F5F5F5F5F5F5F5F5F5F5F5F5F5F5F5F5F5F5F5F5F5F5F5F5F5F5F5F5F5F5F5F5F5F5F5F5F5F5F5F5F5F5F5F5F5F5F5F5F5F5F5F5F5F5F5
310
F5F5F5F5F5F5F5F5F5F5F5F5F5F5F5F5F5F5E2F5F5E2E2E2F5F5E2F5F5F5F5F5F5F5F5F5F5F5F5F5F5F5F5F5F5F5F5F5F5F5F5F5F5F5F5F5F5F5F5F5F5F5F5F5F5F5F5F5F5F5F5F5F5F5F5F5F5F5F5F5F5F5F5F5F5F5F5F5F5F5F5F5F5F5F5F5F5F5F5F5F5F5F5F5F5F5F5F5F5F5F5F5F5F5F5F5F5F5F5F5F5F5F5F5F5F5F5
310
F5F5F5F5F5F5F5F5F5F5F5F5F5F5F5F5F5F5F5F5F5F5F5F5F5F5F5F5F5F5F5F5F5F5F5F5F5F5F5F5F5F5F5F5F5F5F5F5F5F5F5F5F5F5F5F5F5F5F5F5F5F5F5F5F5F5F5F5F5F5F5E2F5F5E2E2E2F5F5E2F5F5F5F5F5F5F5F5F5F5F5F5F5F5F5F5F5F5F5F5F5F5F5F5F5F5F5F5F5F5F5F5F5F5F5F5F5F5F5F5F5F5F5F5F5F5F5
310
F5F5F5F5F5F5F5F5F5F5F5F5F5F5F5F5F5F5F5F5F5F5F5F5F5F5F5F5F5F5F5F5F5F5F5F5F5F5F5F5F5F5F5F5F5F5F5F5F5F5F5F5F5F5F5F5F5F5F5F5F5F5F5F5F5F5F5F5F5F5F5F5F5F5F5F5F5F5F5F5F5F5F5F5F5F5F5F5F5F5F5F5F5F5F5F5F5F5F5F5F5F5F5F5F5F5F5F5F5F5F5F5F5F5F5F5F5F5F5F5F5F5F5F5E2F5F5
310
E2E2E2F5F5E2F5F5F5F5F5F5F5F5F5F5F5F5F5F5F5F5F5F5F5F5F5F5F5F5F5F5F5F5F5F5F5F5F5F5F5F5F5F5F5F5F5F5F5F5F5F5F5F5F5F5F5F5F5F5F5F5F5F5F5F5F5F5F5F5F5F5F5F5F5F5F5F5F5F5F5F5F5F5F5F5F5F5F5F5F5F5F5F5F5F5F5F5F5F5F5F5F5F5F5F5F5F5F5F5F5F5F5F5F5F5F5F5F5F5F5F5F5F5F5F5F5
310
F5F5F5F5F5F5F5F5F5F5F5F5F5F5F5F5F5F5F5F5F5F5F5F5F5F5F5F5F5F5F5F5F5F5F5F5F5F5F5F5F5F5F5F5F5F5F5F5F5F5E2F5F5E2E2E2F5F5E2F5F5F5F5F5F5F5F5F5F5F5F5F5F5F5F5F5F5F5F5F5F5F5F5F5F5F5F5F5F5F5F5F5F5F5F5F5F5F5F5F5F5F5F5F5F5F5F5F5F5F5F5F5F5F5F5F5F5F5F5F5F5F5F5F5F5F5F5
310
F5F5F5F5F5F5F5F5F5F5F5F5F5F5F5F5F5F5F5F5F5F5F5F5F5F5F5F5F5F5F5F5F5F5F5F5F5F5F5F5F5F5F5F5F5F5F5F5F5F5F5F5F5F5F5F5F5F5F5F5F5F5F5F5F5F5F5F5F5F5F5F5F5F5F5F5F5F5F5F5F5F5F5F5F5F5F5F5F5F5F5F5F5F5F5F5F5F5F5F5F5F5F5E2F5F5E2E2E2F5F5E2F5F5F5F5F5F5F5F5F5F5F5F5F5F5F5
310
F5F5F5F5F5F5F5F5F5F5F5F5F5F5F5F5F5F5F5F5F5F5F5F5F5F5F5F5F5F5F5F5F5F5F5F5F5F5F5F5F5F5F5F5F5F5F5F5F5F5F5F5F5F5F5F5F5F5F5F5F5F5F5F5F5F5F5F5F5F5F5F5F5F5F5F5F5F5F5F5F5F5F5F5F5F5F5F5F5F5F5F5F5F5F5F5F5F5F5F5F5F5F5F5F5F5F5F5F5F5F5F5F5F5F5F5F5F5F5F5F5F5F5F5F5F5F5
310
F5F5F5F5F5F5F5F5F5F5F5F5F5F5F5F5F5F5F5F5F5F5F5F5F5F5F5F5F5E2F5F5E2E2E2F5F5E2F5F5F5F5F5F5F5F5F5F5F5F5F5F5F5F5F5F5F5F5F5F5F5F5F5F5F5F5F5F5F5F5F5F5F5F5F5F5F5F5F5F5F5F5F5F5F5F5F5F5F5F5F5F5F5F5F5F5F5F5F5F5F5F5F5F5F5F5F5F5F5F5F5F5F5F5F5F5F5F5F5F5F5F5F5F5F5F5F5
310
F5F5F5F5F5F5F5F5F5F5F5F5F5F5F5F5F5F5F5F5F5F5F5F5F5F5F5F5F5F5F5F5F5F5F5F5F5F5F5F5F5F5F5F5F5F5F5F5F5F5F5F5F5F5F5F5F5F5F5F5F5F5F5F5F5F5F5F5F5F5F5F5F5F5F5F5F5F5F5F5F5F5E2F5F5E2E2E2F5F5E2F5F5F5F5F5F5F5F5F5F5F5F5F5F5F5F5F5F5F5F5F5F5F5F5F5F5F5F5F5F5F5F5F5F5F5F5
310
F5F5F5F5F5F5F5F5F5F5F5F5F5F5F5F5F5F5F5F5F5F5F5F5F5F5F5F5F5F5F5F5F5F5F5F5F5F5F5F5F5F5F5F5F5F5F5F5F5F5F5F5F5F5F5F5F5F5F5F5F5F5F5F5F5F5F5F5F5F5F5F5F5F5F5F5F5F5F5F5F5F5F5F5F5F5F5F5F5F5F5F5F5F5F5F5F5F5F5F5F5F5F5F5F5F5F5F5F5F5F5F5F5F5F5F5F5F5F5F5F5F5F5F5F5F5F5
310
F5F5F5F5F5F5F5F5E2F5F5E2E2E2F5F5E2F5F5F5F5F5F5F5F5F5F5F5F5F5F5F5F5F5F5F5F5F5F5F5F5F5F5F5F5F5F5F5F5F5F5F5F5F5F5F5F5F5F5F5F5F5F5F5F5F5F5F5F5F5F5F5F5F5F5F5F5F5F5F5F5F5F5F5F5F5F5F5F5F5F5F5F5F5F5F5F5F5F5F5F5F5F5F5F5F5F5F5F5F5F5F5F5F5F5F5F5F5F5F5F5F5F5F5F5F5F5
310
F5F5F5F5F5F5F5F5F5F5F5F5F5F5F5F5F5F5F5F5F5F5F5F5F5F5F5F5F5F5F5F5F5F5F5F5F5F5F5F5F5F5F5F5F5F5F5F5F5F5F5F5F5F5F5F5F5F5F5F5F5E2F5F5E2E2E2F5F5E2F5F5F5F5F5F5F5F5F5F5F5F5F5F5F5F5F5F5F5F5F5F5F5F5F5F5F5F5F5F5F5F5F5F5F5F5F5F5F5F5F5F5F5F5F5F5F5F5F5F5F5F5F5F5F5F5F5
310
F5F5F5F5F5F5F5F5F5F5F5F5F5F5F5F5F5F5F5F5F5F5F5F5F5F5F5F5F5F5F5F5F5F5F5F5F5F5F5F5F5F5F5F5F5F5F5F5F5F5F5F5F5F5F5F5F5F5F5F5F5F5F5F5F5F5F5F5F5F5F5F5F5F5F5F5F5F5F5F5F5F5F5F5F5F5F5F5F5F5F5F5F5F5F5F5F5F5F5F5F5F5F5F5F5F5F5F5F5F5F5F5F5F5E2F5F5E2E2E2F5F5E2F5F5F5F5
310
F5F5F5F5F5F5F5F5F5F5F5F5F5F5F5F5F5F5F5F5F5F5F5F5F5F5F5F5F5F5F5F5F5F5F5F5F5F5F5F5F5F5F5F5F5F5F5F5F5F5F5F5F5F5F5F5F5F5F5F5F5F5F5F5F5F5F5F5F5F5F5F5F5F5F5F5F5F5F5F5F5F5F5F5F5F5F5F5F5F5F5F5F5F5F5F5F5F5F5F5F5F5F5F5F5F5F5F5F5F5F5F5F5F5F5F5F5F5F5F5F5F5F5F5F5F5F5
310
F5F5F5F5F5F5F5F5F5F5F5F5F5F5F5F5F5F5F5F5F5F5F5F5F5F5F5F5F5F5F5F5F5F5F5F5F5F5F5F5E2F5F5E2E2E2F5F5F5F5F5F5F5F5F5F5F5F5F5F5F5F5F5F5F5F5F5F5F5F5F5F5F5F5F5F5F5F5F5F5F5F5F5F5F5F5F5F5F5F5F5F5F5F5F5F5F5F5F5F5F5F5F5F5F5F5F5F5F5F5F5F5F5F5F5F5F5F5F5F5F5F5F5F5F5F5F5
310
F5F5F5F5F5F5F5F5F5F5F5F5F5F5F5F5F5F5F5F5F5F5F5F5F5F5F5F5F5F5F5F5F5F5F5F5F5F5F5F5F5F5F5F5F5F5F5F5F5F5F5F5F5F5F5F5F5F5F5F5F5F5F5F5F5F5F5F5F5F5F5F5F5F5F5F5F5F5F5F5F5F5F5F5F5F5F5F5F5F5F5F5F5F5F5F5E2E2E2F5F5F5F5F5F5F5F5F5F5F5F5F5F5F5F5F5F5F5F5F5F5F5F5F5F5F5F5
310
F5F5F5F5F5F5F5F5F5F5F5F5F5F5F5F5F5F5F5F5F5F5F5F5F5F5F5F5F5F5F5F5F5F5F5F5F5F5F5F5F5F5F5F5F5F5F5F5F5F5F5F5F5F5F5F5F5F5F5F5F5F5F5F5F5F5F5F5F5F5F5F5F5F5F5F5F5F5F5F5F5F5F5F5F5F5F5F5F5F5F5F5F5F5F5F5F5F5F5F5F5F5F5F5F5F5F5F5F5F5F5F5F5F5F5F5F5F5F5F5F5F5F5F5F5F5F5
310
F5F5F5F5F5F5F5F5F5F5F5F5F5F5F5F5F5F5F5F5F5F5E2E2E2F5F5F5F5F5F5F5F5F5F5F5F5F5F5F5F5F5F5F5F5F5F5F5F5F5F5F5F5F5F5F5F5F5F5F5F5F5F5F5F5F5F5F5F5F5F5F5F5F5F5F5F5F5F5F5F5F5F5F5F5F5F5F5F5F5F5F5F5F5F5F5F5F5F5F5F5F5F5F5F5F5F5F5F5F5F5F5F5F5F5F5F5F5F5F5F5F5F5F5F5F5F5
310
F5F5F5F5F5F5F5F5F5F5F5F5F5F5F5F5F5F5F5F5F5F5F5F5F5F5F5F5F5F5F5F5F5F5F5F5F5F5F5F5F5F5F5F5F5F5F5F5F5F5F5F5F5F5F5F5F5F5F5F5F5F5F5F5F5F5F5F5F5F5F5F5F5F5F5E2E2E2F5F5F5F5F5F5F5F5F5F5F5F5F5F5F5F5F5F5F5F5F5F5F5F5F5F5F5F5F5F5F5F5F5F5F5F5F5F5F5F5F5F5F5F5F5F5F5F5F5
310
F5F5F5F5F5F5F5F5F5F5F5F5F5F5F5F5F5F5F5F5F5F5F5F5F5F5F5F5F5F5F5F5F5F5F5F5F5F5F5F5F5F5F5F5F5F5F5F5F5F5F5F5F5F5F5F5F5F5F5F5F5F5F5F5F5F5F5F5F5F5F5F5F5F5F5F5F5F5F5F5F5F5F5F5F5F5F5F5F5F5F5F5F5F5F5F5F5F5F5F5F5F5F5F5F5F5F5F5F5F5F5F5F5F5F5F5F5F5F5F5F5F5F5F5F5F5F5
310
F5E2E2E2F5F5F5F5F5F5F5F5F5F5F5F5F5F5F5F5F5F5F5F5F5F5F5F5F5F5F5F5F5F5F5F5F5F5F5F5F5F5F5F5F5F5F5F5F5F5F5F5F5F5F5F5F5F5F5F5F5F5F5F5F5F5F5F5F5F5F5F5F5F5F5F5F5F5F5F5F5F5F5F5F5F5F5F5F5F5F5F5F5F5F5F5F5F5F5F5F5F5F5F5F5F5F5F5F5F5F5F5F5F5F5F5F5F5F5F5F5F5F5F5F5F5F5
310
F5F5F5F5F5F5F5F5F5F5F5F5F5F5F5F5F5F5F5F5F5F5F5F5F5F5F5F5F5F5F5F5F5F5F5F5F5F5F5F5F5F5F5F5F5F5F5F5F5F5F5F5F5F5E2E2E2F5F5F5F5F5F5F5F5F5F5F5F5F5F5F5F5F5F5F5F5F5F5F5F5F5F5F5F5F5F5F5F5F5F5F5F5F5F5F5F5F5F5F5F5F5F5F5F5F5F5F5F5F5F5F5F5F5F5F5F5F5F5F5F5F5F5F5F5F5F5
310
F5F5F5F5F5F5F5F5F5F5F5F5F5F5F5F5F5F5F5F5F5F5F5F5F5F5F5F5F5F5F5F5F5F5F5F5F5F5F5F5F5F5F5F5F5F5F5F5F5F5F5F5F5F5F5F5F5F5F5F5F5F5F5F5F5F5F5F5F5F5F5F5F5F5F5F5F5F5F5F5F5F5F5F5F5F5F5F5F5F5F5F5F5F5F5F5F5F5F5F5F5F5F5F5F5F5F5E2E2E2F5F5F5F5F5F5F5F5F5F5F5F5F5F5F5F5F5
310
F5F5F5F5F5F5F5F5F5F5F5F5F5F5F5F5F5F5F5F5F5F5F5F5F5F5F5F5F5F5F5F5F5F5F5F5F5F5F5F5F5F5F5F5F5F5F5F5F5F5F5F5F5F5F5F5F5F5F5F5F5F5F5F5F5F5F5F5F5F5F5F5F5F5F5F5F5F5F5F5F5F5F5F5F5F5F5F5F5F5F5F5F5F5F5F5F5F5F5F5F5F5F5F5F5F5F5F5F5F5F5F5F5F5F5F5F5F5F5F5F5F5F5F5F5F5F5
310
F5F5F5F5F5F5F5F5F5F5F5F5F5F5F5F5F5F5F5F5F5F5F5F5F5F5F5F5F5F5F5F5F5E2E2E2F5F5F5F5F5F5F5F5F5F5F5F5F5F5F5F5F5F5F5F5F5F5F5F5F5F5F5F5F5F5F5F5F5F5F5F5F5F5F5F5F5F5F5F5F5F5F5F5F5F5F5F5F5F5F5F5F5F5F5F5F5F5F5F5F5F5F5F5F5F5F5F5F5F5F5F5F5F5F5F5F5F5F5F5F5F5F5F5F5F5F5
310
F5F5F5F5F5F5F5F5F5F5F5F5F5F5F5F5F5F5F5F5F5F5F5F5F5F5F5F5F5F5F5F5F5F5F5F5F5F5F5F5F5F5F5F5F5F5F5F5F5F5F5F5F5F5F5F5F5F5F5F5F5F5F5F5F5F5F5F5F5F5F5F5F5F5F5F5F5F5F5F5F5F5F5F5F5F5E2E2E2F5F5F5F5F5F5F5F5F5F5F5F5F5F5F5F5F5F5F5F5F5F5F5F5F5F5F5F5F5F5F5F5F5F5F5F5F5F5
310
F5F5F5F5F5F5F5F5F5F5F5F5F5F5F5F5F5F5F5F5F5F5F5F5F5F5F5F5F5F5F5F5F5F5F5F5F5F5F5F5F5F5F5F5F5F5F5F5F5F5F5F5F5F5F5F5F5F5F5F5F5F5F5F5F5F5F5F5F5F5F5F5F5F5F5F5F5F5F5F5F5F5F5F5F5F5F5F5F5F5F5F5F5F5F5F5F5F5F5F5F5F5F5F5F5F5F5F5F5F5F5F5F5F5F5F5F5F5F5F5F5F5F5F5F5F5F5
310
F5F5F5F5F5F5F5F5F5F5F5F5E2E2E2F5F5E2F5F5F5F5F5F5F5F5F5F5F5F5F5F5F5F5F5F5F5F5F5F5F5F5F5F5F5F5F5F5F5F5F5F5F5F5F5F5F5F5F5F5F5F5F5F5F5F5F5F5F5F5F5F5F5F5F5F5F5F5F5F5F5F5F5F5F5F5F5F5F5F5F5F5F5F5F5F5F5F5F5F5F5F5F5F5F5F5F5F5F5F5F5F5F5F5F5F5F5F5F5F5F5F5F5F5F5F5F5
310
F5F5F5F5F5F5F5F5F5F5F5F5F5F5F5F5F5F5F5F5F5F5F5F5F5F5F5F5F5F5F5F5F5F5F5F5F5F5F5F5F5F5F5F5F5F5F5F5F5F5F5F5F5F5F5F5F5F5F5F5F5F5E2F5F5E2E2E2F5F5E2F5F5F5F5F5F5F5F5F5F5F5F5F5F5F5F5F5F5F5F5F5F5F5F5F5F5F5F5F5F5F5F5F5F5F5F5F5F5F5F5F5F5F5F5F5F5F5F5F5F5F5F5F5F5F5F5
310
F5F5F5F5F5F5F5F5F5F5F5F5F5F5F5F5F5F5F5F5F5F5F5F5F5F5F5F5F5F5F5F5F5F5F5F5F5F5F5F5F5F5F5F5F5F5F5F5F5F5F5F5F5F5F5F5F5F5F5F5F5F5F5F5F5F5F5F5F5F5F5F5F5F5F5F5F5F5F5F5F5F5F5F5F5F5F5F5F5F5F5F5F5F5F5F5F5F5F5F5F5F5F5F5F5F5F5F5F5F5F5F5F5F5F5E2F5F5E2E2E2F5F5E2F5F5F5
310
F5F5F5F5F5F5F5F5F5F5F5F5F5F5F5F5F5F5F5F5F5F5F5F5F5F5F5F5F5F5F5F5F5F5F5F5F5F5F5F5F5F5F5F5F5F5F5F5F5F5F5F5F5F5F5F5F5F5F5F5F5F5F5F5F5F5F5F5F5F5F5F5F5F5F5F5F5F5F5F5F5F5F5F5F5F5F5F5F5F5F5F5F5F5F5F5F5F5F5F5F5F5F5F5F5F5F5F5F5F5F5F5F5F5F5F5F5F5F5F5F5F5F5F5F5F5F5
310
F5F5F5F5F5F5F5F5F5F5F5F5F5F5F5F5F5F5F5F5F5F5F5F5F5F5F5F5F5F5F5F5F5F5F5F5F5F5F5F5F5E2F5F5E2E2E2F5F5E2F5F5F5F5F5F5F5F5F5F5F5F5F5F5F5F5F5F5F5F5F5F5F5F5F5F5F5F5F5F5F5F5F5F5F5F5F5F5F5F5F5F5F5F5F5F5F5F5F5F5F5F5F5F5F5F5F5F5F5F5F5F5F5F5F5F5F5F5F5F5F5F5F5F5F5F5F5
310
F5F5F5F5F5F5F5F5F5F5F5F5F5F5F5F5F5F5F5F5F5F5F5F5F5F5F5F5F5F5F5F5F5F5F5F5F5F5F5F5F5F5F5F5F5F5F5F5F5F5F5F5F5F5F5F5F5F5F5F5F5F5F5F5F5F5F5F5F5F5F5F5F5F5F5F5F5F5F5F5F5F5F5F5F5F5F5F5F5F5F5F5F5F5E2F5F5E2E2E2F5F5E2F5F5F5F5F5F5F5F5F5F5F5F5F5F5F5F5F5F5F5F5F5F5F5F5
310
F5F5F5F5F5F5F5F5F5F5F5F5F5F5F5F5F5F5F5F5F5F5F5F5F5F5F5F5F5F5F5F5F5F5F5F5F5F5F5F5F5F5F5F5F5F5F5F5F5F5F5F5F5F5F5F5F5F5F5F5F5F5F5F5F5F5F5F5F5F5F5F5F5F5F5F5F5F5F5F5F5F5F5F5F5F5F5F5F5F5F5F5F5F5F5F5F5F5F5F5F5F5F5F5F5F5F5F5F5F5F5F5F5F5F5F5F5F5F5F5F5F5F5F5F5F5F5
310
F5F5F5F5F5F5F5F5F5F5F5F5F5F5F5F5F5F5F5F5E2F5F5E2E2E2F5F5E2F5F5F5F5F5F5F5F5F5F5F5F5F5F5F5F5F5F5F5F5F5F5F5F5F5F5F5F5F5F5F5F5F5F5F5F5F5F5F5F5F5F5F5F5F5F5F5F5F5F5F5F5F5F5F5F5F5F5F5F5F5F5F5F5F5F5F5F5F5F5F5F5F5F5F5F5F5F5F5F5F5F5F5F5F5F5F5F5F5F5F5F5F5F5F5F5F5F5
310
F5F5F5F5F5F5F5F5F5F5F5F5F5F5F5F5F5F5F5F5F5F5F5F5F5F5F5F5F5F5F5F5F5F5F5F5F5F5F5F5F5F5F5F5F5F5F5F5F5F5F5F5F5F5F5F5F5F5F5F5F5F5F5F5F5F5F5F5F5F5F5F5F5E2F5F5E2E2E2F5F5E2F5F5F5F5F5F5F5F5F5F5F5F5F5F5F5F5F5F5F5F5F5F5F5F5F5F5F5F5F5F5F5F5F5F5F5F5F5F5F5F5F5F5F5F5F5
310
F5F5F5F5F5F5F5F5F5F5F5F5F5F5F5F5F5F5F5F5F5F5F5F5F5F5F5F5F5F5F5F5F5F5F5F5F5F5F5F5F5F5F5F5F5F5F5F5F5F5F5F5F5F5F5F5F5F5F5F5F5F5F5F5F5F5F5F5F5F5F5F5F5F5F5F5F5F5F5F5F5F5F5F5F5F5F5F5F5F5F5F5F5F5F5F5F5F5F5F5F5F5F5F5F5F5F5F5F5F5F5F5F5F5F5F5F5F5F5F5F5F5F5F5F5F5E2
310
F5F5E2E2E2F5F5E2F5F5F5F5F5F5F5F5F5F5F5F5F5F5F5F5F5F5F5F5F5F5F5F5F5F5F5F5F5F5F5F5F5F5F5F5F5F5F5F5F5F5F5F5F5F5F5F5F5F5F5F5F5F5F5F5F5F5F5F5F5F5F5F5F5F5F5F5F5F5F5F5F5F5F5F5F5F5F5F5F5F5F5F5F5F5F5F5F5F5F5F5F5F5F5F5F5F5F5F5F5F5F5F5F5F5F5F5F5F5F5F5F5F5F5F5F5F5F5
310
F5F5F5F5F5F5F5F5F5F5F5F5F5F5F5F5F5F5F5F5F5F5F5F5F5F5F5F5F5F5F5F5F5F5F5F5F5F5F5F5F5F5F5F5F5F5F5F5F5F5F5F5E2F5F5E2E2E2F5F5E2F5F5F5F5F5F5F5F5F5F5F5F5F5F5F5F5F5F5F5F5F5F5F5F5F5F5F5F5F5F5F5F5F5F5F5F5F5F5F5F5F5F5F5F5F5F5F5F5F5F5F5F5F5F5F5F5F5F5F5F5F5F5F5F5F5F5
310
F5F5F5F5F5F5F5F5F5F5F5F5F5F5F5F5F5F5F5F5F5F5F5F5F5F5F5F5F5F5F5F5F5F5F5F5F5F5F5F5F5F5F5F5F5F5F5F5F5F5F5F5F5F5F5F5F5F5F5F5F5F5F5F5F5F5F5F5F5F5F5F5F5F5F5F5F5F5F5F5F5F5F5F5F5F5F5F5F5F5F5F5F5F5F5F5F5F5F5F5F5F5F5F5F5E2F5F5E2E2E2F5F5E2F5F5F5F5F5F5F5F5F5F5F5F5F5
310
F5F5F5F5F5F5F5F5F5F5F5F5F5F5F5F5F5F5F5F5F5F5F5F5F5F5F5F5F5F5F5F5F5F5F5F5F5F5F5F5F5F5F5F5F5F5F5F5F5F5F5F5F5F5F5F5F5F5F5F5F5F5F5F5F5F5F5F5F5F5F5F5F5F5F5F5F5F5F5F5F5F5F5F5F5F5F5F5F5F5F5F5F5F5F5F5F5F5F5F5F5F5F5F5F5F5F5F5F5F5F5F5F5F5F5F5F5F5F5F5F5F5F5F5F5F5F5
310
F5F5F5F5F5F5F5F5F5F5F5F5F5F5F5F5F5F5F5F5F5F5F5F5F5F5F5F5F5F5F5E2F5F5E2E2E2F5F5E2F5F5F5F5F5F5F5F5F5F5F5F5F5F5F5F5F5F5F5F5F5F5F5F5F5F5F5F5F5F5F5F5F5F5F5F5F5F5F5F5F5F5F5F5F5F5F5F5F5F5F5F5F5F5F5F5F5F5F5F5F5F5F5F5F5F5F5F5F5F5F5F5F5F5F5F5F5F5F5F5F5F5F5F5F5F5F5
310
F5F5F5F5F5F5F5F5F5F5F5F5F5F5F5F5F5F5F5F5F5F5F5F5F5F5F5F5F5F5F5F5F5F5F5F5F5F5F5F5F5F5F5F5F5F5F5F5F5F5F5F5F5F5F5F5F5F5F5F5F5F5F5F5F5F5F5F5F5F5F5F5F5F5F5F5F5F5F5F5F5F5F5F5E2F5F5E2E2E2F5F5E2F5F5F5F5F5F5F5F5F5F5F5F5F5F5F5F5F5F5F5F5F5F5F5F5F5F5F5F5F5F5F5F5F5F5
310
F5F5F5F5F5F5F5F5F5F5F5F5F5F5F5F5F5F5F5F5F5F5F5F5F5F5F5F5F5F5F5F5F5F5F5F5F5F5F5F5F5F5F5F5F5F5F5F5F5F5F5F5F5F5F5F5F5F5F5F5F5F5F5F5F5F5F5F5F5F5F5F5F5F5F5F5F5F5F5F5F5F5F5F5F5F5F5F5F5F5F5F5F5F5F5F5F5F5F5F5F5F5F5F5F5F5F5F5F5F5F5F5F5F5F5F5F5F5F5F5F5F5F5F5F5F5F5
310
F5F5F5F5F5F5F5F5F5F5E2F5F5E2E2E2F5F5E2F5F5F5F5F5F5F5F5F5F5F5F5F5F5F5F5F5F5F5F5F5F5F5F5F5F5F5F5F5F5F5F5F5F5F5F5F5F5F5F5F5F5F5F5F5F5F5F5F5F5F5F5F5F5F5F5F5F5F5F5F5F5F5F5F5F5F5F5F5F5F5F5F5F5F5F5F5F5F5F5F5F5F5F5F5F5F5F5F5F5F5F5F5F5F5F5F5F5F5F5F5F5F5F5F5F5F5F5
310
F5F5F5F5F5F5F5F5F5F5F5F5F5F5F5F5F5F5F5F5F5F5F5F5F5F5F5F5F5F5F5F5F5F5F5F5F5F5F5F5F5F5F5F5F5F5F5F5F5F5F5F5F5F5F5F5F5F5F5F5F5F5F5E2F5F5E2E2E2F5F5E2F5F5F5F5F5F5F5F5F5F5F5F5F5F5F5F5F5F5F5F5F5F5F5F5F5F5F5F5F5F5F5F5F5F5F5F5F5F5F5F5F5F5F5F5F5F5F5F5F5F5F5F5F5F5F5
310
F5F5F5F5F5F5F5F5F5F5F5F5F5F5F5F5F5F5F5F5F5F5F5F5F5F5F5F5F5F5F5F5F5F5F5F5F5F5F5F5F5F5F5F5F5F5F5F5F5F5F5F5F5F5F5F5F5F5F5F5F5F5F5F5F5F5F5F5F5F5F5F5F5F5F5F5F5F5F5F5F5F5F5F5F5F5F5F5F5F5F5F5F5F5F5F5F5F5F5F5F5F5F5F5F5F5F5F5F5F5F5F5F5F5F5F5E2F5F5E2E2E2F5F5E2F5F5
310
F5F5F5F5F5F5F5F5F5F5F5F5F5F5F5F5F5F5F5F5F5F5F5F5F5F5F5F5F5F5F5F5F5F5F5F5F5F5F5F5F5F5F5F5F5F5F5F5F5F5F5F5F5F5F5F5F5F5F5F5F5F5F5F5F5F5F5F5F5F5F5F5F5F5F5F5F5F5F5F5F5F5F5F5F5F5F5F5F5F5F5F5F5F5F5F5F5F5F5F5F5F5F5F5F5F5F5F5F5F5F5F5F5F5F5F5F5F5F5F5F5F5F5F5F5F5F5
310
F5F5F5F5F5F5F5F5F5F5F5F5F5F5F5F5F5F5F5F5F5F5F5F5F5F5F5F5F5F5F5F5F5F5F5F5F5F5F5F5F5F5E2F5F5E2E2E2F5F5E2F5F5F5F5F5F5F5F5F5F5F5F5F5F5F5F5F5F5F5F5F5F5F5F5F5F5F5F5F5F5F5F5F5F5F5F5F5F5F5F5F5F5F5F5F5F5F5F5F5F5F5F5F5F5F5F5F5F5F5F5F5F5F5F5F5F5F5F5F5F5F5F5F5F5F5F5
310
F5F5F5F5F5F5F5F5F5F5F5F5F5F5F5F5F5F5F5F5F5F5F5F5F5F5F5F5F5F5F5F5F5F5F5F5F5F5F5F5F5F5F5F5F5F5F5F5F5F5F5F5F5F5F5F5F5F5F5F5F5F5F5F5F5F5F5F5F5F5F5F5F5F5F5F5F5F5F5F5F5F5F5F5F5F5F5F5F5F5F5F5F5F5F5E2F5F5E2E2E2F5F5E2F5F5F5F5F5F5F5F5F5F5F5F5F5F5F5F5F5F5F5F5F5F5F5
310
F5F5F5F5F5F5F5F5F5F5F5F5F5F5F5F5F5F5F5F5F5F5F5F5F5F5F5F5F5F5F5F5F5F5F5F5F5F5F5F5F5F5F5F5F5F5F5F5F5F5F5F5F5F5F5F5F5F5F5F5F5F5F5F5F5F5F5F5F5F5F5F5F5F5F5F5F5F5F5F5F5F5F5F5F5F5F5F5F5F5F5F5F5F5F5F5F5F5F5F5F5F5F5F5F5F5F5F5F5F5F5F5F5F5F5F5F5F5F5F5F5F5F5F5F5F5F5
310
F5F5F5F5F5F5F5F5F5F5F5F5F5F5F5F5F5F5F5F5F5E2F5F5E2E2E2F5F5F5F5F5F5F5F5F5F5F5F5F5F5F5F5F5F5F5F5F5F5F5F5F5F5F5F5F5F5F5F5F5F5F5F5F5F5F5F5F5F5F5F5F5F5F5F5F5F5F5F5F5F5F5F5F5F5F5F5F5F5F5F5F5F5F5F5F5F5F5F5F5F5F5F5F5F5F5F5F5F5F5F5F5F5F5F5F5F5F5F5F5F5F5F5F5F5F5F5
310
F5F5F5F5F5F5F5F5F5F5F5F5F5F5F5F5F5F5F5F5F5F5F5F5F5F5F5F5F5F5F5F5F5F5F5F5F5F5F5F5F5F5F5F5F5F5F5F5F5F5F5F5F5F5F5F5F5F5F5F5F5F5F5F5F5F5F5F5F5F5F5F5F5F5F5F5F5E2E2E2F5F5F5F5F5F5F5F5F5F5F5F5F5F5F5F5F5F5F5F5F5F5F5F5F5F5F5F5F5F5F5F5F5F5F5F5F5F5F5F5F5F5F5F5F5F5F5
310
F5F5F5F5F5F5F5F5F5F5F5F5F5F5F5F5F5F5F5F5F5F5F5F5F5F5F5F5F5F5F5F5F5F5F5F5F5F5F5F5F5F5F5F5F5F5F5F5F5F5F5F5F5F5F5F5F5F5F5F5F5F5F5F5F5F5F5F5F5F5F5F5F5F5F5F5F5F5F5F5F5F5F5F5F5F5F5F5F5F5F5F5F5F5F5F5F5F5F5F5F5F5F5F5F5F5F5F5F5F5F5F5F5F5F5F5F5F5F5F5F5F5F5F5F5F5F5
310
F5F5F5E2E2E2F5F5F5F5F5F5F5F5F5F5F5F5F5F5F5F5F5F5F5F5F5F5F5F5F5F5F5F5F5F5F5F5F5F5F5F5F5F5F5F5F5F5F5F5F5F5F5F5F5F5F5F5F5F5F5F5F5F5F5F5F5F5F5F5F5F5F5F5F5F5F5F5F5F5F5F5F5F5F5F5F5F5F5F5F5F5F5F5F5F5F5F5F5F5F5F5F5F5F5F5F5F5F5F5F5F5F5F5F5F5F5F5F5F5F5F5F5F5F5F5F5
310
F5F5F5F5F5F5F5F5F5F5F5F5F5F5F5F5F5F5F5F5F5F5F5F5F5F5F5F5F5F5F5F5F5F5F5F5F5F5F5F5F5F5F5F5F5F5F5F5F5F5F5F5F5F5F5F5E2E2E2F5F5F5F5F5F5F5F5F5F5F5F5F5F5F5F5F5F5F5F5F5F5F5F5F5F5F5F5F5F5F5F5F5F5F5F5F5F5F5F5F5F5F5F5F5F5F5F5F5F5F5F5F5F5F5F5F5F5F5F5F5F5F5F5F5F5F5F5
310
F5F5F5F5F5F5F5F5F5F5F5F5F5F5F5F5F5F5F5F5F5F5F5F5F5F5F5F5F5F5F5F5F5F5F5F5F5F5F5F5F5F5F5F5F5F5F5F5F5F5F5F5F5F5F5F5F5F5F5F5F5F5F5F5F5F5F5F5F5F5F5F5F5F5F5F5F5F5F5F5F5F5F5F5F5F5F5F5F5F5F5F5F5F5F5F5F5F5F5F5F5F5F5F5F5F5F5F5F5E2E2E2F5F5F5F5F5F5F5F5F5F5F5F5F5F5F5
310
F5F5F5F5F5F5F5F5F5F5F5F5F5F5F5F5F5F5F5F5F5F5F5F5F5F5F5F5F5F5F5F5F5F5F5F5F5F5F5F5F5F5F5F5F5F5F5F5F5F5F5F5F5F5F5F5F5F5F5F5F5F5F5F5F5F5F5F5F5F5F5F5F5F5F5F5F5F5F5F5F5F5F5F5F5F5F5F5F5F5F5F5F5F5F5F5F5F5F5F5F5F5F5F5F5F5F5F5F5F5F5F5F5F5F5F5F5F5F5F5F5F5F5F5F5F5F5
310
F5F5F5F5F5F5F5F5F5F5F5F5F5F5F5F5F5F5F5F5F5F5F5F5F5F5F5F5F5F5F5F5F5F5F5E2E2E2F5F5F5F5F5F5F5F5F5F5F5F5F5F5F5F5F5F5F5F5F5F5F5F5F5F5F5F5F5F5F5F5F5F5F5F5F5F5F5F5F5F5F5F5F5F5F5F5F5F5F5F5F5F5F5F5F5F5F5F5F5F5F5F5F5F5F5F5F5F5F5F5F5F5F5F5F5F5F5F5F5F5F5F5F5F5F5F5F5
310
F5F5F5F5F5F5F5F5F5F5F5F5F5F5F5F5F5F5F5F5F5F5F5F5F5F5F5F5F5F5F5F5F5F5F5F5F5F5F5F5F5F5F5F5F5F5F5F5F5F5F5F5F5F5F5F5F5F5F5F5F5F5F5F5F5F5F5F5F5F5F5F5F5F5F5F5F5F5F5F5F5F5F5F5F5F5F5F5E2E2E2F5F5F5F5F5F5F5F5F5F5F5F5F5F5F5F5F5F5F5F5F5F5F5F5F5F5F5F5F5F5F5F5F5F5F5F5
310
F5F5F5F5F5F5F5F5F5F5F5F5F5F5F5F5F5F5F5F5F5F5F5F5F5F5F5F5F5F5F5F5F5F5F5F5F5F5F5F5F5F5F5F5F5F5F5F5F5F5F5F5F5F5F5F5F5F5F5F5F5F5F5F5F5F5F5F5F5F5F5F5F5F5F5F5F5F5F5F5F5F5F5F5F5F5F5F5F5F5F5F5F5F5F5F5F5F5F5F5F5F5F5F5F5F5F5F5F5F5F5F5F5F5F5F5F5F5F5F5F5F5F5F5F5F5F5
310
F5F5F5F5F5F5F5F5F5F5F5F5F5F5E2E2E2F5F5F5F5F5F5F5F5F5F5F5F5F5F5F5F5F5F5F5F5F5F5F5F5F5F5F5F5F5F5F5F5F5F5F5F5F5F5F5F5F5F5F5F5F5F5F5F5F5F5F5F5F5F5F5F5F5F5F5F5F5F5F5F5F5F5F5F5F5F5F5F5F5F5F5F5F5F5F5F5F5F5F5F5F5F5F5F5F5F5F5F5F5F5F5F5F5F5F5F5F5F5F5F5F5F5F5F5F5F5
310
F5F5F5F5F5F5F5F5F5F5F5F5F5F5F5F5F5F5F5F5F5F5F5F5F5F5F5F5F5F5F5F5F5F5F5F5F5F5F5F5F5F5F5F5F5F5F5F5F5F5F5F5F5F5F5F5F5F5F5F5F5F5F5F5F5F5F5E2E2E2F5F5F5F5F5F5F5F5F5F5F5F5F5F5F5F5F5F5F5F5F5F5F5F5F5F5F5F5F5F5F5F5F5F5F5F5F5F5F5F5F5F5F5F5F5F5F5F5F5F5F5F5F5F5F5F5F5
310
F5F5F5F5F5F5F5F5F5F5F5F5F5F5F5F5F5F5F5F5F5F5F5F5F5F5F5F5F5F5F5F5F5F5F5F5F5F5F5F5F5F5F5F5F5F5F5F5F5F5F5F5F5F5F5F5F5F5F5F5F5F5F5F5F5F5F5F5F5F5F5F5F5F5F5F5F5F5F5F5F5F5F5F5F5F5F5F5F5F5F5F5F5F5F5F5F5F5F5F5F5F5F5F5F5F5F5F5F5F5F5F5F5F5F5F5F5F5F5F5E2E2E2F5F5E2F5
310
F5F5F5F5F5F5F5F5F5F5F5F5F5F5F5F5F5F5F5F5F5F5F5F5F5F5F5F5F5F5F5F5F5F5F5F5F5F5F5F5F5F5F5F5F5F5F5F5F5F5F5F5F5F5F5F5F5F5F5F5F5F5F5F5F5F5F5F5F5F5F5F5F5F5F5F5F5F5F5F5F5F5F5F5F5F5F5F5F5F5F5F5F5F5F5F5F5F5F5F5F5F5F5F5F5F5F5F5F5F5F5F5F5F5F5F5F5F5F5F5F5F5F5F5F5F5F5
310
F5F5F5F5F5F5F5F5F5F5F5F5F5F5F5F5F5F5F5F5F5F5F5F5F5F5F5F5F5F5F5F5F5F5F5F5F5F5F5F5F5F5F5E2F5F5E2E2E2F5F5E2F5F5F5F5F5F5F5F5F5F5F5F5F5F5F5F5F5F5F5F5F5F5F5F5F5F5F5F5F5F5F5F5F5F5F5F5F5F5F5F5F5F5F5F5F5F5F5F5F5F5F5F5F5F5F5F5F5F5F5F5F5F5F5F5F5F5F5F5F5F5F5F5F5F5F5
310
F5F5F5F5F5F5F5F5F5F5F5F5F5F5F5F5F5F5F5F5F5F5F5F5F5F5F5F5F5F5F5F5F5F5F5F5F5F5F5F5F5F5F5F5F5F5F5F5F5F5F5F5F5F5F5F5F5F5F5F5F5F5F5F5F5F5F5F5F5F5F5F5F5F5F5F5F5F5F5F5F5F5F5F5F5F5F5F5F5F5F5F5F5F5F5F5E2F5F5E2E2E2F5F5E2F5F5F5F5F5F5F5F5F5F5F5F5F5F5F5F5F5F5F5F5F5F5
310
F5F5F5F5F5F5F5F5F5F5F5F5F5F5F5F5F5F5F5F5F5F5F5F5F5F5F5F5F5F5F5F5F5F5F5F5F5F5F5F5F5F5F5F5F5F5F5F5F5F5F5F5F5F5F5F5F5F5F5F5F5F5F5F5F5F5F5F5F5F5F5F5F5F5F5F5F5F5F5F5F5F5F5F5F5F5F5F5F5F5F5F5F5F5F5F5F5F5F5F5F5F5F5F5F5F5F5F5F5F5F5F5F5F5F5F5F5F5F5F5F5F5F5F5F5F5F5
310
F5F5F5F5F5F5F5F5F5F5F5F5F5F5F5F5F5F5F5F5F5F5E2F5F5E2E2E2F5F5E2F5F5F5F5F5F5F5F5F5F5F5F5F5F5F5F5F5F5F5F5F5F5F5F5F5F5F5F5F5F5F5F5F5F5F5F5F5F5F5F5F5F5F5F5F5F5F5F5F5F5F5F5F5F5F5F5F5F5F5F5F5F5F5F5F5F5F5F5F5F5F5F5F5F5F5F5F5F5F5F5F5F5F5F5F5F5F5F5F5F5F5F5F5F5F5F5
310
F5F5F5F5F5F5F5F5F5F5F5F5F5F5F5F5F5F5F5F5F5F5F5F5F5F5F5F5F5F5F5F5F5F5F5F5F5F5F5F5F5F5F5F5F5F5F5F5F5F5F5F5F5F5F5F5F5F5F5F5F5F5F5F5F5F5F5F5F5F5F5F5F5F5F5E2F5F5E2E2E2F5F5E2F5F5F5F5F5F5F5F5F5F5F5F5F5F5F5F5F5F5F5F5F5F5F5F5F5F5F5F5F5F5F5F5F5F5F5F5F5F5F5F5F5F5F5
310
F5F5F5F5F5F5F5F5F5F5F5F5F5F5F5F5F5F5F5F5F5F5F5F5F5F5F5F5F5F5F5F5F5F5F5F5F5F5F5F5F5F5F5F5F5F5F5F5F5F5F5F5F5F5F5F5F5F5F5F5F5F5F5F5F5F5F5F5F5F5F5F5F5F5F5F5F5F5F5F5F5F5F5F5F5F5F5F5F5F5F5F5F5F5F5F5F5F5F5F5F5F5F5F5F5F5F5F5F5F5F5F5F5F5F5F5F5F5F5F5F5F5F5F5F5F5F5
310
F5E2F5F5E2E2E2F5F5E2F5F5F5F5F5F5F5F5F5F5F5F5F5F5F5F5F5F5F5F5F5F5F5F5F5F5F5F5F5F5F5F5F5F5F5F5F5F5F5F5F5F5F5F5F5F5F5F5F5F5F5F5F5F5F5F5F5F5F5F5F5F5F5F5F5F5F5F5F5F5F5F5F5F5F5F5F5F5F5F5F5F5F5F5F5F5F5F5F5F5F5F5F5F5F5F5F5F5F5F5F5F5F5F5F5F5F5F5F5F5F5F5F5F5F5F5F5
310
F5F5F5F5F5F5F5F5F5F5F5F5F5F5F5F5F5F5F5F5F5F5F5F5F5F5F5F5F5F5F5F5F5F5F5F5F5F5F5F5F5F5F5F5F5F5F5F5F5F5F5F5F5F5E2F5F5E2E2E2F5F5E2F5F5F5F5F5F5F5F5F5F5F5F5F5F5F5F5F5F5F5F5F5F5F5F5F5F5F5F5F5F5F5F5F5F5F5F5F5F5F5F5F5F5F5F5F5F5F5F5F5F5F5F5F5F5F5F5F5F5F5F5F5F5F5F5
310
F5F5F5F5F5F5F5F5F5F5F5F5F5F5F5F5F5F5F5F5F5F5F5F5F5F5F5F5F5F5F5F5F5F5F5F5F5F5F5F5F5F5F5F5F5F5F5F5F5F5F5F5F5F5F5F5F5F5F5F5F5F5F5F5F5F5F5F5F5F5F5F5F5F5F5F5F5F5F5F5F5F5F5F5F5F5F5F5F5F5F5F5F5F5F5F5F5F5F5F5F5F5F5F5F5F5F5E2F5F5E2E2E2F5F5E2F5F5F5F5F5F5F5F5F5F5F5
310
F5F5F5F5F5F5F5F5F5F5F5F5F5F5F5F5F5F5F5F5F5F5F5F5F5F5F5F5F5F5F5F5F5F5F5F5F5F5F5F5F5F5F5F5F5F5F5F5F5F5F5F5F5F5F5F5F5F5F5F5F5F5F5F5F5F5F5F5F5F5F5F5F5F5F5F5F5F5F5F5F5F5F5F5F5F5F5F5F5F5F5F5F5F5F5F5F5F5F5F5F5F5F5F5F5F5F5F5F5F5F5F5F5F5F5F5F5F5F5F5F5F5F5F5F5F5F5
310
F5F5F5F5F5F5F5F5F5F5F5F5F5F5F5F5F5F5F5F5F5F5F5F5F5F5F5F5F5F5F5F5F5E2F5F5E2E2E2F5F5E2E2E2E2E2E2E2E2F5F5F5F5F5F5F5F5F5E2E2E2E2E2E2E2E2E2E2E2E2E2E2E2E2F5F5F5F5F5F5F5F5F5E2E2E2E2E2E2E2E2E2E2E2E2E2E2E2E2F5F5F5F5F5F5F5F5E2E2E2E2E2E2E2E2E2E2E2E2E2E2E2E2F5F5F5F5
310
F5F5F5F5F5E2E2E2E2E2E2E2E2E2E2E2E2E2E2E2E2F5F5F5F5F5F5F5F5E2E2E2E2E2E2E2E2E2E2E2E2E2E2E2E2F5F5F5F5F5F5F5F5F5E2E2E2E2E2E2E2E2E2E2E2E2E2E2E2E2F5F5F5F5F5F5F5F5F5E2E2E2E2E2E2E2E2F5F5E2E2E2F5F5F5F5F5F5F5F5F5F5F5F5F5F5F5F5F5F5F5F5F5F5F5F5F5F5F5F5F5F5F5F5F5F5F5
310
F5F5F5F5F5F5F5F5F5F5F5F5F5F5F5F5F5F5F5F5F5F5F5F5F5F5F5F5F5F5F5F5F5F5F5F5F5F5F5F5F5F5F5F5F5F5F5F5F5F5F5F5F5F5F5F5F5F5F5F5F5F5F5F5F5F5F5F5F5F5F5F5F5F5F5F5F5F5F5F5F5F5F5F5F5F5F5F5F5F5F5F5F5F5F5F5F5F5F5F5F5F5F5F5F5F5F5F5F5F5F5F5F5F5F5F5F5F5F5F5F5F5F5F5F5F5F5
310
F5F5F5F5F5F5F5F5F5F5F5F5F5F5F5E2E2E2F5F5F5F5F5F5F5F5F5F5F5F5F5F5F5F5F5F5F5F5F5F5F5F5F5F5F5F5F5F5F5F5F5F5F5F5F5F5F5F5F5F5F5F5F5F5F5F5F5F5F5F5F5F5F5F5F5F5F5F5F5F5F5F5F5F5F5F5F5F5F5F5F5F5F5F5F5F5F5F5F5F5F5F5F5F5F5F5F5F5F5F5F5F5F5F5F5F5F5F5F5F5F5F5F5F5F5F5F5
310
F5F5F5F5F5F5F5F5F5F5F5F5F5F5F5F5F5F5F5F5F5F5F5F5F5F5F5F5F5F5F5F5F5F5F5F5F5F5F5F5F5F5F5F5F5F5F5F5F5F5F5F5F5F5F5F5F5F5F5F5F5F5F5F5F5F5F5F5E2EFE2F5F5F5F5F5F5F5F5F5F5F5F5F5F5F5F5F5F5F5F5F5F5F5F5F5F5F5F5F5F5F5F5F5F5F5F5F5F5F5F5F5F5F5F5F5F5F5F5F5F5F5F5F5F5F5F5
310
F5F5F5F5F5F5F5F5F5F5F5F5F5F5F5F5F5F5F5F5F5F5F5F5F5F5F5F5F5F5F5F5F5F5F5F5F5F5F5F5F5F5F5F5F5F5F5F5F5F5F5F5F5F5F5F5F5F5F5F5F5F5F5F5F5F5F5F5F5F5F5F5F5F5F5F5F5F5F5F5F5F5F5F5F5F5F5F5F5F5F5F5F5F5F5F5F5F5F5F5F5F5F5F5F5F5F5F5F5F5F5F5F5F5F5F5F5F5F5F5F5E2EF
  0
ENDSEC
  0
EOF
