  0
SECTION
  2
HEADER
  9
$ACADVER
  1
AC1015
  9
$ACADMAINTVER
 70
    20
  9
$DWGCODEPAGE
  3
ANSI_1252
  9
$INSBASE
 10
0.0
 20
0.0
 30
0.0
  9
$EXTMIN
 10
205.2459575510058
 20
-135.6593648881438
 30
-0.0000000349181948
  9
$EXTMAX
 10
241.2679056700498
 20
-109.9668658472529
 30
0.0000000814935746
  9
$LIMMIN
 10
0.0
 20
0.0
  9
$LIMMAX
 10
12.0
 20
9.0
  9
$ORTHOMODE
 70
     1
  9
$REGENMODE
 70
     1
  9
$FILLMODE
 70
     1
  9
$QTEXTMODE
 70
     0
  9
$MIRRTEXT
 70
     1
  9
$LTSCALE
 40
1.0
  9
$ATTMODE
 70
     1
  9
$TEXTSIZE
 40
0.2
  9
$TRACEWID
 40
0.05
  9
$TEXTSTYLE
  7
STANDARD
  9
$CLAYER
  8
GRS_GAMBAR
  9
$CELTYPE
  6
CONTINUOUS
  9
$CECOLOR
 62
     7
  9
$CELTSCALE
 40
1.0
  9
$DISPSILH
 70
     0
  9
$DIMSCALE
 40
1.0
  9
$DIMASZ
 40
0.25
  9
$DIMEXO
 40
0.3
  9
$DIMDLI
 40
9.5
  9
$DIMRND
 40
0.0
  9
$DIMDLE
 40
0.0
  9
$DIMEXE
 40
0.2999999999999996
  9
$DIMTP
 40
0.0
  9
$DIMTM
 40
0.0
  9
$DIMTXT
 40
0.125
  9
$DIMCEN
 40
2.0
  9
$DIMTSZ
 40
0.0
  9
$DIMTOL
 70
     0
  9
$DIMLIM
 70
     0
  9
$DIMTIH
 70
     1
  9
$DIMTOH
 70
     1
  9
$DIMSE1
 70
     0
  9
$DIMSE2
 70
     0
  9
$DIMTAD
 70
     1
  9
$DIMZIN
 70
     0
  9
$DIMBLK
  1

  9
$DIMASO
 70
     1
  9
$DIMSHO
 70
     1
  9
$DIMPOST
  1
\X
  9
$DIMAPOST
  1
mm
  9
$DIMALT
 70
     1
  9
$DIMALTD
 70
     0
  9
$DIMALTF
 40
25.4
  9
$DIMLFAC
 40
1.0
  9
$DIMTOFL
 70
     0
  9
$DIMTVP
 40
0.0
  9
$DIMTIX
 70
     0
  9
$DIMSOXD
 70
     0
  9
$DIMSAH
 70
     0
  9
$DIMBLK1
  1

  9
$DIMBLK2
  1

  9
$DIMSTYLE
  2
COPY_OF_STANDARD
  9
$DIMCLRD
 70
     0
  9
$DIMCLRE
 70
     0
  9
$DIMCLRT
 70
     0
  9
$DIMTFAC
 40
1.0
  9
$DIMGAP
 40
0.09
  9
$DIMJUST
 70
     0
  9
$DIMSD1
 70
     0
  9
$DIMSD2
 70
     0
  9
$DIMTOLJ
 70
     1
  9
$DIMTZIN
 70
     0
  9
$DIMALTZ
 70
     0
  9
$DIMALTTZ
 70
     0
  9
$DIMUPT
 70
     0
  9
$DIMDEC
 70
     3
  9
$DIMTDEC
 70
     3
  9
$DIMALTU
 70
     2
  9
$DIMALTTD
 70
     0
  9
$DIMTXSTY
  7
STANDARD
  9
$DIMAUNIT
 70
     0
  9
$DIMADEC
 70
     0
  9
$DIMALTRND
 40
1.0
  9
$DIMAZIN
 70
     0
  9
$DIMDSEP
 70
    46
  9
$DIMATFIT
 70
     3
  9
$DIMFRAC
 70
     0
  9
$DIMLDRBLK
  1

  9
$DIMLUNIT
 70
     4
  9
$DIMLWD
 70
    -2
  9
$DIMLWE
 70
    -2
  9
$DIMTMOVE
 70
     0
  9
$LUNITS
 70
     2
  9
$LUPREC
 70
     2
  9
$SKETCHINC
 40
0.1
  9
$FILLETRAD
 40
1.0
  9
$AUNITS
 70
     0
  9
$AUPREC
 70
     2
  9
$MENU
  1
acad
  9
$ELEVATION
 40
0.0
  9
$PELEVATION
 40
0.0
  9
$THICKNESS
 40
0.0
  9
$LIMCHECK
 70
     0
  9
$CHAMFERA
 40
0.0
  9
$CHAMFERB
 40
0.0
  9
$CHAMFERC
 40
0.0
  9
$CHAMFERD
 40
0.0
  9
$SKPOLY
 70
     0
  9
$TDCREATE
 40
2450438.476263310
  9
$TDUCREATE
 40
2450438.767929977
  9
$TDUPDATE
 40
2454917.709849329
  9
$TDUUPDATE
 40
2454918.001515995
  9
$TDINDWG
 40
2.1180154630
  9
$TDUSRTIMER
 40
2.1180154630
  9
$USRTIMER
 70
     1
  9
$ANGBASE
 50
0.0
  9
$ANGDIR
 70
     0
  9
$PDMODE
 70
     0
  9
$PDSIZE
 40
0.0
  9
$PLINEWID
 40
0.0
  9
$SPLFRAME
 70
     0
  9
$SPLINETYPE
 70
     6
  9
$SPLINESEGS
 70
     8
  9
$HANDSEED
  5
B379
  9
$SURFTAB1
 70
     6
  9
$SURFTAB2
 70
     6
  9
$SURFTYPE
 70
     6
  9
$SURFU
 70
     6
  9
$SURFV
 70
     6
  9
$UCSBASE
  2

  9
$UCSNAME
  2

  9
$UCSORG
 10
0.0
 20
0.0
 30
0.0
  9
$UCSXDIR
 10
1.0
 20
0.0
 30
0.0
  9
$UCSYDIR
 10
0.0
 20
1.0
 30
0.0
  9
$UCSORTHOREF
  2

  9
$UCSORTHOVIEW
 70
     0
  9
$UCSORGTOP
 10
0.0
 20
0.0
 30
0.0
  9
$UCSORGBOTTOM
 10
0.0
 20
0.0
 30
0.0
  9
$UCSORGLEFT
 10
0.0
 20
0.0
 30
0.0
  9
$UCSORGRIGHT
 10
0.0
 20
0.0
 30
0.0
  9
$UCSORGFRONT
 10
0.0
 20
0.0
 30
0.0
  9
$UCSORGBACK
 10
0.0
 20
0.0
 30
0.0
  9
$PUCSBASE
  2

  9
$PUCSNAME
  2

  9
$PUCSORG
 10
0.0
 20
0.0
 30
0.0
  9
$PUCSXDIR
 10
1.0
 20
0.0
 30
0.0
  9
$PUCSYDIR
 10
0.0
 20
1.0
 30
0.0
  9
$PUCSORTHOREF
  2

  9
$PUCSORTHOVIEW
 70
     0
  9
$PUCSORGTOP
 10
0.0
 20
0.0
 30
0.0
  9
$PUCSORGBOTTOM
 10
0.0
 20
0.0
 30
0.0
  9
$PUCSORGLEFT
 10
0.0
 20
0.0
 30
0.0
  9
$PUCSORGRIGHT
 10
0.0
 20
0.0
 30
0.0
  9
$PUCSORGFRONT
 10
0.0
 20
0.0
 30
0.0
  9
$PUCSORGBACK
 10
0.0
 20
0.0
 30
0.0
  9
$USERI1
 70
     0
  9
$USERI2
 70
     0
  9
$USERI3
 70
     0
  9
$USERI4
 70
     0
  9
$USERI5
 70
     0
  9
$USERR1
 40
0.0
  9
$USERR2
 40
0.0
  9
$USERR3
 40
0.0
  9
$USERR4
 40
0.0
  9
$USERR5
 40
0.0
  9
$WORLDVIEW
 70
     1
  9
$SHADEDGE
 70
     3
  9
$SHADEDIF
 70
    70
  9
$TILEMODE
 70
     1
  9
$MAXACTVP
 70
    16
  9
$PINSBASE
 10
0.0
 20
0.0
 30
0.0
  9
$PLIMCHECK
 70
     0
  9
$PEXTMIN
 10
607.4353884347829
 20
143.0511486196675
 30
0.0
  9
$PEXTMAX
 10
643.3651454294579
 20
166.9816837000855
 30
0.0
  9
$PLIMMIN
 10
-16.9757080078125
 20
-4.995333194732666
  9
$PLIMMAX
 10
1171.955932617187
 20
835.9563269615174
  9
$UNITMODE
 70
     0
  9
$VISRETAIN
 70
     0
  9
$PLINEGEN
 70
     0
  9
$PSLTSCALE
 70
     1
  9
$TREEDEPTH
 70
  3020
  9
$CMLSTYLE
  2
STANDARD
  9
$CMLJUST
 70
     0
  9
$CMLSCALE
 40
1.0
  9
$PROXYGRAPHICS
 70
     1
  9
$MEASUREMENT
 70
     0
  9
$CELWEIGHT
370
    -1
  9
$ENDCAPS
280
     0
  9
$JOINSTYLE
280
     0
  9
$LWDISPLAY
290
     0
  9
$INSUNITS
 70
     4
  9
$HYPERLINKBASE
  1

  9
$STYLESHEET
  1

  9
$XEDIT
290
     1
  9
$CEPSNTYPE
380
     0
  9
$PSTYLEMODE
290
     1
  9
$FINGERPRINTGUID
  2
{3DFF78D6-CC7F-11D3-AC06-00A0C98A02AE}
  9
$VERSIONGUID
  2
{2CAF1748-3BB1-4AB0-A5D8-E6B4C82D78E8}
  9
$EXTNAMES
290
     1
  9
$PSVPSCALE
 40
0.0
  9
$OLESTARTUP
290
     0
  0
ENDSEC
  0
SECTION
  2
CLASSES
  0
CLASS
  1
ACDBDICTIONARYWDFLT
  2
AcDbDictionaryWithDefault
  3
ObjectDBX Classes
 90
        0
280
     0
281
     0
  0
CLASS
  1
ACDBPLACEHOLDER
  2
AcDbPlaceHolder
  3
ObjectDBX Classes
 90
        0
280
     0
281
     0
  0
CLASS
  1
LAYOUT
  2
AcDbLayout
  3
ObjectDBX Classes
 90
        0
280
     0
281
     0
  0
CLASS
  1
DICTIONARYVAR
  2
AcDbDictionaryVar
  3
ObjectDBX Classes
 90
        0
280
     0
281
     0
  0
CLASS
  1
PLOTSETTINGS
  2
AcDbPlotSettings
  3
ObjectDBX Classes
 90
        0
280
     0
281
     0
  0
CLASS
  1
TABLESTYLE
  2
AcDbTableStyle
  3
ObjectDBX Classes
 90
     4095
280
     0
281
     0
  0
CLASS
  1
SORTENTSTABLE
  2
AcDbSortentsTable
  3
ObjectDBX Classes
 90
        0
280
     0
281
     0
  0
CLASS
  1
DIMASSOC
  2
AcDbDimAssoc
  3
"AcDbDimAssoc|Product Desc:     AcDim ARX App For Dimension|Company:          Autodesk, Inc.|WEB Address:      www.autodesk.com"
 90
        0
280
     0
281
     0
  0
CLASS
  1
MATERIAL
  2
AcDbMaterial
  3
ObjectDBX Classes
 90
     1024
280
     0
281
     0
  0
CLASS
  1
VISUALSTYLE
  2
AcDbVisualStyle
  3
ObjectDBX Classes
 90
     4095
280
     0
281
     0
  0
ENDSEC
  0
SECTION
  2
TABLES
  0
TABLE
  2
VPORT
  5
8
330
0
100
AcDbSymbolTable
 70
     1
  0
VPORT
  5
B337
330
8
100
AcDbSymbolTableRecord
100
AcDbViewportTableRecord
  2
*Active
 70
     0
 10
0.0
 20
0.0
 11
1.0
 21
1.0
 12
223.2569316105278
 22
-122.8131153676983
 13
0.0
 23
0.0
 14
1.0
 24
1.0
 15
0.0
 25
0.0
 16
0.0
 26
0.0
 36
1.0
 17
0.0
 27
0.0
 37
0.0
 40
25.90870520392782
 41
1.644662921348314
 42
50.0
 43
0.0
 44
0.0
 50
0.0
 51
0.0
 71
     0
 72
   100
 73
     1
 74
     1
 75
     0
 76
     0
 77
     0
 78
     0
281
     0
 65
     1
110
0.0
120
0.0
130
0.0
111
1.0
121
0.0
131
0.0
112
0.0
122
1.0
132
0.0
 79
     0
146
0.0
  0
ENDTAB
  0
TABLE
  2
LTYPE
  5
5
330
0
100
AcDbSymbolTable
 70
     5
  0
LTYPE
  5
13
330
5
100
AcDbSymbolTableRecord
100
AcDbLinetypeTableRecord
  2
BYBLOCK
 70
     0
  3

 72
    65
 73
     0
 40
0.0
  0
LTYPE
  5
14
330
5
100
AcDbSymbolTableRecord
100
AcDbLinetypeTableRecord
  2
BYLAYER
 70
     0
  3

 72
    65
 73
     0
 40
0.0
  0
LTYPE
  5
15
330
5
100
AcDbSymbolTableRecord
100
AcDbLinetypeTableRecord
  2
CONTINUOUS
 70
     0
  3
Solid line
 72
    65
 73
     0
 40
0.0
  0
LTYPE
  5
48F
330
5
100
AcDbSymbolTableRecord
100
AcDbLinetypeTableRecord
  2
CENTER
 70
     0
  3
Center ____ _ ____ _ ____ _ ____ _ ____ _ ____
 72
    65
 73
     4
 40
2.0
 49
1.25
 74
     0
 49
-0.25
 74
     0
 49
0.25
 74
     0
 49
-0.25
 74
     0
  0
LTYPE
  5
27FB
330
5
100
AcDbSymbolTableRecord
100
AcDbLinetypeTableRecord
  2
HIDDEN
 70
     0
  3
Hidden __ __ __ __ __ __ __ __ __ __ __ __ __ __
 72
    65
 73
     2
 40
1.905
 49
1.27
 74
     0
 49
-0.635
 74
     0
  0
LTYPE
  5
27FC
330
5
100
AcDbSymbolTableRecord
100
AcDbLinetypeTableRecord
  2
CENTERX2
 70
     0
  3
Center (2x) ________  __  ________  __  _____
 72
    65
 73
     4
 40
20.32
 49
12.7
 74
     0
 49
-2.54
 74
     0
 49
2.54
 74
     0
 49
-2.54
 74
     0
  0
LTYPE
  5
27FD
330
5
100
AcDbSymbolTableRecord
100
AcDbLinetypeTableRecord
  2
PHANTOM
 70
     0
  3
Phantom ______  __  __  ______  __  __  ______
 72
    65
 73
     6
 40
2.5
 49
1.25
 74
     0
 49
-0.25
 74
     0
 49
0.25
 74
     0
 49
-0.25
 74
     0
 49
0.25
 74
     0
 49
-0.25
 74
     0
  0
ENDTAB
  0
TABLE
  2
LAYER
  5
2
102
{ACAD_XDICTIONARY
360
2659
102
}
330
0
100
AcDbSymbolTable
 70
    16
  0
LAYER
  5
10
330
2
100
AcDbSymbolTableRecord
100
AcDbLayerTableRecord
  2
0
 70
     0
 62
     4
  6
CONTINUOUS
370
    -3
390
F
  0
LAYER
  5
54
330
2
100
AcDbSymbolTableRecord
100
AcDbLayerTableRecord
  2
DIVIDE
 70
     0
 62
     4
  6
CONTINUOUS
370
    -3
390
F
  0
LAYER
  5
257
330
2
100
AcDbSymbolTableRecord
100
AcDbLayerTableRecord
  2
BESAR
 70
     0
 62
     4
  6
CONTINUOUS
370
    -3
390
F
  0
LAYER
  5
258
330
2
100
AcDbSymbolTableRecord
100
AcDbLayerTableRecord
  2
ASHADE
 70
     0
 62
     4
  6
CONTINUOUS
370
    -3
390
F
  0
LAYER
  5
490
330
2
100
AcDbSymbolTableRecord
100
AcDbLayerTableRecord
  2
GRS_GAMBAR
 70
     0
 62
     4
  6
CONTINUOUS
370
    -3
390
F
  0
LAYER
  5
166A
330
2
100
AcDbSymbolTableRecord
100
AcDbLayerTableRecord
  2
DIM
 70
     0
 62
     4
  6
CONTINUOUS
370
    -3
390
F
  0
LAYER
  5
1E10
330
2
100
AcDbSymbolTableRecord
100
AcDbLayerTableRecord
  2
1
 70
     0
 62
     7
  6
CONTINUOUS
370
    -3
390
F
  0
LAYER
  5
1E11
330
2
100
AcDbSymbolTableRecord
100
AcDbLayerTableRecord
  2
G__TOTO
 70
     0
 62
     7
  6
CONTINUOUS
370
    -3
390
F
  0
LAYER
  5
2502
330
2
100
AcDbSymbolTableRecord
100
AcDbLayerTableRecord
  2
KOP
 70
     0
 62
    -7
  6
CONTINUOUS
370
    -3
390
F
  0
LAYER
  5
2504
330
2
100
AcDbSymbolTableRecord
100
AcDbLayerTableRecord
  2
VP
 70
     0
 62
    -7
  6
CONTINUOUS
370
    -3
390
F
  0
LAYER
  5
2655
330
2
100
AcDbSymbolTableRecord
100
AcDbLayerTableRecord
  2
LINE_TEX
 70
     0
 62
     6
  6
CONTINUOUS
370
    -3
390
F
  0
LAYER
  5
2688
330
2
100
AcDbSymbolTableRecord
100
AcDbLayerTableRecord
  2
FRAME 070
 70
     0
 62
     5
  6
CONTINUOUS
370
    -3
390
F
  0
LAYER
  5
2689
330
2
100
AcDbSymbolTableRecord
100
AcDbLayerTableRecord
  2
FRAME 050
 70
     0
 62
     6
  6
CONTINUOUS
370
    -3
390
F
  0
LAYER
  5
268A
330
2
100
AcDbSymbolTableRecord
100
AcDbLayerTableRecord
  2
FRAME 025
 70
     0
 62
     7
  6
CONTINUOUS
370
    -3
390
F
  0
LAYER
  5
27FE
330
2
100
AcDbSymbolTableRecord
100
AcDbLayerTableRecord
  2
PIC06
 70
     0
 62
     7
  6
CONTINUOUS
370
    -3
390
F
  0
LAYER
  5
27FF
330
2
100
AcDbSymbolTableRecord
100
AcDbLayerTableRecord
  2
Defpoints
 70
     0
 62
     7
  6
CONTINUOUS
290
     0
370
    -3
390
F
  0
ENDTAB
  0
TABLE
  2
STYLE
  5
3
330
0
100
AcDbSymbolTable
 70
    11
  0
STYLE
  5
11
330
3
100
AcDbSymbolTableRecord
100
AcDbTextStyleTableRecord
  2
STANDARD
 70
     0
 40
0.0
 41
1.0
 50
0.0
 71
     0
 42
0.2
  3
ARIAL.TTF
  4

1001
ACAD
1000
Arial
1071
       34
  0
STYLE
  5
35
330
3
100
AcDbSymbolTableRecord
100
AcDbTextStyleTableRecord
  2
ROMANS
 70
     0
 40
0.0
 41
1.0
 50
0.0
 71
     0
 42
6.0
  3
romans.shx
  4

  0
STYLE
  5
881
330
3
100
AcDbSymbolTableRecord
100
AcDbTextStyleTableRecord
  2
BLACK
 70
     0
 40
0.4
 41
1.0
 50
0.0
 71
     0
 42
0.4
  3
ARIAL.TTF
  4

1001
ACAD
1000
Arial
1071
       34
  0
STYLE
  5
1E12
330
3
100
AcDbSymbolTableRecord
100
AcDbTextStyleTableRecord
  2
SWISS
 70
     0
 40
0.0
 41
1.0
 50
0.0
 71
     0
 42
0.5
  3
swissel.ttf
  4

1001
ACAD
1000
Swis721 LtEx BT
1071
       34
  0
STYLE
  5
1E13
330
3
100
AcDbSymbolTableRecord
100
AcDbTextStyleTableRecord
  2
DUTCH
 70
     0
 40
0.0
 41
1.0
 50
0.0
 71
     0
 42
0.2
  3
dutcheb.ttf
  4

1001
ACAD
1000
Dutch801 XBd BT
1071
       18
  0
STYLE
  5
1E14
330
3
100
AcDbSymbolTableRecord
100
AcDbTextStyleTableRecord
  2
STYLE4
 70
     0
 40
0.0
 41
1.0
 50
0.0
 71
     0
 42
0.25
  3
swisscl.ttf
  4

1001
ACAD
1000
Swis721 LtCn BT
1071
       34
  0
STYLE
  5
250B
330
3
100
AcDbSymbolTableRecord
100
AcDbTextStyleTableRecord
  2
CLARENDON
 70
     0
 40
0.0
 41
1.0
 50
0.0
 71
     0
 42
0.2
  3
clar45w.ttf
  4

1001
ACAD
1000
Clarendon
1071
        2
  0
STYLE
  5
250C
330
3
100
AcDbSymbolTableRecord
100
AcDbTextStyleTableRecord
  2
ARIAL_REGULER
 70
     0
 40
0.0
 41
1.0
 50
0.0
 71
     0
 42
0.2
  3
ARIAL.TTF
  4

1001
ACAD
1000
Arial
1071
       34
  0
STYLE
  5
2510
330
3
100
AcDbSymbolTableRecord
100
AcDbTextStyleTableRecord
  2
TIMES_NEW_ROMANS
 70
     0
 40
0.0
 41
1.0
 50
0.0
 71
     0
 42
3.0
  3
TIMESI.TTF
  4

1001
ACAD
1000
Times New Roman
1071
 16777234
  0
STYLE
  5
268B
330
3
100
AcDbSymbolTableRecord
100
AcDbTextStyleTableRecord
  2
ISO Proportional
 70
     0
 40
0.0
 41
1.0
 50
0.0
 71
     0
 42
2.5
  3
isocp.shx
  4

  0
STYLE
  5
2995
330
3
100
AcDbSymbolTableRecord
100
AcDbTextStyleTableRecord
  2
SLDTEXTSTYLE0
 70
     0
 40
0.0
 41
0.75
 50
0.0
 71
     0
 42
0.0
  3
txt
  4

  0
ENDTAB
  0
TABLE
  2
VIEW
  5
6
330
0
100
AcDbSymbolTable
 70
     1
  0
ENDTAB
  0
TABLE
  2
UCS
  5
7
330
0
100
AcDbSymbolTable
 70
     0
  0
ENDTAB
  0
TABLE
  2
APPID
  5
9
330
0
100
AcDbSymbolTable
 70
    17
  0
APPID
  5
12
330
9
100
AcDbSymbolTableRecord
100
AcDbRegAppTableRecord
  2
ACAD
 70
     0
  0
APPID
  5
25C
330
9
100
AcDbSymbolTableRecord
100
AcDbRegAppTableRecord
  2
AVE_RENDER
 70
     0
  0
APPID
  5
25D
330
9
100
AcDbSymbolTableRecord
100
AcDbRegAppTableRecord
  2
AVE_MATERIAL
 70
     0
  0
APPID
  5
25E
330
9
100
AcDbSymbolTableRecord
100
AcDbRegAppTableRecord
  2
AVE_ENTITY_MATERIAL
 70
     0
  0
APPID
  5
25F
330
9
100
AcDbSymbolTableRecord
100
AcDbRegAppTableRecord
  2
AVE_FINISH
 70
     0
  0
APPID
  5
260
330
9
100
AcDbSymbolTableRecord
100
AcDbRegAppTableRecord
  2
AVE_GLOBAL
 70
     0
  0
APPID
  5
2657
330
9
100
AcDbSymbolTableRecord
100
AcDbRegAppTableRecord
  2
ACAD_PSEXT
 70
     0
  0
APPID
  5
2658
330
9
100
AcDbSymbolTableRecord
100
AcDbRegAppTableRecord
  2
DCO15
 70
     0
  0
APPID
  5
2800
330
9
100
AcDbSymbolTableRecord
100
AcDbRegAppTableRecord
  2
ACAD_DSTYLE_DIMEXT_LENGTH
 70
     0
  0
APPID
  5
2801
330
9
100
AcDbSymbolTableRecord
100
AcDbRegAppTableRecord
  2
ACAD_DSTYLE_DIMEXT_ENABLED
 70
     0
  0
APPID
  5
2802
330
9
100
AcDbSymbolTableRecord
100
AcDbRegAppTableRecord
  2
ACAD_DSTYLE_DIMJOGGED_JOGANGLE_SYMBOL
 70
     0
  0
APPID
  5
2803
330
9
100
AcDbSymbolTableRecord
100
AcDbRegAppTableRecord
  2
ACAD_DSTYLE_DIMARC_LENGTH_SYMBOL
 70
     0
  0
APPID
  5
2ABE
330
9
100
AcDbSymbolTableRecord
100
AcDbRegAppTableRecord
  2
ACAD_EXEMPT_FROM_CAD_STANDARDS
 70
     0
  0
APPID
  5
2AC4
330
9
100
AcDbSymbolTableRecord
100
AcDbRegAppTableRecord
  2
ACAD_DSTYLE_DIMTEXT_FILL
 70
     0
  0
APPID
  5
2AC7
330
9
100
AcDbSymbolTableRecord
100
AcDbRegAppTableRecord
  2
ACAD_DSTYLE_DIM_LINETYPE
 70
     0
  0
APPID
  5
2AC8
330
9
100
AcDbSymbolTableRecord
100
AcDbRegAppTableRecord
  2
ACAD_DSTYLE_DIM_EXT1_LINETYPE
 70
     0
  0
APPID
  5
2AC9
330
9
100
AcDbSymbolTableRecord
100
AcDbRegAppTableRecord
  2
ACAD_DSTYLE_DIM_EXT2_LINETYPE
 70
     0
  0
ENDTAB
  0
TABLE
  2
DIMSTYLE
  5
A
330
0
100
AcDbSymbolTable
 70
     4
100
AcDbDimStyleTable
 71
     2
340
2778
340
1C4
  0
DIMSTYLE
105
1C4
102
{ACAD_REACTORS
330
2AAB
330
286F
102
}
330
A
100
AcDbSymbolTableRecord
100
AcDbDimStyleTableRecord
  2
STANDARD
 70
     0
 41
0.3
 42
1.0
 43
5.0
 44
3.0
 77
     1
140
3.0
141
0.0
147
0.6
174
     1
271
     0
272
     0
340
35
1001
ACAD_DSTYLE_DIMJOGGED_JOGANGLE_SYMBOL
1070
   384
1040
0.7853981633974483
1001
ACAD_DSTYLE_DIMEXT_LENGTH
1070
   378
1040
3.0
  0
DIMSTYLE
105
2656
330
A
100
AcDbSymbolTableRecord
100
AcDbDimStyleTableRecord
  2
DIM-1
 70
     0
 40
2.0
 41
2.1
 42
0.5
 43
5.0
 44
0.5
 73
     0
 74
     0
 77
     1
140
2.799999999999998
141
0.0
147
0.5
174
     1
176
   256
177
   256
178
   256
271
     0
272
     0
340
35
  0
DIMSTYLE
105
268C
330
A
100
AcDbSymbolTableRecord
100
AcDbDimStyleTableRecord
  2
ISO-25
 70
     0
 41
2.5
 42
0.625
 43
3.75
 44
1.25
 73
     0
 74
     0
 77
     1
 78
     8
140
2.5
141
2.5
143
0.03937007874016
147
0.625
171
     3
172
     1
271
     2
272
     2
274
     3
278
    44
283
     0
284
     8
340
11
  0
DIMSTYLE
105
2778
102
{ACAD_REACTORS
330
3219
330
321C
330
3216
102
}
330
A
100
AcDbSymbolTableRecord
100
AcDbDimStyleTableRecord
  2
COPY_OF_STANDARD
 70
     0
  3
\X
  4
mm
 41
0.25
 42
0.3
 43
9.5
 44
0.2999999999999996
 77
     1
140
0.125
141
2.0
148
1.0
170
     1
171
     0
271
     3
272
     3
274
     0
277
     4
340
11
1001
ACAD_DSTYLE_DIMJOGGED_JOGANGLE_SYMBOL
1070
   384
1040
0.7853981633974483
  0
ENDTAB
  0
TABLE
  2
BLOCK_RECORD
  5
1
330
0
100
AcDbSymbolTable
 70
    16
  0
BLOCK_RECORD
  5
1E
102
{ACAD_XDICTIONARY
360
1CF
102
}
330
1
100
AcDbSymbolTableRecord
100
AcDbBlockTableRecord
  2
*MODEL_SPACE
340
2650
  0
BLOCK_RECORD
  5
267D
330
1
100
AcDbSymbolTableRecord
100
AcDbBlockTableRecord
  2
*Paper_Space
340
267E
  0
BLOCK_RECORD
  5
20A
330
1
100
AcDbSymbolTableRecord
100
AcDbBlockTableRecord
  2
AVE_RENDER
340
0
102
{BLKREFS
331
2BB
331
2BC
331
2BD
331
2BE
331
2BF
331
2C0
331
2C1
331
2C2
102
}
  0
BLOCK_RECORD
  5
20D
330
1
100
AcDbSymbolTableRecord
100
AcDbBlockTableRecord
  2
AVE_GLOBAL
340
0
102
{BLKREFS
331
2C3
102
}
  0
BLOCK_RECORD
  5
210
330
1
100
AcDbSymbolTableRecord
100
AcDbBlockTableRecord
  2
*X2
340
0
102
{BLKREFS
331
2C4
102
}
  0
BLOCK_RECORD
  5
213
330
1
100
AcDbSymbolTableRecord
100
AcDbBlockTableRecord
  2
*X3
340
0
102
{BLKREFS
331
2C5
102
}
  0
BLOCK_RECORD
  5
268D
330
1
100
AcDbSymbolTableRecord
100
AcDbBlockTableRecord
  2
ISO A0 title block.dwg
340
0
1001
ACAD
1000
DesignCenter Data
1002
{
1070
     1
1070
     4
1002
}
  0
BLOCK_RECORD
  5
2924
330
1
100
AcDbSymbolTableRecord
100
AcDbBlockTableRecord
  2
COMP6
340
0
  0
BLOCK_RECORD
  5
2933
330
1
100
AcDbSymbolTableRecord
100
AcDbBlockTableRecord
  2
COMP7
340
0
  0
BLOCK_RECORD
  5
2941
330
1
100
AcDbSymbolTableRecord
100
AcDbBlockTableRecord
  2
COMP8
340
0
  0
BLOCK_RECORD
  5
294F
330
1
100
AcDbSymbolTableRecord
100
AcDbBlockTableRecord
  2
COMP9
340
0
  0
BLOCK_RECORD
  5
295C
330
1
100
AcDbSymbolTableRecord
100
AcDbBlockTableRecord
  2
COMP10
340
0
  0
BLOCK_RECORD
  5
296A
330
1
100
AcDbSymbolTableRecord
100
AcDbBlockTableRecord
  2
COMP11
340
0
  0
BLOCK_RECORD
  5
2978
330
1
100
AcDbSymbolTableRecord
100
AcDbBlockTableRecord
  2
COMP12
340
0
  0
BLOCK_RECORD
  5
2987
330
1
100
AcDbSymbolTableRecord
100
AcDbBlockTableRecord
  2
COMP13
340
0
  0
BLOCK_RECORD
  5
3221
330
1
100
AcDbSymbolTableRecord
100
AcDbBlockTableRecord
  2
*D13
340
0
  0
BLOCK_RECORD
  5
322E
330
1
100
AcDbSymbolTableRecord
100
AcDbBlockTableRecord
  2
*D14
340
0
  0
BLOCK_RECORD
  5
323B
330
1
100
AcDbSymbolTableRecord
100
AcDbBlockTableRecord
  2
*D15
340
0
  0
ENDTAB
  0
ENDSEC
  0
SECTION
  2
BLOCKS
  0
BLOCK
  5
57
330
1E
100
AcDbEntity
  8
0
 62
     6
100
AcDbBlockBegin
  2
*MODEL_SPACE
 70
     0
 10
0.0
 20
0.0
 30
0.0
  3
*MODEL_SPACE
  1

  0
ENDBLK
  5
58
330
1E
100
AcDbEntity
  8
0
 62
     6
100
AcDbBlockEnd
  0
BLOCK
  5
267F
330
267D
100
AcDbEntity
 67
     1
  8
0
 62
     7
100
AcDbBlockBegin
  2
*Paper_Space
 70
     0
 10
0.0
 20
0.0
 30
0.0
  3
*Paper_Space
  1

  0
ENDBLK
  5
2680
330
267D
100
AcDbEntity
 67
     1
  8
0
 62
     7
100
AcDbBlockEnd
  0
BLOCK
  5
20B
330
20A
100
AcDbEntity
  8
0
 62
     7
100
AcDbBlockBegin
  2
AVE_RENDER
 70
     0
 10
0.0
 20
0.0
 30
0.0
  3
AVE_RENDER
  1
AVE_RENDER
  0
ENDBLK
  5
20C
330
20A
100
AcDbEntity
  8
0
100
AcDbBlockEnd
  0
BLOCK
  5
20E
330
20D
100
AcDbEntity
  8
0
100
AcDbBlockBegin
  2
AVE_GLOBAL
 70
     0
 10
0.0
 20
0.0
 30
0.0
  3
AVE_GLOBAL
  1
AVE_GLOBAL
  0
ENDBLK
  5
20F
330
20D
100
AcDbEntity
  8
0
100
AcDbBlockEnd
  0
BLOCK
  5
211
330
210
100
AcDbEntity
  8
0
100
AcDbBlockBegin
  2
*X2
 70
     1
 10
0.0
 20
0.0
 30
0.0
  3
*X2
  1

  0
ENDBLK
  5
212
330
210
100
AcDbEntity
  8
0
100
AcDbBlockEnd
  0
BLOCK
  5
214
330
213
100
AcDbEntity
  8
0
100
AcDbBlockBegin
  2
*X3
 70
     1
 10
0.0
 20
0.0
 30
0.0
  3
*X3
  1

  0
ENDBLK
  5
215
330
213
100
AcDbEntity
  8
0
100
AcDbBlockEnd
  0
BLOCK
  5
2751
330
268D
100
AcDbEntity
  8
0
 62
     7
100
AcDbBlockBegin
  2
ISO A0 title block.dwg
 70
     2
 10
0.0
 20
0.0
 30
0.0
  3
ISO A0 title block.dwg
  1

  0
LINE
  5
268E
330
268D
100
AcDbEntity
  8
FRAME 070
100
AcDbLine
 10
1168.0
 20
820.0
 30
0.0
 11
20.0
 21
820.0
 31
0.0
  0
LINE
  5
268F
330
268D
100
AcDbEntity
  8
FRAME 070
100
AcDbLine
 10
20.0
 20
20.0
 30
0.0
 11
1168.0
 21
20.0
 31
0.0
  0
LINE
  5
2690
330
268D
100
AcDbEntity
  8
FRAME 070
100
AcDbLine
 10
20.0
 20
820.0
 30
0.0
 11
20.0
 21
20.0
 31
0.0
  0
TEXT
  5
2691
330
268D
100
AcDbEntity
  8
FRAME 050
100
AcDbText
 10
15.9
 20
43.0
 30
0.0
 40
4.0
  1
P
  7
ISO Proportional
 72
     4
 11
17.5
 21
45.0
 31
0.0
100
AcDbText
  0
TEXT
  5
2692
330
268D
100
AcDbEntity
  8
FRAME 050
100
AcDbText
 10
54.875
 20
15.5
 30
0.0
 40
4.0
  1
1
  7
ISO Proportional
 72
     4
 11
55.875
 21
17.5
 31
0.0
100
AcDbText
  0
LINE
  5
2693
330
268D
100
AcDbEntity
  8
FRAME 050
100
AcDbLine
 10
15.0
 20
70.0
 30
0.0
 11
20.0
 21
70.0
 31
0.0
  0
TEXT
  5
2694
330
268D
100
AcDbEntity
  8
FRAME 050
100
AcDbText
 10
15.9
 20
93.0
 30
0.0
 40
4.0
  1
O
  7
ISO Proportional
 72
     4
 11
17.5
 21
95.0
 31
0.0
100
AcDbText
  0
LINE
  5
2695
330
268D
100
AcDbEntity
  8
FRAME 050
100
AcDbLine
 10
15.0
 20
120.0
 30
0.0
 11
20.0
 21
120.0
 31
0.0
  0
TEXT
  5
2696
330
268D
100
AcDbEntity
  8
FRAME 050
100
AcDbText
 10
15.9
 20
143.0
 30
0.0
 40
4.0
  1
N
  7
ISO Proportional
 72
     4
 11
17.5
 21
145.0
 31
0.0
100
AcDbText
  0
LINE
  5
2697
330
268D
100
AcDbEntity
  8
FRAME 050
100
AcDbLine
 10
91.75
 20
15.0
 30
0.0
 11
91.75
 21
20.0
 31
0.0
  0
TEXT
  5
2698
330
268D
100
AcDbEntity
  8
FRAME 050
100
AcDbText
 10
126.1556692913386
 20
15.39960629921259
 30
0.0
 40
4.0
  1
2
  7
ISO Proportional
 72
     4
 11
127.625
 21
17.5
 31
0.0
100
AcDbText
  0
LINE
  5
2699
330
268D
100
AcDbEntity
  8
FRAME 050
100
AcDbLine
 10
163.5
 20
15.0
 30
0.0
 11
163.5
 21
20.0
 31
0.0
  0
TEXT
  5
269A
330
268D
100
AcDbEntity
  8
FRAME 050
100
AcDbText
 10
197.8921572875254
 20
15.58284271247461
 30
0.0
 40
4.0
  1
3
  7
ISO Proportional
 72
     4
 11
199.375
 21
17.5
 31
0.0
100
AcDbText
  0
TEXT
  5
269B
330
268D
100
AcDbEntity
  8
FRAME 050
100
AcDbText
 10
15.7
 20
193.0
 30
0.0
 40
4.0
  1
M
  7
ISO Proportional
 72
     4
 11
17.5
 21
195.0
 31
0.0
100
AcDbText
  0
LINE
  5
269C
330
268D
100
AcDbEntity
  8
FRAME 050
100
AcDbLine
 10
15.0
 20
170.0
 30
0.0
 11
20.0
 21
170.0
 31
0.0
  0
LINE
  5
269D
330
268D
100
AcDbEntity
  8
FRAME 050
100
AcDbLine
 10
15.0
 20
220.0
 30
0.0
 11
20.0
 21
220.0
 31
0.0
  0
TEXT
  5
269E
330
268D
100
AcDbEntity
  8
FRAME 050
100
AcDbText
 10
16.1
 20
243.0
 30
0.0
 40
4.0
  1
L
  7
ISO Proportional
 72
     4
 11
17.5
 21
245.0
 31
0.0
100
AcDbText
  0
LINE
  5
269F
330
268D
100
AcDbEntity
  8
FRAME 050
100
AcDbLine
 10
15.0
 20
270.0
 30
0.0
 11
20.0
 21
270.0
 31
0.0
  0
TEXT
  5
26A0
330
268D
100
AcDbEntity
  8
FRAME 050
100
AcDbText
 10
15.89
 20
293.0
 30
0.0
 40
4.0
  1
K
  7
ISO Proportional
 72
     4
 11
17.5
 21
295.0
 31
0.0
100
AcDbText
  0
LINE
  5
26A1
330
268D
100
AcDbEntity
  8
FRAME 050
100
AcDbLine
 10
15.0
 20
320.0
 30
0.0
 11
20.0
 21
320.0
 31
0.0
  0
TEXT
  5
26A2
330
268D
100
AcDbEntity
  8
FRAME 050
100
AcDbText
 10
16.21715728752538
 20
343.0828427124747
 30
0.0
 40
4.0
  1
J
  7
ISO Proportional
 72
     4
 11
17.5
 21
345.0
 31
0.0
100
AcDbText
  0
LINE
  5
26A3
330
268D
100
AcDbEntity
  8
FRAME 050
100
AcDbLine
 10
15.0
 20
370.0
 30
0.0
 11
20.0
 21
370.0
 31
0.0
  0
TEXT
  5
26A4
330
268D
100
AcDbEntity
  8
FRAME 050
100
AcDbText
 10
16.9
 20
393.0
 30
0.0
 40
4.0
  1
I
  7
ISO Proportional
 72
     4
 11
17.5
 21
395.0
 31
0.0
100
AcDbText
  0
LINE
  5
26A5
330
268D
100
AcDbEntity
  8
FRAME 050
100
AcDbLine
 10
17.5
 20
420.0
 30
0.0
 11
22.5
 21
422.4999999999998
 31
0.0
  0
LINE
  5
26A6
330
268D
100
AcDbEntity
  8
FRAME 050
100
AcDbLine
 10
22.5
 20
417.4999999999998
 30
0.0
 11
17.5
 21
420.0
 31
0.0
  0
LINE
  5
26A7
330
268D
100
AcDbEntity
  8
FRAME 050
100
AcDbLine
 10
15.0
 20
420.0
 30
0.0
 11
25.0
 21
420.0
 31
0.0
  0
LINE
  5
26A8
330
268D
100
AcDbEntity
  8
FRAME 050
100
AcDbLine
 10
22.5
 20
422.4999999999998
 30
0.0
 11
22.5
 21
417.4999999999998
 31
0.0
  0
TEXT
  5
26A9
330
268D
100
AcDbEntity
  8
FRAME 050
100
AcDbText
 10
15.9
 20
443.0
 30
0.0
 40
4.0
  1
H
  7
ISO Proportional
 72
     4
 11
17.5
 21
445.0
 31
0.0
100
AcDbText
  0
LINE
  5
26AA
330
268D
100
AcDbEntity
  8
FRAME 050
100
AcDbLine
 10
15.0
 20
470.0
 30
0.0
 11
20.0
 21
470.0
 31
0.0
  0
TEXT
  5
26AB
330
268D
100
AcDbEntity
  8
FRAME 050
100
AcDbText
 10
16.00355339059327
 20
493.0
 30
0.0
 40
4.0
  1
G
  7
ISO Proportional
 72
     4
 11
17.5
 21
495.0
 31
0.0
100
AcDbText
  0
LINE
  5
26AC
330
268D
100
AcDbEntity
  8
FRAME 050
100
AcDbLine
 10
15.0
 20
520.0
 30
0.0
 11
20.0
 21
520.0
 31
0.0
  0
TEXT
  5
26AD
330
268D
100
AcDbEntity
  8
FRAME 050
100
AcDbText
 10
16.1
 20
543.0
 30
0.0
 40
4.0
  1
F
  7
ISO Proportional
 72
     4
 11
17.5
 21
545.0
 31
0.0
100
AcDbText
  0
LINE
  5
26AE
330
268D
100
AcDbEntity
  8
FRAME 050
100
AcDbLine
 10
15.0
 20
570.0
 30
0.0
 11
20.0
 21
570.0
 31
0.0
  0
TEXT
  5
26AF
330
268D
100
AcDbEntity
  8
FRAME 050
100
AcDbText
 10
16.1
 20
593.0
 30
0.0
 40
4.0
  1
E
  7
ISO Proportional
 72
     4
 11
17.5
 21
595.0
 31
0.0
100
AcDbText
  0
LINE
  5
26B0
330
268D
100
AcDbEntity
  8
FRAME 050
100
AcDbLine
 10
15.0
 20
620.0
 30
0.0
 11
20.0
 21
620.0
 31
0.0
  0
TEXT
  5
26B1
330
268D
100
AcDbEntity
  8
FRAME 050
100
AcDbText
 10
15.7860912703474
 20
643.0
 30
0.0
 40
4.0
  1
D
  7
ISO Proportional
 72
     4
 11
17.5
 21
645.0
 31
0.0
100
AcDbText
  0
LINE
  5
26B2
330
268D
100
AcDbEntity
  8
FRAME 050
100
AcDbLine
 10
15.0
 20
670.0
 30
0.0
 11
20.0
 21
670.0
 31
0.0
  0
TEXT
  5
26B3
330
268D
100
AcDbEntity
  8
FRAME 050
100
AcDbText
 10
16.19319805153395
 20
693.0
 30
0.0
 40
4.0
  1
C
  7
ISO Proportional
 72
     4
 11
17.5
 21
695.0
 31
0.0
100
AcDbText
  0
LINE
  5
26B4
330
268D
100
AcDbEntity
  8
FRAME 050
100
AcDbLine
 10
15.0
 20
720.0
 30
0.0
 11
20.0
 21
720.0
 31
0.0
  0
TEXT
  5
26B5
330
268D
100
AcDbEntity
  8
FRAME 050
100
AcDbText
 10
15.9
 20
743.0
 30
0.0
 40
4.0
  1
B
  7
ISO Proportional
 72
     4
 11
17.5
 21
745.0
 31
0.0
100
AcDbText
  0
LINE
  5
26B6
330
268D
100
AcDbEntity
  8
FRAME 050
100
AcDbLine
 10
15.0
 20
770.0
 30
0.0
 11
20.0
 21
770.0
 31
0.0
  0
TEXT
  5
26B7
330
268D
100
AcDbEntity
  8
FRAME 050
100
AcDbText
 10
15.7
 20
793.0
 30
0.0
 40
4.0
  1
A
  7
ISO Proportional
 72
     4
 11
17.5
 21
795.0
 31
0.0
100
AcDbText
  0
TEXT
  5
26B8
330
268D
100
AcDbEntity
  8
FRAME 050
100
AcDbText
 10
54.875
 20
820.4999999999998
 30
0.0
 40
4.0
  1
1
  7
ISO Proportional
 72
     4
 11
55.875
 21
822.4999999999999
 31
0.0
100
AcDbText
  0
LINE
  5
26B9
330
268D
100
AcDbEntity
  8
FRAME 050
100
AcDbLine
 10
91.75
 20
820.0
 30
0.0
 11
91.75
 21
825.0
 31
0.0
  0
TEXT
  5
26BA
330
268D
100
AcDbEntity
  8
FRAME 050
100
AcDbText
 10
126.1556692913386
 20
820.3996062992125
 30
0.0
 40
4.0
  1
2
  7
ISO Proportional
 72
     4
 11
127.625
 21
822.4999999999999
 31
0.0
100
AcDbText
  0
LINE
  5
26BB
330
268D
100
AcDbEntity
  8
FRAME 050
100
AcDbLine
 10
163.5
 20
820.0
 30
0.0
 11
163.5
 21
825.0
 31
0.0
  0
TEXT
  5
26BC
330
268D
100
AcDbEntity
  8
FRAME 050
100
AcDbText
 10
197.8921572875254
 20
820.5828427124744
 30
0.0
 40
4.0
  1
3
  7
ISO Proportional
 72
     4
 11
199.375
 21
822.4999999999999
 31
0.0
100
AcDbText
  0
LINE
  5
26BD
330
268D
100
AcDbEntity
  8
FRAME 070
100
AcDbLine
 10
1168.0
 20
20.0
 30
0.0
 11
1168.0
 21
820.0
 31
0.0
  0
LINE
  5
26BE
330
268D
100
AcDbEntity
  8
FRAME 050
100
AcDbLine
 10
235.25
 20
15.0
 30
0.0
 11
235.25
 21
20.0
 31
0.0
  0
TEXT
  5
26BF
330
268D
100
AcDbEntity
  8
FRAME 050
100
AcDbText
 10
269.525
 20
15.5
 30
0.0
 40
4.0
  1
4
  7
ISO Proportional
 72
     4
 11
271.125
 21
17.5
 31
0.0
100
AcDbText
  0
LINE
  5
26C0
330
268D
100
AcDbEntity
  8
FRAME 050
100
AcDbLine
 10
307.0
 20
15.0
 30
0.0
 11
307.0
 21
20.0
 31
0.0
  0
TEXT
  5
26C1
330
268D
100
AcDbEntity
  8
FRAME 050
100
AcDbText
 10
341.3921572875254
 20
15.58284271247462
 30
0.0
 40
4.0
  1
5
  7
ISO Proportional
 72
     4
 11
342.875
 21
17.5
 31
0.0
100
AcDbText
  0
LINE
  5
26C2
330
268D
100
AcDbEntity
  8
FRAME 050
100
AcDbLine
 10
378.75
 20
15.0
 30
0.0
 11
378.75
 21
20.0
 31
0.0
  0
TEXT
  5
26C3
330
268D
100
AcDbEntity
  8
FRAME 050
100
AcDbText
 10
413.2454724409448
 20
15.41023622047244
 30
0.0
 40
4.0
  1
6
  7
ISO Proportional
 72
     4
 11
414.625
 21
17.5
 31
0.0
100
AcDbText
  0
LINE
  5
26C4
330
268D
100
AcDbEntity
  8
FRAME 050
100
AcDbLine
 10
450.4999999999998
 20
15.0
 30
0.0
 11
450.4999999999998
 21
20.0
 31
0.0
  0
LINE
  5
26C5
330
268D
100
AcDbEntity
  8
FRAME 050
100
AcDbLine
 10
544.0
 20
15.0
 30
0.0
 11
644.0
 21
15.0
 31
0.0
  0
TEXT
  5
26C6
330
268D
100
AcDbEntity
  8
FRAME 050
100
AcDbText
 10
484.975
 20
15.5
 30
0.0
 40
4.0
  1
7
  7
ISO Proportional
 72
     4
 11
486.375
 21
17.5
 31
0.0
100
AcDbText
  0
LINE
  5
26C7
330
268D
100
AcDbEntity
  8
FRAME 050
100
AcDbLine
 10
522.25
 20
15.0
 30
0.0
 11
522.25
 21
20.0
 31
0.0
  0
LINE
  5
26C8
330
268D
100
AcDbEntity
  8
FRAME 050
100
AcDbLine
 10
544.0
 20
15.0
 30
0.0
 11
544.0
 21
20.0
 31
0.0
  0
LINE
  5
26C9
330
268D
100
AcDbEntity
  8
FRAME 050
100
AcDbLine
 10
554.0
 20
15.0
 30
0.0
 11
554.0
 21
20.0
 31
0.0
  0
LINE
  5
26CA
330
268D
100
AcDbEntity
  8
FRAME 050
100
AcDbLine
 10
564.0
 20
15.0
 30
0.0
 11
564.0
 21
20.0
 31
0.0
  0
LINE
  5
26CB
330
268D
100
AcDbEntity
  8
FRAME 050
100
AcDbLine
 10
574.0
 20
15.0
 30
0.0
 11
574.0
 21
20.0
 31
0.0
  0
LINE
  5
26CC
330
268D
100
AcDbEntity
  8
FRAME 050
100
AcDbLine
 10
584.0
 20
15.0
 30
0.0
 11
584.0
 21
20.0
 31
0.0
  0
LINE
  5
26CD
330
268D
100
AcDbEntity
  8
FRAME 050
100
AcDbLine
 10
596.4999999999998
 20
22.5
 30
0.0
 11
594.0
 21
17.5
 31
0.0
  0
LINE
  5
26CE
330
268D
100
AcDbEntity
  8
FRAME 050
100
AcDbLine
 10
594.0
 20
17.5
 30
0.0
 11
591.5
 21
22.5
 31
0.0
  0
LINE
  5
26CF
330
268D
100
AcDbEntity
  8
FRAME 050
100
AcDbLine
 10
594.0
 20
20.0
 30
0.0
 11
594.0
 21
25.0
 31
0.0
  0
LINE
  5
26D0
330
268D
100
AcDbEntity
  8
FRAME 050
100
AcDbLine
 10
594.0
 20
20.0
 30
0.0
 11
594.0
 21
15.0
 31
0.0
  0
LINE
  5
26D1
330
268D
100
AcDbEntity
  8
FRAME 050
100
AcDbLine
 10
591.5
 20
22.5
 30
0.0
 11
596.4999999999998
 21
22.5
 31
0.0
  0
LINE
  5
26D2
330
268D
100
AcDbEntity
  8
FRAME 050
100
AcDbLine
 10
604.0
 20
15.0
 30
0.0
 11
604.0
 21
20.0
 31
0.0
  0
LINE
  5
26D3
330
268D
100
AcDbEntity
  8
FRAME 050
100
AcDbLine
 10
614.0
 20
15.0
 30
0.0
 11
614.0
 21
20.0
 31
0.0
  0
LINE
  5
26D4
330
268D
100
AcDbEntity
  8
FRAME 050
100
AcDbLine
 10
624.0
 20
15.0
 30
0.0
 11
624.0
 21
20.0
 31
0.0
  0
LINE
  5
26D5
330
268D
100
AcDbEntity
  8
FRAME 050
100
AcDbLine
 10
634.0
 20
15.0
 30
0.0
 11
634.0
 21
20.0
 31
0.0
  0
LINE
  5
26D6
330
268D
100
AcDbEntity
  8
FRAME 050
100
AcDbLine
 10
644.0
 20
15.0
 30
0.0
 11
644.0
 21
20.0
 31
0.0
  0
LINE
  5
26D7
330
268D
100
AcDbEntity
  8
FRAME 050
100
AcDbLine
 10
665.7499999999997
 20
15.0
 30
0.0
 11
665.7499999999997
 21
20.0
 31
0.0
  0
TEXT
  5
26D8
330
268D
100
AcDbEntity
  8
FRAME 050
100
AcDbText
 10
699.2234251968503
 20
15.5
 30
0.0
 40
4.0
  1
10
  7
ISO Proportional
 72
     4
 11
701.625
 21
17.5
 31
0.0
100
AcDbText
  0
LINE
  5
26D9
330
268D
100
AcDbEntity
  8
FRAME 050
100
AcDbLine
 10
737.5
 20
15.0
 30
0.0
 11
737.5
 21
20.0
 31
0.0
  0
TEXT
  5
26DA
330
268D
100
AcDbEntity
  8
FRAME 050
100
AcDbText
 10
771.375
 20
15.5
 30
0.0
 40
4.0
  1
11
  7
ISO Proportional
 72
     4
 11
773.375
 21
17.5
 31
0.0
100
AcDbText
  0
LINE
  5
26DB
330
268D
100
AcDbEntity
  8
FRAME 050
100
AcDbLine
 10
809.2499999999999
 20
15.0
 30
0.0
 11
809.2499999999999
 21
20.0
 31
0.0
  0
TEXT
  5
26DC
330
268D
100
AcDbEntity
  8
FRAME 050
100
AcDbText
 10
842.6048818897633
 20
15.39960629921259
 30
0.0
 40
4.0
  1
12
  7
ISO Proportional
 72
     4
 11
845.1249999999996
 21
17.5
 31
0.0
100
AcDbText
  0
LINE
  5
26DD
330
268D
100
AcDbEntity
  8
FRAME 050
100
AcDbLine
 10
881.0
 20
15.0
 30
0.0
 11
881.0
 21
20.0
 31
0.0
  0
TEXT
  5
26DE
330
268D
100
AcDbEntity
  8
FRAME 050
100
AcDbText
 10
914.3921572875253
 20
15.58284271247461
 30
0.0
 40
4.0
  1
13
  7
ISO Proportional
 72
     4
 11
916.8750000000001
 21
17.5
 31
0.0
100
AcDbText
  0
LINE
  5
26DF
330
268D
100
AcDbEntity
  8
FRAME 050
100
AcDbLine
 10
952.7499999999999
 20
15.0
 30
0.0
 11
952.7499999999999
 21
20.0
 31
0.0
  0
TEXT
  5
26E0
330
268D
100
AcDbEntity
  8
FRAME 050
100
AcDbText
 10
986.025
 20
15.5
 30
0.0
 40
4.0
  1
14
  7
ISO Proportional
 72
     4
 11
988.625
 21
17.5
 31
0.0
100
AcDbText
  0
TEXT
  5
26E1
330
268D
100
AcDbEntity
  8
FRAME 025
100
AcDbText
 10
1120.0
 20
51.75
 30
0.0
 40
2.5
  1
Article No./Reference
  7
ISO Proportional
 11
1120.0
 21
53.0
 31
0.0
100
AcDbText
 73
     2
  0
LINE
  5
26E2
330
268D
100
AcDbEntity
  8
FRAME 070
100
AcDbLine
 10
998.0
 20
56.0
 30
0.0
 11
1168.0
 21
56.0
 31
0.0
  0
LINE
  5
26E3
330
268D
100
AcDbEntity
  8
FRAME 070
100
AcDbLine
 10
998.0
 20
50.0
 30
0.0
 11
1168.0
 21
50.0
 31
0.0
  0
LINE
  5
26E4
330
268D
100
AcDbEntity
  8
FRAME 070
100
AcDbLine
 10
998.0
 20
40.0
 30
0.0
 11
1168.0
 21
40.0
 31
0.0
  0
LINE
  5
26E5
330
268D
100
AcDbEntity
  8
FRAME 070
100
AcDbLine
 10
1073.0
 20
30.0
 30
0.0
 11
1168.0
 21
30.0
 31
0.0
  0
LINE
  5
26E6
330
268D
100
AcDbEntity
  8
FRAME 070
100
AcDbLine
 10
1118.0
 20
50.0
 30
0.0
 11
1118.0
 21
56.0
 31
0.0
  0
LINE
  5
26E7
330
268D
100
AcDbEntity
  8
FRAME 070
100
AcDbLine
 10
1030.0
 20
50.0
 30
0.0
 11
1030.0
 21
56.0
 31
0.0
  0
LINE
  5
26E8
330
268D
100
AcDbEntity
  8
FRAME 070
100
AcDbLine
 10
998.0
 20
50.0
 30
0.0
 11
998.0
 21
56.0
 31
0.0
  0
LINE
  5
26E9
330
268D
100
AcDbEntity
  8
FRAME 070
100
AcDbLine
 10
1013.0
 20
50.0
 30
0.0
 11
1013.0
 21
56.0
 31
0.0
  0
ATTDEF
  5
26EA
330
268D
100
AcDbEntity
  8
FRAME 025
100
AcDbText
 10
1057.0
 20
41.74999999999999
 30
0.0
 40
2.5
  1

  7
ISO Proportional
 11
1057.0
 21
43.0
 31
0.0
100
AcDbAttributeDefinition
  3
Approved by - Date
  2
APPROVED_BY_DATE
 70
     8
 74
     2
  0
TEXT
  5
26EB
330
268D
100
AcDbEntity
  8
FRAME 025
100
AcDbText
 10
1032.0
 20
51.75
 30
0.0
 40
2.5
  1
Title/Name, designation, material, dimension etc
  7
ISO Proportional
 11
1032.0
 21
53.0
 31
0.0
100
AcDbText
 73
     2
  0
TEXT
  5
26EC
330
268D
100
AcDbEntity
  8
FRAME 025
100
AcDbText
 10
1057.0
 20
45.75
 30
0.0
 40
2.5
  1
Approved by - date
  7
ISO Proportional
 11
1057.0
 21
47.0
 31
0.0
100
AcDbText
 73
     2
  0
ATTDEF
  5
26ED
330
268D
100
AcDbEntity
  8
FRAME 050
100
AcDbText
 10
1035.5
 20
30.0
 30
0.0
 40
5.0
  1

  7
ISO Proportional
 72
     4
 11
1035.5
 21
30.0
 31
0.0
100
AcDbAttributeDefinition
  3
Owner
  2
OWNER
 70
     8
  0
LINE
  5
26EE
330
268D
100
AcDbEntity
  8
FRAME 070
100
AcDbLine
 10
998.0
 20
20.0
 30
0.0
 11
998.0
 21
50.0
 31
0.0
  0
LINE
  5
26EF
330
268D
100
AcDbEntity
  8
FRAME 050
100
AcDbLine
 10
1024.5
 20
15.0
 30
0.0
 11
1024.5
 21
20.0
 31
0.0
  0
ATTDEF
  5
26F0
330
268D
100
AcDbEntity
  8
FRAME 025
100
AcDbText
 10
1000.0
 20
41.74999999999999
 30
0.0
 40
2.5
  1

  7
ISO Proportional
 11
1000.0
 21
43.0
 31
0.0
100
AcDbAttributeDefinition
  3
Designed by
  2
DESIGNED_BY
 70
     8
 74
     2
  0
TEXT
  5
26F1
330
268D
100
AcDbEntity
  8
FRAME 025
100
AcDbText
 10
1000.0
 20
45.75
 30
0.0
 40
2.5
  1
Designed by
  7
ISO Proportional
 11
1000.0
 21
47.0
 31
0.0
100
AcDbText
 73
     2
  0
TEXT
  5
26F2
330
268D
100
AcDbEntity
  8
FRAME 025
100
AcDbText
 10
1000.0
 20
51.75
 30
0.0
 40
2.5
  1
Itemref
  7
ISO Proportional
 11
1000.0
 21
53.0
 31
0.0
100
AcDbText
 73
     2
  0
LINE
  5
26F3
330
268D
100
AcDbEntity
  8
FRAME 070
100
AcDbLine
 10
1030.0
 20
40.0
 30
0.0
 11
1030.0
 21
50.0
 31
0.0
  0
TEXT
  5
26F4
330
268D
100
AcDbEntity
  8
FRAME 025
100
AcDbText
 10
1015.0
 20
51.75
 30
0.0
 40
2.5
  1
Quantity
  7
ISO Proportional
 11
1015.0
 21
53.0
 31
0.0
100
AcDbText
 73
     2
  0
TEXT
  5
26F5
330
268D
100
AcDbEntity
  8
FRAME 050
100
AcDbText
 10
1057.892157287525
 20
15.58284271247462
 30
0.0
 40
4.0
  1
15
  7
ISO Proportional
 72
     4
 11
1060.375
 21
17.5
 31
0.0
100
AcDbText
  0
ATTDEF
  5
26F6
330
268D
100
AcDbEntity
  8
FRAME 025
100
AcDbText
 10
1032.0
 20
41.74999999999999
 30
0.0
 40
2.5
  1

  7
ISO Proportional
 11
1032.0
 21
43.0
 31
0.0
100
AcDbAttributeDefinition
  3
Checked by
  2
CHECKED_BY
 70
     8
 74
     2
  0
TEXT
  5
26F7
330
268D
100
AcDbEntity
  8
FRAME 025
100
AcDbText
 10
1032.0
 20
45.75
 30
0.0
 40
2.5
  1
Checked by
  7
ISO Proportional
 11
1032.0
 21
47.0
 31
0.0
100
AcDbText
 73
     2
  0
LINE
  5
26F8
330
268D
100
AcDbEntity
  8
FRAME 070
100
AcDbLine
 10
1055.0
 20
40.0
 30
0.0
 11
1055.0
 21
50.0
 31
0.0
  0
ATTDEF
  5
26F9
330
268D
100
AcDbEntity
  8
FRAME 025
100
AcDbText
 10
1095.0
 20
41.74999999999999
 30
0.0
 40
2.5
  1

  7
ISO Proportional
 11
1095.0
 21
43.0
 31
0.0
100
AcDbAttributeDefinition
  3
File name
  2
FILENAME
 70
     8
 74
     2
  0
ATTDEF
  5
26FA
330
268D
100
AcDbEntity
  8
FRAME 050
100
AcDbText
 10
1103.0
 20
25.0
 30
0.0
 40
3.0
  1

  7
ISO Proportional
 72
     4
 11
1103.0
 21
25.0
 31
0.0
100
AcDbAttributeDefinition
  3
Drawing number
  2
DRAWING_NUMBER
 70
     8
  0
TEXT
  5
26FB
330
268D
100
AcDbEntity
  8
FRAME 025
100
AcDbText
 10
1095.0
 20
45.75
 30
0.0
 40
2.5
  1
Filename
  7
ISO Proportional
 11
1095.0
 21
47.0
 31
0.0
100
AcDbText
 73
     2
  0
LINE
  5
26FC
330
268D
100
AcDbEntity
  8
FRAME 070
100
AcDbLine
 10
1073.0
 20
20.0
 30
0.0
 11
1073.0
 21
40.0
 31
0.0
  0
LINE
  5
26FD
330
268D
100
AcDbEntity
  8
FRAME 070
100
AcDbLine
 10
1093.0
 20
40.0
 30
0.0
 11
1093.0
 21
50.0
 31
0.0
  0
LINE
  5
26FE
330
268D
100
AcDbEntity
  8
FRAME 050
100
AcDbLine
 10
1096.25
 20
15.0
 30
0.0
 11
1096.25
 21
20.0
 31
0.0
  0
ATTDEF
  5
26FF
330
268D
100
AcDbEntity
  8
FRAME 025
100
AcDbText
 10
1120.0
 20
41.74999999999999
 30
0.0
 40
2.5
  1

  7
ISO Proportional
 11
1120.0
 21
43.0
 31
0.0
100
AcDbAttributeDefinition
  3
Date
  2
DATE
 70
     8
 74
     2
  0
LINE
  5
2700
330
268D
100
AcDbEntity
  8
FRAME 070
100
AcDbLine
 10
1118.0
 20
40.0
 30
0.0
 11
1118.0
 21
50.0
 31
0.0
  0
ATTDEF
  5
2701
330
268D
100
AcDbEntity
  8
FRAME 050
100
AcDbText
 10
1120.5
 20
35.0
 30
0.0
 40
5.0
  1

  7
ISO Proportional
 72
     4
 11
1120.5
 21
35.0
 31
0.0
100
AcDbAttributeDefinition
  3
Title / Name
  2
TITLE
 70
     8
  0
TEXT
  5
2702
330
268D
100
AcDbEntity
  8
FRAME 025
100
AcDbText
 10
1120.0
 20
45.75
 30
0.0
 40
2.5
  1
Date
  7
ISO Proportional
 11
1120.0
 21
47.0
 31
0.0
100
AcDbText
 73
     2
  0
ATTDEF
  5
2703
330
268D
100
AcDbEntity
  8
FRAME 025
100
AcDbText
 10
1135.0
 20
21.75
 30
0.0
 40
2.5
  1

  7
ISO Proportional
 11
1135.0
 21
23.0
 31
0.0
100
AcDbAttributeDefinition
  3
Edition
  2
EDITION
 70
     8
 74
     2
  0
LINE
  5
2704
330
268D
100
AcDbEntity
  8
FRAME 070
100
AcDbLine
 10
1133.0
 20
20.0
 30
0.0
 11
1133.0
 21
30.0
 31
0.0
  0
TEXT
  5
2705
330
268D
100
AcDbEntity
  8
FRAME 050
100
AcDbText
 10
1129.625787401575
 20
15.41023622047244
 30
0.0
 40
4.0
  1
16
  7
ISO Proportional
 72
     4
 11
1132.125
 21
17.5
 31
0.0
100
AcDbText
  0
TEXT
  5
2706
330
268D
100
AcDbEntity
  8
FRAME 025
100
AcDbText
 10
1135.0
 20
25.75
 30
0.0
 40
2.5
  1
Edition
  7
ISO Proportional
 11
1135.0
 21
27.0
 31
0.0
100
AcDbText
 73
     2
  0
LINE
  5
2707
330
268D
100
AcDbEntity
  8
FRAME 070
100
AcDbLine
 10
1148.0
 20
20.0
 30
0.0
 11
1148.0
 21
30.0
 31
0.0
  0
ATTDEF
  5
2708
330
268D
100
AcDbEntity
  8
FRAME 025
100
AcDbText
 10
1150.0
 20
21.75
 30
0.0
 40
2.5
  1
1/?
  7
ISO Proportional
 11
1150.0
 21
23.0
 31
0.0
100
AcDbAttributeDefinition
  3
Sheet
  2
SHEET
 70
     8
 74
     2
  0
TEXT
  5
2709
330
268D
100
AcDbEntity
  8
FRAME 025
100
AcDbText
 10
1150.0
 20
25.75
 30
0.0
 40
2.5
  1
Sheet
  7
ISO Proportional
 11
1150.0
 21
27.0
 31
0.0
100
AcDbText
 73
     2
  0
ATTDEF
  5
270A
330
268D
100
AcDbEntity
  8
FRAME 025
100
AcDbText
 10
1150.0
 20
41.74999999999999
 30
0.0
 40
2.5
  1

  7
ISO Proportional
 11
1150.0
 21
43.0
 31
0.0
100
AcDbAttributeDefinition
  3
Scale
  2
SCALE
 70
     8
 74
     2
  0
LINE
  5
270B
330
268D
100
AcDbEntity
  8
FRAME 070
100
AcDbLine
 10
1148.0
 20
40.0
 30
0.0
 11
1148.0
 21
50.0
 31
0.0
  0
TEXT
  5
270C
330
268D
100
AcDbEntity
  8
FRAME 025
100
AcDbText
 10
1150.0
 20
45.75
 30
0.0
 40
2.5
  1
Scale
  7
ISO Proportional
 11
1150.0
 21
47.0
 31
0.0
100
AcDbText
 73
     2
  0
TEXT
  5
270D
330
268D
100
AcDbEntity
  8
FRAME 050
100
AcDbText
 10
1168.9
 20
43.0
 30
0.0
 40
4.0
  1
P
  7
ISO Proportional
 72
     4
 11
1170.5
 21
45.0
 31
0.0
100
AcDbText
  0
LINE
  5
270E
330
268D
100
AcDbEntity
  8
FRAME 050
100
AcDbLine
 10
1168.0
 20
70.0
 30
0.0
 11
1173.0
 21
70.0
 31
0.0
  0
TEXT
  5
270F
330
268D
100
AcDbEntity
  8
FRAME 050
100
AcDbText
 10
1168.9
 20
93.0
 30
0.0
 40
4.0
  1
O
  7
ISO Proportional
 72
     4
 11
1170.5
 21
95.0
 31
0.0
100
AcDbText
  0
LINE
  5
2710
330
268D
100
AcDbEntity
  8
FRAME 050
100
AcDbLine
 10
1168.0
 20
120.0
 30
0.0
 11
1173.0
 21
120.0
 31
0.0
  0
TEXT
  5
2711
330
268D
100
AcDbEntity
  8
FRAME 050
100
AcDbText
 10
1168.9
 20
143.0
 30
0.0
 40
4.0
  1
N
  7
ISO Proportional
 72
     4
 11
1170.5
 21
145.0
 31
0.0
100
AcDbText
  0
LINE
  5
2712
330
268D
100
AcDbEntity
  8
FRAME 050
100
AcDbLine
 10
235.25
 20
820.0
 30
0.0
 11
235.25
 21
825.0
 31
0.0
  0
TEXT
  5
2713
330
268D
100
AcDbEntity
  8
FRAME 050
100
AcDbText
 10
269.525
 20
820.4999999999998
 30
0.0
 40
4.0
  1
4
  7
ISO Proportional
 72
     4
 11
271.125
 21
822.4999999999999
 31
0.0
100
AcDbText
  0
LINE
  5
2714
330
268D
100
AcDbEntity
  8
FRAME 050
100
AcDbLine
 10
307.0
 20
820.0
 30
0.0
 11
307.0
 21
825.0
 31
0.0
  0
TEXT
  5
2715
330
268D
100
AcDbEntity
  8
FRAME 050
100
AcDbText
 10
341.3921572875254
 20
820.5828427124744
 30
0.0
 40
4.0
  1
5
  7
ISO Proportional
 72
     4
 11
342.875
 21
822.4999999999999
 31
0.0
100
AcDbText
  0
LINE
  5
2716
330
268D
100
AcDbEntity
  8
FRAME 050
100
AcDbLine
 10
378.75
 20
820.0
 30
0.0
 11
378.75
 21
825.0
 31
0.0
  0
TEXT
  5
2717
330
268D
100
AcDbEntity
  8
FRAME 050
100
AcDbText
 10
413.2454724409448
 20
820.4102362204723
 30
0.0
 40
4.0
  1
6
  7
ISO Proportional
 72
     4
 11
414.625
 21
822.4999999999999
 31
0.0
100
AcDbText
  0
LINE
  5
2718
330
268D
100
AcDbEntity
  8
FRAME 050
100
AcDbLine
 10
450.4999999999998
 20
820.0
 30
0.0
 11
450.4999999999998
 21
825.0
 31
0.0
  0
TEXT
  5
2719
330
268D
100
AcDbEntity
  8
FRAME 050
100
AcDbText
 10
484.975
 20
820.4999999999998
 30
0.0
 40
4.0
  1
7
  7
ISO Proportional
 72
     4
 11
486.375
 21
822.4999999999999
 31
0.0
100
AcDbText
  0
LINE
  5
271A
330
268D
100
AcDbEntity
  8
FRAME 050
100
AcDbLine
 10
522.25
 20
820.0
 30
0.0
 11
522.25
 21
825.0
 31
0.0
  0
TEXT
  5
271B
330
268D
100
AcDbEntity
  8
FRAME 050
100
AcDbText
 10
556.7249999999999
 20
820.4999999999998
 30
0.0
 40
4.0
  1
8
  7
ISO Proportional
 72
     4
 11
558.1249999999998
 21
822.4999999999999
 31
0.0
100
AcDbText
  0
LINE
  5
271C
330
268D
100
AcDbEntity
  8
FRAME 050
100
AcDbLine
 10
594.0
 20
815.0
 30
0.0
 11
594.0
 21
825.0
 31
0.0
  0
TEXT
  5
271D
330
268D
100
AcDbEntity
  8
FRAME 050
100
AcDbText
 10
628.4076670934825
 20
820.5961825830806
 30
0.0
 40
4.0
  1
9
  7
ISO Proportional
 72
     4
 11
629.875
 21
822.4999999999999
 31
0.0
100
AcDbText
  0
LINE
  5
271E
330
268D
100
AcDbEntity
  8
FRAME 050
100
AcDbLine
 10
665.7499999999997
 20
820.0
 30
0.0
 11
665.7499999999997
 21
825.0
 31
0.0
  0
TEXT
  5
271F
330
268D
100
AcDbEntity
  8
FRAME 050
100
AcDbText
 10
699.2234251968503
 20
820.4999999999998
 30
0.0
 40
4.0
  1
10
  7
ISO Proportional
 72
     4
 11
701.625
 21
822.4999999999999
 31
0.0
100
AcDbText
  0
TEXT
  5
2720
330
268D
100
AcDbEntity
  8
FRAME 050
100
AcDbText
 10
1168.7
 20
193.0
 30
0.0
 40
4.0
  1
M
  7
ISO Proportional
 72
     4
 11
1170.5
 21
195.0
 31
0.0
100
AcDbText
  0
LINE
  5
2721
330
268D
100
AcDbEntity
  8
FRAME 050
100
AcDbLine
 10
1168.0
 20
170.0
 30
0.0
 11
1173.0
 21
170.0
 31
0.0
  0
LINE
  5
2722
330
268D
100
AcDbEntity
  8
FRAME 050
100
AcDbLine
 10
1168.0
 20
220.0
 30
0.0
 11
1173.0
 21
220.0
 31
0.0
  0
TEXT
  5
2723
330
268D
100
AcDbEntity
  8
FRAME 050
100
AcDbText
 10
1169.1
 20
243.0
 30
0.0
 40
4.0
  1
L
  7
ISO Proportional
 72
     4
 11
1170.5
 21
245.0
 31
0.0
100
AcDbText
  0
LINE
  5
2724
330
268D
100
AcDbEntity
  8
FRAME 050
100
AcDbLine
 10
1168.0
 20
270.0
 30
0.0
 11
1173.0
 21
270.0
 31
0.0
  0
TEXT
  5
2725
330
268D
100
AcDbEntity
  8
FRAME 050
100
AcDbText
 10
1168.89
 20
293.0
 30
0.0
 40
4.0
  1
K
  7
ISO Proportional
 72
     4
 11
1170.5
 21
295.0
 31
0.0
100
AcDbText
  0
LINE
  5
2726
330
268D
100
AcDbEntity
  8
FRAME 050
100
AcDbLine
 10
1168.0
 20
320.0
 30
0.0
 11
1173.0
 21
320.0
 31
0.0
  0
TEXT
  5
2727
330
268D
100
AcDbEntity
  8
FRAME 050
100
AcDbText
 10
1169.217157287525
 20
343.0828427124747
 30
0.0
 40
4.0
  1
J
  7
ISO Proportional
 72
     4
 11
1170.5
 21
345.0
 31
0.0
100
AcDbText
  0
LINE
  5
2728
330
268D
100
AcDbEntity
  8
FRAME 050
100
AcDbLine
 10
1168.0
 20
370.0
 30
0.0
 11
1173.0
 21
370.0
 31
0.0
  0
TEXT
  5
2729
330
268D
100
AcDbEntity
  8
FRAME 050
100
AcDbText
 10
1169.9
 20
393.0
 30
0.0
 40
4.0
  1
I
  7
ISO Proportional
 72
     4
 11
1170.5
 21
395.0
 31
0.0
100
AcDbText
  0
LINE
  5
272A
330
268D
100
AcDbEntity
  8
FRAME 050
100
AcDbLine
 10
1163.0
 20
420.0
 30
0.0
 11
1173.0
 21
420.0
 31
0.0
  0
TEXT
  5
272B
330
268D
100
AcDbEntity
  8
FRAME 050
100
AcDbText
 10
1168.9
 20
443.0
 30
0.0
 40
4.0
  1
H
  7
ISO Proportional
 72
     4
 11
1170.5
 21
445.0
 31
0.0
100
AcDbText
  0
LINE
  5
272C
330
268D
100
AcDbEntity
  8
FRAME 050
100
AcDbLine
 10
1168.0
 20
470.0
 30
0.0
 11
1173.0
 21
470.0
 31
0.0
  0
TEXT
  5
272D
330
268D
100
AcDbEntity
  8
FRAME 050
100
AcDbText
 10
1169.003553390593
 20
493.0
 30
0.0
 40
4.0
  1
G
  7
ISO Proportional
 72
     4
 11
1170.5
 21
495.0
 31
0.0
100
AcDbText
  0
LINE
  5
272E
330
268D
100
AcDbEntity
  8
FRAME 050
100
AcDbLine
 10
737.5
 20
820.0
 30
0.0
 11
737.5
 21
825.0
 31
0.0
  0
TEXT
  5
272F
330
268D
100
AcDbEntity
  8
FRAME 050
100
AcDbText
 10
771.375
 20
820.4999999999998
 30
0.0
 40
4.0
  1
11
  7
ISO Proportional
 72
     4
 11
773.375
 21
822.4999999999999
 31
0.0
100
AcDbText
  0
LINE
  5
2730
330
268D
100
AcDbEntity
  8
FRAME 050
100
AcDbLine
 10
809.2499999999999
 20
820.0
 30
0.0
 11
809.2499999999999
 21
825.0
 31
0.0
  0
TEXT
  5
2731
330
268D
100
AcDbEntity
  8
FRAME 050
100
AcDbText
 10
842.6048818897633
 20
820.3996062992125
 30
0.0
 40
4.0
  1
12
  7
ISO Proportional
 72
     4
 11
845.1249999999996
 21
822.4999999999999
 31
0.0
100
AcDbText
  0
LINE
  5
2732
330
268D
100
AcDbEntity
  8
FRAME 050
100
AcDbLine
 10
881.0
 20
820.0
 30
0.0
 11
881.0
 21
825.0
 31
0.0
  0
TEXT
  5
2733
330
268D
100
AcDbEntity
  8
FRAME 050
100
AcDbText
 10
914.3921572875253
 20
820.5828427124744
 30
0.0
 40
4.0
  1
13
  7
ISO Proportional
 72
     4
 11
916.8750000000001
 21
822.4999999999999
 31
0.0
100
AcDbText
  0
LINE
  5
2734
330
268D
100
AcDbEntity
  8
FRAME 050
100
AcDbLine
 10
952.7499999999999
 20
820.0
 30
0.0
 11
952.7499999999999
 21
825.0
 31
0.0
  0
TEXT
  5
2735
330
268D
100
AcDbEntity
  8
FRAME 050
100
AcDbText
 10
986.025
 20
820.4999999999998
 30
0.0
 40
4.0
  1
14
  7
ISO Proportional
 72
     4
 11
988.625
 21
822.4999999999999
 31
0.0
100
AcDbText
  0
LINE
  5
2736
330
268D
100
AcDbEntity
  8
FRAME 050
100
AcDbLine
 10
1168.0
 20
520.0
 30
0.0
 11
1173.0
 21
520.0
 31
0.0
  0
TEXT
  5
2737
330
268D
100
AcDbEntity
  8
FRAME 050
100
AcDbText
 10
1169.1
 20
543.0
 30
0.0
 40
4.0
  1
F
  7
ISO Proportional
 72
     4
 11
1170.5
 21
545.0
 31
0.0
100
AcDbText
  0
LINE
  5
2738
330
268D
100
AcDbEntity
  8
FRAME 050
100
AcDbLine
 10
1168.0
 20
570.0
 30
0.0
 11
1173.0
 21
570.0
 31
0.0
  0
TEXT
  5
2739
330
268D
100
AcDbEntity
  8
FRAME 050
100
AcDbText
 10
1169.1
 20
593.0
 30
0.0
 40
4.0
  1
E
  7
ISO Proportional
 72
     4
 11
1170.5
 21
595.0
 31
0.0
100
AcDbText
  0
LINE
  5
273A
330
268D
100
AcDbEntity
  8
FRAME 050
100
AcDbLine
 10
1168.0
 20
620.0
 30
0.0
 11
1173.0
 21
620.0
 31
0.0
  0
TEXT
  5
273B
330
268D
100
AcDbEntity
  8
FRAME 050
100
AcDbText
 10
1168.786091270347
 20
643.0
 30
0.0
 40
4.0
  1
D
  7
ISO Proportional
 72
     4
 11
1170.5
 21
645.0
 31
0.0
100
AcDbText
  0
LINE
  5
273C
330
268D
100
AcDbEntity
  8
FRAME 050
100
AcDbLine
 10
1168.0
 20
670.0
 30
0.0
 11
1173.0
 21
670.0
 31
0.0
  0
TEXT
  5
273D
330
268D
100
AcDbEntity
  8
FRAME 050
100
AcDbText
 10
1169.193198051534
 20
693.0
 30
0.0
 40
4.0
  1
C
  7
ISO Proportional
 72
     4
 11
1170.5
 21
695.0
 31
0.0
100
AcDbText
  0
LINE
  5
273E
330
268D
100
AcDbEntity
  8
FRAME 070
100
AcDbLine
 10
998.0
 20
814.0
 30
0.0
 11
1168.0
 21
814.0
 31
0.0
  0
TEXT
  5
273F
330
268D
100
AcDbEntity
  8
FRAME 025
100
AcDbText
 10
1012.0
 20
815.75
 30
0.0
 40
2.5
  1
Revision note
  7
ISO Proportional
 11
1012.0
 21
817.0
 31
0.0
100
AcDbText
 73
     2
  0
LINE
  5
2740
330
268D
100
AcDbEntity
  8
FRAME 050
100
AcDbLine
 10
1024.5
 20
820.0
 30
0.0
 11
1024.5
 21
825.0
 31
0.0
  0
TEXT
  5
2741
330
268D
100
AcDbEntity
  8
FRAME 025
100
AcDbText
 10
1000.0
 20
815.75
 30
0.0
 40
2.5
  1
RevNo
  7
ISO Proportional
 11
1000.0
 21
817.0
 31
0.0
100
AcDbText
 73
     2
  0
LINE
  5
2742
330
268D
100
AcDbEntity
  8
FRAME 070
100
AcDbLine
 10
998.0
 20
814.0
 30
0.0
 11
998.0
 21
820.0
 31
0.0
  0
LINE
  5
2743
330
268D
100
AcDbEntity
  8
FRAME 070
100
AcDbLine
 10
1010.0
 20
814.0
 30
0.0
 11
1010.0
 21
820.0
 31
0.0
  0
TEXT
  5
2744
330
268D
100
AcDbEntity
  8
FRAME 050
100
AcDbText
 10
1057.892157287525
 20
820.5828427124744
 30
0.0
 40
4.0
  1
15
  7
ISO Proportional
 72
     4
 11
1060.375
 21
822.4999999999999
 31
0.0
100
AcDbText
  0
LINE
  5
2745
330
268D
100
AcDbEntity
  8
FRAME 050
100
AcDbLine
 10
1096.25
 20
820.0
 30
0.0
 11
1096.25
 21
825.0
 31
0.0
  0
LINE
  5
2746
330
268D
100
AcDbEntity
  8
FRAME 070
100
AcDbLine
 10
1119.0
 20
814.0
 30
0.0
 11
1119.0
 21
820.0
 31
0.0
  0
TEXT
  5
2747
330
268D
100
AcDbEntity
  8
FRAME 025
100
AcDbText
 10
1121.0
 20
815.75
 30
0.0
 40
2.5
  1
Date
  7
ISO Proportional
 11
1121.0
 21
817.0
 31
0.0
100
AcDbText
 73
     2
  0
LINE
  5
2748
330
268D
100
AcDbEntity
  8
FRAME 050
100
AcDbLine
 10
1168.0
 20
720.0
 30
0.0
 11
1173.0
 21
720.0
 31
0.0
  0
TEXT
  5
2749
330
268D
100
AcDbEntity
  8
FRAME 050
100
AcDbText
 10
1168.9
 20
743.0
 30
0.0
 40
4.0
  1
B
  7
ISO Proportional
 72
     4
 11
1170.5
 21
745.0
 31
0.0
100
AcDbText
  0
LINE
  5
274A
330
268D
100
AcDbEntity
  8
FRAME 050
100
AcDbLine
 10
1168.0
 20
770.0
 30
0.0
 11
1173.0
 21
770.0
 31
0.0
  0
TEXT
  5
274B
330
268D
100
AcDbEntity
  8
FRAME 050
100
AcDbText
 10
1168.7
 20
793.0
 30
0.0
 40
4.0
  1
A
  7
ISO Proportional
 72
     4
 11
1170.5
 21
795.0
 31
0.0
100
AcDbText
  0
TEXT
  5
274C
330
268D
100
AcDbEntity
  8
FRAME 025
100
AcDbText
 10
1155.082993918505
 20
815.75
 30
0.0
 40
2.5
  1
Checked
  7
ISO Proportional
 11
1155.082993918505
 21
817.0
 31
0.0
100
AcDbText
 73
     2
  0
TEXT
  5
274D
330
268D
100
AcDbEntity
  8
FRAME 050
100
AcDbText
 10
1129.625787401575
 20
820.4102362204723
 30
0.0
 40
4.0
  1
16
  7
ISO Proportional
 72
     4
 11
1132.125
 21
822.4999999999999
 31
0.0
100
AcDbText
  0
TEXT
  5
274E
330
268D
100
AcDbEntity
  8
FRAME 025
100
AcDbText
 10
1139.360997972835
 20
815.75
 30
0.0
 40
2.5
  1
Signature
  7
ISO Proportional
 11
1139.360997972835
 21
817.0
 31
0.0
100
AcDbText
 73
     2
  0
LINE
  5
274F
330
268D
100
AcDbEntity
  8
FRAME 070
100
AcDbLine
 10
1139.0
 20
814.0
 30
0.0
 11
1139.0
 21
820.0
 31
0.0
  0
LINE
  5
2750
330
268D
100
AcDbEntity
  8
FRAME 070
100
AcDbLine
 10
1154.0
 20
814.0
 30
0.0
 11
1154.0
 21
820.0
 31
0.0
  0
ENDBLK
  5
2752
330
268D
100
AcDbEntity
  8
0
 62
     7
100
AcDbBlockEnd
  0
BLOCK
  5
2925
330
2924
100
AcDbEntity
  8
0
 62
     0
100
AcDbBlockBegin
  2
COMP6
 70
     0
 10
0.0
 20
0.0
 30
0.0
  3
COMP6
  1

  0
MTEXT
  5
2926
330
2924
100
AcDbEntity
  8
0
 62
     7
100
AcDbMText
 10
48.0974204022
 20
-67.2053875142
 30
0.0
 40
2.5
 41
0.0
 71
     1
 72
     5
  1
1
  7
SLDTEXTSTYLE0
 11
0.0
 21
1.0
 31
0.0
 73
     1
 44
1.0
1001
ACAD
1000
MTEXTBEGIN
1070
    73
1070
     1
1070
    44
1040
1.0
1070
    74
1070
     0
1000
MTEXTEND
  0
MTEXT
  5
2927
330
2924
100
AcDbEntity
  8
0
 62
     7
100
AcDbMText
 10
48.0974209639
 20
-65.4866375142
 30
0.0
 40
2.5
 41
0.0
 71
     1
 72
     5
  1
3
  7
SLDTEXTSTYLE0
 11
0.0
 21
1.0
 31
0.0
 73
     1
 44
1.0
1001
ACAD
1000
MTEXTBEGIN
1070
    73
1070
     1
1070
    44
1040
1.0
1070
    74
1070
     0
1000
MTEXTEND
  0
LINE
  5
2928
330
2924
100
AcDbEntity
  8
PIC06
  6
Continuous
 62
     7
100
AcDbLine
 10
51.1974181409
 20
-70.7053912779
 30
0.0
 11
51.1974181409
 21
-63.7366394608
 31
0.0
  0
LINE
  5
2929
330
2924
100
AcDbEntity
  8
0
  6
Continuous
 62
     7
100
AcDbLine
 10
51.8224181409
 20
-68.2053912779
 30
0.0
 11
51.1974181409
 21
-70.7053912779
 31
0.0
  0
LINE
  5
292A
330
2924
100
AcDbEntity
  8
0
  6
Continuous
 62
     7
100
AcDbLine
 10
51.1974181409
 20
-70.7053912779
 30
0.0
 11
50.5724181409
 21
-68.2053912779
 31
0.0
  0
LINE
  5
292B
330
2924
100
AcDbEntity
  8
PIC06
  6
Continuous
 62
     7
100
AcDbLine
 10
51.1974181409
 20
-70.7053912779
 30
0.0
 11
51.1974181409
 21
-71.7887462427
 31
0.0
  0
LINE
  5
292C
330
2924
100
AcDbEntity
  8
PIC06
  6
Continuous
 62
     7
100
AcDbLine
 10
51.1974181409
 20
-72.8721012076
 30
0.0
 11
51.1974181409
 21
-71.7887462427
 31
0.0
  0
LINE
  5
292D
330
2924
100
AcDbEntity
  8
PIC06
  6
Continuous
 62
     7
100
AcDbLine
 10
51.1974181409
 20
-72.8721012076
 30
0.0
 11
51.1974181409
 21
-75.8721000739
 31
0.0
  0
LINE
  5
292E
330
2924
100
AcDbEntity
  8
0
  6
Continuous
 62
     7
100
AcDbLine
 10
50.5724181409
 20
-75.3721012076
 30
0.0
 11
51.1974181409
 21
-72.8721012076
 31
0.0
  0
LINE
  5
292F
330
2924
100
AcDbEntity
  8
0
  6
Continuous
 62
     7
100
AcDbLine
 10
51.1974181409
 20
-72.8721012076
 30
0.0
 11
51.8224181409
 21
-75.3721012076
 31
0.0
  0
LINE
  5
2930
330
2924
100
AcDbEntity
  8
PIC06
  6
Continuous
 62
     7
100
AcDbLine
 10
44.1705139176
 20
-70.7053912779
 30
0.0
 11
52.19741776300001
 21
-70.7053912779
 31
0.0
  0
LINE
  5
2931
330
2924
100
AcDbEntity
  8
PIC06
  6
Continuous
 62
     7
100
AcDbLine
 10
44.1705139176
 20
-72.8721012076
 30
0.0
 11
52.19741776300001
 21
-72.8721012076
 31
0.0
  0
ENDBLK
  5
2932
330
2924
100
AcDbEntity
  8
0
100
AcDbBlockEnd
  0
BLOCK
  5
2934
330
2933
100
AcDbEntity
  8
0
 62
     0
100
AcDbBlockBegin
  2
COMP7
 70
     0
 10
0.0
 20
0.0
 30
0.0
  3
COMP7
  1

  0
MTEXT
  5
2935
330
2933
100
AcDbEntity
  8
0
 62
     7
100
AcDbMText
 10
54.3085836467
 20
-88.8827765267
 30
0.0
 40
2.5
 41
0.0
 71
     1
 72
     5
  1
1
  7
SLDTEXTSTYLE0
 11
0.0
 21
1.0
 31
0.0
 73
     1
 44
1.0
1001
ACAD
1000
MTEXTBEGIN
1070
    73
1070
     1
1070
    44
1040
1.0
1070
    74
1070
     0
1000
MTEXTEND
  0
MTEXT
  5
2936
330
2933
100
AcDbEntity
  8
0
 62
     7
100
AcDbMText
 10
54.30858420839999
 20
-87.1640265267
 30
0.0
 40
2.5
 41
0.0
 71
     1
 72
     5
  1
9
  7
SLDTEXTSTYLE0
 11
0.0
 21
1.0
 31
0.0
 73
     1
 44
1.0
1001
ACAD
1000
MTEXTBEGIN
1070
    73
1070
     1
1070
    44
1040
1.0
1070
    74
1070
     0
1000
MTEXTEND
  0
MTEXT
  5
2937
330
2933
100
AcDbEntity
  8
0
 62
     7
100
AcDbMText
 10
54.30858477010001
 20
-85.4452765267
 30
0.0
 40
2.5
 41
0.0
 71
     1
 72
     5
  1
0
  7
SLDTEXTSTYLE0
 11
0.0
 21
1.0
 31
0.0
 73
     1
 44
1.0
1001
ACAD
1000
MTEXTBEGIN
1070
    73
1070
     1
1070
    44
1040
1.0
1070
    74
1070
     0
1000
MTEXTEND
  0
LINE
  5
2938
330
2933
100
AcDbEntity
  8
PIC06
  6
Continuous
 62
     7
100
AcDbLine
 10
57.4085813855
 20
-70.7053912779
 30
0.0
 11
57.4085813855
 21
-86.53903059139999
 31
0.0
  0
LINE
  5
2939
330
2933
100
AcDbEntity
  8
0
  6
Continuous
 62
     7
100
AcDbLine
 10
56.7835813855
 20
-73.2053912779
 30
0.0
 11
57.4085813855
 21
-70.7053912779
 31
0.0
  0
LINE
  5
293A
330
2933
100
AcDbEntity
  8
0
  6
Continuous
 62
     7
100
AcDbLine
 10
57.4085813855
 20
-70.7053912779
 30
0.0
 11
58.0335813855
 21
-73.2053912779
 31
0.0
  0
LINE
  5
293B
330
2933
100
AcDbEntity
  8
PIC06
  6
Continuous
 62
     7
100
AcDbLine
 10
57.4085813855
 20
-102.3726800777
 30
0.0
 11
57.4085813855
 21
-86.53903059139999
 31
0.0
  0
LINE
  5
293C
330
2933
100
AcDbEntity
  8
0
  6
Continuous
 62
     7
100
AcDbLine
 10
58.0335813855
 20
-99.87268007770001
 30
0.0
 11
57.4085813855
 21
-102.3726800777
 31
0.0
  0
LINE
  5
293D
330
2933
100
AcDbEntity
  8
0
  6
Continuous
 62
     7
100
AcDbLine
 10
57.4085813855
 20
-102.3726800777
 30
0.0
 11
56.7835813855
 21
-99.87268007770001
 31
0.0
  0
LINE
  5
293E
330
2933
100
AcDbEntity
  8
PIC06
  6
Continuous
 62
     7
100
AcDbLine
 10
44.1705139176
 20
-70.7053912779
 30
0.0
 11
58.40858100760002
 21
-70.7053912779
 31
0.0
  0
LINE
  5
293F
330
2933
100
AcDbEntity
  8
PIC06
  6
Continuous
 62
     7
100
AcDbLine
 10
4.254485203299998
 20
-102.3726800777
 30
0.0
 11
58.40858100760002
 21
-102.3726800777
 31
0.0
  0
ENDBLK
  5
2940
330
2933
100
AcDbEntity
  8
0
100
AcDbBlockEnd
  0
BLOCK
  5
2942
330
2941
100
AcDbEntity
  8
0
 62
     0
100
AcDbBlockBegin
  2
COMP8
 70
     0
 10
0.0
 20
0.0
 30
0.0
  3
COMP8
  1

  0
MTEXT
  5
2943
330
2941
100
AcDbEntity
  8
0
 62
     7
100
AcDbMText
 10
48.0974204022
 20
-10.44540662419999
 30
0.0
 40
2.5
 41
0.0
 71
     1
 72
     5
  1
4
  7
SLDTEXTSTYLE0
 11
0.0
 21
1.0
 31
0.0
 73
     1
 44
1.0
1001
ACAD
1000
MTEXTBEGIN
1070
    73
1070
     1
1070
    44
1040
1.0
1070
    74
1070
     0
1000
MTEXTEND
  0
MTEXT
  5
2944
330
2941
100
AcDbEntity
  8
0
 62
     7
100
AcDbMText
 10
48.0974209639
 20
-8.7266566242
 30
0.0
 40
2.5
 41
0.0
 71
     1
 72
     5
  1
3
  7
SLDTEXTSTYLE0
 11
0.0
 21
1.0
 31
0.0
 73
     1
 44
1.0
1001
ACAD
1000
MTEXTBEGIN
1070
    73
1070
     1
1070
    44
1040
1.0
1070
    74
1070
     0
1000
MTEXTEND
  0
MTEXT
  5
2945
330
2941
100
AcDbEntity
  8
0
 62
     7
100
AcDbMText
 10
48.09742152560001
 20
-7.007906624199999
 30
0.0
 40
2.5
 41
0.0
 71
     1
 72
     5
  1
7
  7
SLDTEXTSTYLE0
 11
0.0
 21
1.0
 31
0.0
 73
     1
 44
1.0
1001
ACAD
1000
MTEXTBEGIN
1070
    73
1070
     1
1070
    44
1040
1.0
1070
    74
1070
     0
1000
MTEXTEND
  0
LINE
  5
2946
330
2941
100
AcDbEntity
  8
PIC06
  6
Continuous
 62
     7
100
AcDbLine
 10
51.1974181409
 20
-44.5190519642
 30
0.0
 11
51.1974181409
 21
-8.1016575099
 31
0.0
  0
LINE
  5
2947
330
2941
100
AcDbEntity
  8
0
  6
Continuous
 62
     7
100
AcDbLine
 10
51.8224181409
 20
-42.0190519642
 30
0.0
 11
51.1974181409
 21
-44.5190519642
 31
0.0
  0
LINE
  5
2948
330
2941
100
AcDbEntity
  8
0
  6
Continuous
 62
     7
100
AcDbLine
 10
51.1974181409
 20
-44.5190519642
 30
0.0
 11
50.5724181409
 21
-42.0190519642
 31
0.0
  0
LINE
  5
2949
330
2941
100
AcDbEntity
  8
PIC06
  6
Continuous
 62
     7
100
AcDbLine
 10
51.1974181409
 20
28.3157356728
 30
0.0
 11
51.1974181409
 21
-8.1016575099
 31
0.0
  0
LINE
  5
294A
330
2941
100
AcDbEntity
  8
0
  6
Continuous
 62
     7
100
AcDbLine
 10
50.5724181409
 20
25.8157356728
 30
0.0
 11
51.1974181409
 21
28.3157356728
 31
0.0
  0
LINE
  5
294B
330
2941
100
AcDbEntity
  8
0
  6
Continuous
 62
     7
100
AcDbLine
 10
51.1974181409
 20
28.3157356728
 30
0.0
 11
51.8224181409
 21
25.8157356728
 31
0.0
  0
LINE
  5
294C
330
2941
100
AcDbEntity
  8
PIC06
  6
Continuous
 62
     7
100
AcDbLine
 10
-0.7470479562000003
 20
-44.5190519642
 30
0.0
 11
52.19741776300001
 21
-44.5190519642
 31
0.0
  0
LINE
  5
294D
330
2941
100
AcDbEntity
  8
PIC06
  6
Continuous
 62
     7
100
AcDbLine
 10
-0.7470479562000003
 20
28.3157356728
 30
0.0
 11
52.19741776300001
 21
28.3157356728
 31
0.0
  0
ENDBLK
  5
294E
330
2941
100
AcDbEntity
  8
0
100
AcDbBlockEnd
  0
BLOCK
  5
2950
330
294F
100
AcDbEntity
  8
0
 62
     0
100
AcDbBlockBegin
  2
COMP9
 70
     0
 10
0.0
 20
0.0
 30
0.0
  3
COMP9
  1

  0
MTEXT
  5
2951
330
294F
100
AcDbEntity
  8
0
 62
     7
100
AcDbMText
 10
-2.231422951499999
 20
-76.5171010216
 30
0.0
 40
2.5
 41
0.0
 71
     1
 72
     5
  1
6
  7
SLDTEXTSTYLE0
 73
     1
 44
1.0
1001
ACAD
1000
MTEXTBEGIN
1070
    73
1070
     1
1070
    44
1040
1.0
1070
    74
1070
     0
1000
MTEXTEND
  0
MTEXT
  5
2952
330
294F
100
AcDbEntity
  8
0
 62
     7
100
AcDbMText
 10
-0.5126729515
 20
-76.5171010216
 30
0.0
 40
2.5
 41
0.0
 71
     1
 72
     5
  1
3
  7
SLDTEXTSTYLE0
 73
     1
 44
1.0
1001
ACAD
1000
MTEXTBEGIN
1070
    73
1070
     1
1070
    44
1040
1.0
1070
    74
1070
     0
1000
MTEXTEND
  0
LINE
  5
2953
330
294F
100
AcDbEntity
  8
PIC06
  6
Continuous
 62
     7
100
AcDbLine
 10
-5.997152547399996
 20
-79.61709876029998
 30
0.0
 11
-0.7470479562000003
 21
-79.61709876029998
 31
0.0
  0
LINE
  5
2954
330
294F
100
AcDbEntity
  8
0
  6
Continuous
 62
     7
100
AcDbLine
 10
-3.4971525474
 20
-80.24209876029997
 30
0.0
 11
-5.997152547399996
 21
-79.61709876029998
 31
0.0
  0
LINE
  5
2955
330
294F
100
AcDbEntity
  8
0
  6
Continuous
 62
     7
100
AcDbLine
 10
-5.997152547399996
 20
-79.61709876029998
 30
0.0
 11
-3.4971525474
 21
-78.99209876029998
 31
0.0
  0
LINE
  5
2956
330
294F
100
AcDbEntity
  8
PIC06
  6
Continuous
 62
     7
100
AcDbLine
 10
4.503056793999999
 20
-79.61709876029998
 30
0.0
 11
-0.7470479562000003
 21
-79.61709876029998
 31
0.0
  0
LINE
  5
2957
330
294F
100
AcDbEntity
  8
0
  6
Continuous
 62
     7
100
AcDbLine
 10
2.003056793999999
 20
-78.99209876029998
 30
0.0
 11
4.503056793999999
 21
-79.61709876029998
 31
0.0
  0
LINE
  5
2958
330
294F
100
AcDbEntity
  8
0
  6
Continuous
 62
     7
100
AcDbLine
 10
4.503056793999999
 20
-79.61709876029998
 30
0.0
 11
2.003056793999999
 21
-80.24209876029997
 31
0.0
  0
LINE
  5
2959
330
294F
100
AcDbEntity
  8
PIC06
  6
Continuous
 62
     7
100
AcDbLine
 10
-5.997152547399996
 20
-74.6221361508
 30
0.0
 11
-5.997152547399996
 21
-80.6170983824
 31
0.0
  0
LINE
  5
295A
330
294F
100
AcDbEntity
  8
PIC06
  6
Continuous
 62
     7
100
AcDbLine
 10
4.503056793999999
 20
-74.6221361508
 30
0.0
 11
4.503056793999999
 21
-80.6170983824
 31
0.0
  0
ENDBLK
  5
295B
330
294F
100
AcDbEntity
  8
0
100
AcDbBlockEnd
  0
BLOCK
  5
295D
330
295C
100
AcDbEntity
  8
0
 62
     0
100
AcDbBlockBegin
  2
COMP10
 70
     0
 10
0.0
 20
0.0
 30
0.0
  3
COMP10
  1

  0
MTEXT
  5
295E
330
295C
100
AcDbEntity
  8
0
 62
     7
100
AcDbMText
 10
-6.831144673899999
 20
-18.6345162345
 30
0.0
 40
2.5
 41
0.0
 71
     1
 72
     5
  1
4
  7
SLDTEXTSTYLE0
 73
     1
 44
1.0
1001
ACAD
1000
MTEXTBEGIN
1070
    73
1070
     1
1070
    44
1040
1.0
1070
    74
1070
     0
1000
MTEXTEND
  0
MTEXT
  5
295F
330
295C
100
AcDbEntity
  8
0
 62
     7
100
AcDbMText
 10
-5.112394673899999
 20
-18.6345162345
 30
0.0
 40
2.5
 41
0.0
 71
     1
 72
     5
  1
8
  7
SLDTEXTSTYLE0
 73
     1
 44
1.0
1001
ACAD
1000
MTEXTBEGIN
1070
    73
1070
     1
1070
    44
1040
1.0
1070
    74
1070
     0
1000
MTEXTEND
  0
MTEXT
  5
2960
330
295C
100
AcDbEntity
  8
0
 62
     7
100
AcDbMText
 10
-3.393644673899998
 20
-18.6345162345
 30
0.0
 40
2.5
 41
0.0
 71
     1
 72
     5
  1
3
  7
SLDTEXTSTYLE0
 73
     1
 44
1.0
1001
ACAD
1000
MTEXTBEGIN
1070
    73
1070
     1
1070
    44
1040
1.0
1070
    74
1070
     0
1000
MTEXTEND
  0
LINE
  5
2961
330
295C
100
AcDbEntity
  8
PIC06
  6
Continuous
 62
     7
100
AcDbLine
 10
-40.99785077609999
 20
-21.75729325699999
 30
0.0
 11
-0.7470479562000003
 21
-21.75729325699999
 31
0.0
  0
LINE
  5
2962
330
295C
100
AcDbEntity
  8
0
  6
Continuous
 62
     7
100
AcDbLine
 10
-38.4978507761
 20
-22.38229325699999
 30
0.0
 11
-40.99785077609999
 21
-21.75729325699999
 31
0.0
  0
LINE
  5
2963
330
295C
100
AcDbEntity
  8
0
  6
Continuous
 62
     7
100
AcDbLine
 10
-40.99785077609999
 20
-21.75729325699999
 30
0.0
 11
-38.4978507761
 21
-21.132293257
 31
0.0
  0
LINE
  5
2964
330
295C
100
AcDbEntity
  8
PIC06
  6
Continuous
 62
     7
100
AcDbLine
 10
39.5037566122
 20
-21.75729325699999
 30
0.0
 11
-0.7470479562000003
 21
-21.75729325699999
 31
0.0
  0
LINE
  5
2965
330
295C
100
AcDbEntity
  8
0
  6
Continuous
 62
     7
100
AcDbLine
 10
37.0037566122
 20
-21.132293257
 30
0.0
 11
39.5037566122
 21
-21.75729325699999
 31
0.0
  0
LINE
  5
2966
330
295C
100
AcDbEntity
  8
0
  6
Continuous
 62
     7
100
AcDbLine
 10
39.5037566122
 20
-21.75729325699999
 30
0.0
 11
37.0037566122
 21
-22.38229325699999
 31
0.0
  0
LINE
  5
2967
330
295C
100
AcDbEntity
  8
PIC06
  6
Continuous
 62
     7
100
AcDbLine
 10
-40.99785077609999
 20
-8.1016575099
 30
0.0
 11
-40.99785077609999
 21
-22.75729287909999
 31
0.0
  0
LINE
  5
2968
330
295C
100
AcDbEntity
  8
PIC06
  6
Continuous
 62
     7
100
AcDbLine
 10
39.5037566122
 20
-8.1016575099
 30
0.0
 11
39.5037566122
 21
-22.75729287909999
 31
0.0
  0
ENDBLK
  5
2969
330
295C
100
AcDbEntity
  8
0
100
AcDbBlockEnd
  0
BLOCK
  5
296B
330
296A
100
AcDbEntity
  8
0
 62
     0
100
AcDbBlockBegin
  2
COMP11
 70
     0
 10
0.0
 20
0.0
 30
0.0
  3
COMP11
  1

  0
MTEXT
  5
296C
330
296A
100
AcDbEntity
  8
0
 62
     7
100
AcDbMText
 10
14.3729107566
 20
-14.3818471723
 30
0.0
 40
2.5
 41
0.0
 71
     1
 72
     5
  1
3
  7
SLDTEXTSTYLE0
 11
0.0
 21
1.0
 31
0.0
 73
     1
 44
1.0
1001
ACAD
1000
MTEXTBEGIN
1070
    73
1070
     1
1070
    44
1040
1.0
1070
    74
1070
     0
1000
MTEXTEND
  0
MTEXT
  5
296D
330
296A
100
AcDbEntity
  8
0
 62
     7
100
AcDbMText
 10
14.3729113183
 20
-12.6630971723
 30
0.0
 40
2.5
 41
0.0
 71
     1
 72
     5
  1
8
  7
SLDTEXTSTYLE0
 11
0.0
 21
1.0
 31
0.0
 73
     1
 44
1.0
1001
ACAD
1000
MTEXTBEGIN
1070
    73
1070
     1
1070
    44
1040
1.0
1070
    74
1070
     0
1000
MTEXTEND
  0
MTEXT
  5
296E
330
296A
100
AcDbEntity
  8
0
 62
     7
100
AcDbMText
 10
14.37291188
 20
-10.9443471723
 30
0.0
 40
2.5
 41
0.0
 71
     1
 72
     5
  1
1
  7
SLDTEXTSTYLE0
 11
0.0
 21
1.0
 31
0.0
 73
     1
 44
1.0
1001
ACAD
1000
MTEXTBEGIN
1070
    73
1070
     1
1070
    44
1040
1.0
1070
    74
1070
     0
1000
MTEXTEND
  0
LINE
  5
296F
330
296A
100
AcDbEntity
  8
PIC06
  6
Continuous
 62
     7
100
AcDbLine
 10
17.5932086472
 20
23.6489758242
 30
0.0
 11
17.5932086472
 21
-8.1016575099
 31
0.0
  0
LINE
  5
2970
330
296A
100
AcDbEntity
  8
0
  6
Continuous
 62
     7
100
AcDbLine
 10
16.9682086472
 20
21.1489758242
 30
0.0
 11
17.5932086472
 21
23.6489758242
 31
0.0
  0
LINE
  5
2971
330
296A
100
AcDbEntity
  8
0
  6
Continuous
 62
     7
100
AcDbLine
 10
17.5932086472
 20
23.6489758242
 30
0.0
 11
18.2182086472
 21
21.1489758242
 31
0.0
  0
LINE
  5
2972
330
296A
100
AcDbEntity
  8
PIC06
  6
Continuous
 62
     7
100
AcDbLine
 10
17.5932086472
 20
-39.8522921156
 30
0.0
 11
17.5932086472
 21
-8.1016575099
 31
0.0
  0
LINE
  5
2973
330
296A
100
AcDbEntity
  8
0
  6
Continuous
 62
     7
100
AcDbLine
 10
18.2182086472
 20
-37.3522921156
 30
0.0
 11
17.5932086472
 21
-39.8522921156
 31
0.0
  0
LINE
  5
2974
330
296A
100
AcDbEntity
  8
0
  6
Continuous
 62
     7
100
AcDbLine
 10
17.5932086472
 20
-39.8522921156
 30
0.0
 11
16.9682086472
 21
-37.3522921156
 31
0.0
  0
LINE
  5
2975
330
296A
100
AcDbEntity
  8
PIC06
  6
Continuous
 62
     7
100
AcDbLine
 10
-0.7470479562000003
 20
23.6489758242
 30
0.0
 11
18.5932082693
 21
23.6489758242
 31
0.0
  0
LINE
  5
2976
330
296A
100
AcDbEntity
  8
PIC06
  6
Continuous
 62
     7
100
AcDbLine
 10
-0.7470479562000003
 20
-39.8522921156
 30
0.0
 11
18.5932082693
 21
-39.8522921156
 31
0.0
  0
ENDBLK
  5
2977
330
296A
100
AcDbEntity
  8
0
100
AcDbBlockEnd
  0
BLOCK
  5
2979
330
2978
100
AcDbEntity
  8
0
 62
     0
100
AcDbBlockBegin
  2
COMP12
 70
     0
 10
0.0
 20
0.0
 30
0.0
  3
COMP12
  1

  0
MTEXT
  5
297A
330
2978
100
AcDbEntity
  8
0
 62
     7
100
AcDbMText
 10
-16.1625385796
 20
-70.0387774222
 30
0.0
 40
2.5
 41
0.0
 71
     1
 72
     5
  1
1
  7
SLDTEXTSTYLE0
 11
0.0
 21
1.0
 31
0.0
 73
     1
 44
1.0
1001
ACAD
1000
MTEXTBEGIN
1070
    73
1070
     1
1070
    44
1040
1.0
1070
    74
1070
     0
1000
MTEXTEND
  0
MTEXT
  5
297B
330
2978
100
AcDbEntity
  8
0
 62
     7
100
AcDbMText
 10
-16.162538018
 20
-68.3200274222
 30
0.0
 40
2.5
 41
0.0
 71
     1
 72
     5
  1
3
  7
SLDTEXTSTYLE0
 11
0.0
 21
1.0
 31
0.0
 73
     1
 44
1.0
1001
ACAD
1000
MTEXTBEGIN
1070
    73
1070
     1
1070
    44
1040
1.0
1070
    74
1070
     0
1000
MTEXTEND
  0
LINE
  5
297C
330
2978
100
AcDbEntity
  8
PIC06
  6
Continuous
 62
     7
100
AcDbLine
 10
-13.0625382977
 20
-75.7054911156
 30
0.0
 11
-13.0625382977
 21
-78.7054899819
 31
0.0
  0
LINE
  5
297D
330
2978
100
AcDbEntity
  8
0
  6
Continuous
 62
     7
100
AcDbLine
 10
-13.6875382977
 20
-78.2054911156
 30
0.0
 11
-13.0625382977
 21
-75.7054911156
 31
0.0
  0
LINE
  5
297E
330
2978
100
AcDbEntity
  8
0
  6
Continuous
 62
     7
100
AcDbLine
 10
-13.0625382977
 20
-75.7054911156
 30
0.0
 11
-12.4375382977
 21
-78.2054911156
 31
0.0
  0
LINE
  5
297F
330
2978
100
AcDbEntity
  8
PIC06
  6
Continuous
 62
     7
100
AcDbLine
 10
-13.0625382977
 20
-75.7054911156
 30
0.0
 11
-13.0625382977
 21
-74.6221361508
 31
0.0
  0
LINE
  5
2980
330
2978
100
AcDbEntity
  8
PIC06
  6
Continuous
 62
     7
100
AcDbLine
 10
-13.0625382977
 20
-73.5387811859
 30
0.0
 11
-13.0625382977
 21
-74.6221361508
 31
0.0
  0
LINE
  5
2981
330
2978
100
AcDbEntity
  8
PIC06
  6
Continuous
 62
     7
100
AcDbLine
 10
-13.0625382977
 20
-73.5387811859
 30
0.0
 11
-13.0625382977
 21
-66.57002936890001
 31
0.0
  0
LINE
  5
2982
330
2978
100
AcDbEntity
  8
0
  6
Continuous
 62
     7
100
AcDbLine
 10
-12.4375382977
 20
-71.0387811859
 30
0.0
 11
-13.0625382977
 21
-73.5387811859
 31
0.0
  0
LINE
  5
2983
330
2978
100
AcDbEntity
  8
0
  6
Continuous
 62
     7
100
AcDbLine
 10
-13.0625382977
 20
-73.5387811859
 30
0.0
 11
-13.6875382977
 21
-71.0387811859
 31
0.0
  0
LINE
  5
2984
330
2978
100
AcDbEntity
  8
PIC06
  6
Continuous
 62
     7
100
AcDbLine
 10
-4.9137979004
 20
-75.7054911156
 30
0.0
 11
-14.0625379198
 21
-75.7054911156
 31
0.0
  0
LINE
  5
2985
330
2978
100
AcDbEntity
  8
PIC06
  6
Continuous
 62
     7
100
AcDbLine
 10
-4.9137979004
 20
-73.5387811859
 30
0.0
 11
-14.0625379198
 21
-73.5387811859
 31
0.0
  0
ENDBLK
  5
2986
330
2978
100
AcDbEntity
  8
0
100
AcDbBlockEnd
  0
BLOCK
  5
2988
330
2987
100
AcDbEntity
  8
0
 62
     0
100
AcDbBlockBegin
  2
COMP13
 70
     0
 10
0.0
 20
0.0
 30
0.0
  3
COMP13
  1

  0
MTEXT
  5
2989
330
2987
100
AcDbEntity
  8
0
 62
     7
100
AcDbMText
 10
-3.090797785699998
 20
-52.7253458572
 30
0.0
 40
2.5
 41
0.0
 71
     1
 72
     5
  1
5
  7
SLDTEXTSTYLE0
 73
     1
 44
1.0
1001
ACAD
1000
MTEXTBEGIN
1070
    73
1070
     1
1070
    44
1040
1.0
1070
    74
1070
     0
1000
MTEXTEND
  0
MTEXT
  5
298A
330
2987
100
AcDbEntity
  8
0
 62
     7
100
AcDbMText
 10
-1.372047785699999
 20
-52.7253458572
 30
0.0
 40
2.5
 41
0.0
 71
     1
 72
     5
  1
3
  7
SLDTEXTSTYLE0
 73
     1
 44
1.0
1001
ACAD
1000
MTEXTBEGIN
1070
    73
1070
     1
1070
    44
1040
1.0
1070
    74
1070
     0
1000
MTEXTEND
  0
MTEXT
  5
298B
330
2987
100
AcDbEntity
  8
0
 62
     7
100
AcDbMText
 10
0.3467022143
 20
-52.7253458572
 30
0.0
 40
2.5
 41
0.0
 71
     1
 72
     5
  1
9
  7
SLDTEXTSTYLE0
 73
     1
 44
1.0
1001
ACAD
1000
MTEXTBEGIN
1070
    73
1070
     1
1070
    44
1040
1.0
1070
    74
1070
     0
1000
MTEXTEND
  0
LINE
  5
298C
330
2987
100
AcDbEntity
  8
PIC06
  6
Continuous
 62
     7
100
AcDbLine
 10
44.1705139176
 20
-55.8253435959
 30
0.0
 11
-0.7470496251000001
 21
-55.8253435959
 31
0.0
  0
LINE
  5
298D
330
2987
100
AcDbEntity
  8
0
  6
Continuous
 62
     7
100
AcDbLine
 10
41.6705139176
 20
-55.2003435959
 30
0.0
 11
44.1705139176
 21
-55.8253435959
 31
0.0
  0
LINE
  5
298E
330
2987
100
AcDbEntity
  8
0
  6
Continuous
 62
     7
100
AcDbLine
 10
44.1705139176
 20
-55.8253435959
 30
0.0
 11
41.6705139176
 21
-56.4503435959
 31
0.0
  0
LINE
  5
298F
330
2987
100
AcDbEntity
  8
PIC06
  6
Continuous
 62
     7
100
AcDbLine
 10
-45.66461316779999
 20
-55.8253435959
 30
0.0
 11
-0.7470496251000001
 21
-55.8253435959
 31
0.0
  0
LINE
  5
2990
330
2987
100
AcDbEntity
  8
0
  6
Continuous
 62
     7
100
AcDbLine
 10
-43.16461316779999
 20
-56.4503435959
 30
0.0
 11
-45.66461316779999
 21
-55.8253435959
 31
0.0
  0
LINE
  5
2991
330
2987
100
AcDbEntity
  8
0
  6
Continuous
 62
     7
100
AcDbLine
 10
-45.66461316779999
 20
-55.8253435959
 30
0.0
 11
-43.16461316779999
 21
-55.2003435959
 31
0.0
  0
LINE
  5
2992
330
2987
100
AcDbEntity
  8
PIC06
  6
Continuous
 62
     7
100
AcDbLine
 10
44.1705139176
 20
-8.1016575099
 30
0.0
 11
44.1705139176
 21
-56.825343218
 31
0.0
  0
LINE
  5
2993
330
2987
100
AcDbEntity
  8
PIC06
  6
Continuous
 62
     7
100
AcDbLine
 10
-45.66461316779999
 20
-8.1016575099
 30
0.0
 11
-45.66461316779999
 21
-56.825343218
 31
0.0
  0
ENDBLK
  5
2994
330
2987
100
AcDbEntity
  8
0
100
AcDbBlockEnd
  0
BLOCK
  5
322C
330
3221
100
AcDbEntity
  8
0
 62
     7
100
AcDbBlockBegin
  2
*D13
 70
     1
 10
0.0
 20
0.0
 30
0.0
  3
*D13
  1

  0
LINE
  5
54CA
330
3221
100
AcDbEntity
  8
0
 62
     0
370
    -2
100
AcDbLine
 10
223.0872124724579
 20
-115.6190475490672
 30
0.0
 11
212.1752777796225
 21
-115.6190475490672
 31
0.0
  0
LINE
  5
54CB
330
3221
100
AcDbEntity
  8
0
 62
     0
370
    -2
100
AcDbLine
 10
212.6753792574307
 20
-114.1623959564057
 30
0.0
 11
212.1752777796225
 21
-114.1623959564057
 31
0.0
  0
LINE
  5
54CC
330
3221
100
AcDbEntity
  8
0
 62
     0
370
    -2
100
AcDbLine
 10
212.4752777796225
 20
-115.8690475490672
 30
0.0
 11
212.4752777796225
 21
-116.1190475490672
 31
0.0
  0
LINE
  5
54CD
330
3221
100
AcDbEntity
  8
0
 62
     0
370
    -2
100
AcDbLine
 10
212.4752777796225
 20
-113.9123959564057
 30
0.0
 11
212.4752777796225
 21
-113.6623959564057
 31
0.0
  0
SOLID
  5
54CE
330
3221
100
AcDbEntity
  8
0
 62
     0
100
AcDbTrace
 10
212.4336111129558
 20
-115.8690475490672
 30
0.0
 11
212.5169444462891
 21
-115.8690475490672
 31
0.0
 12
212.4752777796225
 22
-115.6190475490672
 32
0.0
 13
212.4752777796225
 23
-115.6190475490672
 33
0.0
  0
SOLID
  5
54CF
330
3221
100
AcDbEntity
  8
0
 62
     0
100
AcDbTrace
 10
212.4336111129558
 20
-113.9123959564057
 30
0.0
 11
212.5169444462891
 21
-113.9123959564057
 31
0.0
 12
212.4752777796225
 22
-114.1623959564057
 32
0.0
 13
212.4752777796225
 23
-114.1623959564057
 33
0.0
  0
MTEXT
  5
54D0
330
3221
100
AcDbEntity
  8
0
 62
     0
100
AcDbMText
 10
212.4752777796225
 20
-114.654376823223
 30
0.0
 40
0.125
 41
0.0
 71
     5
 72
     1
  1
\A1;1{\H1.000000x;\S1/2;}"
 73
     1
 44
1.0
1001
ACAD
1000
MTEXTBEGIN
1070
    73
1070
     1
1070
    44
1040
1.0
1070
    74
1070
     0
1000
MTEXTEND
  0
MTEXT
  5
54D1
330
3221
100
AcDbEntity
  8
0
 62
     0
100
AcDbMText
 10
212.4752777796225
 20
-115.0608291879342
 30
0.0
 40
0.125
 41
0.0
 71
     5
 72
     1
  1
\A1;[37mm]
 73
     1
 44
1.0
1001
ACAD
1000
MTEXTBEGIN
1070
    73
1070
     1
1070
    44
1040
1.0
1070
    74
1070
     0
1000
MTEXTEND
  0
POINT
  5
54D2
330
3221
100
AcDbEntity
  8
Defpoints
 62
     0
100
AcDbPoint
 10
223.3872124724579
 20
-115.6190475490672
 30
0.0
  0
POINT
  5
54D3
330
3221
100
AcDbEntity
  8
Defpoints
 62
     0
100
AcDbPoint
 10
212.9753792574307
 20
-114.1623959564057
 30
0.0
  0
POINT
  5
54D4
330
3221
100
AcDbEntity
  8
Defpoints
 62
     0
100
AcDbPoint
 10
212.4752777796225
 20
-114.1623959564057
 30
0.0
  0
ENDBLK
  5
322D
330
3221
100
AcDbEntity
  8
0
 62
     7
100
AcDbBlockEnd
  0
BLOCK
  5
3239
330
322E
100
AcDbEntity
  8
0
 62
     7
100
AcDbBlockBegin
  2
*D14
 70
     1
 10
0.0
 20
0.0
 30
0.0
  3
*D14
  1

  0
LINE
  5
54D5
330
322E
100
AcDbEntity
  8
0
 62
     0
370
    -2
100
AcDbLine
 10
211.473155415789
 20
-112.1623959940055
 30
0.0
 11
210.0799112803159
 21
-112.1623959940055
 31
0.0
  0
LINE
  5
54D6
330
322E
100
AcDbEntity
  8
0
 62
     0
370
    -2
100
AcDbLine
 10
211.473155415789
 20
-114.1623959564057
 30
0.0
 11
210.0799112803159
 21
-114.1623959564057
 31
0.0
  0
LINE
  5
54D7
330
322E
100
AcDbEntity
  8
0
 62
     0
370
    -2
100
AcDbLine
 10
210.3799112803159
 20
-112.4123959940056
 30
0.0
 11
210.3799112803159
 21
-112.7654384214706
 31
0.0
  0
LINE
  5
54D8
330
322E
100
AcDbEntity
  8
0
 62
     0
370
    -2
100
AcDbLine
 10
210.3799112803159
 20
-113.9123959564057
 30
0.0
 11
210.3799112803159
 21
-113.3144982213796
 31
0.0
  0
SOLID
  5
54D9
330
322E
100
AcDbEntity
  8
0
 62
     0
100
AcDbTrace
 10
210.3382446136492
 20
-112.4123959940056
 30
0.0
 11
210.4215779469825
 21
-112.4123959940056
 31
0.0
 12
210.3799112803159
 22
-112.1623959940055
 32
0.0
 13
210.3799112803159
 23
-112.1623959940055
 33
0.0
  0
SOLID
  5
54DA
330
322E
100
AcDbEntity
  8
0
 62
     0
100
AcDbTrace
 10
210.3382446136492
 20
-113.9123959564057
 30
0.0
 11
210.4215779469825
 21
-113.9123959564057
 31
0.0
 12
210.3799112803159
 22
-114.1623959564057
 32
0.0
 13
210.3799112803159
 23
-114.1623959564057
 33
0.0
  0
MTEXT
  5
54DB
330
322E
100
AcDbEntity
  8
0
 62
     0
100
AcDbMText
 10
210.3799112803159
 20
-113.0399683214251
 30
0.0
 40
0.125
 41
0.0
 71
     5
 72
     1
  1
\A1;2"\P [51mm]
 73
     1
 44
1.0
1001
ACAD
1000
MTEXTBEGIN
1070
    73
1070
     1
1070
    44
1040
1.0
1070
    74
1070
     0
1000
MTEXTEND
  0
POINT
  5
54DC
330
322E
100
AcDbEntity
  8
Defpoints
 62
     0
100
AcDbPoint
 10
211.773155415789
 20
-112.1623959940055
 30
0.0
  0
POINT
  5
54DD
330
322E
100
AcDbEntity
  8
Defpoints
 62
     0
100
AcDbPoint
 10
211.773155415789
 20
-114.1623959564057
 30
0.0
  0
POINT
  5
54DE
330
322E
100
AcDbEntity
  8
Defpoints
 62
     0
100
AcDbPoint
 10
210.3799112803159
 20
-114.1623959564057
 30
0.0
  0
ENDBLK
  5
323A
330
322E
100
AcDbEntity
  8
0
 62
     7
100
AcDbBlockEnd
  0
BLOCK
  5
3246
330
323B
100
AcDbEntity
  8
0
 62
     7
100
AcDbBlockBegin
  2
*D15
 70
     1
 10
0.0
 20
0.0
 30
0.0
  3
*D15
  1

  0
LINE
  5
54BF
330
323B
100
AcDbEntity
  8
0
 62
     0
370
    -2
100
AcDbLine
 10
211.473155415789
 20
-114.1623959564057
 30
0.0
 11
209.3302527713252
 21
-114.1623959564057
 31
0.0
  0
LINE
  5
54C0
330
323B
100
AcDbEntity
  8
0
 62
     0
370
    -2
100
AcDbLine
 10
221.364885451885
 20
-119.2017415356894
 30
0.0
 11
209.3302527713252
 21
-119.2017415356894
 31
0.0
  0
LINE
  5
54C1
330
323B
100
AcDbEntity
  8
0
 62
     0
370
    -2
100
AcDbLine
 10
209.6302527713252
 20
-114.4123959564057
 30
0.0
 11
209.6302527713252
 21
-116.3583954854745
 31
0.0
  0
LINE
  5
54C2
330
323B
100
AcDbEntity
  8
0
 62
     0
370
    -2
100
AcDbLine
 10
209.6302527713252
 20
-118.9517415356894
 30
0.0
 11
209.6302527713252
 21
-117.0057420066205
 31
0.0
  0
SOLID
  5
54C3
330
323B
100
AcDbEntity
  8
0
 62
     0
100
AcDbTrace
 10
209.5885861046586
 20
-114.4123959564057
 30
0.0
 11
209.6719194379919
 21
-114.4123959564057
 31
0.0
 12
209.6302527713252
 22
-114.1623959564057
 32
0.0
 13
209.6302527713252
 23
-114.1623959564057
 33
0.0
  0
SOLID
  5
54C4
330
323B
100
AcDbEntity
  8
0
 62
     0
100
AcDbTrace
 10
209.5885861046586
 20
-118.9517415356894
 30
0.0
 11
209.6719194379919
 21
-118.9517415356894
 31
0.0
 12
209.6302527713252
 22
-119.2017415356894
 32
0.0
 13
209.6302527713252
 23
-119.2017415356894
 33
0.0
  0
MTEXT
  5
54C5
330
323B
100
AcDbEntity
  8
0
 62
     0
100
AcDbMText
 10
209.6302527713253
 20
-116.5285029206723
 30
0.0
 40
0.125
 41
0.0
 71
     5
 72
     1
  1
\A1;5"
 73
     1
 44
1.0
1001
ACAD
1000
MTEXTBEGIN
1070
    73
1070
     1
1070
    44
1040
1.0
1070
    74
1070
     0
1000
MTEXTEND
  0
MTEXT
  5
54C6
330
323B
100
AcDbEntity
  8
0
 62
     0
100
AcDbMText
 10
209.6302527713253
 20
-116.8521761812453
 30
0.0
 40
0.125
 41
0.0
 71
     5
 72
     1
  1
\A1;[128mm]
 73
     1
 44
1.0
1001
ACAD
1000
MTEXTBEGIN
1070
    73
1070
     1
1070
    44
1040
1.0
1070
    74
1070
     0
1000
MTEXTEND
  0
POINT
  5
54C7
330
323B
100
AcDbEntity
  8
Defpoints
 62
     0
100
AcDbPoint
 10
211.773155415789
 20
-114.1623959564057
 30
0.0
  0
POINT
  5
54C8
330
323B
100
AcDbEntity
  8
Defpoints
 62
     0
100
AcDbPoint
 10
221.664885451885
 20
-119.2017415356894
 30
0.0
  0
POINT
  5
54C9
330
323B
100
AcDbEntity
  8
Defpoints
 62
     0
100
AcDbPoint
 10
209.6302527713252
 20
-119.2017415356894
 30
0.0
  0
ENDBLK
  5
3247
330
323B
100
AcDbEntity
  8
0
 62
     7
100
AcDbBlockEnd
  0
ENDSEC
  0
SECTION
  2
ENTITIES
  0
INSERT
  5
2BB
330
1E
100
AcDbEntity
  8
ASHADE
  6
Continuous
 62
     1
100
AcDbBlockReference
  2
AVE_RENDER
 10
-209.6768904976978
 20
8.631977759637322
 30
0.0
1001
AVE_RENDER
1002
{
1070
     7
1000
Pref
1070
    30
1070
    20
1070
     1
1070
     0
1000

1070
    10
1070
     1
1070
    10
1040
1.0
1070
     1
1040
0.3
1040
0.7
1040
0.0
1040
10.0
1010
-1.0
1020
-1.0
1030
-1.0
1040
0.3
1070
    49
1070
     0
1070
     0
1010
1.0
1020
1.0
1030
1.0
1040
45.0
1070
     1
1070
     0
1000
WCS
1040
0.0
1070
     0
1040
10.0
1002
}
  0
INSERT
  5
2BC
330
1E
100
AcDbEntity
  8
ASHADE
  6
Continuous
 62
     3
100
AcDbBlockReference
  2
AVE_RENDER
 10
-209.6768904976978
 20
8.631977759637322
 30
0.0
1001
AVE_RENDER
1002
{
1070
     0
1000
Full Opt
1070
     0
1070
     1
1070
     1
1070
     1
1070
     0
1070
     0
1070
     0
1070
     1
1070
     1
1040
0.0001
1040
0.0001
1002
}
  0
INSERT
  5
2BD
330
1E
100
AcDbEntity
  8
ASHADE
  6
Continuous
 62
     4
100
AcDbBlockReference
  2
AVE_RENDER
 10
-209.6768904976978
 20
8.631977759637322
 30
0.0
1001
AVE_RENDER
1002
{
1070
     0
1000
Quick Opt
1070
     0
1070
     1
1070
     1
1070
     1
1070
     0
1070
     0
1070
     1
1002
}
  0
INSERT
  5
2BE
330
1E
100
AcDbEntity
  8
ASHADE
  6
Continuous
 62
     5
100
AcDbBlockReference
  2
AVE_RENDER
 10
-209.6768904976978
 20
8.631977759637322
 30
0.0
1001
AVE_RENDER
1002
{
1070
     1
1000
Scanl Opt
1070
     2
1070
     0
1070
     2
1040
2.0
1040
4.0
1070
     0
1070
     1
1070
     0
1040
0.03
1002
}
  0
INSERT
  5
2BF
330
1E
100
AcDbEntity
  8
ASHADE
  6
Continuous
 62
     6
100
AcDbBlockReference
  2
AVE_RENDER
 10
-209.6768904976978
 20
8.631977759637322
 30
0.0
1001
AVE_RENDER
1002
{
1070
     2
1000
Raytr Opt
1070
     2
1070
     0
1070
     2
1040
2.0
1040
4.0
1070
     0
1070
     1
1070
     1
1040
0.03
1070
     3
1040
0.03
1002
}
  0
INSERT
  5
2C0
330
1E
100
AcDbEntity
  8
ASHADE
  6
Continuous
 62
     7
100
AcDbBlockReference
  2
AVE_RENDER
 10
-209.6768904976978
 20
8.631977759637322
 30
0.0
1001
AVE_RENDER
1002
{
1070
     0
1000
RFile Opt
1070
     1
1070
   640
1070
   480
1070
 10000
1070
     1
1070
     8
1070
     8
1070
     0
1070
     0
1070
     0
1070
     0
1070
     0
1070
     0
1070
     0
1002
}
  0
INSERT
  5
2C1
330
1E
100
AcDbEntity
  8
ASHADE
  6
Continuous
 62
     8
100
AcDbBlockReference
  2
AVE_RENDER
 10
-209.6768904976978
 20
8.631977759637322
 30
0.0
1001
AVE_RENDER
1002
{
1070
     0
1000
Fog Opt
1070
     0
1070
     0
1040
0.0
1040
1.0
1040
0.0
1040
1.0
1010
0.5
1020
0.5
1030
0.5
1002
}
  0
INSERT
  5
2C2
330
1E
100
AcDbEntity
  8
ASHADE
  6
Continuous
 62
     9
100
AcDbBlockReference
  2
AVE_RENDER
 10
-209.6768904976978
 20
8.631977759637322
 30
0.0
1001
AVE_RENDER
1002
{
1070
     0
1000
BG Opt
1070
     0
1070
     1
1010
0.0
1020
0.0
1030
0.0
1010
1.0
1020
0.0
1030
0.0
1010
0.0
1020
1.0
1030
0.0
1010
0.0
1020
0.0
1030
1.0
1040
0.5
1040
0.33
1040
0.0
1000

1070
     1
1000

1070
     1
1070
     1
1040
1.0
1040
1.0
1040
0.0
1040
0.0
1070
     0
1002
}
  0
INSERT
  5
2C3
330
1E
100
AcDbEntity
  8
ASHADE
  6
Continuous
 62
     1
100
AcDbBlockReference
  2
AVE_GLOBAL
 10
-209.6768904976978
 20
8.631977759637322
 30
0.0
1001
AVE_MATERIAL
1002
{
1000
*GLOBAL*
1000
1
1000
Global finish.
1002
{
1002
}
1002
{
1070
    63
1002
{
1002
{
1010
-1.0
1020
-1.0
1030
-1.0
1002
}
1040
0.1000000014901161
1000

1040
0.0
1002
{
1002
}
1040
0.0
1002
{
1002
}
1040
0.0
1002
}
1002
{
1002
{
1010
-1.0
1020
-1.0
1030
-1.0
1002
}
1040
0.6999999880790711
1000

1040
0.0
1002
{
1002
}
1040
0.0
1002
{
1002
}
1040
0.0
1002
}
1002
{
1002
{
1010
-1.0
1020
-1.0
1030
-1.0
1002
}
1040
0.2000000029802322
1000

1040
0.0
1002
{
1002
}
1040
0.0
1002
{
1002
}
1040
0.0
1002
}
1002
{
1070
     0
1002
{
1070
     1
1002
{
1040
1.0
1040
1.0
1000

1040
0.0
1002
{
1002
}
1040
0.0
1002
{
1002
}
1040
0.0
1002
}
1002
}
1040
1.0
1040
0.0
1040
0.0
1002
}
1002
{
1040
1.0
1040
1.0
1000

1040
0.0
1002
{
1002
}
1040
0.0
1002
{
1002
}
1040
0.0
1002
}
1002
{
1040
0.5
1040
1.0
1000

1040
0.0
1002
{
1002
}
1040
0.0
1002
{
1002
}
1040
0.0
1002
}
1002
{
1070
     0
1040
0.0
1002
{
1002
}
1040
1.0
1002
{
1002
}
1040
0.0
1002
}
1002
{
1040
0.0
1002
{
1002
{
1010
0.0
1020
0.0
1030
0.0
1002
}
1040
1.0
1000

1040
0.0
1002
{
1002
}
1040
0.0
1002
{
1002
}
1040
0.0
1002
}
1002
}
1002
{
1002
{
1070
     1
1002
{
1040
0.0
1040
1.0
1000

1040
0.0
1002
{
1002
}
1040
0.0
1002
{
1002
}
1040
0.0
1002
}
1002
}
1040
0.0
1002
{
1002
}
1010
1.0
1020
0.0
1030
0.0
1010
0.0
1020
1.0
1030
0.0
1010
0.0
1020
0.0
1030
1.0
1070
     0
1002
}
1002
{
1002
{
1040
1.0
1040
1.0
1002
{
1070
     1
1002
{
1040
1.0
1040
1.0
1000

1040
0.0
1002
{
1002
}
1040
0.0
1002
{
1002
}
1040
0.0
1002
}
1002
}
1002
}
1070
     0
1040
0.0
1002
{
1002
}
1002
}
1002
{
1002
}
1002
}
1002
{
1071
        3
1070
     3
1070
     0
1002
{
1070
     2
1070
     0
1070
     0
1040
0.0
1002
}
1070
     0
1070
     2
1002
{
1002
}
1002
}
1002
{
1040
8030.0
1040
190.3000030517578
1040
0.3050000071525574
1040
228.0
1040
545.0
1040
14.0
1040
17.39999961853027
1040
0.4560000002384186
1002
}
1002
}
  0
INSERT
  5
2C4
330
1E
100
AcDbEntity
  8
0
  6
Continuous
100
AcDbBlockReference
  2
*X2
 10
-34.02171456750215
 20
-4.081116523027445
 30
0.0
1001
ACAD
1000
HATCH
1002
{
1070
    16
1000
AR-CONC
1040
0.9
1040
0.0
1002
}
  0
INSERT
  5
2C5
330
1E
100
AcDbEntity
  8
0
  6
Continuous
100
AcDbBlockReference
  2
*X3
 10
-34.02171456750215
 20
-4.081116523027445
 30
0.0
1001
ACAD
1000
HATCH
1002
{
1070
    16
1000
AR-CONC
1040
0.9
1040
0.0
1002
}
  0
TEXT
  5
30C
330
1E
100
AcDbEntity
  8
BESAR
100
AcDbText
 10
-39.32733514232348
 20
-36.36823431366354
 30
0.0
 40
0.9
  1

 41
0.75
  7
ROMANS
 72
     5
 11
0.409495811791203
 21
-36.36823431366354
 31
0.0
100
AcDbText
  0
ARC
  5
1E5A
330
1E
100
AcDbEntity
  8
1
  6
PHANTOM
 62
     7
100
AcDbCircle
 10
223.3872124720534
 20
-128.6501255524604
 30
0.0
 40
11.41614105330192
100
AcDbArc
 50
56.30109416999015
 51
123.6989058199948
  0
ARC
  5
1E5B
330
1E
100
AcDbEntity
  8
1
  6
PHANTOM
 62
     7
100
AcDbCircle
 10
223.3872124720534
 20
-119.7927747341031
 30
0.0
 40
11.41614105330192
100
AcDbArc
 50
236.3010941699902
 51
303.6989058199949
  0
ARC
  5
1E5D
330
1E
100
AcDbEntity
  8
1
  6
PHANTOM
 62
     7
100
AcDbCircle
 10
220.690641223077
 20
-124.2214501432817
 30
0.0
 40
6.298560581050642
100
AcDbArc
 50
156.5776381000111
 51
203.4223618899846
  0
ARC
  5
1E5E
330
1E
100
AcDbEntity
  8
1
  6
PHANTOM
 62
     7
100
AcDbCircle
 10
220.3294189496414
 20
-124.3779323896166
 30
0.0
 40
5.904900545177852
100
AcDbArc
 50
203.4223618899846
 51
236.3010941699902
  0
LINE
  5
1E66
330
1E
100
AcDbEntity
  8
GRS_GAMBAR
  6
Continuous
 62
     7
100
AcDbLine
 10
223.3872124720534
 20
-132.108001116765
 30
0.0
 11
223.3872124720534
 21
-131.208915787405
 31
0.0
  0
HATCH
  5
1E67
330
1E
100
AcDbEntity
  8
G__TOTO
100
AcDbHatch
 10
0.0
 20
0.0
 30
0.0
210
0.0
220
0.0
230
1.0
  2
SOLID
 70
     1
 71
     0
 91
       10
 92
        7
 72
     1
 73
     1
 93
       20
 10
207.2435922237411
 20
-110.9617763563972
 42
0.0
 10
207.3152275067077
 20
-110.9617763563972
 42
-0.4142752124674323
 10
207.4754405838403
 20
-111.1220231590481
 42
0.0
 10
207.4754315023954
 20
-111.1651691038898
 42
0.0
 10
207.5703638502924
 20
-111.1651691038898
 42
0.0
 10
207.5704266423558
 20
-110.8668440106031
 42
0.0
 10
206.7241972002626
 20
-110.8668440106031
 42
0.0
 10
206.7241910197247
 20
-111.1651691038898
 42
0.0
 10
206.8191044849029
 20
-111.1651691038898
 42
0.0
 10
206.8191135805435
 20
-111.1219557151093
 42
-0.4141519149660894
 10
206.9793266576762
 20
-110.9617763563972
 42
0.0
 10
207.0510337141305
 20
-110.9617763563972
 42
0.0
 10
207.0509167874105
 20
-111.4987823833837
 42
-0.4141497897727592
 10
206.9912399724446
 20
-111.5584462058426
 42
0.0
 10
206.8895306023656
 20
-111.5584462058426
 42
0.0
 10
206.8895099319685
 20
-111.6533785516367
 42
0.0
 10
207.4048148294834
 20
-111.6533785516367
 42
0.0
 10
207.4048354998805
 20
-111.5584462058426
 42
0.0
 10
207.3031521176454
 20
-111.5584462058426
 42
-0.4142773378492039
 10
207.2434753026795
 20
-111.4987563955404
 42
0.0
 97
        0
 92
        7
 72
     1
 73
     1
 93
       20
 10
209.2726269333012
 20
-110.9617763563972
 42
0.0
 10
209.3442622162678
 20
-110.9617763563972
 42
-0.4142752124674332
 10
209.5044752934004
 20
-111.1220231590481
 42
0.0
 10
209.5044662119555
 20
-111.1651691038898
 42
0.0
 10
209.5993985598525
 20
-111.1651691038898
 42
0.0
 10
209.5994613519159
 20
-110.8668440106031
 42
0.0
 10
208.7532319098227
 20
-110.8668440106031
 42
0.0
 10
208.7532257292848
 20
-111.1651691038898
 42
0.0
 10
208.8481391944629
 20
-111.1651691038898
 42
0.0
 10
208.8481482901036
 20
-111.1219557151093
 42
-0.414151914966089
 10
209.0083613672362
 20
-110.9617763563972
 42
0.0
 10
209.0800684236906
 20
-110.9617763563972
 42
0.0
 10
209.0799514969706
 20
-111.4987823833837
 42
-0.41414978977276
 10
209.0202746820047
 20
-111.5584462058426
 42
0.0
 10
208.9185653119257
 20
-111.5584462058426
 42
0.0
 10
208.9185446415286
 20
-111.6533785516367
 42
0.0
 10
209.4338495390435
 20
-111.6533785516367
 42
0.0
 10
209.4338702094406
 20
-111.5584462058426
 42
0.0
 10
209.3321868272055
 20
-111.5584462058426
 42
-0.4142773378492051
 10
209.2725100122396
 20
-111.4987563955404
 42
0.0
 97
        0
 92
       16
 93
        4
 72
     2
 10
208.1617553525296
 20
-111.3660643588578
 40
0.2194969376039103
 50
199.1202649999999
 51
340.867675
 73
     1
 72
     2
 10
207.8566692368852
 20
-111.2602260346377
 40
0.5424199893345251
 50
340.867675
 51
379.193527
 73
     1
 72
     2
 10
208.1617776608208
 20
-111.1540146911274
 40
0.2193534190625904
 50
19.193527
 51
160.7944129999999
 73
     1
 72
     2
 10
208.4668637204142
 20
-111.2602902410384
 40
0.5424199893345251
 50
160.7944129999999
 51
199.1202649999999
 73
     1
 97
        0
 92
        1
 93
        4
 72
     2
 10
208.1115949637393
 20
-111.2602528550329
 40
0.4068248149356199
 50
142.997119
 51
216.4375859999999
 73
     1
 72
     2
 10
208.1617793703757
 20
-111.1923038741291
 40
0.4881897947380386
 50
219.356321
 51
320.61032
 73
     1
 72
     2
 10
208.2119380215856
 20
-111.2602634206432
 40
0.4068248149356199
 50
323.5257889999999
 51
396.965523
 73
     1
 72
     2
 10
208.1617536429747
 20
-111.3279186943974
 40
0.4881897947380386
 50
39.769149
 51
140.196876
 73
     1
 97
        0
 92
        1
 93
        4
 72
     2
 10
210.1405919429237
 20
-111.2602528550329
 40
0.4068248149356199
 50
142.997119
 51
216.4375859999999
 73
     1
 72
     2
 10
210.1907763495602
 20
-111.1923038741291
 40
0.4881897947380386
 50
219.356321
 51
320.61032
 73
     1
 72
     2
 10
210.24093500077
 20
-111.2602634206432
 40
0.4068248149356199
 50
323.5257889999999
 51
396.965523
 73
     1
 72
     2
 10
210.1907506221591
 20
-111.3279186943974
 40
0.4881897947380386
 50
39.769149
 51
140.196876
 73
     1
 97
        0
 92
       16
 93
        4
 72
     2
 10
210.190752331714
 20
-111.3660643588578
 40
0.2194969376039103
 50
199.1202649999999
 51
340.867675
 73
     1
 72
     2
 10
209.8856662160696
 20
-111.2602260346377
 40
0.5424199893345251
 50
340.867675
 51
379.193527
 73
     1
 72
     2
 10
210.1907746400052
 20
-111.1540146911274
 40
0.2193534190625904
 50
19.193527
 51
160.7944129999999
 73
     1
 72
     2
 10
210.4958606995987
 20
-111.2602902410384
 40
0.5424199893345251
 50
160.7944129999999
 51
199.1202649999999
 73
     1
 97
        0
 92
        0
 93
       67
 72
     1
 10
210.7768269002971
 20
-110.8972268385245
 11
210.7774630789513
 21
-110.8972355544523
 72
     1
 10
210.7774630789513
 20
-110.8972355544523
 11
210.7787703279963
 21
-110.8972791340913
 72
     1
 10
210.7787703279964
 20
-110.8972791340913
 11
210.7800339974024
 21
-110.8973749812718
 72
     1
 10
210.7800339974023
 20
-110.8973749812718
 11
210.7812714909994
 21
-110.8975144361169
 72
     1
 10
210.7812714909994
 20
-110.8975144361169
 11
210.7824654329828
 21
-110.8977061585034
 72
     1
 10
210.7824654329829
 20
-110.8977061585034
 11
210.7836332552084
 21
-110.8979501764568
 72
     1
 10
210.7836332552084
 20
-110.8979501764568
 11
210.7847661856971
 21
-110.8982290581214
 72
     1
 10
210.7847661856971
 20
-110.8982290581215
 11
210.7858555365468
 21
-110.8985689512808
 72
     1
 10
210.7858555365468
 20
-110.8985689512808
 11
210.7869187676385
 21
-110.8989523960538
 72
     1
 10
210.7869187676385
 20
-110.8989523960537
 11
210.7879471350189
 21
-110.8993794204658
 72
     1
 10
210.7879471350189
 20
-110.8993794204658
 11
210.7889406386881
 21
-110.8998587404448
 72
     1
 10
210.7889406386881
 20
-110.8998587404448
 11
210.789899278646
 21
-110.9003816400628
 72
     1
 10
210.789899278646
 20
-110.9003816400628
 11
210.7908143389648
 21
-110.9009568352477
 72
     1
 10
210.7908143389648
 20
-110.9009568352477
 11
210.7917032515001
 21
-110.9015755820462
 72
     1
 10
210.7917032515001
 20
-110.9015755820462
 11
210.7925573283497
 21
-110.9022466244117
 72
     1
 10
210.7925573283497
 20
-110.9022466244117
 11
210.7932719503542
 21
-110.9028915470192
 72
     1
 10
210.7932719503542
 20
-110.9028915470192
 11
210.7940649876836
 21
-110.9036933002763
 72
     1
 10
210.7940649876836
 20
-110.9036933002764
 11
210.794788325616
 21
-110.9045386611981
 72
     1
 10
210.794788325616
 20
-110.9045386611981
 11
210.795450680079
 21
-110.9054188578057
 72
     1
 10
210.795450680079
 20
-110.9054188578057
 11
210.7960519950219
 21
-110.9063426340523
 72
     1
 10
210.796051995022
 20
-110.9063426340523
 11
210.7965923264956
 21
-110.9073012740102
 72
     1
 10
210.7965923264956
 20
-110.9073012740102
 11
210.7970629305467
 21
-110.9083034936072
 72
     1
 10
210.7970629305467
 20
-110.9083034936072
 11
210.7974725231032
 21
-110.9093492928432
 72
     1
 10
210.7974725231031
 20
-110.9093492928432
 11
210.7978211321903
 21
-110.910429927765
 72
     1
 10
210.7978211321903
 20
-110.910429927765
 11
210.798100013855
 21
-110.9115454544237
 72
     1
 10
210.798100013855
 20
-110.9115454544237
 11
210.7983265999527
 21
-110.9127132486237
 72
     1
 10
210.7983265999527
 20
-110.9127132486237
 11
210.7984834586279
 21
-110.9139071906072
 72
     1
 10
210.7984834586279
 20
-110.9139071906072
 11
210.7985793338339
 21
-110.9151534281575
 72
     1
 10
210.7985793338339
 20
-110.9151534281575
 11
210.7986054816174
 21
-110.9164345013937
 72
     1
 10
210.7986054816174
 20
-110.9164345013937
 11
210.7985967656896
 21
-110.9173670215936
 72
     1
 10
210.7985967656896
 20
-110.9173670215936
 11
210.7985619019783
 21
-110.9187091063244
 72
     1
 10
210.7985619019783
 20
-110.9187091063244
 11
210.7984834586279
 21
-110.9200076394417
 72
     1
 10
210.7984834586279
 20
-110.9200076394417
 11
210.798361463664
 21
-110.9212625648944
 72
     1
 10
210.798361463664
 20
-110.9212625648944
 11
210.7982132928911
 21
-110.9224826546613
 72
     1
 10
210.7982132928911
 20
-110.9224826546613
 11
210.7980302864325
 21
-110.9236678807169
 72
     1
 10
210.7980302864325
 20
-110.9236678807169
 11
210.7978037003347
 21
-110.9248008392312
 72
     1
 10
210.7978037003347
 20
-110.9248008392311
 11
210.7975509664535
 21
-110.9259076219365
 72
     1
 10
210.7975509664535
 20
-110.9259076219365
 11
210.7972546529332
 21
-110.9269621371004
 72
     1
 10
210.7972546529332
 20
-110.9269621371004
 11
210.7969235037272
 21
-110.927981788553
 72
     1
 10
210.7969235037272
 20
-110.927981788553
 11
210.7965574627843
 21
-110.9289665762944
 72
     1
 10
210.7965574627843
 20
-110.9289665762943
 11
210.7961565861557
 21
-110.9298990684688
 72
     1
 10
210.7961565861558
 20
-110.9298990684688
 11
210.7957208458159
 21
-110.9308054128598
 72
     1
 10
210.7957208458159
 20
-110.9308054128598
 11
210.7952414978115
 21
-110.9316594616839
 72
     1
 10
210.7952414978115
 20
-110.9316594616839
 11
210.7947360580745
 21
-110.9324786748222
 72
     1
 10
210.7947360580745
 20
-110.9324786748222
 11
210.794187010673
 21
-110.9332630242492
 72
     1
 10
210.794187010673
 20
-110.9332630242492
 11
210.7936118154881
 21
-110.9340037940372
 72
     1
 10
210.7936118154881
 20
-110.9340037940372
 11
210.7929930686896
 21
-110.9347009841861
 72
     1
 10
210.7929930686896
 20
-110.934700984186
 11
210.7923394581798
 21
-110.9353545946959
 72
     1
 10
210.7923394581798
 20
-110.9353545946959
 11
210.7916509559332
 21
-110.9359820574222
 72
     1
 10
210.7916509559332
 20
-110.9359820574222
 11
210.7909276180009
 21
-110.9365572526072
 72
     1
 10
210.7909276180009
 20
-110.9365572526072
 11
210.790160728455
 21
-110.9370975840808
 72
     1
 10
210.790160728455
 20
-110.9370975840808
 11
210.7893676631001
 21
-110.9375943359154
 72
     1
 10
210.7893676631001
 20
-110.9375943359154
 11
210.7885310181061
 21
-110.9380562240387
 72
     1
 10
210.7885310181061
 20
-110.9380562240387
 11
210.7876682533543
 21
-110.9384745325229
 72
     1
 10
210.7876682533543
 20
-110.9384745325229
 11
210.7867619089633
 21
-110.9388580053214
 72
     1
 10
210.7867619089633
 20
-110.9388580053214
 11
210.785820700861
 21
-110.9391978704553
 72
     1
 10
210.785820700861
 20
-110.9391978704553
 11
210.7848446290474
 21
-110.9394941839755
 72
     1
 10
210.7848446290474
 20
-110.9394941839755
 11
210.7838336935226
 21
-110.9397556337846
 72
     1
 10
210.7838336935226
 20
-110.9397556337845
 11
210.7827791783588
 21
-110.9399735039545
 72
     1
 10
210.7827791783588
 20
-110.9399735039545
 11
210.781698543437
 21
-110.9401565104132
 72
     1
 10
210.781698543437
 20
-110.9401565104132
 11
210.7805743008505
 21
-110.9402959652582
 72
     1
 10
210.7805743008505
 20
-110.9402959652582
 11
210.7794239385061
 21
-110.9403918124387
 72
     1
 10
210.7794239385061
 20
-110.9403918124387
 11
210.7782299965227
 21
-110.9404528239334
 72
     1
 10
210.7782299965227
 20
-110.9404528239334
 11
210.777001190828
 21
-110.9404789717169
 72
     1
 10
210.777001190828
 20
-110.9404789717169
 11
210.734655430052
 21
-110.9404789717169
 72
     1
 10
210.734655430052
 20
-110.9404789717169
 11
210.734655430052
 21
-110.8972268385245
 72
     1
 10
210.734655430052
 20
-110.8972268385245
 11
210.7768269002971
 21
-110.8972268385245
 97
        0
 92
        0
 93
      207
 72
     1
 10
210.8021437279286
 20
-110.9493594652191
 11
210.8009846496565
 21
-110.9484967004672
 72
     1
 10
210.8009846496565
 20
-110.9484967004672
 11
210.7997471280339
 21
-110.9476077599064
 72
     1
 10
210.799747128034
 20
-110.9476077599064
 11
210.7984398789889
 21
-110.9467014155154
 72
     1
 10
210.7984398789889
 20
-110.9467014155154
 11
210.7992067965603
 21
-110.9461436521861
 72
     1
 10
210.7992067965603
 20
-110.9461436521861
 11
210.800270027652
 21
-110.9453331830011
 72
     1
 10
210.800270027652
 20
-110.9453331830011
 11
210.8012896510791
 21
-110.9445226857906
 72
     1
 10
210.8012896510791
 20
-110.9445226857906
 11
210.8022744388204
 21
-110.9436947567244
 72
     1
 10
210.8022744388204
 20
-110.9436947567244
 11
210.8032243628505
 21
-110.942858139756
 72
     1
 10
210.8032243628505
 20
-110.942858139756
 11
210.8041394511948
 21
-110.9420127788342
 72
     1
 10
210.8041394511948
 20
-110.9420127788342
 11
210.8050109318746
 21
-110.9411587300101
 72
     1
 10
210.8050109318746
 20
-110.9411587300101
 11
210.8058475768685
 21
-110.9402872493304
 72
     1
 10
210.8058475768685
 20
-110.9402872493304
 11
210.8066493301257
 21
-110.9394070246974
 72
     1
 10
210.8066493301257
 20
-110.9394070246974
 11
210.8074162476971
 21
-110.938518112162
 72
     1
 10
210.8074162476971
 20
-110.938518112162
 11
210.8081395856294
 21
-110.9376204836988
 72
     1
 10
210.8081395856295
 20
-110.9376204836988
 11
210.8088280598505
 21
-110.9367053953545
 72
     1
 10
210.8088280598505
 20
-110.9367053953545
 11
210.8094816703603
 21
-110.9357903350357
 72
     1
 10
210.8094816703603
 20
-110.9357903350357
 11
210.8100917292565
 21
-110.9348578428613
 72
     1
 10
210.8100917292565
 20
-110.9348578428613
 11
210.8106669244414
 21
-110.933916634759
 72
     1
 10
210.8106669244414
 20
-110.933916634759
 11
210.8112072278896
 21
-110.9329579948011
 72
     1
 10
210.8112072278896
 20
-110.9329579948011
 11
210.811712695652
 21
-110.9319993548432
 72
     1
 10
210.811712695652
 20
-110.9319993548432
 11
210.8121745837753
 21
-110.9310232830297
 72
     1
 10
210.8121745837753
 20
-110.9310232830297
 11
210.8126016362129
 21
-110.9300384952883
 72
     1
 10
210.8126016362128
 20
-110.9300384952884
 11
210.8129937969136
 21
-110.9290449916192
 72
     1
 10
210.8129937969136
 20
-110.9290449916192
 11
210.8133510939032
 21
-110.9280340560944
 72
     1
 10
210.8133510939032
 20
-110.9280340560944
 11
210.8136648392791
 21
-110.9270231485951
 72
     1
 10
210.8136648392791
 20
-110.9270231485951
 11
210.8139437209437
 21
-110.9259947812146
 72
     1
 10
210.8139437209437
 20
-110.9259947812146
 11
210.8141877388971
 21
-110.9249576979064
 72
     1
 10
210.8141877388971
 20
-110.9249576979064
 11
210.8143881772114
 21
-110.9239031827425
 72
     1
 10
210.8143881772114
 20
-110.9239031827425
 11
210.8145624677423
 21
-110.9228486956041
 72
     1
 10
210.8145624677423
 20
-110.9228486956041
 11
210.8146844907317
 21
-110.9217767485846
 72
     1
 10
210.8146844907317
 20
-110.9217767485846
 11
210.8147803379122
 21
-110.9206961136628
 72
     1
 10
210.8147803379122
 20
-110.9206961136628
 11
210.8148413494069
 21
-110.9196067347876
 72
     1
 10
210.8148413494069
 20
-110.9196067347876
 11
210.8148587812625
 21
-110.9185086680102
 72
     1
 10
210.8148587812625
 20
-110.9185086680101
 11
210.8148500653347
 21
-110.9174803006297
 72
     1
 10
210.8148500653347
 20
-110.9174803006297
 11
210.8148152016234
 21
-110.9160597725485
 72
     1
 10
210.8148152016235
 20
-110.9160597725485
 11
210.8147542181542
 21
-110.9146653922507
 72
     1
 10
210.8147542181542
 20
-110.9146653922507
 11
210.8146670588761
 21
-110.9133145635666
 72
     1
 10
210.8146670588761
 20
-110.9133145635666
 11
210.8145537518144
 21
-110.9119811947635
 72
     1
 10
210.8145537518144
 20
-110.9119811947635
 11
210.8144056090671
 21
-110.9106913775741
 72
     1
 10
210.814405609067
 20
-110.9106913775741
 11
210.8142313185362
 21
-110.9094190202658
 72
     1
 10
210.8142313185362
 20
-110.9094190202657
 11
210.8140308802219
 21
-110.908190214571
 72
     1
 10
210.8140308802219
 20
-110.908190214571
 11
210.8138042941241
 21
-110.9069875566597
 72
     1
 10
210.8138042941241
 20
-110.9069875566598
 11
210.8135515602429
 21
-110.9058197344343
 72
     1
 10
210.8135515602429
 20
-110.9058197344343
 11
210.8132726785783
 21
-110.9046780880177
 72
     1
 10
210.8132726785783
 20
-110.9046780880177
 11
210.8129589332024
 21
-110.9035713053124
 72
     1
 10
210.8129589332023
 20
-110.9035713053124
 11
210.812619040043
 21
-110.9024993582929
 72
     1
 10
210.812619040043
 20
-110.9024993582929
 11
210.8122530271256
 21
-110.9014535870823
 72
     1
 10
210.8122530271257
 20
-110.9014535870823
 11
210.8118608664249
 21
-110.9004339356297
 72
     1
 10
210.8118608664249
 20
-110.9004339356297
 11
210.8114425299152
 21
-110.8994578638162
 72
     1
 10
210.8114425299152
 20
-110.8994578638162
 11
210.8109893577197
 21
-110.8985079397861
 72
     1
 10
210.8109893577197
 20
-110.8985079397861
 11
210.8105187536685
 21
-110.8975841635395
 72
     1
 10
210.8105187536685
 20
-110.8975841635395
 11
210.8100132859061
 21
-110.8966952229786
 72
     1
 10
210.8100132859061
 20
-110.8966952229786
 11
210.8094816703603
 21
-110.8958411741545
 72
     1
 10
210.8094816703603
 20
-110.8958411741545
 11
210.8089239350565
 21
-110.8950132450884
 72
     1
 10
210.8089239350565
 20
-110.8950132450884
 11
210.8083313080159
 21
-110.894220207759
 72
     1
 10
210.8083313080159
 20
-110.894220207759
 11
210.8077212771452
 21
-110.8934620061154
 72
     1
 10
210.8077212771452
 20
-110.8934620061154
 11
210.8070763545377
 21
-110.8927299522552
 72
     1
 10
210.8070763545377
 20
-110.8927299522553
 11
210.8065011873783
 21
-110.8921286092869
 72
     1
 10
210.8065011873783
 20
-110.8921286092869
 11
210.8058214290851
 21
-110.8914837147049
 72
     1
 10
210.8058214290851
 20
-110.8914837147049
 11
210.8051155230084
 21
-110.890856223953
 72
     1
 10
210.8051155230084
 20
-110.8908562239531
 11
210.8043834691482
 21
-110.8902549090102
 72
     1
 10
210.8043834691482
 20
-110.8902549090102
 11
210.8036165515768
 21
-110.8896797138253
 72
     1
 10
210.8036165515768
 20
-110.8896797138252
 11
210.8028147702941
 21
-110.8891219785214
 72
     1
 10
210.8028147702941
 20
-110.8891219785214
 11
210.8019868692534
 21
-110.8885903629756
 72
     1
 10
210.8019868692535
 20
-110.8885903629756
 11
210.8011327924039
 21
-110.8880848952132
 72
     1
 10
210.8011327924039
 20
-110.8880848952132
 11
210.8002438798685
 21
-110.8875968593064
 72
     1
 10
210.8002438798685
 20
-110.8875968593064
 11
210.7993288195497
 21
-110.8871349711831
 72
     1
 10
210.7993288195497
 20
-110.8871349711831
 11
210.7983788674941
 21
-110.8866992308432
 72
     1
 10
210.7983788674941
 20
-110.8866992308432
 11
210.7974028237061
 21
-110.8862808943335
 72
     1
 10
210.7974028237061
 20
-110.8862808943335
 11
210.7963918881813
 21
-110.8858974495605
 72
     1
 10
210.7963918881813
 20
-110.8858974495606
 11
210.795354804873
 21
-110.8855314366432
 72
     1
 10
210.7953548048731
 20
-110.8855314366432
 11
210.7942828578535
 21
-110.885182827556
 72
     1
 10
210.7942828578535
 20
-110.885182827556
 11
210.7931847910761
 21
-110.8848690821801
 72
     1
 10
210.793184791076
 20
-110.8848690821801
 11
210.7920518605873
 21
-110.8845727966853
 72
     1
 10
210.7920518605873
 20
-110.8845727966853
 11
210.7908927823151
 21
-110.8843026309485
 72
     1
 10
210.7908927823151
 20
-110.8843026309485
 11
210.789707528234
 21
-110.8840498970673
 72
     1
 10
210.789707528234
 20
-110.8840498970673
 11
210.7884787505648
 21
-110.8838320268974
 72
     1
 10
210.7884787505648
 20
-110.8838320268973
 11
210.7872325130144
 21
-110.8836228446298
 72
     1
 10
210.7872325130144
 20
-110.8836228446298
 11
210.7859514117528
 21
-110.8834485540989
 72
     1
 10
210.7859514117528
 20
-110.8834485540989
 11
210.7846441627077
 21
-110.8833004113515
 72
     1
 10
210.7846441627077
 20
-110.8833004113515
 11
210.7833020779768
 21
-110.8831696724343
 72
     1
 10
210.7833020779768
 20
-110.8831696724343
 11
210.7819251295347
 21
-110.8830563933981
 72
     1
 10
210.7819251295347
 20
-110.8830563933981
 11
210.7805220333091
 21
-110.8829779500478
 72
     1
 10
210.7805220333091
 20
-110.8829779500478
 11
210.7790927612746
 21
-110.882916938553
 72
     1
 10
210.7790927612746
 20
-110.882916938553
 11
210.7776286535543
 21
-110.8828821028673
 72
     1
 10
210.7776286535543
 20
-110.8828821028673
 11
210.776138426076
 21
-110.8828733869394
 72
     1
 10
210.776138426076
 20
-110.8828733869395
 11
210.7184108183091
 21
-110.8828733869395
 72
     1
 10
210.7184108183091
 20
-110.8828733869395
 11
210.7184108183091
 21
-111.0089782051184
 72
     1
 10
210.7184108183091
 20
-111.0089782051184
 11
210.734655430052
 21
-111.0089782051184
 72
     1
 10
210.734655430052
 20
-111.0089782051184
 11
210.734655430052
 21
-110.9548324233019
 72
     1
 10
210.734655430052
 20
-110.9548324233019
 11
210.777001190828
 21
-110.9548324233019
 72
     1
 10
210.777001190828
 20
-110.9548324233019
 11
210.7779598307859
 21
-110.9548498551575
 72
     1
 10
210.7779598307859
 20
-110.9548498551575
 11
210.7790927612746
 21
-110.9549108666522
 72
     1
 10
210.7790927612746
 20
-110.9549108666522
 11
210.7801995720054
 21
-110.955015457786
 72
     1
 10
210.7801995720054
 20
-110.9550154577861
 11
210.7812627750716
 21
-110.9551636005335
 72
     1
 10
210.7812627750716
 20
-110.9551636005334
 11
210.782291142452
 21
-110.9553553229199
 72
     1
 10
210.782291142452
 20
-110.9553553229199
 11
210.7832846461212
 21
-110.9555993408733
 72
     1
 10
210.7832846461211
 20
-110.9555993408733
 11
210.784243286079
 21
-110.9558782225379
 72
     1
 10
210.784243286079
 20
-110.9558782225379
 11
210.7851670623257
 21
-110.9562093997695
 72
     1
 10
210.7851670623257
 20
-110.9562093997695
 11
210.7860560028866
 21
-110.9565841286146
 72
     1
 10
210.7860560028866
 20
-110.9565841286146
 11
210.7869013357829
 21
-110.9570111530267
 72
     1
 10
210.7869013357828
 20
-110.9570111530267
 11
210.7877205489212
 21
-110.95747304115
 72
     1
 10
210.7877205489212
 20
-110.95747304115
 11
210.7884961543949
 21
-110.9579872248402
 72
     1
 10
210.7884961543949
 20
-110.9579872248402
 11
210.7892369241829
 21
-110.9585362722417
 72
     1
 10
210.7892369241829
 20
-110.9585362722417
 11
210.7899428302595
 21
-110.9591375871846
 72
     1
 10
210.7899428302595
 20
-110.9591375871846
 11
210.7906139006505
 21
-110.9597825097921
 72
     1
 10
210.7906139006505
 20
-110.9597825097921
 11
210.7912500793046
 21
-110.9604796999409
 72
     1
 10
210.7912500793046
 20
-110.9604796999409
 11
210.791851422273
 21
-110.9612117538011
 72
     1
 10
210.791851422273
 20
-110.9612117538011
 11
210.7924091575768
 21
-110.9619961032281
 72
     1
 10
210.7924091575768
 20
-110.9619961032281
 11
210.7929407731226
 21
-110.9628240042688
 72
     1
 10
210.7929407731226
 20
-110.9628240042688
 11
210.7934288090294
 21
-110.963695512974
 72
     1
 10
210.7934288090294
 20
-110.963695512974
 11
210.7938906971527
 21
-110.9646105732928
 72
     1
 10
210.7938906971527
 20
-110.9646105732928
 11
210.794309005637
 21
-110.9655692132507
 72
     1
 10
210.794309005637
 20
-110.9655692132507
 11
210.7946924784354
 21
-110.9665801487755
 72
     1
 10
210.7946924784354
 20
-110.9665801487755
 11
210.7950410594971
 21
-110.9676259199861
 72
     1
 10
210.7950410594972
 20
-110.9676259199861
 11
210.7953548048731
 21
-110.968724014789
 72
     1
 10
210.7953548048731
 20
-110.968724014789
 11
210.7956249706099
 21
-110.9698656612056
 72
     1
 10
210.7956249706099
 20
-110.9698656612056
 11
210.7958689885633
 21
-110.9710596031891
 72
     1
 10
210.7958689885633
 20
-110.9710596031891
 11
210.7960694268776
 21
-110.9722884088838
 72
     1
 10
210.7960694268776
 20
-110.9722884088838
 11
210.7962437174084
 21
-110.9735695101454
 72
     1
 10
210.7962437174084
 20
-110.9735695101454
 11
210.7963744563257
 21
-110.9748854470929
 72
     1
 10
210.7963744563257
 20
-110.9748854470928
 11
210.7964703035061
 21
-110.9762536796072
 72
     1
 10
210.7964703035062
 20
-110.9762536796071
 11
210.7965313150009
 21
-110.977665519786
 72
     1
 10
210.7965313150009
 20
-110.977665519786
 11
210.7964964512896
 21
-110.9784498411876
 72
     1
 10
210.7964964512896
 20
-110.9784498411876
 11
210.7964267518926
 21
-110.9799400966913
 72
     1
 10
210.7964267518926
 20
-110.9799400966913
 11
210.7963657403979
 21
-110.981386772556
 72
     1
 10
210.7963657403979
 20
-110.981386772556
 11
210.7963221607588
 21
-110.9827898687816
 72
     1
 10
210.7963221607588
 20
-110.9827898687815
 11
210.7962960129753
 21
-110.9841494133935
 72
     1
 10
210.7962960129753
 20
-110.9841494133935
 11
210.7962872970475
 21
-110.9854653503409
 72
     1
 10
210.7962872970475
 20
-110.9854653503409
 11
210.7962872970475
 21
-110.9867464516026
 72
     1
 10
210.7962872970475
 20
-110.9867464516026
 11
210.7962960129753
 21
-110.9879839732251
 72
     1
 10
210.7962960129753
 20
-110.9879839732252
 11
210.7963308766866
 21
-110.9891779152086
 72
     1
 10
210.7963308766866
 20
-110.9891779152086
 11
210.7963657403979
 21
-110.990328277553
 72
     1
 10
210.7963657403979
 20
-110.990328277553
 11
210.7964267518926
 21
-110.9914350882837
 72
     1
 10
210.7964267518926
 20
-110.9914350882837
 11
210.7964964512896
 21
-110.9925070072778
 72
     1
 10
210.7964964512896
 20
-110.9925070072778
 11
210.79657489464
 21
-110.9935266587304
 72
     1
 10
210.79657489464
 20
-110.9935266587304
 11
210.7966794857738
 21
-110.9945114464717
 72
     1
 10
210.7966794857738
 20
-110.9945114464717
 11
210.7967840488821
 21
-110.995452654574
 72
     1
 10
210.7967840488821
 20
-110.995452654574
 11
210.7969147877994
 21
-110.996358998965
 72
     1
 10
210.7969147877994
 20
-110.996358998965
 11
210.7970542146189
 21
-110.9972130758146
 72
     1
 10
210.7970542146189
 20
-110.9972130758146
 11
210.7971065101858
 21
-110.9975442250207
 72
     1
 10
210.7971065101858
 20
-110.9975442250206
 11
210.7973243803558
 21
-110.9987468829319
 72
     1
 10
210.7973243803558
 20
-110.9987468829319
 11
210.7975596823813
 21
-110.9999321089876
 72
     1
 10
210.7975596823813
 20
-110.9999321089876
 11
210.7978211321903
 21
-111.0011086191154
 72
     1
 10
210.7978211321903
 20
-111.0011086191154
 11
210.7980912979272
 21
-111.0022764413409
 72
     1
 10
210.7980912979272
 20
-111.0022764413409
 11
210.7983875834219
 21
-111.0034268036853
 72
     1
 10
210.7983875834219
 20
-111.0034268036853
 11
210.7987100447257
 21
-111.004559734174
 72
     1
 10
210.7987100447257
 20
-111.004559734174
 11
210.7990412219573
 21
-111.0056839487349
 72
     1
 10
210.7990412219572
 20
-111.0056839487349
 11
210.7993985189467
 21
-111.0067994753935
 72
     1
 10
210.7993985189467
 20
-111.0067994753936
 11
210.7997732758174
 21
-111.007897542171
 72
     1
 10
210.7997732758174
 20
-111.007897542171
 11
210.8001654365182
 21
-111.0089782051183
 72
     1
 10
210.8001654365182
 20
-111.0089782051184
 11
210.8196955606911
 21
-111.0089782051184
 72
     1
 10
210.8196955606911
 20
-111.0089782051184
 11
210.8196955606911
 21
-111.0048298999108
 72
     1
 10
210.8196955606911
 20
-111.0048298999108
 11
210.8189024953362
 21
-111.0041501416176
 72
     1
 10
210.8189024953362
 20
-111.0041501416176
 11
210.8180484465121
 21
-111.0033309284793
 72
     1
 10
210.8180484465121
 20
-111.0033309284793
 11
210.8172728130129
 21
-111.0024681637274
 72
     1
 10
210.8172728130129
 20
-111.0024681637274
 11
210.816575622864
 21
-111.0015705352642
 72
     1
 10
210.816575622864
 20
-111.0015705352642
 11
210.8159568760655
 21
-111.0006205832086
 72
     1
 10
210.8159568760655
 20
-111.0006205832086
 11
210.815407828664
 21
-110.9996358234928
 72
     1
 10
210.815407828664
 20
-110.9996358234928
 11
210.8149372246129
 21
-110.9986161720402
 72
     1
 10
210.8149372246129
 20
-110.9986161720402
 11
210.8145450358866
 21
-110.9975442250207
 72
     1
 10
210.8145450358866
 20
-110.9975442250206
 11
210.8142226026084
 21
-110.9964374423153
 72
     1
 10
210.8142226026084
 20
-110.9964374423153
 11
210.8139873005828
 21
-110.9952957958988
 72
     1
 10
210.8139873005828
 20
-110.9952957958988
 11
210.8138216979543
 21
-110.9941018539153
 72
     1
 10
210.8138216979543
 20
-110.9941018539153
 11
210.8138042941241
 21
-110.9938491200341
 72
     1
 10
210.8138042941241
 20
-110.9938491200342
 11
210.8136997029903
 21
-110.9922194096853
 72
     1
 10
210.8136997029903
 20
-110.9922194096853
 11
210.8135951118565
 21
-110.9906333070011
 72
     1
 10
210.8135951118565
 20
-110.9906333070011
 11
210.813499264676
 21
-110.9890907559304
 72
     1
 10
210.813499264676
 20
-110.9890907559304
 11
210.81340338947
 21
-110.9875917844989
 72
     1
 10
210.81340338947
 20
-110.9875917844989
 11
210.8133162582173
 21
-110.986127704804
 72
     1
 10
210.8133162582174
 20
-110.9861277048041
 11
210.8132290989392
 21
-110.9847158646252
 72
     1
 10
210.8132290989392
 20
-110.9847158646252
 11
210.813141939661
 21
-110.9833389161831
 72
     1
 10
210.813141939661
 20
-110.9833389161831
 11
210.813072240264
 21
-110.98200554738
 72
     1
 10
210.813072240264
 20
-110.98200554738
 11
210.8129937969136
 21
-110.9807157301906
 72
     1
 10
210.8129937969136
 20
-110.9807157301906
 11
210.8129240694911
 21
-110.9794694926402
 72
     1
 10
210.8129240694911
 20
-110.9794694926402
 11
210.8128630579964
 21
-110.9782668347289
 72
     1
 10
210.8128630579964
 20
-110.978266834729
 11
210.8128020745271
 21
-110.9771077564567
 72
     1
 10
210.8128020745271
 20
-110.9771077564567
 11
210.8127497789602
 21
-110.9759835418958
 72
     1
 10
210.8127497789602
 20
-110.9759835418958
 11
210.8126974833933
 21
-110.9749115948763
 72
     1
 10
210.8126974833933
 20
-110.9749115948763
 11
210.8126451878264
 21
-110.973874511568
 72
     1
 10
210.8126451878264
 20
-110.973874511568
 11
210.8126103241152
 21
-110.9728810078989
 72
     1
 10
210.8126103241152
 20
-110.9728810078989
 11
210.8125667725016
 21
-110.9719310838688
 72
     1
 10
210.8125667725016
 20
-110.9719310838688
 11
210.8125319087903
 21
-110.97101602355
 72
     1
 10
210.8125319087903
 20
-110.97101602355
 11
210.8125057610068
 21
-110.9701532587981
 72
     1
 10
210.8125057610068
 20
-110.9701532587981
 11
210.8124796132234
 21
-110.9693253297319
 72
     1
 10
210.8124796132234
 20
-110.969325329732
 11
210.81245346544
 21
-110.9685496962327
 72
     1
 10
210.8124534654399
 20
-110.9685496962327
 11
210.8124360335843
 21
-110.9678089264447
 72
     1
 10
210.8124360335843
 20
-110.9678089264447
 11
210.8123227545482
 21
-110.9666149844613
 72
     1
 10
210.8123227545482
 20
-110.9666149844613
 11
210.812139720064
 21
-110.9651421888386
 72
     1
 10
210.812139720064
 20
-110.9651421888387
 11
210.8119305658219
 21
-110.9637652123711
 72
     1
 10
210.8119305658219
 20
-110.9637652123711
 11
210.8116952637963
 21
-110.9624754232071
 72
     1
 10
210.8116952637963
 20
-110.9624754232071
 11
210.8114338139873
 21
-110.9612814812236
 72
     1
 10
210.8114338139873
 20
-110.9612814812236
 11
210.8111375284926
 21
-110.9601833864207
 72
     1
 10
210.8111375284926
 20
-110.9601833864207
 11
210.8108150671888
 21
-110.9591811668237
 72
     1
 10
210.8108150671888
 20
-110.9591811668237
 11
210.8104664581016
 21
-110.9582748224327
 72
     1
 10
210.8104664581016
 20
-110.9582748224327
 11
210.8100830133287
 21
-110.9574556092944
 72
     1
 10
210.8100830133287
 20
-110.9574556092944
 11
210.8096734207722
 21
-110.9567409872898
 72
     1
 10
210.8096734207722
 20
-110.9567409872898
 11
210.8093073798294
 21
-110.956183251986
 72
     1
 10
210.8093073798294
 20
-110.9561832519861
 11
210.8088019120671
 21
-110.9555121815951
 72
     1
 10
210.8088019120671
 20
-110.9555121815951
 11
210.8082267449076
 21
-110.9548149914463
 72
     1
 10
210.8082267449076
 20
-110.9548149914463
 11
210.8075818223001
 21
-110.9541003694417
 72
     1
 10
210.8075818223001
 20
-110.9541003694417
 11
210.8068584843678
 21
-110.9533595996538
 72
     1
 10
210.8068584843678
 20
-110.9533595996538
 11
210.8060654470385
 21
-110.9526014260357
 72
     1
 10
210.8060654470385
 20
-110.9526014260357
 11
210.8051939383332
 21
-110.9518257925364
 72
     1
 10
210.8051939383332
 20
-110.9518257925364
 11
210.8042527302309
 21
-110.9510240112538
 72
     1
 10
210.804252730231
 20
-110.9510240112538
 11
210.8032330787783
 21
-110.9501961102131
 72
     1
 10
210.8032330787783
 20
-110.9501961102131
 11
210.8021437279286
 21
-110.9493594652192
 97
        0
 92
       16
 93
        1
 72
     2
 10
210.7598617811966
 20
-110.9518308651503
 40
0.0980892198045934
 50
0.0
 51
360.0
 73
     1
 97
        0
 92
        1
 93
        1
 72
     2
 10
210.7598617811966
 20
-110.9518308651503
 40
0.1121019654909639
 50
0.0
 51
360.0
 73
     1
 97
        0
 75
     0
 76
     1
 47
0.5016490000000001
 98
        2
 10
207.1266499713605
 20
-111.272632667439
 10
209.2233940358089
 20
-111.2304557602485
  0
ARC
  5
1E68
330
1E
100
AcDbEntity
  8
1
  6
PHANTOM
 62
     7
100
AcDbCircle
 10
220.3294189496414
 20
-124.0649678981279
 30
0.0
 40
5.904900545177852
100
AcDbArc
 50
123.6989058199948
 51
156.5776381000111
  0
LINE
  5
1E71
330
1E
100
AcDbEntity
  8
1
  6
CENTER
100
AcDbLine
 10
223.3872124720534
 20
-117.2339844991585
 30
0.0
 11
223.3872124720534
 21
-116.6511827032076
 31
0.0
  0
ARC
  5
1E72
330
1E
100
AcDbEntity
  8
1
  6
PHANTOM
 62
     7
100
AcDbCircle
 10
226.0837837210298
 20
-124.2214501432817
 30
0.0
 40
6.298560581050642
100
AcDbArc
 50
336.5776381000111
 51
23.42236188998457
  0
TEXT
  5
1E73
330
1E
100
AcDbEntity
  8
DIM
  6
Continuous
 62
     7
100
AcDbText
 10
233.6705914612761
 20
-132.8185479571613
 30
0.0
 40
0.2361983799645
  1
# 0GU119
  7
BLACK
100
AcDbText
  0
TEXT
  5
1E74
330
1E
100
AcDbEntity
  8
DIM
  6
Continuous
 62
     7
100
AcDbText
 10
233.6914193712199
 20
-132.3822386686113
 30
0.0
 40
0.2361983799645
  1
REV:Dec. 2003
  7
BLACK
100
AcDbText
  0
ARC
  5
1E75
330
1E
100
AcDbEntity
  8
1
  6
PHANTOM
 62
     7
100
AcDbCircle
 10
226.4450059944654
 20
-124.3779323896166
 30
0.0
 40
5.904900545177852
100
AcDbArc
 50
303.6989058199949
 51
336.5776381000111
  0
ARC
  5
1E76
330
1E
100
AcDbEntity
  8
1
  6
PHANTOM
 62
     7
100
AcDbCircle
 10
226.4450059944654
 20
-124.0649678981279
 30
0.0
 40
5.904900545177852
100
AcDbArc
 50
23.42236188998457
 51
56.30109416999015
  0
TEXT
  5
2662
330
1E
100
AcDbEntity
  8
DIM
  6
Continuous
 62
     7
100
AcDbText
 10
233.6914193712199
 20
-131.940936245211
 30
0.0
 40
0.2361983799645
  1
LT597G/LT597/LT587
  7
BLACK
100
AcDbText
  0
LINE
  5
2865
330
1E
100
AcDbEntity
  8
0
  6
CENTER
 62
     7
100
AcDbLine
 10
211.2472379616146
 20
-124.2214501432818
 30
0.0
 11
213.9304104055007
 21
-124.2214501432818
 31
0.0
  0
LINE
  5
2866
330
1E
100
AcDbEntity
  8
0
  6
CENTER
 62
     7
100
AcDbLine
 10
223.3872124716399
 20
-117.1155941208826
 30
0.0
 11
223.3872124716399
 21
-117.7450946272797
 31
0.0
  0
LINE
  5
2869
330
1E
100
AcDbEntity
  8
0
  6
CENTER
 62
     7
100
AcDbLine
 10
232.803317784804
 20
-124.2214501432817
 30
0.0
 11
235.6124185550235
 21
-124.2214501432818
 31
0.0
  0
LINE
  5
286B
330
1E
100
AcDbEntity
  8
0
  6
HIDDEN
 62
     7
100
AcDbLine
 10
223.3872124716399
 20
-121.3899528478613
 30
0.0
 11
223.387212472464
 21
-119.2017415356894
 31
0.0
  0
LINE
  5
286C
330
1E
100
AcDbEntity
  8
0
  6
CENTERX2
 62
     7
100
AcDbLine
 10
221.6648770673614
 20
-119.2017415356894
 30
0.0
 11
224.9324993403425
 21
-119.2017415356894
 31
0.0
  0
MTEXT
  5
286D
330
1E
100
AcDbEntity
  8
0
 62
     7
100
AcDbMText
 10
227.0782431045081
 20
-121.6097639538438
 30
0.0
 40
0.1968513482367818
 41
5.219019296194453
 71
     6
 72
     5
  1
RIM OF LAVATORY\PBORDE DEL LAVABO\PBORD DU LAVABO
 73
     1
 44
1.0
1001
ACAD
1000
MTEXTBEGIN
1070
    73
1070
     1
1070
    44
1040
1.0
1070
    74
1070
     0
1000
MTEXTEND
  0
MTEXT
  5
286E
330
1E
100
AcDbEntity
  8
0
 62
     7
100
AcDbMText
 10
228.3774747322099
 20
-126.9768896375176
 30
0.0
 40
0.1968513482367818
 41
5.431551331840547
 71
     6
 72
     5
  1
 CUT ALONG THIS LINE\PCORTE A LO LARGO DE ESTA LINEA\PDECOUPER AU LONG DE CETTE LIGNE
 73
     1
 44
1.0
1001
ACAD
1000
MTEXTBEGIN
1070
    73
1070
     1
1070
    44
1040
1.0
1070
    74
1070
     0
1000
MTEXTEND
1000
ACAD_MTEXT_DEFINED_HEIGHT_BEGIN
1070
    46
1040
1.895578545603916
1000
ACAD_MTEXT_DEFINED_HEIGHT_END
  0
LEADER
  5
286F
330
1E
100
AcDbEntity
  8
GRS_GAMBAR
  6
Continuous
 62
     7
 48
10.0
100
AcDbLeader
  3
STANDARD
 40
0.511811014
 41
1.766029213142856
 76
     3
 10
229.9230458579654
 20
-129.1498386288827
 30
0.0
 10
229.2734210433242
 20
-127.2206055495675
 30
0.0
 10
228.5980247925196
 20
-127.2206055495675
 30
0.0
213
0.0
223
0.0590554044710346
233
0.0
1001
ACAD
1000
DSTYLE
1002
{
1070
    77
1070
     0
1070
   141
1040
0.75
1070
   147
1040
0.0625
1002
}
  0
LINE
  5
2870
330
1E
100
AcDbEntity
  8
0
 62
     7
100
AcDbLine
 10
223.3851901865019
 20
-115.6385847055754
 30
0.0
 11
223.3872124716399
 21
-116.1307130761675
 31
0.0
  0
LINE
  5
2872
330
1E
100
AcDbEntity
  8
0
 62
     7
100
AcDbLine
 10
221.4580695561981
 20
-119.2017415356894
 30
0.0
 11
225.3163553879324
 21
-119.2017415356894
 31
0.0
  0
ARC
  5
2873
330
1E
100
AcDbEntity
  8
PIC06
  6
PHANTOM
 62
     7
100
AcDbCircle
 10
226.4453368907872
 20
-124.3779493228216
 30
0.0
 40
7.519720345514388
100
AcDbArc
 50
303.6989058232988
 51
336.5776381015862
  0
ARC
  5
2874
330
1E
100
AcDbEntity
  8
PIC06
  6
PHANTOM
 62
     7
100
AcDbCircle
 10
226.4453368907872
 20
-124.0649509637419
 30
0.0
 40
7.519720345514388
100
AcDbArc
 50
23.42236189841381
 51
56.30109417670122
  0
ARC
  5
2875
330
1E
100
AcDbEntity
  8
PIC06
  6
PHANTOM
 62
     7
 48
12.0
100
AcDbCircle
 10
223.3872124720534
 20
-128.6506047970591
 30
0.0
 40
13.03155724799185
100
AcDbArc
 50
56.30109417670122
 51
123.6989058232987
  0
ARC
  5
2876
330
1E
100
AcDbEntity
  8
PIC06
  6
PHANTOM
 62
     7
100
AcDbCircle
 10
226.084075527906
 20
-124.2214501432818
 30
0.0
 40
7.913422981398889
100
AcDbArc
 50
336.5776381015862
 51
23.42236189841381
  0
ARC
  5
2877
330
1E
100
AcDbEntity
  8
PIC06
  6
PHANTOM
 62
     7
100
AcDbCircle
 10
220.6903494162008
 20
-124.2214501432818
 30
0.0
 40
7.913422981398889
100
AcDbArc
 50
156.5776381015862
 51
203.4223618984138
  0
ARC
  5
2878
330
1E
100
AcDbEntity
  8
PIC06
  6
PHANTOM
 62
     7
100
AcDbCircle
 10
220.3290880533432
 20
-124.3779493228216
 30
0.0
 40
7.519720345514388
100
AcDbArc
 50
203.4223618984138
 51
236.3010941767012
  0
ARC
  5
2879
330
1E
100
AcDbEntity
  8
PIC06
  6
PHANTOM
 62
     7
100
AcDbCircle
 10
220.3290880533432
 20
-124.0649509637419
 30
0.0
 40
7.519720345514388
100
AcDbArc
 50
123.6989058232987
 51
156.5776381015862
  0
ARC
  5
287A
330
1E
100
AcDbEntity
  8
PIC06
  6
PHANTOM
 62
     7
100
AcDbCircle
 10
223.3872124720534
 20
-119.7922954895044
 30
0.0
 40
13.03155724799185
100
AcDbArc
 50
236.3010941767012
 51
303.6989058232988
  0
ARC
  5
28A5
330
1E
100
AcDbEntity
  8
PIC06
  6
HIDDEN
 62
     7
100
AcDbCircle
 10
223.3872124720534
 20
-119.2017415356894
 30
0.0
 40
1.732291597924863
100
AcDbArc
 50
1.32506126829446
 51
178.6749387317055
  0
CIRCLE
  5
28A6
330
1E
100
AcDbEntity
  8
PIC06
  6
Continuous
 62
     7
100
AcDbCircle
 10
223.3872124720534
 20
-119.2017415356894
 30
0.0
 40
0.866145798950621
  0
CIRCLE
  5
28A7
330
1E
100
AcDbEntity
  8
PIC06
  6
Continuous
 62
     7
100
AcDbCircle
 10
223.3872124720534
 20
-119.2017415356894
 30
0.0
 40
1.259848434858741
  0
CIRCLE
  5
28A8
330
1E
100
AcDbEntity
  8
GRS_GAMBAR
  6
Continuous
 62
     7
100
AcDbCircle
 10
214.2576370606616
 20
-129.4475833155539
 30
0.0
 40
0.1250006084803678
  0
CIRCLE
  5
28A9
330
1E
100
AcDbEntity
  8
GRS_GAMBAR
  6
Continuous
 62
     7
100
AcDbCircle
 10
232.5167878834453
 20
-129.4475833155539
 30
0.0
 40
0.1250006084803678
  0
CIRCLE
  5
28AA
330
1E
100
AcDbEntity
  8
GRS_GAMBAR
  6
HIDDEN
 62
     7
 48
10.0
100
AcDbCircle
 10
214.2576370606616
 20
-118.9953169710096
 30
0.0
 40
0.1250006084803678
  0
CIRCLE
  5
28AB
330
1E
100
AcDbEntity
  8
GRS_GAMBAR
  6
Continuous
 62
     7
100
AcDbCircle
 10
232.5167878834453
 20
-118.9953169710096
 30
0.0
 40
0.1250006084803678
  0
LINE
  5
28AC
330
1E
100
AcDbEntity
  8
GRS_GAMBAR
  6
Continuous
 62
     7
100
AcDbLine
 10
213.5076334097792
 20
-118.9953169710096
 30
0.0
 11
215.0076407115437
 21
-118.9953169710096
 31
0.0
  0
LINE
  5
28AD
330
1E
100
AcDbEntity
  8
GRS_GAMBAR
  6
Continuous
 62
     7
100
AcDbLine
 10
214.2576370606616
 20
-119.7453206218918
 30
0.0
 11
214.2576370606616
 21
-118.2453133201273
 31
0.0
  0
LINE
  5
28AE
330
1E
100
AcDbEntity
  8
GRS_GAMBAR
  6
Continuous
 62
     7
100
AcDbLine
 10
213.5076334097792
 20
-129.4475833155539
 30
0.0
 11
215.0076407115437
 21
-129.4475833155539
 31
0.0
  0
LINE
  5
28AF
330
1E
100
AcDbEntity
  8
GRS_GAMBAR
  6
Continuous
 62
     7
100
AcDbLine
 10
214.2576370606616
 20
-130.1975869664362
 30
0.0
 11
214.2576370606616
 21
-128.6975796646717
 31
0.0
  0
LINE
  5
28B0
330
1E
100
AcDbEntity
  8
GRS_GAMBAR
  6
Continuous
 62
     7
100
AcDbLine
 10
231.7667842325631
 20
-129.4475833155539
 30
0.0
 11
233.2667915343276
 21
-129.4475833155539
 31
0.0
  0
LINE
  5
28B1
330
1E
100
AcDbEntity
  8
GRS_GAMBAR
  6
Continuous
 62
     7
100
AcDbLine
 10
232.5167878834453
 20
-130.1975869664362
 30
0.0
 11
232.5167878834453
 21
-128.6975796646717
 31
0.0
  0
LINE
  5
28B2
330
1E
100
AcDbEntity
  8
GRS_GAMBAR
  6
Continuous
 62
     7
100
AcDbLine
 10
231.7667842325631
 20
-118.9953169710096
 30
0.0
 11
233.2667915343276
 21
-118.9953169710096
 31
0.0
  0
LINE
  5
28B3
330
1E
100
AcDbEntity
  8
GRS_GAMBAR
  6
Continuous
 62
     7
100
AcDbLine
 10
232.5167878834453
 20
-119.7453206218918
 30
0.0
 11
232.5167878834453
 21
-118.2453133201273
 31
0.0
  0
LINE
  5
28B4
330
1E
100
AcDbEntity
  8
GRS_GAMBAR
  6
Continuous
 62
     7
100
AcDbLine
 10
222.6372088211713
 20
-119.2017415356894
 30
0.0
 11
224.1372161229355
 21
-119.2017415356894
 31
0.0
  0
LINE
  5
28B5
330
1E
100
AcDbEntity
  8
GRS_GAMBAR
  6
Continuous
 62
     7
100
AcDbLine
 10
223.3872124720534
 20
-119.9517451865717
 30
0.0
 11
223.3872124720534
 21
-118.4517378848072
 31
0.0
  0
LINE
  5
28B6
330
1E
100
AcDbEntity
  8
GRS_GAMBAR
  6
Continuous
 62
     7
100
AcDbLine
 10
222.6372088211713
 20
-119.2017415356894
 30
0.0
 11
224.1372161229355
 21
-119.2017415356894
 31
0.0
  0
LINE
  5
28B7
330
1E
100
AcDbEntity
  8
GRS_GAMBAR
  6
Continuous
 62
     7
100
AcDbLine
 10
223.3872124720534
 20
-119.9517451865717
 30
0.0
 11
223.3872124720534
 21
-118.4517378848072
 31
0.0
  0
LINE
  5
28BB
330
1E
100
AcDbEntity
  8
GRS_GAMBAR
  6
Continuous
 62
     7
100
AcDbLine
 10
223.3872124720534
 20
-132.8238527374962
 30
0.0
 11
223.3872124720534
 21
-130.7475262679931
 31
0.0
  0
LINE
  5
2923
330
1E
100
AcDbEntity
  8
GRS_GAMBAR
  6
Continuous
 62
     7
100
AcDbLine
 10
223.3872124721347
 20
-119.2017415356894
 30
0.0
 11
223.3872124720534
 21
-125.4061155729648
 31
0.0
  0
LEADER
  5
2AAB
330
1E
100
AcDbEntity
  8
GRS_GAMBAR
  6
Continuous
 62
     7
 48
10.0
100
AcDbLeader
  3
STANDARD
 76
     3
 10
230.6174923477661
 20
-117.8088089482824
 30
0.0
 10
227.9141561329302
 20
-121.4700157071005
 30
0.0
 10
227.0478440078913
 20
-121.4700157071005
 30
0.0
1001
ACAD
1000
DSTYLE
1002
{
1070
   147
1040
0.0625
1070
    77
1070
     0
1070
   141
1040
0.75
1002
}
  0
LINE
  5
2CE0
330
1E
100
AcDbEntity
  8
GRS_GAMBAR
  6
Continuous
 62
     7
100
AcDbLine
 10
225.9876050187158
 20
-124.2214501432477
 30
0.0
 11
220.7868199254221
 21
-124.2214501432477
 31
0.0
  0
LINE
  5
3212
102
{ACAD_REACTORS
330
3218
330
321B
102
}
330
1E
100
AcDbEntity
  8
0
  6
CENTER
 62
     7
100
AcDbLine
 10
211.773155415789
 20
-114.1623959564057
 30
0.0
 11
235.001269529139
 21
-114.1623959564057
 31
0.0
  0
LINE
  5
3213
102
{ACAD_REACTORS
330
3218
102
}
330
1E
100
AcDbEntity
  8
0
  6
PHANTOM
 62
     7
100
AcDbLine
 10
211.773155415789
 20
-112.1623959940055
 30
0.0
 11
235.001269529139
 21
-112.1623959940055
 31
0.0
  0
MTEXT
  5
3214
330
1E
100
AcDbEntity
  8
0
 62
     7
100
AcDbMText
 10
225.4295271254308
 20
-111.5733528920208
 30
0.0
 40
0.19685039
 41
5.218993890951871
 71
     6
 72
     5
  1
FINISHED WALL/BACK SPLASH\PPARED ACBADA/PARED POSTERIOR\PMUR FINI/DOSSERET
 73
     1
 44
1.0
1001
ACAD
1000
MTEXTBEGIN
1070
    73
1070
     1
1070
    44
1040
1.0
1070
    74
1070
     0
1000
MTEXTEND
  0
MTEXT
  5
3215
330
1E
100
AcDbEntity
  8
0
 62
     7
100
AcDbMText
 10
230.5498325318032
 20
-113.5115789819119
 30
0.0
 40
0.19685039
 41
5.218993890951871
 71
     6
 72
     5
  1
CENTERLINE OF FITTING\PLINEA CENTRAL DEL GRIFO\PAXE DU ROBINET
 73
     1
 44
1.0
1001
ACAD
1000
MTEXTBEGIN
1070
    73
1070
     1
1070
    44
1040
1.0
1070
    74
1070
     0
1000
MTEXTEND
  0
DIMENSION
  5
3216
102
{ACAD_XDICTIONARY
360
3217
102
}
102
{ACAD_REACTORS
330
3218
102
}
330
1E
100
AcDbEntity
  8
0
 62
     7
100
AcDbDimension
  2
*D14
 10
210.3799112803159
 20
-114.1623959564057
 30
0.0
 11
210.3799112803159
 21
-113.0399683214251
 31
0.0
 70
   160
 71
     5
 42
1.99999996240011
  3
COPY_OF_STANDARD
100
AcDbAlignedDimension
 13
211.773155415789
 23
-112.1623959940055
 33
0.0
 14
211.773155415789
 24
-114.1623959564057
 34
0.0
 50
90.0
100
AcDbRotatedDimension
  0
DIMENSION
  5
3219
102
{ACAD_XDICTIONARY
360
321A
102
}
102
{ACAD_REACTORS
330
321B
102
}
330
1E
100
AcDbEntity
  8
0
 62
     7
100
AcDbDimension
  2
*D15
 10
209.6302527713252
 20
-119.2017415356894
 30
0.0
 11
209.6302527713253
 21
-116.6820687460475
 31
0.0
 70
    32
 71
     5
 42
5.039345579283762
  3
COPY_OF_STANDARD
100
AcDbAlignedDimension
 13
211.773155415789
 23
-114.1623959564057
 33
0.0
 14
221.664885451885
 24
-119.2017415356894
 34
0.0
 50
90.0
100
AcDbRotatedDimension
  0
DIMENSION
  5
321C
330
1E
100
AcDbEntity
  8
0
 62
     7
100
AcDbDimension
  2
*D13
 10
212.4752777796225
 20
-114.1623959564057
 30
0.0
 11
212.4752777796225
 21
-114.8907217527364
 31
0.0
 70
    32
 71
     5
 42
1.45665159266157
  3
COPY_OF_STANDARD
100
AcDbAlignedDimension
 13
223.3872124724579
 23
-115.6190475490672
 33
0.0
 14
212.9753792574307
 24
-114.1623959564057
 34
0.0
 50
90.0
100
AcDbRotatedDimension
  0
TEXT
  5
321D
330
1E
100
AcDbEntity
  8
0
  6
HIDDEN
 62
     7
 48
10.0
100
AcDbText
 10
210.5095852536786
 20
-112.9695763041852
 30
0.0
 40
0.125
  1
(MIN)
100
AcDbText
  0
LEADER
  5
505C
330
1E
100
AcDbEntity
  8
GRS_GAMBAR
  6
Continuous
 62
     7
 48
10.0
100
AcDbLeader
  3
STANDARD
 76
     3
 10
214.1400353951555
 20
-119.0376844159485
 30
0.0
 10
211.0008687124674
 20
-121.4891323854033
 30
0.0
 10
210.1345565874285
 20
-121.4891323854033
 30
0.0
1001
ACAD
1000
DSTYLE
1002
{
1070
   147
1040
0.0625
1070
    77
1070
     0
1070
   141
1040
0.75
1002
}
  0
MTEXT
  5
505D
330
1E
100
AcDbEntity
  8
0
 62
     7
100
AcDbMText
 10
210.1345565874285
 20
-121.4891323854033
 30
0.0
 40
0.1968513482367818
 41
5.219019296194453
 71
     6
 72
     5
  1
Mounting holes
 73
     1
 44
1.0
1001
ACAD
1000
MTEXTBEGIN
1070
    73
1070
     1
1070
    44
1040
1.0
1070
    74
1070
     0
1000
MTEXTEND
  0
LEADER
  5
505E
330
1E
100
AcDbEntity
  8
GRS_GAMBAR
  6
Continuous
 62
     7
 48
10.0
100
AcDbLeader
  3
STANDARD
 76
     3
 10
212.9919349839684
 20
-126.0535741871523
 30
0.0
 10
211.0008687124674
 20
-127.6084439541
 30
0.0
 10
210.1345565874285
 20
-127.6084439541
 30
0.0
1001
ACAD
1000
DSTYLE
1002
{
1070
   147
1040
0.0625
1070
    77
1070
     0
1070
   141
1040
0.75
1002
}
  0
MTEXT
  5
505F
102
{ACAD_XDICTIONARY
360
B371
102
}
330
1E
100
AcDbEntity
  8
0
 62
     7
100
AcDbMText
 10
210.1345565874285
 20
-127.6084439541
 30
0.0
 40
0.1968513482367818
 41
5.219019296194453
 71
     6
 72
     5
  1
          OUTSIDE EDGE OF \PLAVATORY
 73
     1
 44
1.0
1001
ACAD
1000
MTEXTBEGIN
1070
    73
1070
     1
1070
    44
1040
1.0
1070
    74
1070
     0
1000
MTEXTEND
  0
LWPOLYLINE
  5
557A
330
1E
100
AcDbEntity
  8
GRS_GAMBAR
  6
Continuous
 62
     7
100
AcDbPolyline
 90
        4
 70
     1
 43
0.0
 10
205.2531793963908
 20
-133.9684762746515
 10
241.2531793963908
 20
-133.9684762746515
 10
241.2531793963908
 20
-109.9684762746515
 10
205.2531793963908
 20
-109.9684762746515
  0
TEXT
  5
B30C
330
1E
100
AcDbEntity
  8
DIM
  6
Continuous
 62
     7
100
AcDbText
 10
233.5524931154042
 20
-135.1554541275683
 30
0.0
 40
0.23622
  1
70# OFFSET UNCOATED SHEET
  7
BLACK
100
AcDbText
  0
TEXT
  5
B30D
330
1E
100
AcDbEntity
  8
DIM
  6
Continuous
 62
     7
100
AcDbText
 10
233.5524931154042
 20
-135.5806052264433
 30
0.0
 40
0.23622
  1
BRIGHTNESS FACTOR- 86%%% OR HIGHER
  7
BLACK
100
AcDbText
  0
TEXT
  5
B30E
330
1E
100
AcDbEntity
  8
DIM
  6
Continuous
 62
     7
100
AcDbText
 10
233.5524931154042
 20
-134.6834151170574
 30
0.0
 40
0.23622
  1
SHT. 900mm x 600mm (36inX24in)
  7
BLACK
100
AcDbText
  0
VIEWPORT
  5
2685
102
{ACAD_XDICTIONARY
360
B36D
102
}
330
267D
100
AcDbEntity
 67
     1
  8
0
  6
Continuous
 62
     7
100
AcDbViewport
 10
625.5759283340428
 20
154.60053150231
 30
0.0
 40
39.87670705469096
 41
26.29814317774151
 68
     1
 69
     1
 12
625.5759283340428
 22
154.60053150231
 13
0.0
 23
0.0
 14
1.0
 24
1.0
 15
0.0
 25
0.0
 16
0.0
 26
0.0
 36
1.0
 17
0.0
 27
0.0
 37
0.0
 42
50.0
 43
0.0
 44
0.0
 45
26.29814317774151
 50
0.0
 51
0.0
 72
   100
 90
    32800
  1

281
     0
 71
     1
 74
     0
110
0.0
120
0.0
130
0.0
111
1.0
121
0.0
131
0.0
112
0.0
122
1.0
132
0.0
 79
     0
146
0.0
  0
VIEWPORT
  5
2687
102
{ACAD_XDICTIONARY
360
B36F
102
}
330
267D
100
AcDbEntity
 67
     1
  8
GRS_GAMBAR
  6
Continuous
 62
     7
100
AcDbViewport
 10
625.4002669321204
 20
155.0164161598765
 30
0.0
 40
35.92975699467503
 41
23.93053508041807
 68
     2
 69
     2
 12
223.2531797328904
 22
-122.0032086182139
 13
0.0
 23
0.0
 14
1.0
 24
1.0
 15
0.0
 25
0.0
 16
0.0
 26
0.0
 36
1.0
 17
0.0
 27
0.0
 37
0.0
 42
50.0
 43
0.0
 44
0.0
 45
23.93053531287524
 50
0.0
 51
0.0
 72
   100
 90
    33312
  1

281
     0
 71
     1
 74
     0
110
0.0
120
0.0
130
0.0
111
1.0
121
0.0
131
0.0
112
0.0
122
1.0
132
0.0
 79
     0
146
0.0
  0
ENDSEC
  0
SECTION
  2
OBJECTS
  0
DICTIONARY
  5
C
330
0
100
AcDbDictionary
281
     1
  3
ACAD_2007HEADERVARS_RT
350
B35E
  3
ACAD_COLOR
350
264D
  3
ACAD_GROUP
350
D
  3
ACAD_LAYOUT
350
19
  3
ACAD_MATERIAL
350
264C
  3
ACAD_MLINESTYLE
350
16
  3
ACAD_PLOTSETTINGS
350
18
  3
ACAD_PLOTSTYLENAME
350
E
  3
ACAD_TABLESTYLE
350
264E
  3
ACAD_VISUALSTYLE
350
B33C
  3
AcDbVariableDictionary
350
185D
  3
ASE_INDEX_DICTIONARY
350
B335
  3
DWGPROPS
350
B35D
  0
DICTIONARY
  5
2659
330
2
100
AcDbDictionary
280
     1
281
     1
  3
ACAD_LAYERSTATES
360
265A
  0
DICTIONARY
  5
1CF
330
1E
100
AcDbDictionary
280
     1
281
     1
  3
ACAD_SORTENTS
360
2AA3
  0
DICTIONARY
  5
3217
330
3216
100
AcDbDictionary
280
     1
281
     1
  3
ACAD_DIMASSOC
360
3218
  0
DICTIONARY
  5
321A
330
3219
100
AcDbDictionary
280
     1
281
     1
  3
ACAD_DIMASSOC
360
321B
  0
DICTIONARY
  5
B371
330
505F
100
AcDbDictionary
280
     1
281
     1
  3
ACAD_MTEXT_RT
360
B372
  0
DICTIONARY
  5
B36D
330
2685
100
AcDbDictionary
280
     1
281
     1
  3
ACAD_XREC_ROUNDTRIP
360
B36E
  0
DICTIONARY
  5
B36F
330
2687
100
AcDbDictionary
280
     1
281
     1
  3
ACAD_XREC_ROUNDTRIP
360
B370
  0
DICTIONARY
  5
B35E
102
{ACAD_REACTORS
330
C
102
}
330
C
100
AcDbDictionary
281
     1
  3
DIMFXL
350
B35F
  0
DICTIONARY
  5
264D
102
{ACAD_REACTORS
330
C
102
}
330
C
100
AcDbDictionary
281
     1
  0
DICTIONARY
  5
D
102
{ACAD_REACTORS
330
C
102
}
330
C
100
AcDbDictionary
281
     1
  0
DICTIONARY
  5
19
102
{ACAD_REACTORS
330
C
102
}
330
C
100
AcDbDictionary
281
     1
  3
AO
350
267E
  3
Model
350
2650
  0
DICTIONARY
  5
264C
102
{ACAD_REACTORS
330
C
102
}
330
C
100
AcDbDictionary
281
     1
  3
ByBlock
350
B33A
  3
ByLayer
350
B339
  3
Global
350
B33B
  0
DICTIONARY
  5
16
102
{ACAD_REACTORS
330
C
102
}
330
C
100
AcDbDictionary
281
     1
  3
STANDARD
350
17
  0
DICTIONARY
  5
18
102
{ACAD_REACTORS
330
C
102
}
330
C
100
AcDbDictionary
281
     1
  3
AUGUSTA
350
1CB0
  3
SANAGLOS_KOP
350
1CA6
  3
SANAGLOSS
350
1B45
  3
TEM-USA
350
1914
  0
ACDBDICTIONARYWDFLT
  5
E
102
{ACAD_REACTORS
330
C
102
}
330
C
100
AcDbDictionary
281
     1
  3
Normal
350
F
100
AcDbDictionaryWithDefault
340
F
  0
DICTIONARY
  5
264E
102
{ACAD_REACTORS
330
C
102
}
330
C
100
AcDbDictionary
281
     1
  3
Standard
350
264F
  0
DICTIONARY
  5
B33C
102
{ACAD_REACTORS
330
C
102
}
330
C
100
AcDbDictionary
281
     1
  3
2dWireframe
350
B342
  3
3D Hidden
350
B344
  3
3dWireframe
350
B343
  3
Basic
350
B341
  3
Brighten
350
B348
  3
ColorChange
350
B34C
  3
Conceptual
350
B345
  3
Dim
350
B347
  3
Facepattern
350
B34B
  3
Flat
350
B33D
  3
FlatWithEdges
350
B33E
  3
Gouraud
350
B33F
  3
GouraudWithEdges
350
B340
  3
Linepattern
350
B34A
  3
Realistic
350
B346
  3
Thicken
350
B349
  0
DICTIONARY
  5
185D
102
{ACAD_REACTORS
330
C
102
}
330
C
100
AcDbDictionary
281
     1
  3
CTABLESTYLE
350
2667
  3
DIMASSOC
350
261A
  3
INDEXCTL
350
B35C
  3
PROJECTNAME
350
31C0
  3
SORTENTS
350
185E
  0
DICTIONARY
  5
B335
102
{ACAD_REACTORS
330
C
102
}
330
C
100
AcDbDictionary
281
     1
  3
ASEBlockHierarchyIndexRecord
350
B336
1001
DCO15
1040
1651492626.982
  0
XRECORD
  5
B35D
102
{ACAD_REACTORS
330
C
102
}
330
C
100
AcDbXrecord
280
     1
  1
DWGPROPS COOKIE
  2

  3

  4

  6

  7

  8
nnguyen
  9

300
=
301
=
302
=
303
=
304
=
305
=
306
=
307
=
308
=
309
=
 40
2.118015289351852
 41
2450438.47626331
 42
2454917.709849329
  1

 90
        0
  0
DICTIONARY
  5
265A
102
{ACAD_REACTORS
330
2659
102
}
330
2659
100
AcDbDictionary
281
     1
  0
SORTENTSTABLE
  5
2AA3
102
{ACAD_REACTORS
330
1CF
102
}
330
1CF
100
AcDbSortentsTable
330
1E
331
2877
  5
28AD
331
287A
  5
2923
331
2BD
  5
2BD
331
2C2
  5
2C2
331
2C5
  5
2C5
331
1E5B
  5
1E66
331
1E5E
  5
1E75
331
1E67
  5
2782
331
28A6
  5
29F5
331
2865
  5
2899
331
28A9
  5
29F8
331
28AC
  5
29FB
331
286D
  5
28A4
331
28AF
  5
29FE
331
2870
  5
28A7
331
1E73
  5
2872
331
28B2
  5
2A01
331
2873
  5
28A9
331
1E76
  5
2878
331
28B5
  5
2A04
331
2876
  5
28AC
331
2879
  5
28AF
331
2BC
  5
2BC
331
2AAB
  5
2CDF
331
28BB
  5
2A07
331
2C1
  5
2C1
331
2BF
  5
2BF
331
2C4
  5
2C4
331
2923
  5
2ABC
331
1E5A
  5
1E5A
331
2CE0
  5
3189
331
1E5D
  5
1E71
331
1E66
  5
2662
331
28A5
  5
29F4
331
28A8
  5
29F7
331
2869
  5
28A1
331
28AB
  5
29FA
331
286C
  5
28A3
331
28AE
  5
29FD
331
1E72
  5
286D
331
286F
  5
28A6
331
28B1
  5
2A00
331
2872
  5
28A8
331
1E75
  5
2874
331
28B4
  5
2A03
331
2875
  5
28AB
331
28B7
  5
2A06
331
2878
  5
28AE
331
2BB
  5
2BB
331
2C0
  5
2C0
331
2BE
  5
2BE
331
2C3
  5
2C3
331
30C
  5
30C
331
1E68
  5
2783
331
28A7
  5
29F6
331
28AA
  5
29F9
331
2866
  5
289D
331
2662
  5
288B
331
28AD
  5
29FC
331
286B
  5
28A2
331
28B0
  5
29FF
331
286E
  5
28A5
331
1E71
  5
286C
331
28B3
  5
2A02
331
1E74
  5
2873
331
28B6
  5
2A05
331
2874
  5
28AA
  0
DIMASSOC
  5
3218
102
{ACAD_REACTORS
330
3217
102
}
330
3217
100
AcDbDimAssoc
330
3216
 90
        3
 70
     0
 71
     0
  1
AcDbOsnapPointRef
 72
    13
331
3213
 73
     2
 91
        0
 40
0.0
 10
0.0
 20
0.0
 30
2.000000000000000E+50
 75
     0
  1
AcDbOsnapPointRef
 72
    13
331
3212
 73
     2
 91
        0
 40
0.0
 10
0.0
 20
0.0
 30
2.000000000000000E+50
 75
     0
  0
DIMASSOC
  5
321B
102
{ACAD_REACTORS
330
321A
102
}
330
321A
100
AcDbDimAssoc
330
3219
 90
        1
 70
     0
 71
     0
  1
AcDbOsnapPointRef
 72
    13
331
3212
 73
     2
 91
        0
 40
0.0
 10
0.0
 20
0.0
 30
2.000000000000000E+50
 75
     0
  0
XRECORD
  5
B372
102
{ACAD_REACTORS
330
B371
102
}
330
B371
100
AcDbXrecord
280
     1
 40
45885.0
  1
^IOUTSIDE EDGE OF \PLAVATORY
  0
XRECORD
  5
B36E
102
{ACAD_REACTORS
330
B36D
102
}
330
B36D
100
AcDbXrecord
280
     1
102
SHADEPLOT
 70
     0
  0
XRECORD
  5
B370
102
{ACAD_REACTORS
330
B36F
102
}
330
B36F
100
AcDbXrecord
280
     1
102
SHADEPLOT
 70
     0
  0
XRECORD
  5
B35F
102
{ACAD_REACTORS
330
B35E
102
}
330
B35E
100
AcDbXrecord
280
     1
 40
3.0
  0
LAYOUT
  5
267E
102
{ACAD_XDICTIONARY
360
2765
102
}
102
{ACAD_REACTORS
330
19
102
}
330
19
100
AcDbPlotSettings
  1

  2
\\totosrv3\RD-03-HPDJ500
  4
User272
  6

 40
4.995333194732666
 41
16.97562789916992
 42
4.99530029296875
 43
16.9757080078125
 44
840.9516601562499
 45
1188.931640625
 46
0.0
 47
0.0
 48
0.0
 49
0.0
140
0.0
141
0.0
142
1.0
143
1.0
 70
   688
 72
     1
 73
     1
 74
     5
  7

 75
    16
147
1.0
148
0.0
149
0.0
100
AcDbLayout
  1
AO
 70
     1
 71
     1
 10
-16.9757080078125
 20
-4.995333194732666
 11
1171.955932617187
 21
835.9563269615174
 12
0.0
 22
0.0
 32
0.0
 14
607.4353884347829
 24
143.0511486196675
 34
0.0
 15
643.3651454294579
 25
166.9816837000855
 35
0.0
146
0.0
 13
0.0
 23
0.0
 33
0.0
 16
1.0
 26
0.0
 36
0.0
 17
0.0
 27
1.0
 37
0.0
 76
     0
330
267D
331
2685
1001
ACAD_PSEXT
1000
\\totosrv3\RD-03-HPDJ500
1000
HP DesignJet 500 42+HPGL2 Card
1000
R & D/Quality Engineering
1000
IP 172.16.4.69, HP DesignJet 500, S/N
1070
     0
  0
LAYOUT
  5
2650
102
{ACAD_XDICTIONARY
360
B36A
102
}
102
{ACAD_REACTORS
330
19
102
}
330
19
100
AcDbPlotSettings
  1

  2
HP Color LaserJet 2830_2840 Fax
  4
Letter
  6

 40
3.174999952316282
 41
3.174999952316282
 42
3.175003051757812
 43
3.17498779296875
 44
215.8999938964844
 45
279.3999938964844
 46
0.0
 47
0.0
 48
0.0
 49
0.0
140
0.0
141
0.0
142
1.0
143
3.94122779942135
 70
 11952
 72
     0
 73
     1
 74
     0
  7

 75
     0
147
0.2537280387971533
148
-5144.288381540867
149
3521.294419097101
100
AcDbLayout
  1
Model
 70
     1
 71
     0
 10
0.0
 20
0.0
 11
12.0
 21
9.0
 12
0.0
 22
0.0
 32
0.0
 14
0.0
 24
0.0
 34
0.0
 15
0.0
 25
0.0
 35
0.0
146
0.0
 13
0.0
 23
0.0
 33
0.0
 16
1.0
 26
0.0
 36
0.0
 17
0.0
 27
1.0
 37
0.0
 76
     0
330
1E
331
B337
1001
ACAD_PSEXT
1000
HP Color LaserJet 2830_2840 Fax
1000
HP Color LaserJet 2830_2840 Fax
1000
HPFAX:
1000

1070
     0
  0
MATERIAL
  5
B33A
102
{ACAD_XDICTIONARY
360
B375
102
}
102
{ACAD_REACTORS
330
264C
102
}
330
264C
100
AcDbMaterial
  1
ByBlock
  0
MATERIAL
  5
B339
102
{ACAD_XDICTIONARY
360
B373
102
}
102
{ACAD_REACTORS
330
264C
102
}
330
264C
100
AcDbMaterial
  1
ByLayer
  0
MATERIAL
  5
B33B
102
{ACAD_XDICTIONARY
360
B377
102
}
102
{ACAD_REACTORS
330
264C
102
}
330
264C
100
AcDbMaterial
  1
Global
  0
MLINESTYLE
  5
17
102
{ACAD_REACTORS
330
16
102
}
330
16
100
AcDbMlineStyle
  2
STANDARD
 70
     0
  3

 62
   256
 51
90.0
 52
90.0
 71
     2
 49
0.5
 62
   256
  6
BYLAYER
 49
-0.5
 62
   256
  6
BYLAYER
  0
PLOTSETTINGS
  5
1CB0
102
{ACAD_XDICTIONARY
360
B366
102
}
102
{ACAD_REACTORS
330
18
102
}
330
18
100
AcDbPlotSettings
  1
AUGUSTA
  2
HP DesignJet 750C_ (D_A1) by HP.pc3
  4
User271
  6

 40
4.995333194732666
 41
16.93330574035644
 42
4.99530029296875
 43
16.933349609375
 44
593.9366455078125
 45
840.8246459960937
 46
13.77
 47
0.0
 48
-319.3112628452372
 49
-100.2489204824246
140
475.3486629620174
141
456.1567913142567
142
1.0
143
1.0
 70
  1680
 72
     1
 73
     1
 74
     4
  7

 75
    16
147
1.0
148
319.3112628452372
149
100.2489204824246
  0
PLOTSETTINGS
  5
1CA6
102
{ACAD_XDICTIONARY
360
B364
102
}
102
{ACAD_REACTORS
330
18
102
}
330
18
100
AcDbPlotSettings
  1
SANAGLOS KOP
  2
HP DesignJet 750C_ (D_A1) by HP.pc3
  4
User271
  6

 40
4.995333194732666
 41
16.93330574035644
 42
4.99530029296875
 43
16.933349609375
 44
593.9366455078125
 45
840.8246459960937
 46
13.77
 47
0.0
 48
711.1707148896048
 49
-92.98960787981377
140
1506.883174174088
141
463.4161049991221
142
1.0
143
1.0
 70
  1680
 72
     1
 73
     1
 74
     4
  7

 75
    16
147
1.0
148
-711.1707148896048
149
92.98960787981377
  0
PLOTSETTINGS
  5
1B45
102
{ACAD_XDICTIONARY
360
B362
102
}
102
{ACAD_REACTORS
330
18
102
}
330
18
100
AcDbPlotSettings
  1
SANAGLOSS
  2
HP DesignJet 750C_ (D_A1) by HP.pc3
  4
User1644
  6

 40
3.174999952316281
 41
3.174999952316281
 42
3.17498779296875
 43
3.17498779296875
 44
594.0
 45
420.0
 46
46.73
 47
25.15
 48
507.9937769374105
 49
-33.47017728181299
140
1002.175992193447
141
341.8761457011038
142
1.0
143
1.0
 70
  1680
 72
     1
 73
     0
 74
     4
  7

 75
    16
147
1.0
148
-507.9937769374105
149
33.47017728181299
  0
PLOTSETTINGS
  5
1914
102
{ACAD_XDICTIONARY
360
B360
102
}
102
{ACAD_REACTORS
330
18
102
}
330
18
100
AcDbPlotSettings
  1
TEM-USA
  2
HP DesignJet 750C_ (D_A1) by HP.pc3
  4
User1644
  6

 40
3.174999952316281
 41
3.174999952316281
 42
3.17498779296875
 43
3.17498779296875
 44
594.0
 45
420.0
 46
17.42
 47
20.12999999999999
 48
-228.7633077298619
 49
-22.75333800762997
140
324.0515129779132
141
376.6328008032835
142
1.0
143
1.0
 70
  1680
 72
     1
 73
     0
 74
     4
  7

 75
    16
147
1.0
148
228.7633077298619
149
22.75333800762997
  0
ACDBPLACEHOLDER
  5
F
102
{ACAD_REACTORS
330
E
102
}
330
E
  0
TABLESTYLE
  5
264F
102
{ACAD_XDICTIONARY
360
B368
102
}
102
{ACAD_REACTORS
330
264E
102
}
330
264E
100
AcDbTableStyle
  3
Standard
 70
     0
 71
     0
 40
0.06
 41
0.06
280
     0
281
     0
  7
STANDARD
140
0.18
170
     2
 62
     0
 63
     7
283
     0
274
    -2
284
     1
 64
     0
275
    -2
285
     1
 65
     0
276
    -2
286
     1
 66
     0
277
    -2
287
     1
 67
     0
278
    -2
288
     1
 68
     0
279
    -2
289
     1
 69
     0
  7
STANDARD
140
0.25
170
     5
 62
     0
 63
     7
283
     0
274
    -2
284
     1
 64
     0
275
    -2
285
     1
 65
     0
276
    -2
286
     1
 66
     0
277
    -2
287
     1
 67
     0
278
    -2
288
     1
 68
     0
279
    -2
289
     1
 69
     0
  7
STANDARD
140
0.18
170
     5
 62
     0
 63
     7
283
     0
274
    -2
284
     1
 64
     0
275
    -2
285
     1
 65
     0
276
    -2
286
     1
 66
     0
277
    -2
287
     1
 67
     0
278
    -2
288
     1
 68
     0
279
    -2
289
     1
 69
     0
  0
VISUALSTYLE
  5
B342
102
{ACAD_REACTORS
330
B33C
102
}
330
B33C
100
AcDbVisualStyle
  2
2dWireframe
 70
     4
 71
     0
 72
     2
 73
     0
 90
        0
 40
-0.6
 41
-30.0
 62
     5
 63
     7
 74
     1
 91
        4
 64
     7
 65
   257
 75
     1
175
     1
 42
1.0
 92
        0
 66
   257
 43
1.0
 76
     1
 77
     6
 78
     2
 67
     7
 79
     5
170
     0
171
     0
290
     0
174
     0
 93
        1
 44
0.0
173
     0
291
     0
 45
0.0
1001
ACAD
1000
AcDbSavedByObjectVersion
1070
     0
  0
VISUALSTYLE
  5
B344
102
{ACAD_REACTORS
330
B33C
102
}
330
B33C
100
AcDbVisualStyle
  2
3D Hidden
 70
     6
 71
     1
 72
     2
 73
     2
 90
        0
 40
-0.6
 41
-30.0
 62
     5
 63
     7
 74
     2
 91
        2
 64
     7
 65
   257
 75
     2
175
     1
 42
40.0
 92
        0
 66
   257
 43
1.0
 76
     1
 77
     6
 78
     2
 67
     7
 79
     3
170
     0
171
     0
290
     0
174
     0
 93
        1
 44
0.0
173
     0
291
     0
 45
0.0
1001
ACAD
1000
AcDbSavedByObjectVersion
1070
     0
  0
VISUALSTYLE
  5
B343
102
{ACAD_REACTORS
330
B33C
102
}
330
B33C
100
AcDbVisualStyle
  2
3dWireframe
 70
     5
 71
     0
 72
     2
 73
     0
 90
        0
 40
-0.6
 41
-30.0
 62
     5
 63
     7
 74
     1
 91
        4
 64
     7
 65
   257
 75
     1
175
     1
 42
1.0
 92
        0
 66
   257
 43
1.0
 76
     1
 77
     6
 78
     2
 67
     7
 79
     5
170
     0
171
     0
290
     0
174
     0
 93
        1
 44
0.0
173
     0
291
     0
 45
0.0
1001
ACAD
1000
AcDbSavedByObjectVersion
1070
     0
  0
VISUALSTYLE
  5
B341
102
{ACAD_REACTORS
330
B33C
102
}
330
B33C
100
AcDbVisualStyle
  2
Basic
 70
     7
 71
     1
 72
     0
 73
     1
 90
        0
 40
-0.6
 41
-30.0
 62
     5
 63
     7
 74
     0
 91
        4
 64
     7
 65
   257
 75
     1
175
     1
 42
1.0
 92
        8
 66
     7
 43
1.0
 76
     1
 77
     6
 78
     2
 67
     7
 79
     5
170
     0
171
     0
290
     0
174
     0
 93
        1
 44
0.0
173
     0
291
     1
 45
0.0
1001
ACAD
1000
AcDbSavedByObjectVersion
1070
     0
  0
VISUALSTYLE
  5
B348
102
{ACAD_REACTORS
330
B33C
102
}
330
B33C
100
AcDbVisualStyle
  2
Brighten
 70
    12
 71
     2
 72
     2
 73
     0
 90
        0
 40
-0.6
 41
-30.0
 62
     5
 63
     7
 74
     1
 91
        4
 64
     7
 65
   257
 75
     1
175
     1
 42
1.0
 92
        8
 66
     7
 43
1.0
 76
     1
 77
     6
 78
     2
 67
     7
 79
     5
170
     0
171
     0
290
     0
174
     0
 93
        1
 44
50.0
173
     0
291
     1
 45
0.0
1001
ACAD
1000
AcDbSavedByObjectVersion
1070
     0
  0
VISUALSTYLE
  5
B34C
102
{ACAD_REACTORS
330
B33C
102
}
330
B33C
100
AcDbVisualStyle
  2
ColorChange
 70
    16
 71
     2
 72
     2
 73
     3
 90
        0
 40
-0.6
 41
-30.0
 62
     5
 63
     8
 74
     1
 91
        4
 64
     7
 65
   257
 75
     1
175
     1
 42
1.0
 92
        8
 66
     8
 43
1.0
 76
     1
 77
     6
 78
     2
 67
     7
 79
     5
170
     0
171
     0
290
     0
174
     0
 93
        1
 44
0.0
173
     0
291
     1
 45
0.0
1001
ACAD
1000
AcDbSavedByObjectVersion
1070
     0
  0
VISUALSTYLE
  5
B345
102
{ACAD_REACTORS
330
B33C
102
}
330
B33C
100
AcDbVisualStyle
  2
Conceptual
 70
     9
 71
     3
 72
     2
 73
     0
 90
        0
 40
-0.6
 41
-30.0
 62
     5
 63
     7
 74
     2
 91
        2
 64
     7
 65
   257
 75
     1
175
     1
 42
40.0
 92
        8
 66
     7
 43
1.0
 76
     1
 77
     6
 78
     2
 67
     7
 79
     3
170
     0
171
     0
290
     0
174
     0
 93
        1
 44
0.0
173
     0
291
     0
 45
0.0
1001
ACAD
1000
AcDbSavedByObjectVersion
1070
     0
  0
VISUALSTYLE
  5
B347
102
{ACAD_REACTORS
330
B33C
102
}
330
B33C
100
AcDbVisualStyle
  2
Dim
 70
    11
 71
     2
 72
     2
 73
     0
 90
        0
 40
-0.6
 41
-30.0
 62
     5
 63
     7
 74
     1
 91
        4
 64
     7
 65
   257
 75
     1
175
     1
 42
1.0
 92
        8
 66
     7
 43
1.0
 76
     1
 77
     6
 78
     2
 67
     7
 79
     5
170
     0
171
     0
290
     0
174
     0
 93
        1
 44
-50.0
173
     0
291
     1
 45
0.0
1001
ACAD
1000
AcDbSavedByObjectVersion
1070
     0
  0
VISUALSTYLE
  5
B34B
102
{ACAD_REACTORS
330
B33C
102
}
330
B33C
100
AcDbVisualStyle
  2
Facepattern
 70
    15
 71
     2
 72
     2
 73
     0
 90
        0
 40
-0.6
 41
-30.0
 62
     5
 63
     7
 74
     1
 91
        4
 64
     7
 65
   257
 75
     1
175
     1
 42
1.0
 92
        8
 66
     7
 43
1.0
 76
     1
 77
     6
 78
     2
 67
     7
 79
     5
170
     0
171
     0
290
     0
174
     0
 93
        1
 44
0.0
173
     0
291
     1
 45
0.0
1001
ACAD
1000
AcDbSavedByObjectVersion
1070
     0
  0
VISUALSTYLE
  5
B33D
102
{ACAD_REACTORS
330
B33C
102
}
330
B33C
100
AcDbVisualStyle
  2
Flat
 70
     0
 71
     2
 72
     1
 73
     1
 90
        2
 40
-0.6
 41
30.0
 62
     5
 63
     7
 74
     0
 91
        4
 64
     7
 65
   257
 75
     1
175
     1
 42
1.0
 92
        8
 66
     7
 43
1.0
 76
     1
 77
     6
 78
     2
 67
     7
 79
     5
170
     0
171
     0
290
     0
174
     0
 93
       13
 44
0.0
173
     0
291
     1
 45
0.0
1001
ACAD
1000
AcDbSavedByObjectVersion
1070
     0
  0
VISUALSTYLE
  5
B33E
102
{ACAD_REACTORS
330
B33C
102
}
330
B33C
100
AcDbVisualStyle
  2
FlatWithEdges
 70
     1
 71
     2
 72
     1
 73
     1
 90
        2
 40
-0.6
 41
30.0
 62
     5
 63
     7
 74
     1
 91
        4
 64
     7
 65
   257
 75
     1
175
     1
 42
1.0
 92
        0
 66
   257
 43
1.0
 76
     1
 77
     6
 78
     2
 67
     7
 79
     5
170
     0
171
     0
290
     0
174
     0
 93
       13
 44
0.0
173
     0
291
     1
 45
0.0
1001
ACAD
1000
AcDbSavedByObjectVersion
1070
     0
  0
VISUALSTYLE
  5
B33F
102
{ACAD_REACTORS
330
B33C
102
}
330
B33C
100
AcDbVisualStyle
  2
Gouraud
 70
     2
 71
     2
 72
     2
 73
     1
 90
        2
 40
-0.6
 41
30.0
 62
     5
 63
     7
 74
     0
 91
        4
 64
     7
 65
   257
 75
     1
175
     1
 42
1.0
 92
        0
 66
     7
 43
1.0
 76
     1
 77
     6
 78
     2
 67
     7
 79
     5
170
     0
171
     0
290
     0
174
     0
 93
       13
 44
0.0
173
     0
291
     1
 45
0.0
1001
ACAD
1000
AcDbSavedByObjectVersion
1070
     0
  0
VISUALSTYLE
  5
B340
102
{ACAD_REACTORS
330
B33C
102
}
330
B33C
100
AcDbVisualStyle
  2
GouraudWithEdges
 70
     3
 71
     2
 72
     2
 73
     1
 90
        2
 40
-0.6
 41
30.0
 62
     5
 63
     7
 74
     1
 91
        4
 64
     7
 65
   257
 75
     1
175
     1
 42
1.0
 92
        0
 66
   257
 43
1.0
 76
     1
 77
     6
 78
     2
 67
     7
 79
     5
170
     0
171
     0
290
     0
174
     0
 93
       13
 44
0.0
173
     0
291
     1
 45
0.0
1001
ACAD
1000
AcDbSavedByObjectVersion
1070
     0
  0
VISUALSTYLE
  5
B34A
102
{ACAD_REACTORS
330
B33C
102
}
330
B33C
100
AcDbVisualStyle
  2
Linepattern
 70
    14
 71
     2
 72
     2
 73
     0
 90
        0
 40
-0.6
 41
-30.0
 62
     5
 63
     7
 74
     1
 91
        4
 64
     7
 65
   257
 75
     7
175
     7
 42
1.0
 92
        8
 66
     7
 43
1.0
 76
     1
 77
     6
 78
     2
 67
     7
 79
     5
170
     0
171
     0
290
     0
174
     0
 93
        1
 44
0.0
173
     0
291
     1
 45
0.0
1001
ACAD
1000
AcDbSavedByObjectVersion
1070
     0
  0
VISUALSTYLE
  5
B346
102
{ACAD_REACTORS
330
B33C
102
}
330
B33C
100
AcDbVisualStyle
  2
Realistic
 70
     8
 71
     2
 72
     2
 73
     0
 90
        0
 40
-0.6
 41
-30.0
 62
     5
 63
     7
 74
     1
 91
        0
 64
     7
 65
   257
 75
     1
175
     1
 42
1.0
 92
        8
 66
     8
 43
1.0
 76
     1
 77
     6
 78
     2
 67
     7
 79
     5
170
     0
171
     0
290
     0
174
     0
 93
       13
 44
0.0
173
     0
291
     0
 45
0.0
1001
ACAD
1000
AcDbSavedByObjectVersion
1070
     0
  0
VISUALSTYLE
  5
B349
102
{ACAD_REACTORS
330
B33C
102
}
330
B33C
100
AcDbVisualStyle
  2
Thicken
 70
    13
 71
     2
 72
     2
 73
     0
 90
        0
 40
-0.6
 41
-30.0
 62
     5
 63
     7
 74
     1
 91
        4
 64
     7
 65
   257
 75
     1
175
     1
 42
1.0
 92
       12
 66
     7
 43
1.0
 76
     1
 77
     6
 78
     2
 67
     7
 79
     5
170
     0
171
     0
290
     0
174
     0
 93
        1
 44
0.0
173
     0
291
     1
 45
0.0
1001
ACAD
1000
AcDbSavedByObjectVersion
1070
     0
  0
DICTIONARYVAR
  5
2667
102
{ACAD_REACTORS
330
185D
102
}
330
185D
100
DictionaryVariables
280
     0
  1
STANDARD
  0
DICTIONARYVAR
  5
261A
102
{ACAD_REACTORS
330
185D
102
}
330
185D
100
DictionaryVariables
280
     0
  1
1
  0
DICTIONARYVAR
  5
B35C
102
{ACAD_REACTORS
330
185D
102
}
330
185D
100
DictionaryVariables
280
     0
  1
0
  0
DICTIONARYVAR
  5
31C0
102
{ACAD_REACTORS
330
185D
102
}
330
185D
100
DictionaryVariables
280
     0
  1

  0
DICTIONARYVAR
  5
185E
102
{ACAD_REACTORS
330
185D
102
}
330
185D
100
DictionaryVariables
280
     0
  1
96
  0
XRECORD
  5
B336
102
{ACAD_REACTORS
330
B335
102
}
330
B335
100
AcDbXrecord
280
     1
330
2C0
330
2C1
330
2C2
330
2C3
330
2C4
330
2C5
330
2BB
330
2BC
330
2BD
330
2BE
330
2BF
  0
DICTIONARY
  5
2765
330
267E
100
AcDbDictionary
280
     1
281
     1
  3
ACAD_XREC_ROUNDTRIP
360
B36C
  3
ADSK_XREC_LAYOUTTHUMBNAIL
360
2766
  0
DICTIONARY
  5
B36A
330
2650
100
AcDbDictionary
280
     1
281
     1
  3
ACAD_XREC_ROUNDTRIP
360
B36B
  0
DICTIONARY
  5
B375
330
B33A
100
AcDbDictionary
280
     1
281
     1
  3
ACAD_XREC_ROUNDTRIP
360
B376
  0
DICTIONARY
  5
B373
330
B339
100
AcDbDictionary
280
     1
281
     1
  3
ACAD_XREC_ROUNDTRIP
360
B374
  0
DICTIONARY
  5
B377
330
B33B
100
AcDbDictionary
280
     1
281
     1
  3
ACAD_XREC_ROUNDTRIP
360
B378
  0
DICTIONARY
  5
B366
330
1CB0
100
AcDbDictionary
280
     1
281
     1
  3
ACAD_XREC_ROUNDTRIP
360
B367
  0
DICTIONARY
  5
B364
330
1CA6
100
AcDbDictionary
280
     1
281
     1
  3
ACAD_XREC_ROUNDTRIP
360
B365
  0
DICTIONARY
  5
B362
330
1B45
100
AcDbDictionary
280
     1
281
     1
  3
ACAD_XREC_ROUNDTRIP
360
B363
  0
DICTIONARY
  5
B360
330
1914
100
AcDbDictionary
280
     1
281
     1
  3
ACAD_XREC_ROUNDTRIP
360
B361
  0
DICTIONARY
  5
B368
330
264F
100
AcDbDictionary
280
     1
281
     1
  3
ACAD_XREC_ROUNDTRIP
360
B369
  0
XRECORD
  5
B36C
102
{ACAD_REACTORS
330
2765
102
}
330
2765
100
AcDbXrecord
280
     1
102
SHADEPLOT
 70
     0
102
SHADEPLOTRESLEVEL
 70
     2
102
SHADEPLOTCUSTOMDPI
 70
   300
  0
XRECORD
  5
2766
102
{ACAD_REACTORS
330
2765
102
}
330
2765
100
AcDbXrecord
280
     1
310
28000000B40000007F00000001000800000000004C59000000000000000000000001000000000000FFFFFF0000000000FFFFFF000000000000000000000000000000000000000000000000000000000000000000330000006600000099000000CC000000FF00000000330000333300006633000099330000CC330000FF3300
310
0000660000336600006666000099660000CC660000FF66000000990000339900006699000099990000CC990000FF99000000CC000033CC000066CC000099CC0000CCCC0000FFCC000000FF000033FF000066FF000099FF0000CCFF0000FFFF000000003300330033006600330099003300CC003300FF003300003333003333
310
33006633330099333300CC333300FF33330000663300336633006666330099663300CC663300FF66330000993300339933006699330099993300CC993300FF99330000CC330033CC330066CC330099CC3300CCCC3300FFCC330000FF330033FF330066FF330099FF3300CCFF3300FFFF330000006600330066006600660099
310
006600CC006600FF00660000336600333366006633660099336600CC336600FF33660000666600336666006666660099666600CC666600FF66660000996600339966006699660099996600CC996600FF99660000CC660033CC660066CC660099CC6600CCCC6600FFCC660000FF660033FF660066FF660099FF6600CCFF6600
310
FFFF660000009900330099006600990099009900CC009900FF00990000339900333399006633990099339900CC339900FF33990000669900336699006666990099669900CC669900FF66990000999900339999006699990099999900CC999900FF99990000CC990033CC990066CC990099CC9900CCCC9900FFCC990000FF99
310
0033FF990066FF990099FF9900CCFF9900FFFF99000000CC003300CC006600CC009900CC00CC00CC00FF00CC000033CC003333CC006633CC009933CC00CC33CC00FF33CC000066CC003366CC006666CC009966CC00CC66CC00FF66CC000099CC003399CC006699CC009999CC00CC99CC00FF99CC0000CCCC0033CCCC0066CC
310
CC0099CCCC00CCCCCC00FFCCCC0000FFCC0033FFCC0066FFCC0099FFCC00CCFFCC00FFFFCC000000FF003300FF006600FF009900FF00CC00FF00FF00FF000033FF003333FF006633FF009933FF00CC33FF00FF33FF000066FF003366FF006666FF009966FF00CC66FF00FF66FF000099FF003399FF006699FF009999FF00CC
310
99FF00FF99FF0000CCFF0033CCFF0066CCFF0099CCFF00CCCCFF00FFCCFF0000FFFF0033FFFF0066FFFF0099FFFF00CCFFFF00FFFFFF00000000000D0D0D001A1A1A00282828003535350043434300505050005D5D5D006B6B6B00787878008686860093939300A1A1A100AEAEAE00BBBBBB00C9C9C900D6D6D600E4E4E400
310
F1F1F100FFFFFF0000000000000000000000000000000000000000000000000000000000000000000000000000000000E2E2E2E2E2E2E2E2E2E2E2E2E2E2E2E2E2E2E2E2E2E2E2E2E2E2E2E2E2E2E2E2E2E2E2E2E2E2E2E2E2E2E2E2E2E2E2E2E2E2E2E2E2E2E2E2E2E2E2E2E2E2E2E2E2E2E2E2E2E2E2E2E2E2E2E2E2E2E2
310
E2E2E2E2E2E2E2E2E2E2E2E2E2E2E2E2E2E2E2E2E2E2E2E2E2E2E2E2E2E2E2E2E2E2E2E2E2E2E2E2E2E2E2E2E2E2E2E2E2E2E2E2E2E2E2E2E2E2E2E2E2E2E2E2E2E2E2E2E2E2E2E2E2E2E2E2E2E2E2E2E2E2E2E2E2E2E2E2E2E2E2E2E2E2E2E2E2E2E2E2E2E2F5F5E2E2E2E2E2E2E2E2F5F5F5F5F5F5F5F5F5E2E2E2E2E2E2
310
E2E2E2E2E2E2E2E2E2E2F5F5F5F5F5F5F5F5F5E2E2E2E2E2E2E2E2E2E2E2E2E2E2E2E2F5F5F5F5F5F5F5F5E2E2E2E2E2E2E2E2E2E2E2E2E2E2E2E2F5F5F5F5F5F5F5F5F5E2E2E2E2E2E2E2E2E2E2E2E2E2E2E2E2F5F5F5F5F5F5F5F5E2E2E2E2E2E2E2E2E2E2E2E2E2E2E2E2F5F5F5F5F5F5F5F5F5E2E2E2E2E2E2E2E2E2E2
310
E2E2E2E2E2E2F5F5F5F5F5F5F5F5F5E2E2E2E2E2E2E2E2F5F5E2E2E2F5F5E2F5F5F5F5F5F5F5F5F5F5F5F5F5F5F5F5F5F5F5F5F5F5F5F5F5F5F5F5F5F5F5F5F5F5F5F5F5F5F5F5F5F5F5F5F5F5F5F5F5F5F5F5F5F5F5F5F5F5F5F5F5F5F5F5F5F5F5F5F5F5F5F5F5F5F5F5F5F5F5F5F5F5F5F5F5F5F5F5F5F5F5F5F5F5F5F5
310
F5F5F5F5F5F5F5F5F5F5F5F5F5F5F5F5F5F5F5F5F5F5F5F5F5F5F5F5F5F5F5F5F5F5F5F5F5F5F5F5F5F5F5F5F5F5F5F5F5F5F5F5F5F5F5F5F5F5F5F5F5F5F5F5F5F5F5F5F5F5F5F5F5F5F5E2F5F5E2E2E2F5F5E2F5F5F5F5F5F5F5F5F5F5F5F5F5F5F5F5F5F5F5F5F5F5F5F5F5F5F5F5F5F5F5F5F5F5F5F5F5F5F5F5F5F5F5
310
F5F5F5F5F5F5F5F5F5F5F5F5F5F5F5F5F5F5F5F5F5F5F5F5F5F5F5F5F5F5F5F5F5F5F5F5F5F5F5F5F5F5F5F5F5F5F5F5F5F5F5F5F5F5F5F5F5F5F5F5F5F5F5F5F5F5F5F5F5F5F5F5F5F5F5F5F5F5F5F5F5F5F5F5F5F5F5F5F5F5F5F5F5F5F5F5F5F5F5F5F5F5F5F5F5F5F5F5F5F5F5F5F5F5F5F5F5F5F5F5F5F5F5F5F5F5F5
310
F5E2F5F5E2E2E2F5F5E2F5F5F5F5F5F5F5F5F5F5F5F5F5F5F5F5F5F5F5F5F5F5F5F5F5F5F5F5F5F5F5F5F5F5F5F5F5F5F5F5F5F5F5F5F5F5F5F5F5F5F5F5F5F5F5F5F5F5F5F5F5F5F5F5F5F5F5F5F5F5F5F5F5F5F5F5F5F5F5F5F5F5F5F5F5F5F5F5F5F5F5F5F5F5F5F5F5F5F5F5F5F5F5F5F5F5F5F5F5F5F5F5F5F5F5F5F5
310
F5F5F5F5F5F5F5F5F5F5F5F5F5F5F5F5F5F5F5F5F5F5F5F5F5F5F5F5F5F5F5F5F5F5F5F5F5F5F5F5F5F5F5F5F5F5F5F5F5F5F5F5F5F5E2F5F5E2E2E2F5F5E2F5F5F5F5F5F5F5F5F5F5F5F5F5F5F5F5F5F5F5F5F5F5F5F5F5F5F5F5F5F5F5F5F5F5F5F5F5F5F5F5F5F5F5F5F5F5F5F5F5F5F5F5F5F5F5F5F5F5F5F5F5F5F5F5
310
F5F5F5F5F5F5F5F5F5F5F5F5F5F5F5F5F5F5F5F5F5F5F5F5F5F5F5F5F5F5F5F5F5F5F5F5F5F5F5F5F5F5F5F5F5F5F5F5F5F5F5F5F5F5F5F5F5F5F5F5F5F5F5F5F5F5F5F5F5F5F5F5F5F5F5F5F5F5F5F5F5F5F5F5F5F5F5F5F5F5F5F5F5F5F5F5F5F5F5F5F5F5F5F5F5F5F5E2F5F5E2E2E2F5F5E2F5F5F5F5F5F5F5F5F5F5F5
310
F5F5F5F5F5F5F5F5F5F5F5F5F5F5F5F5F5F5F5F5F5F5F5F5F5F5F5F5F5F5F5F5F5F5F5F5F5F5F5F5F5F5F5F5F5F5F5F5F5F5F5F5F5F5F5F5F5F5F5F5F5F5F5F5F5F5F5F5F5F5F5F5F5F5F5F5F5F5F5F5F5F5F5F5F5F5F5F5F5F5F5F5F5F5F5F5F5F5F5F5F5F5F5F5F5F5F5F5F5F5F5F5F5F5F5F5F5F5F5F5F5F5F5F5F5F5F5
310
F5F5F5F5F5F5F5F5F5F5F5F5F5F5F5F5F5F5F5F5F5F5F5F5F5F5F5F5F5F5F5F5F5E2F5F5E2E2E2F5F5E2F5F5F5F5F5F5F5F5F5F5F5F5F5F5F5F5F5F5F5F5F5F5F5F5F5F5F5F5F5F5F5F5F5F5F5F5F5F5F5F5F5F5F5F5F5F5F5F5F5F5F5F5F5F5F5F5F5F5F5F5F5F5F5F5F5F5F5F5F5F5F5F5F5F5F5F5F5F5F5F5F5F5F5F5F5
310
F5F5F5F5F5F5F5F5F5F5F5F5F5F5F5F5F5F5F5F5F5F5F5F5F5F5F5F5F5F5F5F5F5F5F5F5F5F5F5F5F5F5F5F5F5F5F5F5F5F5F5F5F5F5F5F5F5F5F5F5F5F5F5F5F5F5F5F5F5F5F5F5F5F5F5F5F5F5F5F5F5F5F5F5F5F5E2F5F5E2E2E2F5F5E2F5F5F5F5F5F5F5F5F5F5F5F5F5F5F5F5F5F5F5F5F5F5F5F5F5F5F5F5F5F5F5F5
310
F5F5F5F5F5F5F5F5F5F5F5F5F5F5F5F5F5F5F5F5F5F5F5F5F5F5F5F5F5F5F5F5F5F5F5F5F5F5F5F5F5F5F5F5F5F5F5F5F5F5F5F5F5F5F5F5F5F5F5F5F5F5F5F5F5F5F5F5F5F5F5F5F5F5F5F5F5F5F5F5F5F5F5F5F5F5F5F5F5F5F5F5F5F5F5F5F5F5F5F5F5F5F5F5F5F5F5F5F5F5F5F5F5F5F5F5F5F5F5F5F5F5F5F5F5F5F5
310
F5F5F5F5F5F5F5F5F5F5F5F5E2F5F5E2E2E2F5F5F5F5F5F5F5F5F5F5F5F5F5F5F5F5F5F5F5F5F5F5F5F5F5F5F5F5F5F5F5F5F5F5F5F5F5F5F5F5F5F5F5F5F5F5F5F5F5F5F5F5F5F5F5F5F5F5F5F5F5F5F5F5F5F5F5F5F5F5F5F5F5F5F5F5F5F5F5F5F5F5F5F5F5F5F5F5F5F5F5F5F5F5F5F5F5F5F5F5F5F5F5F5F5F5F5F5F5
310
F5F5F5F5F5F5F5F5F5F5F5F5F5F5F5F5F5F5F5F5F5F5F5F5F5F5F5F5F5F5F5F5F5F5F5F5F5F5F5F5F5F5F5F5F5F5F5F5F5F5F5F5F5F5F5F5F5F5F5F5F5F5F5F5F5F5F5F5E2E2E2F5F5F5F5F5F5F5F5F5F5F5F5F5F5F5F5F5F5F5F5F5F5F5F5F5F5F5F5F5F5F5F5F5F5F5F5F5F5F5F5F5F5F5F5F5F5F5F5F5F5F5F5F5F5F5F5
310
F5F5F5F5F5F5F5F5F5F5F5F5F5F5F5F5F5F5F5F5F5F5F5F5F5F5F5F5F5F5F5F5F5F5F5F5F5F5F5F5F5F5F5F5F5F5F5F5F5F5F5F5F5F5F5F5F5F5F5F5F5F5F5F5F5F5F5F5F5F5F5F5F5F5F5F5F5F5F5F5F5F5F5F5F5F5F5F5F5F5F5F5F5F5F5F5F5F5F5F5F5F5F5F5F5F5F5F5F5F5F5F5F5F5F5F5F5F5F5F5F5E2E2E2F5F5F5
310
F5F5F5F5F5F5F5F5F5F5F5F5F5F5F5F5F5F5F5F5F5F5F5F5F5F5F5F5F5F5F5F5F5F5F5F5F5F5F5F5F5F5F5F5F5F5F5F5F5F5F5F5F5F5F5F5F5F5F5F5F5F5F5F5F5F5F5F5F5F5F5F5F5F5F5F5F5F5F5F5F5F5F5F5F5F5F5F5F5F5F5F5F5F5F5F5F5F5F5F5F5F5F5F5F5F5F5F5F5F5F5F5F5F5F5F5F5F5F5F5F5F5F5F5F5F5F5
310
F5F5F5F5F5F5F5F5F5F5F5F5F5F5F5F5F5F5F5F5F5F5F5F5F5F5F5F5F5F5F5F5F5F5F5F5F5F5F5F5F5F5F5F5F5F5F5E2E2E2F5F5F5F5F5F5F5F5F5F5F5F5F5F5F5F5F5F5F5F5F5F5F5F5F5F5F5F5F5F5F5F5F5F5F5F5F5F5F5F5F5F5F5F5F5F5F5F5F5F5F5F5F5F5F5F5F5F5F5F5F5F5F5F5F5F5F5F5F5F5F5F5F5F5F5F5F5
310
F5F5F5F5F5F5F5F5F5F5F5F5F5F5F5F5F5F5F5F5F5F5F5F5F5F5F5F5F5F5F5F5F5F5F5F5F5F5F5F5F5F5F5F5F5F5F5F5F5F5F5F5F5F5F5F5F5F5F5F5F5F5F5F5F5F5F5F5F5F5F5F5F5F5F5F5F5F5F5F5F5F5F5F5F5F5F5F5F5F5F5F5F5F5F5F5F5F5F5F5E2E2E2F5F5F5F5F5F5F5F5F5F5F5F5F5F5F5F5F5F5F5F5F5F5F5F5
310
F5F5F5F5F5F5F5F5F5F5F5F5F5F5F5F5F5F5F5F5F5F5F5F5F5F5F5F5F5F5F5F5F5F5F5F5F5F5F5F5F5F5F5F5F5F5F5F5F5F5F5F5F5F5F5F5F5F5F5F5F5F5F5F5F5F5F5F5F5F5F5F5F5F5F5F5F5F5F5F5F5F5F5F5F5F5F5F5F5F5F5F5F5F5F5F5F5F5F5F5F5F5F5F5F5F5F5F5F5F5F5F5F5F5F5F5F5F5F5F5F5F5F5F5F5F5F5
310
F5F5F5F5F5F5F5F5F5F5F5F5F5F5F5F5F5F5F5F5F5F5F5F5F5F5E2E2E2F5F5F5F5F5F5F5F5F5F5F5F5F5F5F5F5F5F5F5F5F5F5F5F5F5F5F5F5F5F5F5F5F5F5F5F5F5F5F5F5F5F5F5F5F5F5F5F5F5F5F5F5F5F5F5F5F5F5F5F5F5F5F5F5F5F5F5F5F5F5F5F5F5F5F5F5F5F5F5F5F5F5F5F5F5F5F5F5F5F5F5F5F5F5F5F5F5F5
310
F5F5F5F5F5F5F5F5F5F5F5F5F5F5F5F5F5F5F5F5F5F5F5F5F5F5F5F5F5F5F5F5F5F5F5F5F5F5F5F5F5F5F5F5F5F5F5F5F5F5F5F5F5F5F5F5F5F5F5F5F5F5F5F5F5F5F5F5F5F5F5F5F5F5F5F5F5F5F5E2E2E2F5F5F5F5F5F5F5F5F5F5F5F5F5F5F5F5F5F5F5F5F5F5F5F5F5F5F5F5F5F5F5F5F5F5F5F5F5F5F5F5F5F5F5F5F5
310
F5F5F5F5F5F5F5F5F5F5F5F5F5F5F5F5F5F5F5F5F5F5F5F5F5F5F5F5F5F5F5F5F5F5F5F5F5F5F5F5F5F5F5F5F5F5F5F5F5F5F5F5F5F5F5F5F5F5F5F5F5F5F5F5F5F5F5F5F5F5F5F5F5F5F5F5F5F5F5F5F5F5F5F5F5F5F5F5F5F5F5F5F5F5F5F5F5F5F5F5F5F5F5F5F5F5F5F5F5F5F5F5F5F5F5F5F5F5F5F5F5F5F5F5F5F5F5
310
F5F5F5F5F5E2E2E2F5F5F5F5F5F5F5F5F5F5F5F5F5F5F5F5F5F5F5F5F5F5F5F5F5F5F5F5F5F5F5F5F5F5F5F5F5F5F5F5F5F5F5F5F5F5F5F5F5F5F5F5F5F5F5F5F5F5F5F5F5F5F5F5F5F5F5F5F5F5F5F5F5F5F5F5F5F5F5F5F5F5F5F5F5F5F5F5F5F5F5F5F5F5F5F5F5F5F5F5F5F5F5F5F5F5F5F5F5F5F5F5F5F5F5F5F5F5F5
310
F5F5F5F5F5F5F5F5F5F5F5F5F5F5F5F5F5F5F5F5F5F5F5F5F5F5F5F5F5F5F5F5F5F5F5F5F5F5F5F5F5F5F5F5F5F5F5F5F5F5F5F5F5F5F5F5F5F5E2E2E2F5F5F5F5F5F5F5F5F5F5F5F5F5F5F5F5F5F5F5F5F5F5F5F5F5F5F5F5F5F5F5F5F5F5F5F5F5F5F5F5F5F5F5F5F5F5F5F5F5F5F5F5F5F5F5F5F5F5F5F5F5F5F5F5F5F5
310
F5F5F5F5F5F5F5F5F5F5F5F5F5F5F5F5F5F5F5F5F5F5F5F5F5F5F5F5F5F5F5F5F5F5F5F5F5F5F5F5F5F5F5F5F5F5F5F5F5F5F5F5F5F5F5F5F5F5F5F5F5F5F5F5F5F5F5F5F5F5F5F5F5F5F5F5F5F5F5F5F5F5F5F5F5F5F5F5F5F5F5F5F5F5F5F5F5F5F5F5F5F5F5F5F5F5F5F5F5F5F5E2E2E2F5F5E2F5F5F5F5F5F5F5F5F5F5
310
F5F5F5F5F5F5F5F5F5F5F5F5F5F5F5F5F5F5F5F5F5F5F5F5F5F5F5F5F5F5F5F5F5F5F5F5F5F5F5F5F5F5F5F5F5F5F5F5F5F5F5F5F5F5F5F5F5F5F5F5F5F5F5F5F5F5F5F5F5F5F5F5F5F5F5F5F5F5F5F5F5F5F5F5F5F5F5F5F5F5F5F5F5F5F5F5F5F5F5F5F5F5F5F5F5F5F5F5F5F5F5F5F5F5F5F5F5F5F5F5F5F5F5F5F5F5F5
310
F5F5F5F5F5F5F5F5F5F5F5F5F5F5F5F5F5F5F5F5F5F5F5F5F5F5F5F5F5F5F5F5F5F5E2F5F5E2E2E2F5F5E2F5F5F5F5F5F5F5F5F5F5F5F5F5F5F5F5F5F5F5F5F5F5F5F5F5F5F5F5F5F5F5F5F5F5F5F5F5F5F5F5F5F5F5F5F5F5F5F5F5F5F5F5F5F5F5F5F5F5F5F5F5F5F5F5F5F5F5F5F5F5F5F5F5F5F5F5F5F5F5F5F5F5F5F5
310
F5F5F5F5F5F5F5F5F5F5F5F5F5F5F5F5F5F5F5F5F5F5F5F5F5F5F5F5F5F5F5F5F5F5F5F5F5F5F5F5F5F5F5F5F5F5F5F5F5F5F5F5F5F5F5F5F5F5F5F5F5F5F5F5F5F5F5F5F5F5F5F5F5F5F5F5F5F5F5F5F5F5F5F5F5F5F5E2F5F5E2E2E2F5F5E2F5F5F5F5F5F5F5F5F5F5F5F5F5F5F5F5F5F5F5F5F5F5F5F5F5F5F5F5F5F5F5
310
F5F5F5F5F5F5F5F5F5F5F5F5F5F5F5F5F5F5F5F5F5F5F5F5F5F5F5F5F5F5F5F5F5F5F5F5F5F5F5F5F5F5F5F5F5F5F5F5F5F5F5F5F5F5F5F5F5F5F5F5F5F5F5F5F5F5F5F5F5F5F5F5F5F5F5F5F5F5F5F5F5F5F5F5F5F5F5F5F5F5F5F5F5F5F5F5F5F5F5F5F5F5F5F5F5F5F5F5F5F5F5F5F5F5F5F5F5F5F5F5F5F5F5F5F5F5F5
310
F5F5F5F5F5F5F5F5F5F5F5F5F5E2F5F5E2E2E2F5F5E2F5F5F5F5F5F5F5F5F5F5F5F5F5F5F5F5F5F5F5F5F5F5F5F5F5F5F5F5F5F5F5F5F5F5F5F5F5F5F5F5F5F5F5F5F5F5F5F5F5F5F5F5F5F5F5F5F5F5F5F5F5F5F5F5F5F5F5F5F5F5F5F5F5F5F5F5F5F5F5F5F5F5F5F5F5F5F5F5F5F5F5F5F5F5F5F5F5F5F5F5F5F5F5F5F5
310
F5F5F5F5F5F5F5F5F5F5F5F5F5F5F5F5F5F5F5F5F5F5F5F5F5F5F5F5F5F5F5F5F5F5F5F5F5F5F5F5F5F5F5F5F5F5F5F5F5F5F5F5F5F5F5F5F5F5F5F5F5F5F5F5F5F5E2F5F5E2E2E2F5F5E2F5F5F5F5F5F5F5F5F5F5F5F5F5F5F5F5F5F5F5F5F5F5F5F5F5F5F5F5F5F5F5F5F5F5F5F5F5F5F5F5F5F5F5F5F5F5F5F5F5F5F5F5
310
F5F5F5F5F5F5F5F5F5F5F5F5F5F5F5F5F5F5F5F5F5F5F5F5F5F5F5F5F5F5F5F5F5F5F5F5F5E2E2E2E2E2E2E2F5F5F5F5F5F5F5F5F5F5F5F5F5F5F5F5F5F5F5F5F5F5F5F5F5F5F5F5F5F5F5F5F5F5F5F5F5F5F5F5F5F5F5F5F5F5F5F5F5F5F5F5F5F5F5F5F5F5F5F5F5F5F5F5F5F5F5F5F5F5F5F5F5F5F5E2F5F5E2E2E2F5F5
310
E2F5F5F5F5F5F5F5F5F5F5F5F5F5F5F5F5F5F5F5F5F5F5F5F5F5F5F5F5F5F5F5F5F5F5F5F5F5F5F5F5F5F5F5F5F5F5F5F5F5F5F5F5F5F5F5F5F5F5F5F5F5F5F5F5F5F5F5F5F5F5F5F5F5F5F5F5F5F5F5F5F5F5F5F5F5F5F5F5F5E2E2E2E2E2E2E2F5F5F5F5F5F5F5F5F5F5F5F5F5F5F5F5F5F5F5F5F5F5F5F5F5F5F5F5F5F5
310
F5F5F5F5F5F5F5F5F5F5F5F5F5F5F5F5F5F5F5F5F5F5F5F5F5F5F5F5F5F5F5F5F5F5F5F5F5F5F5F5F5F5F5F5F5E2F5F5E2E2E2F5F5E2F5F5F5F5F5F5F5F5F5F5F5F5F5F5F5F5F5F5F5F5F5F5F5F5F5F5F5F5F5F5F5F5F5F5F5F5F5F5F5F5F5F5F5F5F5F5F5F5F5F5F5F5F5F5F5F5F5F5F5F5F5F5F5F5F5F5F5F5F5F5F5F5F5
310
F5F5F5F5F5F5F5F5F5F5F5F5F5F5F5F5E2E2E2E2E2E2E2F5F5F5F5F5F5F5F5F5F5F5F5F5F5F5F5F5F5F5F5F5F5F5F5F5F5F5F5F5F5F5F5F5F5F5F5F5F5F5F5F5F5F5F5F5F5F5F5F5F5F5F5F5F5F5F5F5F5F5F5F5F5F5F5F5F5F5F5F5F5F5F5F5F5F5E2F5F5E2E2E2F5F5E2F5F5F5F5F5F5F5F5F5F5F5F5F5F5F5F5F5F5F5F5
310
F5F5F5F5F5F5F5F5F5F5F5F5F5F5F5F5F5F5F5F5F5F5F5F5F5F5F5F5F5F5F5F5F5F5F5F5F5F5F5F5F5F5F5F5F5F5F5F5F5F5F5F5F5F5F5F5F5F5F5F5F5F5F5F5F5F5F5F5F5E2E2E2E2E2E2E2F5F5F5F5F5F5F5F5F5F5F5F5F5F5F5F5F5F5F5F5F5F5F5F5F5F5F5F5F5F5F5F5F5F5F5F5F5F5F5F5F5F5F5F5F5F5F5F5F5F5F5
310
F5F5F5F5F5F5F5F5F5F5F5F5F5F5F5F5F5F5F5F5F5F5F5F5E2F5F5E2E2E2F5F5E2F5F5F5F5F5F5F5F5F5F5F5F5F5F5F5F5F5F5F5F5F5F5F5F5F5F5F5F5F5F5F5F5F5F5F5F5F5F5F5F5F5F5F5F5F5F5F5F5F5F5F5F5F5F5F5F5F5F5F5F5F5F5F5F5F5F5F5F5F5F5F5F5F5F5F5F5F5F5F5F5F5F5F5F5F5F5F5F5F5E2E2E2E2E2
310
E2E2F5F5F5F5F5F5F5F5F5F5F5F5F5F5F5F5F5F5F5F5F5F5F5F5F5F5F5F5F5F5F5F5F5F5F5F5F5F5F5F5F5F5F5F5F5F5F5F5F5F5F5F5F5F5F5F5F5F5F5F5F5F5F5F5F5F5F5F5F5F5F5F5F5F5F5E2F5F5E2E2E2F5F5E2F5F5F5F5F5F5F5F5F5F5F5F5F5F5F5F5F5F5F5F5F5F5F5F5F5F5F5F5F5F5F5F5F5F5F5F5F5F5F5F5F5
310
F5F5F5F5F5F5F5F5F5F5F5F5F5F5F5F5F5F5F5F5F5F5F5F5F5F5F5F5F5F5F5F5F5F5F5F5F5F5F5F5F5F5F5F5F5F5F5F5F5F5F5F5F5F5F5F5F5F5F5F5F5F5F5F5F5F5F5F5F5F5F5F5F5F5F5F5F5F5F5F5F5F5F5F5F5F5F5F5F5F5F5F5F5F5F5F5F5F5F5F5F5F5F5F5F5F5F5F5F5F5F5F5F5F5F5F5F5F5F5F5F5F5F5F5F5F5F5
310
F5F5F5E2F5F5E2E2E2F5F5E2F5F5F5F5F5F5F5F5F5F5F5F5F5F5F5F5F5F5F5F5F5F5F5F5F5F5F5F5F5F5F5F5F5F5F5F5F5F5F5F5F5F5F5F5F5F5F5F5F5F5F5F5F5F5F5F5F5F5F5F5F5F5F5F5F5F5F5F5F5F5F5F5F5F5F5F5F5F5F5F5F5F5F5F5F5F5F5F5F5F5F5F5F5F5F5F5F5F5F5F5F5F5F5F5F5F5F5F5F5F5F5F5F5F5F5
310
F5F5F5F5F5F5F5F5F5F5F5F5F5F5F5F5F5F5F5F5F5F5F5F5F5F5F5F5F5F5F5F5F5F5F5F5F5F5F5F5F5F5F5F5F5F5F5F5F5F5F5F5F5F5F5F5E2F5F5E2E2E2F5F5E2F5F5F5F5F5F5F5F5F5F5F5F5F5F5F5F5F5F5F5F5F5F5F5F5F5F5F5F5F5F5F5F5F5F5F5F5F5F5F5F5F5F5F5F5F5F5F5F5F5F5F5F5F5F5F5F5F5F5F5F5F5F5
310
F5F5F5F5F5F5F5F5F5F5F5F5F5F5F5F5F5F5F5F5F5F5F5F5F5F5F5F5F5F5F5F5F5F5F5F5F5F5F5F5F5F5F5F5F5F5F5F5F5F5F5F5F5F5F5F5F5F5F5F5F5F5F5F5F5F5F5F5F5F5F5F5F5F5F5F5F5F5F5F5F5F5F5F5F5F5F5F5F5F5F5F5F5F5F5F5F5F5F5F5F5F5F5F5F5F5F5F5F5E2F5F5E2E2E2F5F5E2F5F5F5F5F5F5F5F5F5
310
F5F5F5F5F5F5F5F5F5F5F5F5F5F5F5F5F5F5F5F5F5F5F5F5F5F5F5F5F5F5F5F5F5F5F5F5F5F5F5F5F5F5F5F5F5F5F5F5F5F5F5F5F5F5F5F5F5F5F5F5F5F5F5F5F5F5F5F5F5F5F5F5F5F5F5F5F5F5F5F5F5F5F5F5F5F5F5F5F5F5F5F5F5F5F5F5F5F5F5F5F5F5F5F5F5F5F5F5F5F5F5F5F5F5F5F5F5F5F5F5F5F5F5F5F5F5F5
310
F5F5F5F5F5F5F5F5F5F5F5F5F5F5F5F5F5F5F5F5F5F5F5F5F5F5F5F5F5F5F5F5F5F5F5E2F5F5E2E2E2F5F5E2F5F5F5F5F5F5F5F5F5F5F5F5F5F5F5F5F5F5F5F5F5F5F5F5F5F5F5F5F5F5F5F5F5F5F5F5F5F5F5F5F5F5F5F5F5F5F5F5F5F5F5F5F5F5F5F5F5F5F5F5F5F5F5F5F5F5F5F5F5F5F5F5F5F5F5F5F5F5F5F5F5F5F5
310
F5F5F5F5F5F5F5F5F5F5F5F5F5F5F5F5F5F5F5F5F5F5F5F5F5F5F5F5F5F5F5F5F5F5F5F5F5F5F5F5F5F5F5F5F5F5F5F5F5F5F5F5F5F5F5F5F5F5F5F5F5F5F5F5F5F5F5F5F5F5F5F5F5F5F5F5F5F5F5F5F5F5F5F5F5F5F5F5E2F5F5E2E2E2F5F5E2F5F5F5F5F5F5F5F5F5F5F5F5F5F5F5F5F5F5F5F5F5F5F5F5F5F5F5F5F5F5
310
F5F5F5F5F5F5F5F5F5F5F5F5F5F5F5F5F5F5F5F5F5F5F5F5F5F5F5F5F5F5F5F5F5F5F5F5F5F5F5F5F5F5F5F5F5F5F5F5F5F5F5F5F5F5F5F5F5F5F5F5F5F5F5F5F5F5F5F5F5F5F5F5F5F5F5F5F5F5F5F5F5F5F5F5F5F5F5F5F5F5F5F5F5F5F5F5F5F5F5F5F5F5F5F5F5F5F5F5F5F5F5F5F5F5F5F5F5F5F5F5F5F5F5F5F5F5F5
310
F5F5F5F5F5F5F5F5F5F5F5F5F5F5E2F5F5E2E2E2F5F5E2F5F5F5F5F5F5F5F5F5F5F5F5F5F5F5F5F5F5F5F5F5F5F5F5F5F5F5F5F5F5F5F5F5F5F5F5F5F5F5F5F5F5F5F5F5F5F5F5F5F5F5F5F5F5F5F5F5F5F5F5F5F5F5F5F5F5F5F5F5F5F5F5F5F5F5F5F5F5F5F5F5F5F5F5F5F5F5F5F5F5F5F5F5F5F5F5F5F5F5F5F5F5F5F5
310
F5F5F5F5F5F5F5F5F5F5F5F5F5F5F5F5F5F5F5F5F5F5F5F5F5F5F5F5F5F5F5F5F5F5F5F5F5F5F5F5F5F5F5F5F5F5F5F5F5F5F5F5F5F5F5F5F5F5F5F5F5F5F5F5F5F5F5E2F5F5E2E2E2F5F5F5F5F5F5F5F5F5F5F5F5F5F5F5F5F5F5F5F5F5F5F5F5F5F5F5F5F5F5F5F5F5F5F5F5F5F5F5F5F5F5F5F5F5F5F5F5F5F5F5F5F5F5
310
F5F5F5F5F5F5F5F5F5F5F5F5F5F5F5F5F5F5F5F5F5F5F5F5F5F5F5F5F5F5F5F5F5F5F5F5F5F5F5F5F5F5F5F5F5F5F5F5F5F5F5F5F5F5F5F5F5F5F5F5F5F5F5F5F5F5F5F5F5F5F5F5F5F5F5F5F5F5F5F5F5F5F5F5F5F5F5F5F5F5F5F5F5F5F5F5F5F5F5F5F5F5F5F5F5F5F5F5F5F5F5F5F5F5F5F5F5F5F5F5F5F5F5E2E2E2F5
310
F5F5F5F5F5F5F5F5F5F5F5F5F5F5F5F5F5F5F5F5F5F5F5F5F5F5F5F5F5F5F5F5F5F5F5F5F5F5F5F5F5F5F5F5F5F5F5F5F5F5F5F5F5F5F5F5F5F5F5F5F5F5F5F5F5F5F5F5F5F5F5F5F5F5F5F5F5F5F5F5F5F5F5F5F5F5F5F5F5F5F5F5F5F5F5F5F5F5F5F5F5F5F5F5F5F5F5F5F5F5F5F5F5F5F5F5F5F5F5F5F5F5F5F5F5F5F5
310
F5F5F5F5F5F5F5F5F5F5F5F5F5F5F5F5F5F5F5F5F5F5F5F5F5F5F5F5F5F5F5F5F5F5F5F5F5F5F5F5F5F5F5F5F5F5F5F5F5E2E2E2F5F5F5F5F5F5F5F5F5F5F5F5F5F5F5F5F5F5F5F5F5F5F5F5F5F5F5F5F5F5F5F5F5F5F5F5F5F5F5F5F5F5F5F5F5F5F5F5F5F5F5F5F5F5F5F5F5F5F5F5F5F5F5F5F5F5F5F5F5F5F5F5F5F5F5
310
F5F5F5F5F5F5F5F5F5F5F5F5F5F5F5F5F5F5F5F5F5F5F5F5F5F5F5F5F5F5F5F5F5F5F5F5F5F5F5F5F5F5F5F5F5F5F5F5F5F5F5F5F5F5F5F5F5F5F5F5F5F5F5F5F5F5F5F5F5F5F5F5F5F5F5F5F5F5F5F5F5F5F5F5F5F5F5F5F5F5F5F5F5F5F5F5F5F5F5F5F5F5E2E2E2F5F5F5F5F5F5F5F5F5F5F5F5F5F5F5F5F5F5F5F5F5F5
310
F5F5F5F5F5F5F5F5F5F5F5F5F5F5F5F5F5F5F5F5F5F5F5F5F5F5F5F5F5F5F5F5F5F5F5F5F5F5F5F5F5F5F5F5F5F5F5F5F5F5F5F5F5F5F5F5F5F5F5F5F5F5F5F5F5F5F5F5F5F5F5F5F5F5F5F5F5F5F5F5F5F5F5F5F5F5F5F5F5F5F5F5F5F5F5F5F5F5F5F5F5F5F5F5F5F5F5F5F5F5F5F5F5F5F5F5F5F5F5F5F5F5F5F5F5F5F5
310
F5F5F5F5F5F5F5F5F5F5F5F5F5F5F5F5F5F5F5F5F5F5F5F5F5F5F5F5E2E2E2F5F5F5F5F5F5F5F5F5F5F5F5F5F5F5F5F5F5F5F5F5F5F5F5F5F5F5F5F5F5F5F5F5F5F5F5F5F5F5F5F5F5F5F5F5F5F5F5F5F5F5F5F5F5F5F5F5F5F5F5F5F5F5F5F5F5F5F5F5F5F5F5F5F5F5F5F5F5F5F5F5F5F5F5F5F5F5F5F5F5F5F5F5F5F5F5
310
F5F5F5F5F5F5F5F5F5F5F5F5F5F5F5F5F5F5F5F5F5F5F5F5F5F5F5F5F5F5F5F5F5F5F5F5F5F5F5F5F5F5F5F5F5F5F5F5F5F5F5F5F5F5F5F5F5F5F5F5F5F5F5F5F5F5F5F5F5F5F5F5F5F5F5F5F5F5F5F5F5E2E2E2F5F5F5F5F5F5F5F5F5F5F5F5F5F5F5F5F5F5F5F5F5F5F5F5F5F5F5F5F5F5F5F5F5F5F5F5F5F5F5F5F5F5F5
310
F5F5F5F5F5F5F5F5F5F5F5F5F5F5F5F5F5F5F5F5F5F5F5F5F5F5F5F5F5F5F5F5F5F5F5F5F5F5F5F5F5F5F5F5F5F5F5F5F5F5F5F5F5F5F5F5F5F5F5F5F5F5F5F5F5F5F5F5F5F5F5F5F5F5F5F5F5F5F5F5F5F5F5F5F5F5F5F5F5F5F5F5F5F5F5F5F5F5F5F5F5F5F5F5F5F5F5F5F5F5F5F5F5F5F5F5F5F5F5F5F5F5F5F5F5F5F5
310
F5F5F5F5F5F5F5E2E2E2F5F5F5F5F5F5F5F5F5F5F5F5F5F5F5F5F5F5F5F5F5F5F5F5F5F5F5F5F5F5F5F5F5F5F5F5F5F5F5F5F5F5F5F5F5F5F5F5F5F5F5F5F5F5F5F5F5F5F5F5F5F5F5F5F5F5F5F5F5F5F5F5F5F5F5F5F5F5F5F5F5F5F5F5F5F5F5F5F5F5F5F5F5F5F5F5F5F5F5F5F5F5F5F5F5F5F5F5F5F5F5F5F5F5F5F5F5
310
F5F5F5F5F5F5F5F5F5F5F5F5F5F5F5F5F5F5F5F5F5F5F5F5F5F5F5F5F5F5F5F5F5F5F5F5F5F5F5F5F5F5F5F5F5F5F5F5F5F5F5F5F5F5F5F5F5F5F5F5E2E2E2F5F5F5F5F5F5F5F5F5F5F5F5F5F5F5F5F5F5F5F5F5F5F5F5F5F5F5F5F5F5F5F5F5F5F5F5F5F5F5F5F5F5F5F5F5F5F5F5F5F5F5F5F5F5F5F5F5F5F5F5F5F5F5F5
310
F5F5F5F5F5F5F5F5F5F5F5F5F5F5F5F5F5F5F5F5F5F5F5F5F5F5F5F5F5F5F5F5F5F5F5F5F5F5F5F5F5F5F5F5F5F5F5F5F5F5F5F5F5F5F5F5F5F5F5F5F5F5F5F5F5F5F5F5F5F5F5F5F5F5F5F5F5F5F5F5F5F5F5F5F5F5F5F5F5F5F5F5F5F5F5F5F5F5F5F5F5F5F5F5F5F5F5F5F5F5F5F5F5E2E2E2F5F5F5F5F5F5F5F5F5F5F5
310
F5F5F5F5F5F5F5F5F5F5F5F5F5F5F5F5F5F5F5F5F5F5F5F5F5F5F5F5F5F5F5F5F5F5F5F5F5F5F5F5F5F5F5F5F5F5F5F5F5F5F5F5F5F5F5F5F5F5F5F5F5F5F5F5F5F5F5F5F5F5F5F5F5F5F5F5F5F5F5F5F5F5F5F5F5F5F5F5F5F5F5F5F5F5F5F5F5F5F5F5F5F5F5F5F5F5F5F5F5F5F5F5F5F5F5F5F5F5F5F5F5F5F5F5F5F5F5
310
F5F5F5F5F5F5F5F5F5F5F5F5F5F5F5F5F5F5F5F5F5F5F5F5F5F5F5F5F5F5F5F5F5F5F5F5F5F5F5E2E2E2F5F5E2F5F5F5F5F5F5F5F5F5F5F5F5F5F5F5F5F5F5F5F5F5F5F5F5F5F5F5F5F5F5F5F5F5F5F5F5F5F5F5F5F5F5F5F5F5F5F5F5F5F5F5F5F5F5F5F5F5F5F5F5F5F5F5F5F5F5F5F5F5F5F5F5F5F5F5F5F5F5F5F5F5F5
310
F5F5F5F5F5F5F5F5F5F5F5F5F5F5F5F5F5F5F5F5F5F5F5F5F5F5F5F5F5F5F5F5F5F5F5F5F5F5F5F5F5F5F5F5F5F5F5F5F5F5F5F5F5F5F5F5F5F5F5F5F5F5F5F5F5F5F5F5F5F5F5F5F5F5F5F5F5F5F5F5F5F5F5F5F5F5F5F5F5E2F5F5E2E2E2F5F5E2F5F5F5F5F5F5F5F5F5F5F5F5F5F5F5F5F5F5F5F5F5F5F5F5F5F5F5F5F5
310
F5F5F5F5F5F5F5F5F5F5F5F5F5F5F5F5F5F5F5F5F5F5F5F5F5F5F5F5F5F5F5F5F5F5F5F5F5F5F5F5F5F5F5F5F5F5F5F5F5F5F5F5F5F5F5F5F5F5F5F5F5F5F5F5F5F5F5F5F5F5F5F5F5F5F5F5F5F5F5F5F5F5F5F5F5F5F5F5F5F5F5F5F5F5F5F5F5F5F5F5F5F5F5F5F5F5F5F5F5F5F5F5F5F5F5F5F5F5F5F5F5F5F5F5F5F5F5
310
F5F5F5F5F5F5F5F5F5F5F5F5F5F5F5E2F5F5E2E2E2F5F5E2F5F5F5F5F5F5F5F5F5F5F5F5F5F5F5F5F5F5F5F5F5F5F5F5F5F5F5F5F5F5F5F5F5F5F5F5F5F5F5F5F5F5F5F5F5F5F5F5F5F5F5F5F5F5F5F5F5F5F5F5F5F5F5F5F5F5F5F5F5F5F5F5F5F5F5F5F5F5F5F5F5F5F5F5F5F5F5F5F5F5F5F5F5F5F5F5F5F5F5F5F5F5F5
310
F5F5F5F5F5F5F5F5F5F5F5F5F5F5F5F5F5F5F5F5F5F5F5F5F5F5F5F5F5F5F5F5F5F5F5F5F5F5F5F5F5F5F5F5F5F5F5F5F5F5F5F5F5F5F5F5F5F5F5F5F5F5F5F5F5F5F5F5E2F5F5E2E2E2F5F5E2F5F5F5F5F5F5F5F5F5F5F5F5F5F5F5F5F5F5F5F5F5F5F5F5F5F5F5F5F5F5F5F5F5F5F5F5F5F5F5F5F5F5F5F5F5F5F5F5F5F5
310
F5F5F5F5F5F5F5F5F5F5F5F5F5F5F5F5F5F5F5F5F5F5F5F5F5F5F5F5F5F5F5F5F5F5F5F5F5F5F5F5F5F5F5F5F5F5F5F5F5F5F5F5F5F5F5F5F5F5F5F5F5F5F5F5F5F5F5F5F5F5F5F5F5F5F5F5F5F5F5F5F5F5F5F5F5F5F5F5F5F5F5F5F5F5F5F5F5F5F5F5F5F5F5F5F5F5F5F5F5F5F5F5F5F5F5F5F5F5F5F5F5E2F5F5E2E2E2
310
F5F5E2F5F5F5F5F5F5F5F5F5F5F5F5F5F5F5F5F5F5F5F5F5F5F5F5F5F5F5F5F5F5F5F5F5F5F5F5F5F5F5F5F5F5F5F5F5F5F5F5F5F5F5F5F5F5F5F5F5F5F5F5F5F5F5F5F5F5F5F5F5F5F5F5F5F5F5F5F5F5F5F5F5F5F5F5F5F5F5F5F5F5F5F5F5F5F5F5F5F5F5F5F5F5F5F5F5F5F5F5F5F5F5F5F5F5F5F5F5F5F5F5F5F5F5F5
310
F5F5F5F5F5F5F5F5F5F5F5F5F5F5F5F5F5F5F5F5F5F5F5F5F5F5F5F5F5F5F5F5F5F5F5F5F5F5F5F5F5F5F5F5F5F5F5E2F5F5E2E2E2F5F5E2F5F5F5F5F5F5F5F5F5F5F5F5F5F5F5F5F5F5F5F5F5F5F5F5F5F5F5F5F5F5F5F5F5F5F5F5F5F5F5F5F5F5F5F5F5F5F5F5F5F5F5F5F5F5F5F5F5F5F5F5F5F5F5F5F5F5F5F5F5F5F5
310
F5F5F5F5F5F5F5F5F5F5F5F5F5F5F5F5F5F5F5F5F5F5F5F5F5F5F5F5F5F5F5F5F5F5F5F5F5F5F5F5F5F5F5F5F5F5F5F5F5F5F5F5F5F5F5F5F5F5F5F5F5F5F5F5F5F5F5F5F5F5F5F5F5F5F5F5F5F5F5F5F5F5F5F5F5F5F5F5F5F5F5F5F5F5F5F5F5F5F5F5E2F5F5E2E2E2F5F5E2F5F5F5F5F5F5F5F5F5F5F5F5F5F5F5F5F5F5
310
F5F5F5F5F5F5F5F5F5F5F5F5F5F5F5F5F5F5F5F5F5F5F5F5F5F5F5F5F5F5F5F5F5F5F5F5F5F5F5F5F5F5F5F5F5F5F5F5F5F5F5F5F5F5F5F5F5F5F5F5F5F5F5F5F5F5F5F5F5F5F5F5F5F5F5F5F5F5F5F5F5F5F5F5F5F5F5F5F5F5F5F5F5F5F5F5F5F5F5F5F5F5F5F5F5F5F5F5F5F5F5F5F5F5F5F5F5F5F5F5F5F5F5F5F5F5F5
310
F5F5F5F5F5F5F5F5F5F5F5F5F5F5F5F5F5F5F5F5F5F5F5F5F5F5E2F5F5E2E2E2F5F5E2F5F5F5F5F5F5F5F5F5F5F5F5F5F5F5F5F5F5F5F5F5F5F5F5F5F5F5F5F5F5F5F5F5F5F5F5F5F5F5F5F5F5F5F5F5F5F5F5F5F5F5F5F5F5F5F5F5F5F5F5F5F5F5F5F5F5F5F5F5F5F5F5F5F5F5F5F5F5F5F5F5F5F5F5F5F5F5F5F5F5F5F5
310
F5F5F5F5F5F5F5F5F5F5F5F5F5F5F5F5F5F5F5F5F5F5F5F5F5F5F5F5F5F5F5F5F5F5F5F5F5F5F5F5F5F5F5F5F5F5F5F5F5F5F5F5F5F5F5F5F5F5F5F5F5F5F5F5F5F5F5F5F5F5F5F5F5F5F5F5F5F5F5E2F5F5E2E2E2F5F5E2F5F5F5F5F5F5F5F5F5F5F5F5F5F5F5F5F5F5F5F5F5F5F5F5F5F5F5F5F5F5F5F5F5F5F5F5F5F5F5
310
F5F5F5F5F5F5F5F5F5F5F5F5F5F5F5F5F5F5F5F5F5F5F5F5F5F5F5F5F5F5F5F5F5F5F5F5F5F5F5F5F5F5F5F5F5F5F5F5F5F5F5F5F5F5F5F5F5F5F5F5F5F5F5F5F5F5F5F5F5F5F5F5F5F5F5F5F5F5F5F5F5F5F5F5F5F5F5F5F5F5F5F5F5F5F5F5F5F5F5F5F5F5F5F5F5F5F5F5F5F5F5F5F5F5F5F5F5F5F5F5F5F5F5F5F5F5F5
310
F5F5F5F5F5E2F5F5E2E2E2F5F5E2F5F5F5F5F5F5F5F5F5F5F5F5F5F5F5F5F5F5F5F5F5F5F5F5F5F5F5F5F5F5F5F5F5F5F5F5F5F5F5F5F5F5F5F5F5F5F5F5F5F5F5F5F5F5F5F5F5F5F5F5F5F5F5F5F5F5F5F5F5F5F5F5F5F5F5F5F5F5F5F5F5F5F5F5F5F5F5F5F5F5F5F5F5F5F5F5F5F5F5F5F5F5F5F5F5F5F5F5F5F5F5F5F5
310
F5F5F5F5F5F5F5F5F5F5F5F5F5F5F5F5F5F5F5F5F5F5F5F5F5F5F5F5F5F5F5F5F5F5F5F5F5F5F5F5F5F5F5F5F5F5F5F5F5F5F5F5F5F5F5F5F5F5E2F5F5E2E2E2F5F5E2F5F5F5F5F5F5F5F5F5F5F5F5F5F5F5F5F5F5F5F5F5F5F5F5F5F5F5F5F5F5F5F5F5F5F5F5F5F5F5F5F5F5F5F5F5F5F5F5F5F5F5F5F5F5F5F5F5F5F5F5
310
F5F5F5F5F5F5F5F5F5F5F5F5F5F5F5F5F5F5F5F5F5F5F5F5F5F5F5F5F5F5F5F5F5F5F5F5F5F5F5F5F5F5F5F5F5F5F5F5F5F5F5F5F5F5F5F5F5F5F5F5F5F5F5F5F5F5F5F5F5F5F5F5F5F5F5F5F5F5F5F5F5F5F5F5F5F5F5F5F5F5F5F5F5F5F5F5F5F5F5F5F5F5F5F5F5F5F5F5F5F5F5E2F5F5E2E2E2F5F5E2F5F5F5F5F5F5F5
310
F5F5F5F5F5F5F5F5F5F5F5F5F5F5F5F5F5F5F5F5F5F5F5F5F5F5F5F5F5F5F5F5F5F5F5F5F5F5F5F5F5F5F5F5F5F5F5F5F5F5F5F5F5F5F5F5F5F5F5F5F5F5F5F5F5F5F5F5F5F5F5F5F5F5F5F5F5F5F5F5F5F5F5F5F5F5F5F5F5F5F5F5F5F5F5F5F5F5F5F5F5F5F5F5F5F5F5F5F5F5F5F5F5F5F5F5F5F5F5F5F5F5F5F5F5F5F5
310
F5F5F5F5F5F5F5F5F5F5F5F5F5F5F5F5F5F5F5F5F5F5F5F5F5F5F5F5F5F5F5F5F5F5F5F5F5E2F5F5E2E2E2F5F5E2F5F5F5F5F5F5F5F5F5F5F5F5F5F5F5F5F5F5F5F5F5F5F5F5F5F5F5F5F5F5F5F5F5F5F5F5F5F5F5F5F5F5F5F5F5F5F5F5F5F5F5F5F5F5F5F5F5F5F5F5F5F5F5F5F5F5F5F5F5F5F5F5F5F5F5F5F5F5F5F5F5
310
F5F5F5F5F5F5F5F5F5F5F5F5F5F5F5F5F5F5F5F5F5F5F5F5F5F5F5F5F5F5F5F5F5F5F5F5F5F5F5F5F5F5F5F5F5F5F5F5F5F5F5F5F5F5F5F5F5F5F5F5F5F5F5F5F5F5F5F5F5F5F5F5F5F5F5F5F5F5F5F5F5F5F5F5F5F5F5F5F5F5E2F5F5E2E2E2F5F5E2F5F5F5F5F5F5F5F5F5F5F5F5F5F5F5F5F5F5F5F5F5F5F5F5F5F5F5F5
310
F5F5F5F5F5F5F5F5F5F5F5F5F5F5F5F5F5F5F5F5F5F5F5F5F5F5F5F5F5F5F5F5F5F5F5F5F5F5F5F5F5F5F5F5F5F5F5F5F5F5F5F5F5F5F5F5F5F5F5F5F5F5F5F5F5F5F5F5F5F5F5F5F5F5F5F5F5F5F5F5F5F5F5F5F5F5F5F5F5F5F5F5F5F5F5F5F5F5F5F5F5F5F5F5F5F5F5F5F5F5F5F5F5F5F5F5F5F5F5F5F5F5F5F5F5F5F5
310
F5F5F5F5F5F5F5F5F5F5F5F5F5F5F5F5E2F5F5E2E2E2F5F5E2F5F5F5F5F5F5F5F5F5F5F5F5F5F5F5F5F5F5F5F5F5F5F5F5F5F5F5F5F5F5F5F5F5F5F5F5F5F5F5F5F5F5F5F5F5F5F5F5F5F5F5F5F5F5F5F5F5F5F5F5F5F5F5F5F5F5F5F5F5F5F5F5F5F5F5F5F5F5F5F5F5F5F5F5F5F5F5F5F5F5F5F5F5F5F5F5F5F5F5F5F5F5
310
F5F5F5F5F5F5F5F5F5F5F5F5F5F5F5F5F5F5F5F5F5F5F5F5F5F5F5F5F5F5F5F5F5F5F5F5F5F5F5F5F5F5F5F5F5F5F5F5F5F5F5F5F5F5F5F5F5F5F5F5F5F5F5F5F5F5F5F5F5E2F5F5E2E2E2F5F5E2F5F5F5F5F5F5F5F5F5F5F5F5F5F5F5F5F5F5F5F5F5F5F5F5F5F5F5F5F5F5F5F5F5F5F5F5F5F5F5F5F5F5F5F5F5F5F5F5F5
310
F5F5F5F5F5F5F5F5F5F5F5F5F5F5F5F5F5F5F5F5F5F5F5F5F5F5F5F5F5F5F5F5F5F5F5F5F5F5F5F5F5F5F5F5F5F5F5F5F5F5F5F5F5F5F5F5F5F5F5F5F5F5F5F5F5F5F5F5F5F5F5F5F5F5F5F5F5F5F5F5F5F5F5F5F5F5F5F5F5F5F5F5F5F5F5F5F5F5F5F5F5F5F5F5F5F5F5F5F5F5F5F5F5F5F5F5F5F5F5F5F5F5E2F5F5E2E2
310
E2F5F5F5F5F5F5F5F5F5F5F5F5F5F5F5F5F5F5F5F5F5F5F5F5F5F5F5F5F5F5F5F5F5F5F5F5F5F5F5F5F5F5F5F5F5F5F5F5F5F5F5F5F5F5F5F5F5F5F5F5F5F5F5F5F5F5F5F5F5F5F5F5F5F5F5F5F5F5F5F5F5F5F5F5F5F5F5F5F5F5F5F5F5F5F5F5F5F5F5F5F5F5F5F5F5F5F5F5F5F5F5F5F5F5F5F5F5F5F5F5F5F5F5F5F5F5
310
F5F5F5F5F5F5F5F5F5F5F5F5F5F5F5F5F5F5F5F5F5F5F5F5F5F5F5F5F5F5F5F5F5F5F5F5F5F5F5F5F5F5F5F5F5F5F5F5F5F5F5E2E2E2F5F5F5F5F5F5F5F5F5F5F5F5F5F5F5F5F5F5F5F5F5F5F5F5F5F5F5F5F5F5F5F5F5F5F5F5F5F5F5F5F5F5F5F5F5F5F5F5F5F5F5F5F5F5F5F5F5F5F5F5F5F5F5F5F5F5F5F5F5F5F5F5F5
310
F5F5F5F5F5F5F5F5F5F5F5F5F5F5F5F5F5F5F5F5F5F5F5F5F5F5F5F5F5F5F5F5F5F5F5F5F5F5F5F5F5F5F5F5F5F5F5F5F5F5F5F5F5F5F5F5F5F5F5F5F5F5F5F5F5F5F5F5F5F5F5F5F5F5F5F5F5F5F5F5F5F5F5F5F5F5F5F5F5F5F5F5F5F5F5F5F5F5F5F5F5F5F5F5E2E2E2F5F5F5F5F5F5F5F5F5F5F5F5F5F5F5F5F5F5F5F5
310
F5F5F5F5F5F5F5F5F5F5F5F5F5F5F5F5F5F5F5F5F5F5F5F5F5F5F5F5F5F5F5F5F5F5F5F5F5F5F5F5F5F5F5F5F5F5F5F5F5F5F5F5F5F5F5F5F5F5F5F5F5F5F5F5F5F5F5F5F5F5F5F5F5F5F5F5F5F5F5F5F5F5F5F5F5F5F5F5F5F5F5F5F5F5F5F5F5F5F5F5F5F5F5F5F5F5F5F5F5F5F5F5F5F5F5F5F5F5F5F5F5F5F5F5F5F5F5
310
F5F5F5F5F5F5F5F5F5F5F5F5F5F5F5F5F5F5F5F5F5F5F5F5F5F5F5F5F5F5E2E2E2F5F5F5F5F5F5F5F5F5F5F5F5F5F5F5F5F5F5F5F5F5F5F5F5F5F5F5F5F5F5F5F5F5F5F5F5F5F5F5F5F5F5F5F5F5F5F5F5F5F5F5F5F5F5F5F5F5F5F5F5F5F5F5F5F5F5F5F5F5F5F5F5F5F5F5F5F5F5F5F5F5F5F5F5F5F5F5F5F5F5F5F5F5F5
310
F5F5F5F5F5F5F5F5F5F5F5F5F5F5F5F5F5F5F5F5F5F5F5F5F5F5F5F5F5F5F5F5F5F5F5F5F5F5F5F5F5F5F5F5F5F5F5F5F5F5F5F5F5F5F5F5F5F5F5F5F5F5F5F5F5F5F5F5F5F5F5F5F5F5F5F5F5F5F5F5F5F5F5E2E2E2F5F5F5F5F5F5F5F5F5F5F5F5F5F5F5F5F5F5F5F5F5F5F5F5F5F5F5F5F5F5F5F5F5F5F5F5F5F5F5F5F5
310
F5F5F5F5F5F5F5F5F5F5F5F5F5F5F5F5F5F5F5F5F5F5F5F5F5F5F5F5F5F5F5F5F5F5F5F5F5F5F5F5F5F5F5F5F5F5F5F5F5F5F5F5F5F5F5F5F5F5F5F5F5F5F5F5F5F5F5F5F5F5F5F5F5F5F5F5F5F5F5F5F5F5F5F5F5F5F5F5F5F5F5F5F5F5F5F5F5F5F5F5F5F5F5F5F5F5F5F5F5F5F5F5F5F5F5F5F5F5F5F5F5F5F5F5F5F5F5
310
F5F5F5F5F5F5F5F5F5E2E2E2F5F5F5F5F5F5F5F5F5F5F5F5F5F5F5F5F5F5F5F5F5F5F5F5F5F5F5F5F5F5F5F5F5F5F5F5F5F5F5F5F5F5F5F5F5F5F5F5F5F5F5F5F5F5F5F5F5F5F5F5F5F5F5F5F5F5F5F5F5F5F5F5F5F5F5F5F5F5F5F5F5F5F5F5F5F5F5F5F5F5F5F5F5F5F5F5F5F5F5F5F5F5F5F5F5F5F5F5F5F5F5F5F5F5F5
310
F5F5F5F5F5F5F5F5F5F5F5F5F5F5F5F5F5F5F5F5F5F5F5F5F5F5F5F5F5F5F5F5F5F5F5F5F5F5F5F5F5F5F5F5F5F5F5F5F5F5F5F5F5F5F5F5F5F5F5F5F5F5E2E2E2F5F5F5F5F5F5F5F5F5F5F5F5F5F5F5F5F5F5F5F5F5F5F5F5F5F5F5F5F5F5F5F5F5F5F5F5F5F5F5F5F5F5F5F5F5F5F5F5F5F5F5F5F5F5F5F5F5F5F5F5F5F5
310
F5F5F5F5F5F5F5F5F5F5F5F5F5F5F5F5F5F5F5F5F5F5F5F5F5F5F5F5F5F5F5F5F5F5F5F5F5F5F5F5F5F5F5F5F5F5F5F5F5F5F5F5F5F5F5F5F5F5F5F5F5F5F5F5F5F5F5F5F5F5F5F5F5F5F5F5F5F5F5F5F5F5F5F5F5F5F5F5F5F5F5F5F5F5F5F5F5F5F5F5F5F5F5F5F5F5F5F5F5F5F5F5F5F5F5E2E2E2F5F5F5F5F5F5F5F5F5
310
F5F5F5F5F5F5F5F5F5F5F5F5F5F5F5F5F5F5F5F5F5F5F5F5F5F5F5F5F5F5F5F5F5F5F5F5F5F5F5F5F5F5F5F5F5F5F5F5F5F5F5F5F5F5F5F5F5F5F5F5F5F5F5F5F5F5F5F5F5F5F5F5F5F5F5F5F5F5F5F5F5F5F5F5F5F5F5F5F5F5F5F5F5F5F5F5F5F5F5F5F5F5F5F5F5F5F5F5F5F5F5F5F5F5F5F5F5F5F5F5F5F5F5F5F5F5F5
310
F5F5F5F5F5F5F5F5F5F5F5F5F5F5F5F5F5F5F5F5F5F5F5F5F5F5F5F5F5F5F5F5F5F5F5F5F5F5F5F5F5E2E2E2F5F5F5F5F5F5F5F5F5F5F5F5F5F5F5F5F5F5F5F5F5F5F5F5F5F5F5F5F5F5F5F5F5F5F5F5F5F5F5F5F5F5F5F5F5F5F5F5F5F5F5F5F5F5F5F5F5F5F5F5F5F5F5F5F5F5F5F5F5F5F5F5F5F5F5F5F5F5F5F5F5F5F5
310
F5F5F5F5F5F5F5F5F5F5F5F5F5F5F5F5F5F5F5F5F5F5F5F5F5F5F5F5F5F5F5F5F5F5F5F5F5F5F5F5F5F5F5F5F5F5F5F5F5F5F5F5F5F5F5F5F5F5F5F5F5F5F5F5F5F5F5F5F5F5F5F5F5F5F5F5F5F5F5F5F5F5F5F5F5F5F5F5F5F5F5F5F5F5E2E2E2F5F5E2F5F5F5F5F5F5F5F5F5F5F5F5F5F5F5F5F5F5F5F5F5F5F5F5F5F5F5
310
F5F5F5F5F5F5F5F5F5F5F5F5F5F5F5F5F5F5F5F5F5F5F5F5F5F5F5F5F5F5F5F5F5F5F5F5F5F5F5F5F5F5F5F5F5F5F5F5F5F5F5F5F5F5F5F5F5F5F5F5F5F5F5F5F5F5F5F5F5F5F5F5F5F5F5F5F5F5F5F5F5F5F5F5F5F5F5F5F5F5F5F5F5F5F5F5F5F5F5F5F5F5F5F5F5F5F5F5F5F5F5F5F5F5F5F5F5F5F5F5F5F5F5F5F5F5F5
310
F5F5F5F5F5F5F5F5F5F5F5F5F5F5F5F5F5E2F5F5E2E2E2F5F5E2F5F5F5F5F5F5F5F5F5F5F5F5F5F5F5F5F5F5F5F5F5F5F5F5F5F5F5F5F5F5F5F5F5F5F5F5F5F5F5F5F5F5F5F5F5F5F5F5F5F5F5F5F5F5F5F5F5F5F5F5F5F5F5F5F5F5F5F5F5F5F5F5F5F5F5F5F5F5F5F5F5F5F5F5F5F5F5F5F5F5F5F5F5F5F5F5F5F5F5F5F5
310
F5F5F5F5F5F5F5F5F5F5F5F5F5F5F5F5F5F5F5F5F5F5F5F5F5F5F5F5F5F5F5F5F5F5F5F5F5F5F5F5F5F5F5F5F5F5F5F5F5F5F5F5F5F5F5F5F5F5F5F5F5F5F5F5F5F5F5F5F5F5E2F5F5E2E2E2F5F5E2F5F5F5F5F5F5F5F5F5F5F5F5F5F5F5F5F5F5F5F5F5F5F5F5F5F5F5F5F5F5F5F5F5F5F5F5F5F5F5F5F5F5F5F5F5F5F5F5
310
F5F5F5F5F5F5F5F5F5F5F5F5F5F5F5F5F5F5F5F5F5F5F5F5F5F5F5F5F5F5F5F5F5F5F5F5F5F5F5F5F5F5F5F5F5F5F5F5F5F5F5F5F5F5F5F5F5F5F5F5F5F5F5F5F5F5F5F5F5F5F5F5F5F5F5F5F5F5F5F5F5F5F5F5F5F5F5F5F5F5F5F5F5F5F5F5F5F5F5F5F5F5F5F5F5F5F5F5F5F5F5F5F5F5F5F5F5F5F5F5F5F5F5E2F5F5E2
310
E2E2F5F5E2F5F5F5F5F5F5F5F5F5F5F5F5F5F5F5F5F5F5F5F5F5F5F5F5F5F5F5F5F5F5F5F5F5F5F5F5F5F5F5F5F5F5F5F5F5F5F5F5F5F5F5F5F5F5F5F5F5F5F5F5F5F5F5F5F5F5F5F5F5F5F5F5F5F5F5F5F5F5F5F5F5F5F5F5F5F5F5F5F5F5F5F5F5F5F5F5F5F5F5F5F5F5F5F5F5F5F5F5F5F5F5F5F5F5F5F5F5F5F5F5F5F5
310
F5F5F5F5F5F5F5F5F5F5F5F5F5F5F5F5F5F5F5F5F5F5F5F5F5F5F5F5F5F5F5F5F5F5F5F5F5F5F5F5F5F5F5F5F5F5F5F5F5E2F5F5E2E2E2F5F5E2F5F5F5F5F5F5F5F5F5F5F5F5F5F5F5F5F5F5F5F5F5F5F5F5F5F5F5F5F5F5F5F5F5F5F5F5F5F5F5F5F5F5F5F5F5F5F5F5F5F5F5F5F5F5F5F5F5F5F5F5F5F5F5F5F5F5F5F5F5
310
F5F5F5F5F5F5F5F5F5F5F5F5F5F5F5F5F5F5F5F5F5F5F5F5F5F5F5F5F5F5F5F5F5F5F5F5F5F5F5F5F5F5F5F5F5F5F5F5F5F5F5F5F5F5F5F5F5F5F5F5F5F5F5F5F5F5F5F5F5F5F5F5F5F5F5F5F5F5F5F5F5F5F5F5F5F5F5F5F5F5F5F5F5F5F5F5F5F5F5F5F5F5E2F5F5E2E2E2F5F5E2F5F5F5F5F5F5F5F5F5F5F5F5F5F5F5F5
310
F5F5F5F5F5F5F5F5F5F5F5F5F5F5F5F5F5F5F5F5F5F5F5F5F5F5F5F5F5F5F5F5F5F5F5F5F5F5F5F5F5F5F5F5F5F5F5F5F5F5F5F5F5F5F5F5F5F5F5F5F5F5F5F5F5F5F5F5F5F5F5F5F5F5F5F5F5F5F5F5F5F5F5F5F5F5F5F5F5F5F5F5F5F5F5F5F5F5F5F5F5F5F5F5F5F5F5F5F5F5F5F5F5F5F5F5F5F5F5F5F5F5F5F5F5F5F5
310
F5F5F5F5F5F5F5F5F5F5F5F5F5F5F5F5F5F5F5F5F5F5F5F5F5F5F5F5E2F5F5E2E2E2F5F5E2F5F5F5F5F5F5F5F5F5F5F5F5F5F5F5F5F5F5F5F5F5F5F5F5F5F5F5F5F5F5F5F5F5F5F5F5F5F5F5F5F5F5F5F5F5F5F5F5F5F5F5F5F5F5F5F5F5F5F5F5F5F5F5F5F5F5F5F5F5F5F5F5F5F5F5F5F5F5F5F5F5F5F5F5F5F5F5F5F5F5
310
F5F5F5F5F5F5F5F5F5F5F5F5F5F5F5F5F5F5F5F5F5F5F5F5F5F5F5F5F5F5F5F5F5F5F5F5F5F5F5F5F5F5F5F5F5F5F5F5F5F5F5F5F5F5F5F5F5F5F5F5F5F5F5F5F5F5F5F5F5F5F5F5F5F5F5F5F5F5F5F5F5E2F5F5E2E2E2F5F5E2F5F5F5F5F5F5F5F5F5F5F5F5F5F5F5F5F5F5F5F5F5F5F5F5F5F5F5F5F5F5F5F5F5F5F5F5F5
310
F5F5F5F5F5F5F5F5F5F5F5F5F5F5F5F5F5F5F5F5F5F5F5F5F5F5F5F5F5F5F5F5F5F5F5F5F5F5F5F5F5F5F5F5F5F5F5F5F5F5F5F5F5F5F5F5F5F5F5F5F5F5F5F5F5F5F5F5F5F5F5F5F5F5F5F5F5F5F5F5F5F5F5F5F5F5F5F5F5F5F5F5F5F5F5F5F5F5F5F5F5F5F5F5F5F5F5F5F5F5F5F5F5F5F5F5F5F5F5F5F5F5F5F5F5F5F5
310
F5F5F5F5F5F5F5E2F5F5E2E2E2F5F5E2F5F5F5F5F5F5F5F5F5F5F5F5F5F5F5F5F5F5F5F5F5F5F5F5F5F5F5F5F5F5F5F5F5F5F5F5F5F5F5F5F5F5F5F5F5F5F5F5F5F5F5F5F5F5F5F5F5F5F5F5F5F5F5F5F5F5F5F5F5F5F5F5F5F5F5F5F5F5F5F5F5F5F5F5F5F5F5F5F5F5F5F5F5F5F5F5F5F5F5F5F5F5F5F5F5F5F5F5F5F5F5
310
F5F5F5F5F5F5F5F5F5F5F5F5F5F5F5F5F5F5F5F5F5F5F5F5F5F5F5F5F5F5F5F5F5F5F5F5F5F5F5F5F5F5F5F5F5F5F5F5F5F5F5F5F5F5F5F5F5F5F5F5E2F5F5E2E2E2F5F5E2F5F5F5F5F5F5F5F5F5F5F5F5F5F5F5F5F5F5F5F5F5F5F5F5F5F5F5F5F5F5F5F5F5F5F5F5F5F5F5F5F5F5F5F5F5F5F5F5F5F5F5F5F5F5F5F5F5F5
310
F5F5F5F5F5F5F5F5F5F5F5F5F5F5F5F5F5F5F5F5F5F5F5F5F5F5F5F5F5F5F5F5F5F5F5F5F5F5F5F5F5F5F5F5F5F5F5F5F5F5F5F5F5F5F5F5F5F5F5F5F5F5F5F5F5F5F5F5F5F5F5F5F5F5F5F5F5F5F5F5F5F5F5F5F5F5F5F5F5F5F5F5F5F5F5F5F5F5F5F5F5F5F5F5F5F5F5F5F5F5F5F5F5E2F5F5E2E2E2F5F5E2F5F5F5F5F5
310
F5F5F5F5F5F5F5F5F5F5F5F5F5F5F5F5F5F5F5F5F5F5F5F5F5F5F5F5F5F5F5F5F5F5F5F5F5F5F5F5F5F5F5F5F5F5F5F5F5F5F5F5F5F5F5F5F5F5F5F5F5F5F5F5F5F5F5F5F5F5F5F5F5F5F5F5F5F5F5F5F5F5F5F5F5F5F5F5F5F5F5F5F5F5F5F5F5F5F5F5F5F5F5F5F5F5F5F5F5F5F5F5F5F5F5F5F5F5F5F5F5F5F5F5F5F5F5
310
F5F5F5F5F5F5F5F5F5F5F5F5F5F5F5F5F5F5F5F5F5F5F5F5F5F5F5F5F5F5F5F5F5F5F5F5F5F5F5E2F5F5E2E2E2F5F5E2F5F5F5F5F5F5F5F5F5F5F5F5F5F5F5F5F5F5F5F5F5F5F5F5F5F5F5F5F5F5F5F5F5F5F5F5F5F5F5F5F5F5F5F5F5F5F5F5F5F5F5F5F5F5F5F5F5F5F5F5F5F5F5F5F5F5F5F5F5F5F5F5F5F5F5F5F5F5F5
310
F5F5F5F5F5F5F5F5F5F5F5F5F5F5F5F5F5F5F5F5F5F5F5F5F5F5F5F5F5F5F5F5F5F5F5F5F5F5F5F5F5F5F5F5F5F5F5F5F5F5F5F5F5F5F5F5F5F5F5F5F5F5F5F5F5F5F5F5F5F5F5F5F5F5F5F5F5F5F5F5F5F5F5F5F5F5F5F5F5F5F5F5E2F5F5E2E2E2F5F5E2F5F5F5F5F5F5F5F5F5F5F5F5F5F5F5F5F5F5F5F5F5F5F5F5F5F5
310
F5F5F5F5F5F5F5F5F5F5F5F5F5F5F5F5F5F5F5F5F5F5F5F5F5F5F5F5F5F5F5F5F5F5F5F5F5F5F5F5F5F5F5F5F5F5F5F5F5F5F5F5F5F5F5F5F5F5F5F5F5F5F5F5F5F5F5F5F5F5F5F5F5F5F5F5F5F5F5F5F5F5F5F5F5F5F5F5F5F5F5F5F5F5F5F5F5F5F5F5F5F5F5F5F5F5F5F5F5F5F5F5F5F5F5F5F5F5F5F5F5F5F5F5F5F5F5
310
F5F5F5F5F5F5F5F5F5F5F5F5F5F5F5F5F5F5E2F5F5E2E2E2F5F5E2F5F5F5F5F5F5F5F5F5F5F5F5F5F5F5F5F5F5F5F5F5F5F5F5F5F5F5F5F5F5F5F5F5F5F5F5F5F5F5F5F5F5F5F5F5F5F5F5F5F5F5F5F5F5F5F5F5F5F5F5F5F5F5F5F5F5F5F5F5F5F5F5F5F5F5F5F5F5F5F5F5F5F5F5F5F5F5F5F5F5F5F5F5F5F5F5F5F5F5F5
310
F5F5F5F5F5F5F5F5F5F5F5F5F5F5F5F5F5F5F5F5F5F5F5F5F5F5F5F5F5F5F5F5F5F5F5F5F5F5F5F5F5F5F5F5F5F5F5F5F5F5F5F5F5F5F5F5F5F5F5F5F5F5F5F5F5F5F5F5F5F5F5E2F5F5E2E2E2F5F5E2F5F5F5F5F5F5F5F5F5F5F5F5F5F5F5F5F5F5F5F5F5F5F5F5F5F5F5F5F5F5F5F5F5F5F5F5F5F5F5F5F5F5F5F5F5F5F5
310
F5F5F5F5F5F5F5F5F5F5F5F5F5F5F5F5F5F5F5F5F5F5F5F5F5F5F5F5F5F5F5F5F5F5F5F5F5F5F5F5F5F5F5F5F5F5F5F5F5F5F5F5F5F5F5F5F5F5F5F5F5F5F5F5F5F5F5F5F5F5F5F5F5F5F5F5F5F5F5F5F5F5F5F5F5F5F5F5F5F5F5F5F5F5F5F5F5F5F5F5F5F5F5F5F5F5F5F5F5F5F5F5F5F5F5F5F5F5F5F5F5F5F5F5E2F5F5
310
E2E2E2F5F5E2F5F5F5F5F5F5F5F5F5F5F5F5F5F5F5F5F5F5F5F5F5F5F5F5F5F5F5F5F5F5F5F5F5F5F5F5F5F5F5F5F5F5F5F5F5F5F5F5F5F5F5F5F5F5F5F5F5F5F5F5F5F5F5F5F5F5F5F5F5F5F5F5F5F5F5F5F5F5F5F5F5F5F5F5F5F5F5F5F5F5F5F5F5F5F5F5F5F5F5F5F5F5F5F5F5F5F5F5F5F5F5F5F5F5F5F5F5F5F5F5F5
310
F5F5F5F5F5F5F5F5F5F5F5F5F5F5F5F5F5F5F5F5F5F5F5F5F5F5F5F5F5F5F5F5F5F5F5F5F5F5F5F5F5F5F5F5F5F5F5F5F5F5E2F5F5E2E2E2F5F5F5F5F5F5F5F5F5F5F5F5F5F5F5F5F5F5F5F5F5F5F5F5F5F5F5F5F5F5F5F5F5F5F5F5F5F5F5F5F5F5F5F5F5F5F5F5F5F5F5F5F5F5F5F5F5F5F5F5F5F5F5F5F5F5F5F5F5F5F5
310
F5F5F5F5F5F5F5F5F5F5F5F5F5F5F5F5F5F5F5F5F5F5F5F5F5F5F5F5F5F5F5F5F5F5F5F5F5F5F5F5F5F5F5F5F5F5F5F5F5F5F5F5F5F5F5F5F5F5F5F5F5F5F5F5F5F5F5F5F5F5F5F5F5F5F5F5F5F5F5F5F5F5F5F5F5F5F5F5F5F5F5F5F5F5F5F5F5F5F5F5F5F5F5F5F5F5E2E2E2F5F5F5F5F5F5F5F5F5F5F5F5F5F5F5F5F5F5
310
F5F5F5F5F5F5F5F5F5F5F5F5F5F5F5F5F5F5F5F5F5F5F5F5F5F5F5F5F5F5F5F5F5F5F5F5F5F5F5F5F5F5F5F5F5F5F5F5F5F5F5F5F5F5F5F5F5F5F5F5F5F5F5F5F5F5F5F5F5F5F5F5F5F5F5F5F5F5F5F5F5F5F5F5F5F5F5F5F5F5F5F5F5F5F5F5F5F5F5F5F5F5F5F5F5F5F5F5F5F5F5F5F5F5F5F5F5F5F5F5F5F5F5F5F5F5F5
310
F5F5F5F5F5F5F5F5F5F5F5F5F5F5F5F5F5F5F5F5F5F5F5F5F5F5F5F5F5F5F5F5E2E2E2F5F5F5F5F5F5F5F5F5F5F5F5F5F5F5F5F5F5F5F5F5F5F5F5F5F5F5F5F5F5F5F5F5F5F5F5F5F5F5F5F5F5F5F5F5F5F5F5F5F5F5F5F5F5F5F5F5F5F5F5F5F5F5F5F5F5F5F5F5F5F5F5F5F5F5F5F5F5F5F5F5F5F5F5F5F5F5F5F5F5F5F5
310
F5F5F5F5F5F5F5F5F5F5F5F5F5F5F5F5F5F5F5F5F5F5F5F5F5F5F5F5F5F5F5F5F5F5F5F5F5F5F5F5F5F5F5F5F5F5F5F5F5F5F5F5F5F5F5F5F5F5F5F5F5F5F5F5F5F5F5F5F5F5F5F5F5F5F5F5F5F5F5F5F5F5F5F5F5E2E2E2F5F5F5F5F5F5F5F5F5F5F5F5F5F5F5F5F5F5F5F5F5F5F5F5F5F5F5F5F5F5F5F5F5F5F5F5F5F5F5
310
F5F5F5F5F5F5F5F5F5F5F5F5F5F5F5F5F5F5F5F5F5F5F5F5F5F5F5F5F5F5F5F5F5F5F5F5F5F5F5F5F5F5F5F5F5F5F5F5F5F5F5F5F5F5F5F5F5F5F5F5F5F5F5F5F5F5F5F5F5F5F5F5F5F5F5F5F5F5F5F5F5F5F5F5F5F5F5F5F5F5F5F5F5F5F5F5F5F5F5F5F5F5F5F5F5F5F5F5F5F5F5F5F5F5F5F5F5F5F5F5F5F5F5F5F5F5F5
310
F5F5F5F5F5F5F5F5F5F5F5E2E2E2F5F5F5F5F5F5F5F5F5F5F5F5F5F5F5F5F5F5F5F5F5F5F5F5F5F5F5F5F5F5F5F5F5F5F5F5F5F5F5F5F5F5F5F5F5F5F5F5F5F5F5F5F5F5F5F5F5F5F5F5F5F5F5F5F5F5F5F5F5F5F5F5F5F5F5F5F5F5F5F5F5F5F5F5F5F5F5F5F5F5F5F5F5F5F5F5F5F5F5F5F5F5F5F5F5F5F5F5F5F5F5F5F5
310
F5F5F5F5F5F5F5F5F5F5F5F5F5F5F5F5F5F5F5F5F5F5F5F5F5F5F5F5F5F5F5F5F5F5F5F5F5F5F5F5F5F5F5F5F5F5F5F5F5F5F5F5F5F5F5F5F5F5F5F5F5F5F5F5E2E2E2F5F5F5F5F5F5F5F5F5F5F5F5F5F5F5F5F5F5F5F5F5F5F5F5F5F5F5F5F5F5F5F5F5F5F5F5F5F5F5F5F5F5F5F5F5F5F5F5F5F5F5F5F5F5F5F5F5F5F5F5
310
F5F5F5F5F5F5F5F5F5F5F5F5F5F5F5F5F5F5F5F5F5F5F5F5F5F5F5F5F5F5F5F5F5F5F5F5F5F5F5F5F5F5F5F5F5F5F5F5F5F5F5F5F5F5F5F5F5F5F5F5F5F5F5F5F5F5F5F5F5F5F5F5F5F5F5F5F5F5F5F5F5F5F5F5F5F5F5F5F5F5F5F5F5F5F5F5F5F5F5F5F5F5F5F5F5F5F5F5F5F5F5F5F5F5F5F5F5E2E2E2F5F5F5F5F5F5F5
310
F5F5F5F5F5F5F5F5F5F5F5F5F5F5F5F5F5F5F5F5F5F5F5F5F5F5F5F5F5F5F5F5F5F5F5F5F5F5F5F5F5F5F5F5F5F5F5F5F5F5F5F5F5F5F5F5F5F5F5F5F5F5F5F5F5F5F5F5F5F5F5F5F5F5F5F5F5F5F5F5F5F5F5F5F5F5F5F5F5F5F5F5F5F5F5F5F5F5F5F5F5F5F5F5F5F5F5F5F5F5F5F5F5F5F5F5F5F5F5F5F5F5F5F5F5F5F5
310
F5F5F5F5F5F5F5F5F5F5F5F5F5F5F5F5F5F5F5F5F5F5F5F5F5F5F5F5F5F5F5F5F5F5F5F5F5F5F5F5F5F5F5E2E2E2F5F5F5F5F5F5F5F5F5F5F5F5F5F5F5F5F5F5F5F5F5F5F5F5F5F5F5F5F5F5F5F5F5F5F5F5F5F5F5F5F5F5F5F5F5F5F5F5F5F5F5F5F5F5F5F5F5F5F5F5F5F5F5F5F5F5F5F5F5F5F5F5F5F5F5F5F5F5F5F5F5
310
F5F5F5F5F5F5F5F5F5F5F5F5F5F5F5F5F5F5F5F5F5F5F5F5F5F5F5F5F5F5F5F5F5F5F5F5F5F5F5F5F5F5F5F5F5F5F5F5F5F5F5F5F5F5F5F5F5F5F5F5F5F5F5F5F5F5F5F5F5F5F5F5F5F5F5F5F5F5F5F5F5F5F5F5F5F5F5F5F5F5F5F5F5F5F5F5E2E2E2F5F5F5F5F5F5F5F5F5F5F5F5F5F5F5F5F5F5F5F5F5F5F5F5F5F5F5F5
310
F5F5F5F5F5F5F5F5F5F5F5F5F5F5F5F5F5F5F5F5F5F5F5F5F5F5F5F5F5F5F5F5F5F5F5F5F5F5F5F5F5F5F5F5F5F5F5F5F5F5F5F5F5F5F5F5F5F5F5F5F5F5F5F5F5F5F5F5F5F5F5F5F5F5F5F5F5F5F5F5F5F5F5F5F5F5F5F5F5F5F5F5F5F5F5F5F5F5F5F5F5F5F5F5F5F5F5F5F5F5F5F5F5F5F5F5F5F5F5F5F5F5F5F5F5F5F5
310
F5F5F5F5F5F5F5F5F5F5F5F5F5F5F5F5F5F5F5F5F5F5E2E2E2F5F5E2F5F5F5F5F5F5F5F5F5F5F5F5F5F5F5F5F5F5F5F5F5F5F5F5F5F5F5F5F5F5F5F5F5F5F5F5F5F5F5F5F5F5F5F5F5F5F5F5F5F5F5F5F5F5F5F5F5F5F5F5F5F5F5F5F5F5F5F5F5F5F5F5F5F5F5F5F5F5F5F5F5F5F5F5F5F5F5F5F5F5F5F5F5F5F5F5F5F5F5
310
F5F5F5F5F5F5F5F5F5F5F5F5F5F5F5F5F5F5F5F5F5F5F5F5F5F5F5F5F5F5F5F5F5F5F5F5F5F5F5F5F5F5F5F5F5F5F5F5F5F5F5F5F5F5F5F5F5F5F5F5F5F5F5F5F5F5F5F5F5F5F5F5E2F5F5E2E2E2F5F5E2F5F5F5F5F5F5F5F5F5F5F5F5F5F5F5F5F5F5F5F5F5F5F5F5F5F5F5F5F5F5F5F5F5F5F5F5F5F5F5F5F5F5F5F5F5F5
310
F5F5F5F5F5F5F5F5F5F5F5F5F5F5F5F5F5F5F5F5F5F5F5F5F5F5F5F5F5F5F5F5F5F5F5F5F5F5F5F5F5F5F5F5F5F5F5F5F5F5F5F5F5F5F5F5F5F5F5F5F5F5F5F5F5F5F5F5F5F5F5F5F5F5F5F5F5F5F5F5F5F5F5F5F5F5F5F5F5F5F5F5F5F5F5F5F5F5F5F5F5F5F5F5F5F5F5F5F5F5F5F5F5F5F5F5F5F5F5F5F5F5F5F5F5E2F5
310
F5E2E2E2F5F5E2F5F5F5F5F5F5F5F5F5F5F5F5F5F5F5F5F5F5F5F5F5F5F5F5F5F5F5F5F5F5F5F5F5F5F5F5F5F5F5F5F5F5F5F5F5F5F5F5F5F5F5F5F5F5F5F5F5F5F5F5F5F5F5F5F5F5F5F5F5F5F5F5F5F5F5F5F5F5F5F5F5F5F5F5F5F5F5F5F5F5F5F5F5F5F5F5F5F5F5F5F5F5F5F5F5F5F5F5F5F5F5F5F5F5F5F5F5F5F5F5
310
F5F5F5F5F5F5F5F5F5F5F5F5F5F5F5F5F5F5F5F5F5F5F5F5F5F5F5F5F5F5F5F5F5F5F5F5F5F5F5F5F5F5F5F5F5F5F5F5F5F5F5E2F5F5E2E2E2F5F5E2F5F5F5F5F5F5F5F5F5F5F5F5F5F5F5F5F5F5F5F5F5F5F5F5F5F5F5F5F5F5F5F5F5F5F5F5F5F5F5F5F5F5F5F5F5F5F5F5F5F5F5F5F5F5F5F5F5F5F5F5F5F5F5F5F5F5F5
310
F5F5F5F5F5F5F5F5F5F5F5F5F5F5F5F5F5F5F5F5F5F5F5F5F5F5F5F5F5F5F5F5F5F5F5F5F5F5F5F5F5F5F5F5F5F5F5F5F5F5F5F5F5F5F5F5F5F5F5F5F5F5F5F5F5F5F5F5F5F5F5F5F5F5F5F5F5F5F5F5F5F5F5F5F5F5F5F5F5F5F5F5F5F5F5F5F5F5F5F5F5F5F5F5E2F5F5E2E2E2F5F5E2F5F5F5F5F5F5F5F5F5F5F5F5F5F5
310
F5F5F5F5F5F5F5F5F5F5F5F5F5F5F5F5F5F5F5F5F5F5F5F5F5F5F5F5F5F5F5F5F5F5F5F5F5F5F5F5F5F5F5F5F5F5F5F5F5F5F5F5F5F5F5F5F5F5F5F5F5F5F5F5F5F5F5F5F5F5F5F5F5F5F5F5F5F5F5F5F5F5F5F5F5F5F5F5F5F5F5F5F5F5F5F5F5F5F5F5F5F5F5F5F5F5F5F5F5F5F5F5F5F5F5F5F5F5F5F5F5F5F5F5F5F5F5
310
F5F5F5F5F5F5F5F5F5F5F5F5F5F5F5F5F5F5F5F5F5F5F5F5F5F5F5F5F5F5E2F5F5E2E2E2F5F5E2F5F5F5F5F5F5F5F5F5F5F5F5F5F5F5F5F5F5F5F5F5F5F5F5F5F5F5F5F5F5F5F5F5F5F5F5F5F5F5F5F5F5F5F5F5F5F5F5F5F5F5F5F5F5F5F5F5F5F5F5F5F5F5F5F5F5F5F5F5F5F5F5F5F5F5F5F5F5F5F5F5F5F5F5F5F5F5F5
310
F5F5F5F5F5F5F5F5F5F5F5F5F5F5F5F5F5F5F5F5F5F5F5F5F5F5F5F5F5F5F5F5F5F5F5F5F5F5F5F5F5F5F5F5F5F5F5F5F5F5F5F5F5F5F5F5F5F5F5F5F5F5F5F5F5F5F5F5F5F5F5F5F5F5F5F5F5F5F5F5F5F5F5E2F5F5E2E2E2F5F5E2F5F5F5F5F5F5F5F5F5F5F5F5F5F5F5F5F5F5F5F5F5F5F5F5F5F5F5F5F5F5F5F5F5F5F5
310
F5F5F5F5F5F5F5F5F5F5F5F5F5F5F5F5F5F5F5F5F5F5F5F5F5F5F5F5F5F5F5F5F5F5F5F5F5F5F5F5F5F5F5F5F5F5F5F5F5F5F5F5F5F5F5F5F5F5F5F5F5F5F5F5F5F5F5F5F5F5F5F5F5F5F5F5F5F5F5F5F5F5F5F5F5F5F5F5F5F5F5F5F5F5F5F5F5F5F5F5F5F5F5F5F5F5F5F5F5F5F5F5F5F5F5F5F5F5F5F5F5F5F5F5F5F5F5
310
F5F5F5F5F5F5F5F5F5E2F5F5E2E2E2F5F5E2F5F5F5F5F5F5F5F5F5F5F5F5F5F5F5F5F5F5F5F5F5F5F5F5F5F5F5F5F5F5F5F5F5F5F5F5F5F5F5F5F5F5F5F5F5F5F5F5F5F5F5F5F5F5F5F5F5F5F5F5F5F5F5F5F5F5F5F5F5F5F5F5F5F5F5F5F5F5F5F5F5F5F5F5F5F5F5F5F5F5F5F5F5F5F5F5F5F5F5F5F5F5F5F5F5F5F5F5F5
310
F5F5F5F5F5F5F5F5F5F5F5F5F5F5F5F5F5F5F5F5F5F5F5F5F5F5F5F5F5F5F5F5F5F5F5F5F5F5F5F5F5F5F5F5F5F5F5F5F5F5F5F5F5F5F5F5F5F5F5F5F5F5E2F5F5E2E2E2F5F5E2F5F5F5F5F5F5F5F5F5F5F5F5F5F5F5F5F5F5F5F5F5F5F5F5F5F5F5F5F5F5F5F5F5F5F5F5F5F5F5F5F5F5F5F5F5F5F5F5F5F5F5F5F5F5F5F5
310
F5F5F5F5F5F5F5F5F5F5F5F5F5F5F5F5F5F5F5F5F5F5F5F5F5F5F5F5F5F5F5F5F5F5F5F5F5F5F5F5F5F5F5F5F5F5F5F5F5F5F5F5F5F5F5F5F5F5F5F5F5F5F5F5F5F5F5F5F5F5F5F5F5F5F5F5F5F5F5F5F5F5F5F5F5F5F5F5F5F5F5F5F5F5F5F5F5F5F5F5F5F5F5F5F5F5F5F5F5F5F5F5F5F5F5E2F5F5E2E2E2F5F5E2F5F5F5
310
F5F5F5F5F5F5F5F5F5F5F5F5F5F5F5F5F5F5F5F5F5F5F5F5F5F5F5F5F5F5F5F5F5F5F5F5F5F5F5F5F5F5F5F5F5F5F5F5F5F5F5F5F5F5F5F5F5F5F5F5F5F5F5F5F5F5F5F5F5F5F5F5F5F5F5F5F5F5F5F5F5F5F5F5F5F5F5F5F5F5F5F5F5F5F5F5F5F5F5F5F5F5F5F5F5F5F5F5F5F5F5F5F5F5F5F5F5F5F5F5F5F5F5F5F5F5F5
310
F5F5F5F5F5F5F5F5F5F5F5F5F5F5F5F5F5F5F5F5F5F5F5F5F5F5F5F5F5F5F5F5F5F5F5F5F5F5F5F5F5E2F5F5E2E2E2F5F5E2F5F5F5F5F5F5F5F5F5F5F5F5F5F5F5F5F5F5F5F5F5F5F5F5F5F5F5F5F5F5F5F5F5F5F5F5F5F5F5F5F5F5F5F5F5F5F5F5F5F5F5F5F5F5F5F5F5F5F5F5F5F5F5F5F5F5F5F5F5F5F5F5F5F5F5F5F5
310
F5F5F5F5F5F5F5F5F5F5F5F5F5F5F5F5F5F5F5F5F5F5F5F5F5F5F5F5F5F5F5F5F5F5F5F5F5F5F5F5F5F5F5F5F5F5F5F5F5F5F5F5F5F5F5F5F5F5F5F5F5F5F5F5F5F5F5F5F5F5F5F5F5F5F5F5F5F5F5F5F5F5F5F5F5F5F5F5F5F5F5F5F5F5E2F5F5E2E2E2F5F5E2F5F5F5F5F5F5F5F5F5F5F5F5F5F5F5F5F5F5F5F5F5F5F5F5
310
F5F5F5F5F5F5F5F5F5F5F5F5F5F5F5F5F5F5F5F5F5F5F5F5F5F5F5F5F5F5F5F5F5F5F5F5F5F5F5F5F5F5F5F5F5F5F5F5F5F5F5F5F5F5F5F5F5F5F5F5F5F5F5F5F5F5F5F5F5F5F5F5F5F5F5F5F5F5F5F5F5F5F5F5F5F5F5F5F5F5F5F5F5F5F5F5F5F5F5F5F5F5F5F5F5F5F5F5F5F5F5F5F5F5F5F5F5F5F5F5F5F5F5F5F5F5F5
310
F5F5F5F5F5F5F5F5F5F5F5F5F5F5F5F5F5F5F5F5E2F5F5E2E2E2F5F5E2F5F5F5F5F5F5F5F5F5F5F5F5F5F5F5F5F5F5F5F5F5F5F5F5F5F5F5F5F5F5F5F5F5F5F5F5F5F5F5F5F5F5F5F5F5F5F5F5F5F5F5F5F5F5F5F5F5F5F5F5F5F5F5F5F5F5F5F5F5F5F5F5F5F5F5F5F5F5F5F5F5F5F5F5F5F5F5F5F5F5F5F5F5F5F5F5F5F5
310
F5F5F5F5F5F5F5F5F5F5F5F5F5F5F5F5F5F5F5F5F5F5F5F5F5F5F5F5F5F5F5F5F5F5F5F5F5F5F5F5F5F5F5F5F5F5F5F5F5F5F5F5F5F5F5F5F5F5F5F5F5F5F5F5F5F5F5F5F5F5F5F5F5E2F5F5E2E2E2F5F5E2F5F5F5F5F5F5F5F5F5F5F5F5F5F5F5F5F5F5F5F5F5F5F5F5F5F5F5F5F5F5F5F5F5F5F5F5F5F5F5F5F5F5F5F5F5
310
F5F5F5F5F5F5F5F5F5F5F5F5F5F5F5F5F5F5F5F5F5F5F5F5F5F5F5F5F5F5F5F5F5F5F5F5F5F5F5F5F5F5F5F5F5F5F5F5F5F5F5F5F5F5F5F5F5F5F5F5F5F5F5F5F5F5F5F5F5F5F5F5F5F5F5F5F5F5F5F5F5F5F5F5F5F5F5F5F5F5F5F5F5F5F5F5F5F5F5F5F5F5F5F5F5F5F5F5F5F5F5F5F5F5F5F5F5F5F5F5F5F5F5F5F5F5E2
310
F5F5E2E2E2F5F5E2F5F5F5F5F5F5F5F5F5F5F5F5F5F5F5F5F5F5F5F5F5F5F5F5F5F5F5F5F5F5F5F5F5F5F5F5F5F5F5F5F5F5F5F5F5F5F5F5F5F5F5F5F5F5F5F5F5F5F5F5F5F5F5F5F5F5F5F5F5F5F5F5F5F5F5F5F5F5F5F5F5F5F5F5F5F5F5F5F5F5F5F5F5F5F5F5F5F5F5F5F5F5F5F5F5F5F5F5F5F5F5F5F5F5F5F5F5F5F5
310
F5F5F5F5F5F5F5F5F5F5F5F5F5F5F5F5F5F5F5F5F5F5F5F5F5F5F5F5F5F5F5F5F5F5F5F5F5F5F5F5F5F5F5F5F5F5F5F5F5F5F5F5E2F5F5E2E2E2F5F5E2F5F5F5F5F5F5F5F5F5F5F5F5F5F5F5F5F5F5F5F5F5F5F5F5F5F5F5F5F5F5F5F5F5F5F5F5F5F5F5F5F5F5F5F5F5F5F5F5F5F5F5F5F5F5F5F5F5F5F5F5F5F5F5F5F5F5
310
F5F5F5F5F5F5F5F5F5F5F5F5F5F5F5F5F5F5F5F5F5F5F5F5F5F5F5F5F5F5F5F5F5F5F5F5F5F5F5F5F5F5F5F5F5F5F5F5F5F5F5F5F5F5F5F5F5F5F5F5F5F5F5F5F5F5F5F5F5F5F5F5F5F5F5F5F5F5F5F5F5F5F5F5F5F5F5F5F5F5F5F5F5F5F5F5F5F5F5F5F5F5F5F5F5E2F5F5E2E2E2F5F5F5F5F5F5F5F5F5F5F5F5F5F5F5F5
310
F5F5F5F5F5F5F5F5F5F5F5F5F5F5F5F5F5F5F5F5F5F5F5F5F5F5F5F5F5F5F5F5F5F5F5F5F5F5F5F5F5F5F5F5F5F5F5F5F5F5F5F5F5F5F5F5F5F5F5F5F5F5F5F5F5F5F5F5F5F5F5F5F5F5F5F5F5F5F5F5F5F5F5F5F5F5F5F5F5F5F5F5F5F5F5F5F5F5F5F5F5F5F5F5F5F5F5F5F5F5F5F5F5F5F5F5F5F5F5F5F5F5F5F5F5F5F5
310
F5F5F5F5F5F5F5F5F5F5F5F5F5F5F5F5F5F5F5F5F5F5F5F5F5F5F5F5F5F5F5F5F5F5E2E2E2F5F5F5F5F5F5F5F5F5F5F5F5F5F5F5F5F5F5F5F5F5F5F5F5F5F5F5F5F5F5F5F5F5F5F5F5F5F5F5F5F5F5F5F5F5F5F5F5F5F5F5F5F5F5F5F5F5F5F5F5F5F5F5F5F5F5F5F5F5F5F5F5F5F5F5F5F5F5F5F5F5F5F5F5F5F5F5F5F5F5
310
F5F5F5F5F5F5F5F5F5F5F5F5F5F5F5F5F5F5F5F5F5F5F5F5F5F5F5F5F5F5F5F5F5F5F5F5F5F5F5F5F5F5F5F5F5F5F5F5F5F5F5F5F5F5F5F5F5F5F5F5F5F5F5F5F5F5F5F5F5F5F5F5F5F5F5F5F5F5F5F5F5F5F5F5F5F5F5E2E2E2F5F5F5F5F5F5F5F5F5F5F5F5F5F5F5F5F5F5F5F5F5F5F5F5F5F5F5F5F5F5F5F5F5F5F5F5F5
310
F5F5F5F5F5F5F5F5F5F5F5F5F5F5F5F5F5F5F5F5F5F5F5F5F5F5F5F5F5F5F5F5F5F5F5F5F5F5F5F5F5F5F5F5F5F5F5F5F5F5F5F5F5F5F5F5F5F5F5F5F5F5F5F5F5F5F5F5F5F5F5F5F5F5F5F5F5F5F5F5F5F5F5F5F5F5F5F5F5F5F5F5F5F5F5F5F5F5F5F5F5F5F5F5F5F5F5F5F5F5F5F5F5F5F5F5F5F5F5F5F5F5F5F5F5F5F5
310
F5F5F5F5F5F5F5F5F5F5F5F5F5E2E2E2F5F5F5F5F5F5F5F5F5F5F5F5F5F5F5F5F5F5F5F5F5F5F5F5F5F5F5F5F5F5F5F5F5F5F5F5F5F5F5F5F5F5F5F5F5F5F5F5F5F5F5F5F5F5F5F5F5F5F5F5F5F5F5F5F5F5F5F5F5F5F5F5F5F5F5F5F5F5F5F5F5F5F5F5F5F5F5F5F5F5F5F5F5F5F5F5F5F5F5F5F5F5F5F5F5F5F5F5F5F5F5
310
F5F5F5F5F5F5F5F5F5F5F5F5F5F5F5F5F5F5F5F5F5F5F5F5F5F5F5F5F5F5F5F5F5F5F5F5F5F5F5F5F5F5F5F5F5F5F5F5F5F5F5F5F5F5F5F5F5F5F5F5F5F5F5F5F5F5E2E2E2F5F5F5F5F5F5F5F5F5F5F5F5F5F5F5F5F5F5F5F5F5F5F5F5F5F5F5F5F5F5F5F5F5F5F5F5F5F5F5F5F5F5F5F5F5F5F5F5F5F5F5F5F5F5F5F5F5F5
310
F5F5F5F5F5F5F5F5F5F5F5F5F5F5F5F5F5F5F5F5F5F5F5F5F5F5F5F5F5F5F5F5F5F5F5F5F5F5F5F5F5F5F5F5F5F5F5F5F5F5F5F5F5F5F5F5F5F5F5F5F5F5F5F5F5F5F5F5F5F5F5F5F5F5F5F5F5F5F5F5F5F5F5F5F5F5F5F5F5F5F5F5F5F5F5F5F5F5F5F5F5F5F5F5F5F5F5F5F5F5F5F5F5F5F5F5F5F5F5E2E2E2F5F5F5F5F5
310
F5F5F5F5F5F5F5F5F5F5F5F5F5F5F5F5F5F5F5F5F5F5F5F5F5F5F5F5F5F5F5F5F5F5F5F5F5F5F5F5F5F5F5F5F5F5F5F5F5F5F5F5F5F5F5F5F5F5F5F5F5F5F5F5F5F5F5F5F5F5F5F5F5F5F5F5F5F5F5F5F5F5F5F5F5F5F5F5F5F5F5F5F5F5F5F5F5F5F5F5F5F5F5F5F5F5F5F5F5F5F5F5F5F5F5F5F5F5F5F5F5F5F5F5F5F5F5
310
F5F5F5F5F5F5F5F5F5F5F5F5F5F5F5F5F5F5F5F5F5F5F5F5F5F5F5F5F5F5F5F5F5F5F5F5F5F5F5F5F5F5F5F5F5E2E2E2F5F5F5F5F5F5F5F5F5F5F5F5F5F5F5F5F5F5F5F5F5F5F5F5F5F5F5F5F5F5F5F5F5F5F5F5F5F5F5F5F5F5F5F5F5F5F5F5F5F5F5F5F5F5F5F5F5F5F5F5F5F5F5F5F5F5F5F5F5F5F5F5F5F5F5F5F5F5F5
310
F5F5F5F5F5F5F5F5F5F5F5F5F5F5F5F5F5F5F5F5F5F5F5F5F5F5F5F5F5F5F5F5F5F5F5F5F5F5F5F5F5F5F5F5F5F5F5F5F5F5F5F5F5F5F5F5F5F5F5F5F5F5F5F5F5F5F5F5F5F5F5F5F5F5F5F5F5F5F5F5F5F5F5F5F5F5F5F5F5F5F5F5F5F5F5F5F5F5E2E2E2F5F5F5F5F5F5F5F5F5F5F5F5F5F5F5F5F5F5F5F5F5F5F5F5F5F5
310
F5F5F5F5F5F5F5F5F5F5F5F5F5F5F5F5F5F5F5F5F5F5F5F5F5F5F5F5F5F5F5F5F5F5F5F5F5F5F5F5F5F5F5F5F5F5F5F5F5F5F5F5F5F5F5F5F5F5F5F5F5F5F5F5F5F5F5F5F5F5F5F5F5F5F5F5F5F5F5F5F5F5F5F5F5F5F5F5F5F5F5F5F5F5F5F5F5F5F5F5F5F5F5F5F5F5F5F5F5F5F5F5F5F5F5F5F5F5F5F5F5F5F5F5F5F5F5
310
F5F5F5F5F5F5F5F5F5F5F5F5F5F5F5F5F5F5F5F5F5F5F5F5E2E2E2F5F5F5F5F5F5F5F5F5F5F5F5F5F5F5F5F5F5F5F5F5F5F5F5F5F5F5F5F5F5F5F5F5F5F5F5F5F5F5F5F5F5F5F5F5F5F5F5F5F5F5F5F5F5F5F5F5F5F5F5F5F5F5F5F5F5F5F5F5F5F5F5F5F5F5F5F5F5F5F5F5F5F5F5F5F5F5F5F5F5F5F5F5F5F5F5F5F5F5F5
310
F5F5F5F5F5F5F5F5F5F5F5F5F5F5F5F5F5F5F5F5F5F5F5F5F5F5F5F5F5F5F5F5F5F5F5F5F5F5F5F5F5F5F5F5F5F5F5F5F5F5F5F5F5F5F5F5F5F5F5F5F5F5F5F5F5F5F5F5F5F5F5F5F5F5F5F5F5E2E2E2F5F5E2F5F5F5F5F5F5F5F5F5F5F5F5F5F5F5F5F5F5F5F5F5F5F5F5F5F5F5F5F5F5F5F5F5F5F5F5F5F5F5F5F5F5F5F5
310
F5F5F5F5F5F5F5F5F5F5F5F5F5F5F5F5F5F5F5F5F5F5F5F5F5F5F5F5F5F5F5F5F5F5F5F5F5F5F5F5F5F5F5F5F5F5F5F5F5F5F5F5F5F5F5F5F5F5F5F5F5F5F5F5F5F5F5F5F5F5F5F5F5F5F5F5F5F5F5F5F5F5F5F5F5F5F5F5F5F5F5F5F5F5F5F5F5F5F5F5F5F5F5F5F5F5F5F5F5F5F5F5F5F5F5F5F5F5F5F5F5F5F5F5F5F5F5
310
E2F5F5E2E2E2F5F5E2F5F5F5F5F5F5F5F5F5F5F5F5F5F5F5F5F5F5F5F5F5F5F5F5F5F5F5F5F5F5F5F5F5F5F5F5F5F5F5F5F5F5F5F5F5F5F5F5F5F5F5F5F5F5F5F5F5F5F5F5F5F5F5F5F5F5F5F5F5F5F5F5F5F5F5F5F5F5F5F5F5F5F5F5F5F5F5F5F5F5F5F5F5F5F5F5F5F5F5F5F5F5F5F5F5F5F5F5F5F5F5F5F5F5F5F5F5F5
310
F5F5F5F5F5F5F5F5F5F5F5F5F5F5F5F5F5F5F5F5F5F5F5F5F5F5F5F5F5F5F5F5F5F5F5F5F5F5F5F5F5F5F5F5F5F5F5F5F5F5F5F5F5E2F5F5E2E2E2F5F5E2F5F5F5F5F5F5F5F5F5F5F5F5F5F5F5F5F5F5F5F5F5F5F5F5F5F5F5F5F5F5F5F5F5F5F5F5F5F5F5F5F5F5F5F5F5F5F5F5F5F5F5F5F5F5F5F5F5F5F5F5F5F5F5F5F5
310
F5F5F5F5F5F5F5F5F5F5F5F5F5F5F5F5F5F5F5F5F5F5F5F5F5F5F5F5F5F5F5F5F5F5F5F5F5F5F5F5F5F5F5F5F5F5F5F5F5F5F5F5F5F5F5F5F5F5F5F5F5F5F5F5F5F5F5F5F5F5F5F5F5F5F5F5F5F5F5F5F5F5F5F5F5F5F5F5F5F5F5F5F5F5F5F5F5F5F5F5F5F5F5F5F5F5E2F5F5E2E2E2F5F5E2F5F5F5F5F5F5F5F5F5F5F5F5
310
F5F5F5F5F5F5F5F5F5F5F5F5F5F5F5F5F5F5F5F5F5F5F5F5F5F5F5F5F5F5F5F5F5F5F5F5F5F5F5F5F5F5F5F5F5F5F5F5F5F5F5F5F5F5F5F5F5F5F5F5F5F5F5F5F5F5F5F5F5F5F5F5F5F5F5F5F5F5F5F5F5F5F5F5F5F5F5F5F5F5F5F5F5F5F5F5F5F5F5F5F5F5F5F5F5F5F5F5F5F5F5F5F5F5F5F5F5F5F5F5F5F5F5F5F5F5F5
310
F5F5F5F5F5F5F5F5F5F5F5F5F5F5F5F5F5F5F5F5F5F5F5F5F5F5F5F5F5F5F5F5E2F5F5E2E2E2F5F5E2F5F5F5F5F5F5F5F5F5F5F5F5F5F5F5F5F5F5F5F5F5F5F5F5F5F5F5F5F5F5F5F5F5F5F5F5F5F5F5F5F5F5F5F5F5F5F5F5F5F5F5F5F5F5F5F5F5F5F5F5F5F5F5F5F5F5F5F5F5F5F5F5F5F5F5F5F5F5F5F5F5F5F5F5F5F5
310
F5F5F5F5F5F5F5F5F5F5F5F5F5F5F5F5F5F5F5F5F5F5F5F5F5F5F5F5F5F5F5F5F5F5F5F5F5F5F5F5F5F5F5F5F5F5F5F5F5F5F5F5F5F5F5F5F5F5F5F5F5F5F5F5F5F5F5F5F5F5F5F5F5F5F5F5F5F5F5F5F5F5F5F5F5E2F5F5E2E2E2F5F5E2F5F5F5F5F5F5F5F5F5F5F5F5F5F5F5F5F5F5F5F5F5F5F5F5F5F5F5F5F5F5F5F5F5
310
F5F5F5F5F5F5F5F5F5F5F5F5F5F5F5F5F5F5F5F5F5F5F5F5F5F5F5F5F5F5F5F5F5F5F5F5F5F5F5F5F5F5F5F5F5F5F5F5F5F5F5F5F5F5F5F5F5F5F5F5F5F5F5F5F5F5F5F5F5F5F5F5F5F5F5F5F5F5F5F5F5F5F5F5F5F5F5F5F5F5F5F5F5F5F5F5F5F5F5F5F5F5F5F5F5F5F5F5F5F5F5F5F5F5F5F5F5F5F5F5F5F5F5F5F5F5F5
310
F5F5F5F5F5F5F5F5F5F5F5E2F5F5E2E2E2F5F5E2F5F5F5F5F5F5F5F5F5F5F5F5F5F5F5F5F5F5F5F5F5F5F5F5F5F5F5F5F5F5F5F5F5F5F5F5F5F5F5F5F5F5F5F5F5F5F5F5F5F5F5F5F5F5F5F5F5F5F5F5F5F5F5F5F5F5F5F5F5F5F5F5F5F5F5F5F5F5F5F5F5F5F5F5F5F5F5F5F5F5F5F5F5F5F5F5F5F5F5F5F5F5F5F5F5F5F5
310
F5F5F5F5F5F5F5F5F5F5F5F5F5F5F5F5F5F5F5F5F5F5F5F5F5F5F5F5F5F5F5F5F5F5F5F5F5F5F5F5F5F5F5F5F5F5F5F5F5F5F5F5F5F5F5F5F5F5F5F5F5F5F5F5E2F5F5E2E2E2F5F5E2E2E2E2E2E2E2E2F5F5F5F5F5F5F5F5F5E2E2E2E2E2E2E2E2E2E2E2E2E2E2E2E2F5F5F5F5F5F5F5F5F5E2E2E2E2E2E2E2E2E2E2E2E2E2
310
E2E2E2F5F5F5F5F5F5F5F5E2E2E2E2E2E2E2E2E2E2E2E2E2E2E2E2F5F5F5F5F5F5F5F5F5E2E2E2E2E2E2E2E2E2E2E2E2E2E2E2E2F5F5F5F5F5F5F5F5E2E2E2E2E2E2E2E2E2E2E2E2E2E2E2E2F5F5F5F5F5F5F5F5F5E2E2E2E2E2E2E2E2E2E2E2E2E2E2E2E2F5F5F5F5F5F5F5F5F5E2E2E2E2E2E2E2E2F5F5E2EFE2E2E2E2E2
310
E2E2E2E2E2E2E2E2E2E2E2E2E2E2E2E2E2E2E2E2E2E2E2E2E2E2E2E2E2E2E2E2E2E2E2E2E2E2E2E2E2E2E2E2E2E2E2E2E2E2E2E2E2E2E2E2E2E2E2E2E2E2E2E2E2E2E2E2E2E2E2E2E2E2E2E2E2E2E2E2E2E2E2E2E2E2E2E2E2E2E2E2E2E2E2E2E2E2E2E2E2E2E2E2E2E2E2E2E2E2E2E2E2E2E2E2E2E2E2E2E2E2E2E2E2E2E2
310
E2E2E2E2E2E2E2E2E2E2E2E2E2E2E2E2E2E2E2E2E2E2E2E2E2E2E2E2E2E2E2E2E2E2E2E2E2E2E2E2E2E2E2E2E2E2E2EF
  0
XRECORD
  5
B36B
102
{ACAD_REACTORS
330
B36A
102
}
330
B36A
100
AcDbXrecord
280
     1
102
SHADEPLOT
 70
     0
102
SHADEPLOTRESLEVEL
 70
     2
102
SHADEPLOTCUSTOMDPI
 70
   300
  0
XRECORD
  5
B376
102
{ACAD_REACTORS
330
B375
102
}
330
B375
100
AcDbXrecord
280
     1
102
MATERIAL
148
0.0
149
0.0
149
0.0
 93
        0
 94
       63
282
     0
 72
     1
 77
     1
171
     1
175
     1
179
     1
273
     0
  0
XRECORD
  5
B374
102
{ACAD_REACTORS
330
B373
102
}
330
B373
100
AcDbXrecord
280
     1
102
MATERIAL
148
0.0
149
0.0
149
0.0
 93
        0
 94
       63
282
     0
 72
     1
 77
     1
171
     1
175
     1
179
     1
273
     0
  0
XRECORD
  5
B378
102
{ACAD_REACTORS
330
B377
102
}
330
B377
100
AcDbXrecord
280
     1
102
MATERIAL
148
0.0
149
0.0
149
0.0
 93
        0
 94
       63
282
     0
 72
     1
 77
     1
171
     1
175
     1
179
     1
273
     0
  0
XRECORD
  5
B367
102
{ACAD_REACTORS
330
B366
102
}
330
B366
100
AcDbXrecord
280
     1
102
SHADEPLOT
 70
     0
102
SHADEPLOTRESLEVEL
 70
     2
102
SHADEPLOTCUSTOMDPI
 70
   300
  0
XRECORD
  5
B365
102
{ACAD_REACTORS
330
B364
102
}
330
B364
100
AcDbXrecord
280
     1
102
SHADEPLOT
 70
     0
102
SHADEPLOTRESLEVEL
 70
     2
102
SHADEPLOTCUSTOMDPI
 70
   300
  0
XRECORD
  5
B363
102
{ACAD_REACTORS
330
B362
102
}
330
B362
100
AcDbXrecord
280
     1
102
SHADEPLOT
 70
     0
102
SHADEPLOTRESLEVEL
 70
     2
102
SHADEPLOTCUSTOMDPI
 70
   300
  0
XRECORD
  5
B361
102
{ACAD_REACTORS
330
B360
102
}
330
B360
100
AcDbXrecord
280
     1
102
SHADEPLOT
 70
     0
102
SHADEPLOTRESLEVEL
 70
     2
102
SHADEPLOTCUSTOMDPI
 70
   300
  0
XRECORD
  5
B369
102
{ACAD_REACTORS
330
B368
102
}
330
B368
100
AcDbXrecord
280
     1
102
ACAD_ROUNDTRIP_PRE2007_TABLESTYLE
 90
        4
 91
        0
  1

 92
        4
 93
        0
  2

 94
        4
 95
        0
  3

  0
ENDSEC
  0
EOF
