  0
SECTION
  2
HEADER
  9
$ACADVER
  1
AC1015
  9
$ACADMAINTVER
 70
    20
  9
$DWGCODEPAGE
  3
ANSI_1252
  9
$INSBASE
 10
0.0
 20
0.0
 30
0.0
  9
$EXTMIN
 10
121.9091397197199
 20
321.7192331993002
 30
0.0
  9
$EXTMAX
 10
157.3421397197199
 20
347.3097178146909
 30
0.0
  9
$LIMMIN
 10
0.0
 20
0.0
  9
$LIMMAX
 10
297.0
 20
210.0
  9
$ORTHOMODE
 70
     0
  9
$REGENMODE
 70
     1
  9
$FILLMODE
 70
     1
  9
$QTEXTMODE
 70
     0
  9
$MIRRTEXT
 70
     1
  9
$LTSCALE
 40
1.0
  9
$ATTMODE
 70
     1
  9
$TEXTSIZE
 40
3.0
  9
$TRACEWID
 40
0.5
  9
$TEXTSTYLE
  7
STANDARD
  9
$CLAYER
  8
0
  9
$CELTYPE
  6
ByLayer
  9
$CECOLOR
 62
     1
  9
$CELTSCALE
 40
1.0
  9
$DISPSILH
 70
     0
  9
$DIMSCALE
 40
1.0
  9
$DIMASZ
 40
0.25
  9
$DIMEXO
 40
0.125
  9
$DIMDLI
 40
8.872500000000014
  9
$DIMRND
 40
0.0
  9
$DIMDLE
 40
0.0
  9
$DIMEXE
 40
0.25
  9
$DIMTP
 40
0.0
  9
$DIMTM
 40
0.0
  9
$DIMTXT
 40
0.25
  9
$DIMCEN
 40
2.0
  9
$DIMTSZ
 40
0.0
  9
$DIMTOL
 70
     0
  9
$DIMLIM
 70
     0
  9
$DIMTIH
 70
     1
  9
$DIMTOH
 70
     1
  9
$DIMSE1
 70
     0
  9
$DIMSE2
 70
     0
  9
$DIMTAD
 70
     1
  9
$DIMZIN
 70
     0
  9
$DIMBLK
  1

  9
$DIMASO
 70
     1
  9
$DIMSHO
 70
     0
  9
$DIMPOST
  1
\X
  9
$DIMAPOST
  1
mm
  9
$DIMALT
 70
     1
  9
$DIMALTD
 70
     2
  9
$DIMALTF
 40
25.4
  9
$DIMLFAC
 40
1.0
  9
$DIMTOFL
 70
     0
  9
$DIMTVP
 40
0.0
  9
$DIMTIX
 70
     0
  9
$DIMSOXD
 70
     0
  9
$DIMSAH
 70
     0
  9
$DIMBLK1
  1

  9
$DIMBLK2
  1

  9
$DIMSTYLE
  2
COPY_OF_STANDARD
  9
$DIMCLRD
 70
     0
  9
$DIMCLRE
 70
     0
  9
$DIMCLRT
 70
     0
  9
$DIMTFAC
 40
1.0
  9
$DIMGAP
 40
0.09
  9
$DIMJUST
 70
     0
  9
$DIMSD1
 70
     0
  9
$DIMSD2
 70
     0
  9
$DIMTOLJ
 70
     1
  9
$DIMTZIN
 70
     0
  9
$DIMALTZ
 70
     0
  9
$DIMALTTZ
 70
     0
  9
$DIMUPT
 70
     0
  9
$DIMDEC
 70
     3
  9
$DIMTDEC
 70
     3
  9
$DIMALTU
 70
     2
  9
$DIMALTTD
 70
     2
  9
$DIMTXSTY
  7
STANDARD
  9
$DIMAUNIT
 70
     0
  9
$DIMADEC
 70
     0
  9
$DIMALTRND
 40
0.0
  9
$DIMAZIN
 70
     0
  9
$DIMDSEP
 70
    46
  9
$DIMATFIT
 70
     3
  9
$DIMFRAC
 70
     0
  9
$DIMLDRBLK
  1

  9
$DIMLUNIT
 70
     4
  9
$DIMLWD
 70
    -2
  9
$DIMLWE
 70
    -2
  9
$DIMTMOVE
 70
     0
  9
$LUNITS
 70
     2
  9
$LUPREC
 70
     4
  9
$SKETCHINC
 40
1.0
  9
$FILLETRAD
 40
0.0
  9
$AUNITS
 70
     0
  9
$AUPREC
 70
     0
  9
$MENU
  1
acad
  9
$ELEVATION
 40
0.0
  9
$PELEVATION
 40
0.0
  9
$THICKNESS
 40
0.0
  9
$LIMCHECK
 70
     0
  9
$CHAMFERA
 40
0.0
  9
$CHAMFERB
 40
0.0
  9
$CHAMFERC
 40
0.0
  9
$CHAMFERD
 40
0.0
  9
$SKPOLY
 70
     0
  9
$TDCREATE
 40
2453763.555706019
  9
$TDUCREATE
 40
2453763.847372685
  9
$TDUPDATE
 40
2454918.381932142
  9
$TDUUPDATE
 40
2454918.673598808
  9
$TDINDWG
 40
0.0805184259
  9
$TDUSRTIMER
 40
0.0805182523
  9
$USRTIMER
 70
     1
  9
$ANGBASE
 50
0.0
  9
$ANGDIR
 70
     0
  9
$PDMODE
 70
     0
  9
$PDSIZE
 40
0.0
  9
$PLINEWID
 40
0.0
  9
$SPLFRAME
 70
     0
  9
$SPLINETYPE
 70
     6
  9
$SPLINESEGS
 70
     8
  9
$HANDSEED
  5
3327
  9
$SURFTAB1
 70
     6
  9
$SURFTAB2
 70
     6
  9
$SURFTYPE
 70
     6
  9
$SURFU
 70
     6
  9
$SURFV
 70
     6
  9
$UCSBASE
  2

  9
$UCSNAME
  2

  9
$UCSORG
 10
0.0
 20
0.0
 30
0.0
  9
$UCSXDIR
 10
1.0
 20
0.0
 30
0.0
  9
$UCSYDIR
 10
0.0
 20
1.0
 30
0.0
  9
$UCSORTHOREF
  2

  9
$UCSORTHOVIEW
 70
     0
  9
$UCSORGTOP
 10
0.0
 20
0.0
 30
0.0
  9
$UCSORGBOTTOM
 10
0.0
 20
0.0
 30
0.0
  9
$UCSORGLEFT
 10
0.0
 20
0.0
 30
0.0
  9
$UCSORGRIGHT
 10
0.0
 20
0.0
 30
0.0
  9
$UCSORGFRONT
 10
0.0
 20
0.0
 30
0.0
  9
$UCSORGBACK
 10
0.0
 20
0.0
 30
0.0
  9
$PUCSBASE
  2

  9
$PUCSNAME
  2

  9
$PUCSORG
 10
0.0
 20
0.0
 30
0.0
  9
$PUCSXDIR
 10
1.0
 20
0.0
 30
0.0
  9
$PUCSYDIR
 10
0.0
 20
1.0
 30
0.0
  9
$PUCSORTHOREF
  2

  9
$PUCSORTHOVIEW
 70
     0
  9
$PUCSORGTOP
 10
0.0
 20
0.0
 30
0.0
  9
$PUCSORGBOTTOM
 10
0.0
 20
0.0
 30
0.0
  9
$PUCSORGLEFT
 10
0.0
 20
0.0
 30
0.0
  9
$PUCSORGRIGHT
 10
0.0
 20
0.0
 30
0.0
  9
$PUCSORGFRONT
 10
0.0
 20
0.0
 30
0.0
  9
$PUCSORGBACK
 10
0.0
 20
0.0
 30
0.0
  9
$USERI1
 70
     0
  9
$USERI2
 70
     0
  9
$USERI3
 70
     0
  9
$USERI4
 70
     0
  9
$USERI5
 70
     0
  9
$USERR1
 40
0.0
  9
$USERR2
 40
0.0
  9
$USERR3
 40
0.0
  9
$USERR4
 40
0.0
  9
$USERR5
 40
0.0
  9
$WORLDVIEW
 70
     1
  9
$SHADEDGE
 70
     3
  9
$SHADEDIF
 70
    70
  9
$TILEMODE
 70
     1
  9
$MAXACTVP
 70
    64
  9
$PINSBASE
 10
0.0
 20
0.0
 30
0.0
  9
$PLIMCHECK
 70
     0
  9
$PEXTMIN
 10
0.2257340682102011
 20
1.081772359206125
 30
0.0
  9
$PEXTMAX
 10
35.65873406821019
 20
24.70377235920614
 30
0.0
  9
$PLIMMIN
 10
-16.9757080078125
 20
-4.995333194732666
  9
$PLIMMAX
 10
1171.955932617187
 20
835.9563269615174
  9
$UNITMODE
 70
     0
  9
$VISRETAIN
 70
     1
  9
$PLINEGEN
 70
     0
  9
$PSLTSCALE
 70
     1
  9
$TREEDEPTH
 70
  3020
  9
$CMLSTYLE
  2
Standard
  9
$CMLJUST
 70
     0
  9
$CMLSCALE
 40
1.0
  9
$PROXYGRAPHICS
 70
     1
  9
$MEASUREMENT
 70
     0
  9
$CELWEIGHT
370
    -1
  9
$ENDCAPS
280
     0
  9
$JOINSTYLE
280
     0
  9
$LWDISPLAY
290
     0
  9
$INSUNITS
 70
     4
  9
$HYPERLINKBASE
  1

  9
$STYLESHEET
  1

  9
$XEDIT
290
     1
  9
$CEPSNTYPE
380
     0
  9
$PSTYLEMODE
290
     1
  9
$FINGERPRINTGUID
  2
{3F997368-DB86-47C0-B428-D070D9FA4673}
  9
$VERSIONGUID
  2
{7719AADF-B20E-4FCD-8A2F-AB05948FA9E6}
  9
$EXTNAMES
290
     1
  9
$PSVPSCALE
 40
0.0
  9
$OLESTARTUP
290
     0
  0
ENDSEC
  0
SECTION
  2
CLASSES
  0
CLASS
  1
ACDBDICTIONARYWDFLT
  2
AcDbDictionaryWithDefault
  3
ObjectDBX Classes
 90
        0
280
     0
281
     0
  0
CLASS
  1
TABLESTYLE
  2
AcDbTableStyle
  3
ObjectDBX Classes
 90
     4095
280
     0
281
     0
  0
CLASS
  1
SORTENTSTABLE
  2
AcDbSortentsTable
  3
ObjectDBX Classes
 90
        0
280
     0
281
     0
  0
CLASS
  1
DICTIONARYVAR
  2
AcDbDictionaryVar
  3
ObjectDBX Classes
 90
        0
280
     0
281
     0
  0
CLASS
  1
ACDBPLACEHOLDER
  2
AcDbPlaceHolder
  3
ObjectDBX Classes
 90
        0
280
     0
281
     0
  0
CLASS
  1
LAYOUT
  2
AcDbLayout
  3
ObjectDBX Classes
 90
        0
280
     0
281
     0
  0
CLASS
  1
PLOTSETTINGS
  2
AcDbPlotSettings
  3
ObjectDBX Classes
 90
        0
280
     0
281
     0
  0
CLASS
  1
DIMASSOC
  2
AcDbDimAssoc
  3
"AcDbDimAssoc|Product Desc:     AcDim ARX App For Dimension|Company:          Autodesk, Inc.|WEB Address:      www.autodesk.com"
 90
        0
280
     0
281
     0
  0
CLASS
  1
MATERIAL
  2
AcDbMaterial
  3
ObjectDBX Classes
 90
     1024
280
     0
281
     0
  0
CLASS
  1
VISUALSTYLE
  2
AcDbVisualStyle
  3
ObjectDBX Classes
 90
     4095
280
     0
281
     0
  0
ENDSEC
  0
SECTION
  2
TABLES
  0
TABLE
  2
VPORT
  5
8
330
0
100
AcDbSymbolTable
 70
     1
  0
VPORT
  5
32EE
330
8
100
AcDbSymbolTableRecord
100
AcDbViewportTableRecord
  2
*Active
 70
     0
 10
0.0
 20
0.0
 11
1.0
 21
1.0
 12
142.6726097857695
 22
334.5087144255011
 13
0.0
 23
0.0
 14
0.0
 24
0.0
 15
0.0
 25
0.0
 16
0.0
 26
0.0
 36
1.0
 17
0.0
 27
0.0
 37
0.0
 40
25.9633375583013
 41
1.644662921348314
 42
50.0
 43
0.0
 44
0.0
 50
0.0
 51
0.0
 71
     0
 72
   100
 73
     1
 74
     1
 75
     0
 76
     0
 77
     0
 78
     0
281
     0
 65
     1
110
0.0
120
0.0
130
0.0
111
1.0
121
0.0
131
0.0
112
0.0
122
1.0
132
0.0
 79
     0
146
0.0
  0
ENDTAB
  0
TABLE
  2
LTYPE
  5
5
330
0
100
AcDbSymbolTable
 70
     5
  0
LTYPE
  5
13
330
5
100
AcDbSymbolTableRecord
100
AcDbLinetypeTableRecord
  2
ByBlock
 70
     0
  3

 72
    65
 73
     0
 40
0.0
  0
LTYPE
  5
14
330
5
100
AcDbSymbolTableRecord
100
AcDbLinetypeTableRecord
  2
ByLayer
 70
     0
  3

 72
    65
 73
     0
 40
0.0
  0
LTYPE
  5
15
330
5
100
AcDbSymbolTableRecord
100
AcDbLinetypeTableRecord
  2
CONTINUOUS
 70
     0
  3
solid line
 72
    65
 73
     0
 40
0.0
  0
LTYPE
  5
27
330
5
100
AcDbSymbolTableRecord
100
AcDbLinetypeTableRecord
  2
DASHED
 70
     0
  3
-- -- -- -- -- -- -- -- -- --
 72
    65
 73
     2
 40
3.0
 49
2.0
 74
     0
 49
-1.0
 74
     0
  0
LTYPE
  5
28
330
5
100
AcDbSymbolTableRecord
100
AcDbLinetypeTableRecord
  2
CENTER
 70
     0
  3
--- - --- - --- - --- - --- -
 72
    65
 73
     4
 40
6.0
 49
3.0
 74
     0
 49
-1.0
 74
     0
 49
1.0
 74
     0
 49
-1.0
 74
     0
  0
LTYPE
  5
29
330
5
100
AcDbSymbolTableRecord
100
AcDbLinetypeTableRecord
  2
PHANTOM
 70
     0
  3
----- - - ----- - - ----- - -
 72
    65
 73
     6
 40
12.0
 49
7.0
 74
     0
 49
-1.0
 74
     0
 49
1.0
 74
     0
 49
-1.0
 74
     0
 49
1.0
 74
     0
 49
-1.0
 74
     0
  0
LTYPE
  5
623
330
5
100
AcDbSymbolTableRecord
100
AcDbLinetypeTableRecord
  2
HIDDEN
 70
     0
  3
Hidden __ __ __ __ __ __ __ __ __ __ __ __ __ __
 72
    65
 73
     2
 40
1.905
 49
1.27
 74
     0
 49
-0.635
 74
     0
  0
ENDTAB
  0
TABLE
  2
LAYER
  5
2
102
{ACAD_XDICTIONARY
360
1D4
102
}
330
0
100
AcDbSymbolTable
 70
    17
  0
LAYER
  5
10
330
2
100
AcDbSymbolTableRecord
100
AcDbLayerTableRecord
  2
0
 70
     0
 62
     7
  6
CONTINUOUS
370
    -3
390
F
  0
LAYER
  5
2A
330
2
100
AcDbSymbolTableRecord
100
AcDbLayerTableRecord
  2
PIC20
 70
     0
 62
     7
  6
CONTINUOUS
370
    -3
390
F
  0
LAYER
  5
2B
330
2
100
AcDbSymbolTableRecord
100
AcDbLayerTableRecord
  2
DRAW1
 70
     0
 62
     7
  6
CONTINUOUS
370
    -3
390
F
  0
LAYER
  5
FF
330
2
100
AcDbSymbolTableRecord
100
AcDbLayerTableRecord
  2
Defpoints
 70
     0
 62
     7
  6
CONTINUOUS
290
     0
370
    -3
390
F
  0
LAYER
  5
1C4
330
2
100
AcDbSymbolTableRecord
100
AcDbLayerTableRecord
  2
LINE TEMPLATE
 70
     0
 62
     7
  6
CONTINUOUS
370
    50
390
F
  0
LAYER
  5
1C5
330
2
100
AcDbSymbolTableRecord
100
AcDbLayerTableRecord
  2
TOTO
 70
     0
 62
     7
  6
CONTINUOUS
370
    -3
390
F
  0
LAYER
  5
1C6
330
2
100
AcDbSymbolTableRecord
100
AcDbLayerTableRecord
  2
TEXT
 70
     0
 62
     7
  6
CONTINUOUS
370
    -3
390
F
  0
LAYER
  5
1C7
330
2
100
AcDbSymbolTableRecord
100
AcDbLayerTableRecord
  2
LINE CENTER
 70
     0
 62
     7
  6
CENTER
370
    13
390
F
  0
LAYER
  5
1C8
330
2
100
AcDbSymbolTableRecord
100
AcDbLayerTableRecord
  2
LINE HOLE BRACKET
 70
     0
 62
     7
  6
CONTINUOUS
370
     9
390
F
1001
AcAecLayerStandard
1000

1000

  0
LAYER
  5
362
330
2
100
AcDbSymbolTableRecord
100
AcDbLayerTableRecord
  2
LINE_TEX
 70
     0
 62
     6
  6
CONTINUOUS
370
    -3
390
F
  0
LAYER
  5
4A5
330
2
100
AcDbSymbolTableRecord
100
AcDbLayerTableRecord
  2
FRAME 070
 70
     0
 62
     5
  6
CONTINUOUS
370
    -3
390
F
  0
LAYER
  5
4A6
330
2
100
AcDbSymbolTableRecord
100
AcDbLayerTableRecord
  2
FRAME 050
 70
     0
 62
     6
  6
CONTINUOUS
370
    -3
390
F
  0
LAYER
  5
4A7
330
2
100
AcDbSymbolTableRecord
100
AcDbLayerTableRecord
  2
FRAME 025
 70
     0
 62
     7
  6
CONTINUOUS
370
    -3
390
F
  0
LAYER
  5
59E
330
2
100
AcDbSymbolTableRecord
100
AcDbLayerTableRecord
  2
DIM
 70
     0
 62
     4
  6
CONTINUOUS
370
    -3
390
F
  0
LAYER
  5
624
330
2
100
AcDbSymbolTableRecord
100
AcDbLayerTableRecord
  2
PIC21
 70
     0
 62
   179
  6
CONTINUOUS
370
     0
390
F
  0
LAYER
  5
9AE
330
2
100
AcDbSymbolTableRecord
100
AcDbLayerTableRecord
  2
GRS_GAMBAR
 70
     0
 62
     4
  6
CONTINUOUS
370
    -3
390
F
  0
LAYER
  5
3245
330
2
100
AcDbSymbolTableRecord
100
AcDbLayerTableRecord
  2
PIC06
 70
     0
 62
     7
  6
CONTINUOUS
370
    -3
390
F
  0
ENDTAB
  0
TABLE
  2
STYLE
  5
3
330
0
100
AcDbSymbolTable
 70
     9
  0
STYLE
  5
11
330
3
100
AcDbSymbolTableRecord
100
AcDbTextStyleTableRecord
  2
STANDARD
 70
     0
 40
0.0
 41
1.0
 50
0.0
 71
     0
 42
3.0
  3
ARIAL.TTF
  4

1001
ACAD
1000
Arial
1071
       34
  0
STYLE
  5
1C9
330
3
100
AcDbSymbolTableRecord
100
AcDbTextStyleTableRecord
  2
ROMANS
 70
     0
 40
0.0
 41
0.75
 50
10.0
 71
     0
 42
6.0
  3
romans.shx
  4

  0
STYLE
  5
1CA
330
3
100
AcDbSymbolTableRecord
100
AcDbTextStyleTableRecord
  2
SWISS
 70
     0
 40
0.0
 41
1.0
 50
0.0
 71
     0
 42
0.5
  3
swissel.ttf
  4

1001
ACAD
1000
Swis721 LtEx BT
1071
       34
  0
STYLE
  5
1CB
330
3
100
AcDbSymbolTableRecord
100
AcDbTextStyleTableRecord
  2
DUTCH
 70
     0
 40
0.0
 41
1.0
 50
0.0
 71
     0
 42
6.0
  3
dutcheb.ttf
  4

1001
ACAD
1000
Dutch801 XBd BT
1071
       18
  0
STYLE
  5
1CC
330
3
100
AcDbSymbolTableRecord
100
AcDbTextStyleTableRecord
  2
STYLE4
 70
     0
 40
0.0
 41
1.0
 50
0.0
 71
     0
 42
0.25
  3
swisscl.ttf
  4

1001
ACAD
1000
Swis721 LtCn BT
1071
       34
  0
STYLE
  5
1CD
330
3
100
AcDbSymbolTableRecord
100
AcDbTextStyleTableRecord
  2
black
 70
     0
 40
0.4
 41
1.0
 50
0.0
 71
     0
 42
0.4
  3
ARIAL.TTF
  4

1001
ACAD
1000
Arial
1071
       34
  0
STYLE
  5
4A8
330
3
100
AcDbSymbolTableRecord
100
AcDbTextStyleTableRecord
  2
ISO Proportional
 70
     0
 40
0.0
 41
1.0
 50
0.0
 71
     0
 42
2.5
  3
isocp.shx
  4

  0
STYLE
  5
625
330
3
100
AcDbSymbolTableRecord
100
AcDbTextStyleTableRecord
  2
SLDTEXTSTYLE2
 70
     0
 40
0.0
 41
0.4725086125233553
 50
0.0
 71
     0
 42
0.2
  3
TXT
  4

  0
STYLE
  5
66C
330
3
100
AcDbSymbolTableRecord
100
AcDbTextStyleTableRecord
  2
SLDTEXTSTYLE5
 70
     0
 40
0.0
 41
0.6918165088946344
 50
0.0
 71
     0
 42
0.2
  3
TXT
  4

  0
ENDTAB
  0
TABLE
  2
VIEW
  5
6
330
0
100
AcDbSymbolTable
 70
     0
  0
ENDTAB
  0
TABLE
  2
UCS
  5
7
330
0
100
AcDbSymbolTable
 70
     0
  0
ENDTAB
  0
TABLE
  2
APPID
  5
9
330
0
100
AcDbSymbolTable
 70
    13
  0
APPID
  5
12
330
9
100
AcDbSymbolTableRecord
100
AcDbRegAppTableRecord
  2
ACAD
 70
     0
  0
APPID
  5
1CF
330
9
100
AcDbSymbolTableRecord
100
AcDbRegAppTableRecord
  2
ACAD_DSTYLE_DIMEXT_LENGTH
 70
     0
  0
APPID
  5
1D0
330
9
100
AcDbSymbolTableRecord
100
AcDbRegAppTableRecord
  2
ACAD_DSTYLE_DIMEXT_ENABLED
 70
     0
  0
APPID
  5
1D1
330
9
100
AcDbSymbolTableRecord
100
AcDbRegAppTableRecord
  2
ACAD_DSTYLE_DIMJOGGED_JOGANGLE_SYMBOL
 70
     0
  0
APPID
  5
1D2
330
9
100
AcDbSymbolTableRecord
100
AcDbRegAppTableRecord
  2
ACAD_DSTYLE_DIMARC_LENGTH_SYMBOL
 70
     0
  0
APPID
  5
1D3
330
9
100
AcDbSymbolTableRecord
100
AcDbRegAppTableRecord
  2
AcAecLayerStandard
 70
     0
  0
APPID
  5
305
330
9
100
AcDbSymbolTableRecord
100
AcDbRegAppTableRecord
  2
ACAD_EXEMPT_FROM_CAD_STANDARDS
 70
     0
  0
APPID
  5
341
330
9
100
AcDbSymbolTableRecord
100
AcDbRegAppTableRecord
  2
ACAD_PSEXT
 70
     0
  0
APPID
  5
346
330
9
100
AcDbSymbolTableRecord
100
AcDbRegAppTableRecord
  2
DCO15
 70
     0
  0
APPID
  5
A2E
330
9
100
AcDbSymbolTableRecord
100
AcDbRegAppTableRecord
  2
ACAD_DSTYLE_DIMTEXT_FILL
 70
     0
  0
APPID
  5
A31
330
9
100
AcDbSymbolTableRecord
100
AcDbRegAppTableRecord
  2
ACAD_DSTYLE_DIM_LINETYPE
 70
     0
  0
APPID
  5
A32
330
9
100
AcDbSymbolTableRecord
100
AcDbRegAppTableRecord
  2
ACAD_DSTYLE_DIM_EXT1_LINETYPE
 70
     0
  0
APPID
  5
A33
330
9
100
AcDbSymbolTableRecord
100
AcDbRegAppTableRecord
  2
ACAD_DSTYLE_DIM_EXT2_LINETYPE
 70
     0
  0
ENDTAB
  0
TABLE
  2
DIMSTYLE
  5
A
330
0
100
AcDbSymbolTable
 70
     4
100
AcDbDimStyleTable
 71
     2
340
59F
340
FC
  0
DIMSTYLE
105
FC
330
A
100
AcDbSymbolTableRecord
100
AcDbDimStyleTableRecord
  2
Standard
 70
     0
340
11
  0
DIMSTYLE
105
1CE
330
A
100
AcDbSymbolTableRecord
100
AcDbDimStyleTableRecord
  2
DIM-1
 70
     0
 40
5.0
 41
2.1
 42
0.5
 43
5.0
 44
0.5
 73
     0
 74
     0
 77
     1
140
2.799999999999998
141
0.0
147
0.5
174
     1
176
   256
177
   256
178
   256
271
     0
272
     0
279
     2
289
     0
340
1C9
371
    -1
372
    -1
1001
ACAD_DSTYLE_DIMJOGGED_JOGANGLE_SYMBOL
1070
   384
1040
0.7853981633974483
1001
ACAD_DSTYLE_DIMEXT_LENGTH
1070
   378
1040
0.5
  0
DIMSTYLE
105
4A9
330
A
100
AcDbSymbolTableRecord
100
AcDbDimStyleTableRecord
  2
ISO-25
 70
     0
 41
2.5
 42
0.625
 43
3.75
 44
1.25
 73
     0
 74
     0
 77
     1
 78
     8
140
2.5
141
2.5
143
0.03937007874016
147
0.625
171
     3
172
     1
271
     2
272
     2
274
     3
278
    44
283
     0
284
     8
340
11
  0
DIMSTYLE
105
59F
102
{ACAD_REACTORS
330
9D5
330
9D8
330
9DB
330
9DD
330
9D0
330
9CF
102
}
330
A
100
AcDbSymbolTableRecord
100
AcDbDimStyleTableRecord
  2
COPY_OF_STANDARD
 70
     0
  3
\X
  4
mm
 41
0.25
 42
0.125
 43
8.872500000000014
 44
0.25
 77
     1
140
0.25
141
2.0
170
     1
271
     3
272
     3
277
     4
340
11
1001
ACAD_DSTYLE_DIMJOGGED_JOGANGLE_SYMBOL
1070
   384
1040
0.7853981633974483
  0
ENDTAB
  0
TABLE
  2
BLOCK_RECORD
  5
1
330
0
100
AcDbSymbolTable
 70
     9
  0
BLOCK_RECORD
  5
22
102
{ACAD_XDICTIONARY
360
2FA8
102
}
330
1
100
AcDbSymbolTableRecord
100
AcDbBlockTableRecord
  2
*Model_Space
340
25
  0
BLOCK_RECORD
  5
49A
330
1
100
AcDbSymbolTableRecord
100
AcDbBlockTableRecord
  2
*Paper_Space
340
49B
  0
BLOCK_RECORD
  5
2E
330
1
100
AcDbSymbolTableRecord
100
AcDbBlockTableRecord
  2
SYM1
340
0
102
{BLKREFS
331
FB
102
}
  0
BLOCK_RECORD
  5
1B6
330
1
100
AcDbSymbolTableRecord
100
AcDbBlockTableRecord
  2
A$C74DC1801
340
0
102
{BLKREFS
331
1E1
331
314
331
316
331
3CB
102
}
  0
BLOCK_RECORD
  5
1D6
102
{ACAD_XDICTIONARY
360
20F
102
}
330
1
100
AcDbSymbolTableRecord
100
AcDbBlockTableRecord
  2
A$C394F5FD0
340
0
  0
BLOCK_RECORD
  5
315
102
{ACAD_XDICTIONARY
360
319
102
}
330
1
100
AcDbSymbolTableRecord
100
AcDbBlockTableRecord
  2
A$C067F4E84
340
0
  0
BLOCK_RECORD
  5
3B4
330
1
100
AcDbSymbolTableRecord
100
AcDbBlockTableRecord
  2
A$C2EAC6319
340
0
  0
BLOCK_RECORD
  5
4AA
330
1
100
AcDbSymbolTableRecord
100
AcDbBlockTableRecord
  2
ISO A0 title block.dwg
340
0
1001
ACAD
1000
DesignCenter Data
1002
{
1070
     1
1070
     4
1002
}
  0
BLOCK_RECORD
  5
9DF
330
1
100
AcDbSymbolTableRecord
100
AcDbBlockTableRecord
  2
*D6
340
0
  0
BLOCK_RECORD
  5
9EC
330
1
100
AcDbSymbolTableRecord
100
AcDbBlockTableRecord
  2
*D7
340
0
  0
BLOCK_RECORD
  5
9F9
330
1
100
AcDbSymbolTableRecord
100
AcDbBlockTableRecord
  2
*D8
340
0
  0
ENDTAB
  0
ENDSEC
  0
SECTION
  2
BLOCKS
  0
BLOCK
  5
23
330
22
100
AcDbEntity
  8
0
100
AcDbBlockBegin
  2
*Model_Space
 70
     0
 10
0.0
 20
0.0
 30
0.0
  3
*Model_Space
  1

  0
ENDBLK
  5
24
330
22
100
AcDbEntity
  8
0
100
AcDbBlockEnd
  0
BLOCK
  5
49C
330
49A
100
AcDbEntity
 67
     1
  8
0
 62
     1
100
AcDbBlockBegin
  2
*Paper_Space
 70
     0
 10
0.0
 20
0.0
 30
0.0
  3
*Paper_Space
  1

  0
ENDBLK
  5
49D
330
49A
100
AcDbEntity
 67
     1
  8
0
 62
     1
100
AcDbBlockEnd
  0
BLOCK
  5
2F
330
2E
100
AcDbEntity
  8
DRAW1
 62
     1
100
AcDbBlockBegin
  2
SYM1
 70
     0
 10
0.0
 20
0.0
 30
0.0
  3
SYM1
  1

  0
ENDBLK
  5
30
330
2E
100
AcDbEntity
  8
DRAW1
100
AcDbBlockEnd
  0
BLOCK
  5
1B7
330
1B6
100
AcDbEntity
  8
0
100
AcDbBlockBegin
  2
A$C74DC1801
 70
     0
 10
0.0
 20
0.0
 30
0.0
  3
A$C74DC1801
  1

  0
LWPOLYLINE
  5
1B8
330
1B6
100
AcDbEntity
  8
TOTO
100
AcDbPolyline
 90
        7
 70
     1
 43
0.0
 10
37.91232115383411
 20
23.73162294462236
 10
37.91232115383411
 20
23.73162294462236
 42
0.331883
 10
37.82668915383402
 20
6.373072944622205
 42
0.4729860000000001
 10
64.75835615383411
 20
6.365232944622332
 10
64.75835615383411
 20
6.365232944622332
 42
0.331879
 10
64.68393115383404
 20
23.72368594462227
 10
64.68393115383404
 20
23.72368594462227
 42
0.468582
  0
HATCH
  5
1B9
330
1B6
100
AcDbEntity
  8
TOTO
100
AcDbHatch
 10
0.0
 20
0.0
 30
0.0
210
0.0
220
0.0
230
1.0
  2
SOLID
 70
     1
 71
     0
 91
       10
 92
        7
 72
     1
 73
     1
 93
       20
 10
18.53316830636113
 20
25.64512690726724
 42
0.0
 10
21.08924420219011
 20
25.64512690726724
 42
-0.4142752124674323
 10
26.80593530322191
 20
19.92723241900728
 42
0.0
 10
26.80561126091433
 20
18.38770741058533
 42
0.0
 10
30.19296838640961
 20
18.38770741058533
 42
0.0
 10
30.19520892030833
 20
29.03248395772914
 42
0.0
 10
0.0002185510645631
 20
29.03248395772914
 42
0.0
 10
-0.0000019816554726
 20
18.38770741058533
 42
0.0
 10
3.386681374428674
 20
18.38770741058533
 42
0.0
 10
3.387005923266556
 20
19.92963894019908
 42
-0.4141519149660894
 10
9.103697024299107
 20
25.64512690726724
 42
0.0
 10
11.66233392741882
 20
25.64512690726724
 42
0.0
 10
11.65816177148882
 20
6.483784833212553
 42
-0.4141497897727592
 10
9.528785548528716
 20
4.354872206299546
 42
0.0
 10
5.899612067634492
 20
4.354872206299546
 42
0.0
 10
5.898874510644191
 20
0.9675151558371908
 42
0.0
 10
24.28588120613003
 20
0.9675151558371908
 42
0.0
 10
24.28661876312041
 20
4.354872206299546
 42
0.0
 10
20.65837257529541
 20
4.354872206299546
 42
-0.4142773378492039
 10
18.52899635233612
 20
6.484712126259638
 42
0.0
 97
        0
 92
        7
 72
     1
 73
     1
 93
       20
 10
90.93278059410906
 20
25.64512690726724
 42
0.0
 10
93.48885648993805
 20
25.64512690726724
 42
-0.4142752124674332
 10
99.20554759097059
 20
19.92723241900728
 42
0.0
 10
99.20522354866321
 20
18.38770741058533
 42
0.0
 10
102.5925806741584
 20
18.38770741058533
 42
0.0
 10
102.5948212080568
 20
29.03248395772914
 42
0.0
 10
72.3998308388133
 20
29.03248395772914
 42
0.0
 10
72.39961030609331
 20
18.38770741058533
 42
0.0
 10
75.78629366217744
 20
18.38770741058533
 42
0.0
 10
75.78661821101523
 20
19.92963894019908
 42
-0.414151914966089
 10
81.50330931204711
 20
25.64512690726724
 42
0.0
 10
84.0619462151678
 20
25.64512690726724
 42
0.0
 10
84.05777405923723
 20
6.483784833212553
 42
-0.41414978977276
 10
81.92839783627695
 20
4.354872206299546
 42
0.0
 10
78.29922435538242
 20
4.354872206299546
 42
0.0
 10
78.29848679839253
 20
0.9675151558371908
 42
0.0
 10
96.6854934938788
 20
0.9675151558371908
 42
0.0
 10
96.68623105086922
 20
4.354872206299546
 42
0.0
 10
93.05798486304381
 20
4.354872206299546
 42
-0.4142773378492051
 10
90.92860864008505
 20
6.484712126259638
 42
0.0
 97
        0
 92
       16
 93
        4
 72
     2
 10
51.29488215383403
 20
11.21940294462217
 40
7.832046
 50
199.1202649999999
 51
340.867675
 73
     1
 72
     2
 10
40.40886015383413
 20
14.99590494462222
 40
19.354522
 50
340.867675
 51
379.193527
 73
     1
 72
     2
 10
51.29567815383413
 20
18.78571694462243
 40
7.826925
 50
19.193527
 51
160.7944129999999
 73
     1
 72
     2
 10
62.18169815383413
 20
14.99361394462221
 40
19.354522
 50
160.7944129999999
 51
199.1202649999999
 73
     1
 97
        0
 92
        1
 93
        4
 72
     2
 10
49.50506915383403
 20
14.99494794462236
 40
14.516242
 50
142.997119
 51
216.4375859999999
 73
     1
 72
     2
 10
51.29573915383411
 20
17.41948994462222
 40
17.419491
 50
219.356321
 51
320.61032
 73
     1
 72
     2
 10
53.08549015383403
 20
14.99457094462241
 40
14.516242
 50
323.5257889999999
 51
396.965523
 73
     1
 72
     2
 10
51.29482115383414
 20
12.58050894462235
 40
17.419491
 50
39.769149
 51
140.196876
 73
     1
 97
        0
 92
        1
 93
        4
 72
     2
 10
121.9033351538341
 20
14.99494794462236
 40
14.516242
 50
142.997119
 51
216.4375859999999
 73
     1
 72
     2
 10
123.694005153834
 20
17.41948994462222
 40
17.419491
 50
219.356321
 51
320.61032
 73
     1
 72
     2
 10
125.4837561538341
 20
14.99457094462241
 40
14.516242
 50
323.5257889999999
 51
396.965523
 73
     1
 72
     2
 10
123.693087153834
 20
12.58050894462235
 40
17.419491
 50
39.769149
 51
140.196876
 73
     1
 97
        0
 92
       16
 93
        4
 72
     2
 10
123.6931481538341
 20
11.21940294462217
 40
7.832046
 50
199.1202649999999
 51
340.867675
 73
     1
 72
     2
 10
112.8071261538341
 20
14.99590494462222
 40
19.354522
 50
340.867675
 51
379.193527
 73
     1
 72
     2
 10
123.6939441538341
 20
18.78571694462243
 40
7.826925
 50
19.193527
 51
160.7944129999999
 73
     1
 72
     2
 10
134.579964153834
 20
14.99361394462221
 40
19.354522
 50
160.7944129999999
 51
199.1202649999999
 73
     1
 97
        0
 92
        0
 93
       67
 72
     1
 10
144.6053441538341
 20
27.94836994462218
 11
144.628044153834
 21
27.94805894462217
 72
     1
 10
144.628044153834
 20
27.94805894462217
 11
144.6746891538341
 21
27.94650394462223
 72
     1
 10
144.6746891538341
 20
27.94650394462223
 11
144.719779153834
 21
27.94308394462234
 72
     1
 10
144.719779153834
 20
27.94308394462234
 11
144.763935153834
 21
27.93810794462217
 72
     1
 10
144.763935153834
 20
27.93810794462217
 11
144.806537153834
 21
27.9312669446224
 72
     1
 10
144.806537153834
 20
27.9312669446224
 11
144.848207153834
 21
27.92255994462232
 72
     1
 10
144.848207153834
 20
27.92255994462232
 11
144.8886321538341
 21
27.91260894462232
 72
     1
 10
144.8886321538341
 20
27.91260894462232
 11
144.9275021538341
 21
27.90048094462235
 72
     1
 10
144.9275021538341
 20
27.90048094462235
 11
144.9654401538341
 21
27.88679894462234
 72
     1
 10
144.9654401538341
 20
27.88679894462234
 11
145.0021341538341
 21
27.87156194462227
 72
     1
 10
145.0021341538341
 20
27.87156194462227
 11
145.037584153834
 21
27.85445894462236
 72
     1
 10
145.037584153834
 20
27.85445894462236
 11
145.0717901538341
 21
27.83580094462218
 72
     1
 10
145.0717901538341
 20
27.83580094462218
 11
145.1044411538341
 21
27.81527694462238
 72
     1
 10
145.1044411538341
 20
27.81527694462238
 11
145.136159153834
 21
27.7931989446223
 72
     1
 10
145.136159153834
 20
27.7931989446223
 11
145.166634153834
 21
27.76925494462239
 72
     1
 10
145.166634153834
 20
27.76925494462239
 11
145.1921331538341
 21
27.74624294462239
 72
     1
 10
145.1921331538341
 20
27.74624294462239
 11
145.2204301538341
 21
27.7176349446222
 72
     1
 10
145.2204301538341
 20
27.7176349446222
 11
145.2462401538341
 21
27.68747094462219
 72
     1
 10
145.2462401538341
 20
27.68747094462219
 11
145.269874153834
 21
27.65606394462236
 72
     1
 10
145.269874153834
 20
27.65606394462236
 11
145.291330153834
 21
27.62310194462236
 72
     1
 10
145.291330153834
 20
27.62310194462236
 11
145.310610153834
 21
27.58889594462222
 72
     1
 10
145.310610153834
 20
27.58889594462222
 11
145.327402153834
 21
27.55313494462223
 72
     1
 10
145.327402153834
 20
27.55313494462223
 11
145.342017153834
 21
27.51581894462231
 72
     1
 10
145.342017153834
 20
27.51581894462231
 11
145.3544561538341
 21
27.47725994462234
 72
     1
 10
145.3544561538341
 20
27.47725994462234
 11
145.364407153834
 21
27.43745594462234
 72
     1
 10
145.364407153834
 20
27.43745594462234
 11
145.3724921538341
 21
27.39578694462227
 72
     1
 10
145.3724921538341
 20
27.39578694462227
 11
145.3780891538341
 21
27.35318494462218
 72
     1
 10
145.3780891538341
 20
27.35318494462218
 11
145.3815101538341
 21
27.30871694462234
 72
     1
 10
145.3815101538341
 20
27.30871694462234
 11
145.382443153834
 21
27.26300594462236
 72
     1
 10
145.382443153834
 20
27.26300594462236
 11
145.382132153834
 21
27.22973194462224
 72
     1
 10
145.382132153834
 20
27.22973194462224
 11
145.3808881538341
 21
27.18184394462218
 72
     1
 10
145.3808881538341
 20
27.18184394462218
 11
145.3780891538341
 21
27.13550994462218
 72
     1
 10
145.3780891538341
 20
27.13550994462218
 11
145.373736153834
 21
27.09073194462234
 72
     1
 10
145.373736153834
 20
27.09073194462234
 11
145.368449153834
 21
27.04719694462232
 72
     1
 10
145.368449153834
 20
27.04719694462232
 11
145.3619191538341
 21
27.00490594462223
 72
     1
 10
145.3619191538341
 20
27.00490594462223
 11
145.3538341538341
 21
26.96447994462233
 72
     1
 10
145.3538341538341
 20
26.96447994462233
 11
145.3448161538341
 21
26.92498794462233
 72
     1
 10
145.3448161538341
 20
26.92498794462233
 11
145.334243153834
 21
26.88736094462218
 72
     1
 10
145.334243153834
 20
26.88736094462218
 11
145.3224271538341
 21
26.85097794462218
 72
     1
 10
145.3224271538341
 20
26.85097794462218
 11
145.3093661538341
 21
26.81583894462232
 72
     1
 10
145.3093661538341
 20
26.81583894462232
 11
145.295062153834
 21
26.7825659446222
 72
     1
 10
145.295062153834
 20
26.7825659446222
 11
145.2795141538341
 21
26.75022594462223
 72
     1
 10
145.2795141538341
 20
26.75022594462223
 11
145.262410153834
 21
26.71975194462231
 72
     1
 10
145.262410153834
 20
26.71975194462231
 11
145.2443751538341
 21
26.69052094462232
 72
     1
 10
145.2443751538341
 20
26.69052094462232
 11
145.2247841538341
 21
26.66253394462251
 72
     1
 10
145.2247841538341
 20
26.66253394462251
 11
145.2042601538341
 21
26.63610194462239
 72
     1
 10
145.2042601538341
 20
26.63610194462239
 11
145.1821821538341
 21
26.61122494462233
 72
     1
 10
145.1821821538341
 20
26.61122494462233
 11
145.1588601538341
 21
26.58790294462221
 72
     1
 10
145.1588601538341
 20
26.58790294462221
 11
145.1342931538341
 21
26.56551394462224
 72
     1
 10
145.1342931538341
 20
26.56551394462224
 11
145.1084831538341
 21
26.54498994462233
 72
     1
 10
145.1084831538341
 20
26.54498994462233
 11
145.0811191538341
 21
26.52570994462235
 72
     1
 10
145.0811191538341
 20
26.52570994462235
 11
145.052821153834
 21
26.50798494462219
 72
     1
 10
145.052821153834
 20
26.50798494462219
 11
145.0229681538341
 21
26.4915039446223
 72
     1
 10
145.0229681538341
 20
26.4915039446223
 11
144.9921831538341
 21
26.47657794462236
 72
     1
 10
144.9921831538341
 20
26.47657794462236
 11
144.9598431538341
 21
26.46289494462223
 72
     1
 10
144.9598431538341
 20
26.46289494462223
 11
144.9262591538341
 21
26.45076794462238
 72
     1
 10
144.9262591538341
 20
26.45076794462238
 11
144.8914311538341
 21
26.44019494462236
 72
     1
 10
144.8914311538341
 20
26.44019494462236
 11
144.8553591538341
 21
26.43086594462227
 72
     1
 10
144.8553591538341
 20
26.43086594462227
 11
144.8177321538341
 21
26.42309194462234
 72
     1
 10
144.8177321538341
 20
26.42309194462234
 11
144.779173153834
 21
26.41656194462234
 72
     1
 10
144.779173153834
 20
26.41656194462234
 11
144.7390581538341
 21
26.41158594462218
 72
     1
 10
144.7390581538341
 20
26.41158594462218
 11
144.6980111538341
 21
26.40816594462228
 72
     1
 10
144.6980111538341
 20
26.40816594462228
 11
144.655409153834
 21
26.4059889446222
 72
     1
 10
144.655409153834
 20
26.4059889446222
 11
144.611563153834
 21
26.40505594462217
 72
     1
 10
144.611563153834
 20
26.40505594462217
 11
143.1005901538341
 21
26.40505594462217
 72
     1
 10
143.1005901538341
 20
26.40505594462217
 11
143.1005901538341
 21
27.94836994462218
 72
     1
 10
143.1005901538341
 20
27.94836994462218
 11
144.6053441538341
 21
27.94836994462218
 97
        0
 92
        0
 93
      207
 72
     1
 10
145.508694153834
 20
26.08818394462218
 11
145.467336153834
 21
26.11896894462233
 72
     1
 10
145.467336153834
 20
26.11896894462233
 11
145.4231791538341
 21
26.15068794462218
 72
     1
 10
145.4231791538341
 20
26.15068794462218
 11
145.3765341538341
 21
26.18302794462227
 72
     1
 10
145.3765341538341
 20
26.18302794462227
 11
145.4038991538341
 21
26.20292994462238
 72
     1
 10
145.4038991538341
 20
26.20292994462238
 11
145.4418371538341
 21
26.23184894462236
 72
     1
 10
145.4418371538341
 20
26.23184894462236
 11
145.4782191538341
 21
26.26076894462221
 72
     1
 10
145.4782191538341
 20
26.26076894462221
 11
145.5133581538341
 21
26.29031094462232
 72
     1
 10
145.5133581538341
 20
26.29031094462232
 11
145.547253153834
 21
26.32016294462232
 72
     1
 10
145.547253153834
 20
26.32016294462232
 11
145.5799051538341
 21
26.35032694462234
 72
     1
 10
145.5799051538341
 20
26.35032694462234
 11
145.611001153834
 21
26.38080094462236
 72
     1
 10
145.611001153834
 20
26.38080094462236
 11
145.640854153834
 21
26.41189694462218
 72
     1
 10
145.640854153834
 20
26.41189694462218
 11
145.6694621538341
 21
26.44330494462235
 72
     1
 10
145.6694621538341
 20
26.44330494462235
 11
145.6968271538341
 21
26.47502294462219
 72
     1
 10
145.6968271538341
 20
26.47502294462219
 11
145.722637153834
 21
26.50705194462239
 72
     1
 10
145.722637153834
 20
26.50705194462239
 11
145.7472031538341
 21
26.53970394462227
 72
     1
 10
145.7472031538341
 20
26.53970394462227
 11
145.7705251538341
 21
26.57235494462236
 72
     1
 10
145.7705251538341
 20
26.57235494462236
 11
145.7922931538341
 21
26.60562794462236
 72
     1
 10
145.7922931538341
 20
26.60562794462236
 11
145.812817153834
 21
26.63921194462227
 72
     1
 10
145.812817153834
 20
26.63921194462227
 11
145.8320961538341
 21
26.6734179446222
 72
     1
 10
145.8320961538341
 20
26.6734179446222
 11
145.850132153834
 21
26.70762394462224
 72
     1
 10
145.850132153834
 20
26.70762394462224
 11
145.8666131538341
 21
26.7424519446222
 72
     1
 10
145.8666131538341
 20
26.7424519446222
 11
145.8818511538341
 21
26.77759094462226
 72
     1
 10
145.8818511538341
 20
26.77759094462226
 11
145.8958441538341
 21
26.81304094462234
 72
     1
 10
145.8958441538341
 20
26.81304094462234
 11
145.908593153834
 21
26.84911294462233
 72
     1
 10
145.908593153834
 20
26.84911294462233
 11
145.9197881538341
 21
26.88518394462232
 72
     1
 10
145.9197881538341
 20
26.88518394462232
 11
145.9297391538341
 21
26.92187794462233
 72
     1
 10
145.9297391538341
 20
26.92187794462233
 11
145.938446153834
 21
26.95888294462235
 72
     1
 10
145.938446153834
 20
26.95888294462235
 11
145.945598153834
 21
26.99650994462218
 72
     1
 10
145.945598153834
 20
26.99650994462218
 11
145.9518171538341
 21
27.03413594462222
 72
     1
 10
145.9518171538341
 20
27.03413594462222
 11
145.9561711538341
 21
27.07238494462217
 72
     1
 10
145.9561711538341
 20
27.07238494462217
 11
145.9595911538341
 21
27.11094394462236
 72
     1
 10
145.9595911538341
 20
27.11094394462236
 11
145.9617681538341
 21
27.14981494462233
 72
     1
 10
145.9617681538341
 20
27.14981494462233
 11
145.9623901538341
 21
27.1889959446222
 72
     1
 10
145.9623901538341
 20
27.1889959446222
 11
145.962079153834
 21
27.22568994462221
 72
     1
 10
145.962079153834
 20
27.22568994462221
 11
145.960835153834
 21
27.27637694462237
 72
     1
 10
145.960835153834
 20
27.27637694462237
 11
145.958659153834
 21
27.32613094462237
 72
     1
 10
145.958659153834
 20
27.32613094462237
 11
145.9555491538341
 21
27.37433094462221
 72
     1
 10
145.9555491538341
 20
27.37433094462221
 11
145.951506153834
 21
27.42190794462227
 72
     1
 10
145.951506153834
 20
27.42190794462227
 11
145.9462201538341
 21
27.46793094462214
 72
     1
 10
145.9462201538341
 20
27.46793094462214
 11
145.9400011538341
 21
27.51333094462234
 72
     1
 10
145.9400011538341
 20
27.51333094462234
 11
145.932849153834
 21
27.55717694462237
 72
     1
 10
145.932849153834
 20
27.55717694462237
 11
145.9247641538341
 21
27.60008994462237
 72
     1
 10
145.9247641538341
 20
27.60008994462237
 11
145.9157461538341
 21
27.6417599446222
 72
     1
 10
145.9157461538341
 20
27.6417599446222
 11
145.9057951538341
 21
27.68249594462236
 72
     1
 10
145.9057951538341
 20
27.68249594462236
 11
145.8946001538341
 21
27.72198794462235
 72
     1
 10
145.8946001538341
 20
27.72198794462235
 11
145.882472153834
 21
27.7602369446222
 72
     1
 10
145.882472153834
 20
27.7602369446222
 11
145.8694121538341
 21
27.79755194462234
 72
     1
 10
145.8694121538341
 20
27.79755194462234
 11
145.8554191538341
 21
27.83393494462222
 72
     1
 10
145.8554191538341
 20
27.83393494462222
 11
145.8404921538341
 21
27.86876294462218
 72
     1
 10
145.8404921538341
 20
27.86876294462218
 11
145.8243221538341
 21
27.90265794462232
 72
     1
 10
145.8243221538341
 20
27.90265794462232
 11
145.8075301538341
 21
27.9356199446222
 72
     1
 10
145.8075301538341
 20
27.9356199446222
 11
145.789494153834
 21
27.96733894462238
 72
     1
 10
145.789494153834
 20
27.96733894462238
 11
145.7705251538341
 21
27.99781294462241
 72
     1
 10
145.7705251538341
 20
27.99781294462241
 11
145.750624153834
 21
28.02735494462218
 72
     1
 10
145.750624153834
 20
28.02735494462218
 11
145.729478153834
 21
28.05565194462235
 72
     1
 10
145.729478153834
 20
28.05565194462235
 11
145.707711153834
 21
28.08270594462237
 72
     1
 10
145.707711153834
 20
28.08270594462237
 11
145.684699153834
 21
28.10882694462236
 72
     1
 10
145.684699153834
 20
28.10882694462236
 11
145.6641761538341
 21
28.13028394462219
 72
     1
 10
145.6641761538341
 20
28.13028394462219
 11
145.639921153834
 21
28.1532949446223
 72
     1
 10
145.639921153834
 20
28.1532949446223
 11
145.614733153834
 21
28.1756849446224
 72
     1
 10
145.614733153834
 20
28.1756849446224
 11
145.5886121538341
 21
28.19714094462222
 72
     1
 10
145.5886121538341
 20
28.19714094462222
 11
145.561247153834
 21
28.21766494462235
 72
     1
 10
145.561247153834
 20
28.21766494462235
 11
145.532638153834
 21
28.23756594462236
 72
     1
 10
145.532638153834
 20
28.23756594462236
 11
145.503097153834
 21
28.25653494462221
 72
     1
 10
145.503097153834
 20
28.25653494462221
 11
145.472622153834
 21
28.27457094462238
 72
     1
 10
145.472622153834
 20
28.27457094462238
 11
145.440904153834
 21
28.29198494462231
 72
     1
 10
145.440904153834
 20
28.29198494462231
 11
145.408253153834
 21
28.30846594462218
 72
     1
 10
145.408253153834
 20
28.30846594462218
 11
145.374357153834
 21
28.32401394462237
 72
     1
 10
145.374357153834
 20
28.32401394462237
 11
145.3395301538341
 21
28.33894094462221
 72
     1
 10
145.3395301538341
 20
28.33894094462221
 11
145.3034581538341
 21
28.35262294462222
 72
     1
 10
145.3034581538341
 20
28.35262294462222
 11
145.2664531538341
 21
28.36568294462233
 72
     1
 10
145.2664531538341
 20
28.36568294462233
 11
145.2282041538341
 21
28.3781219446222
 72
     1
 10
145.2282041538341
 20
28.3781219446222
 11
145.1890231538341
 21
28.38931694462223
 72
     1
 10
145.1890231538341
 20
28.38931694462223
 11
145.148598153834
 21
28.39988894462237
 72
     1
 10
145.148598153834
 20
28.39988894462237
 11
145.107240153834
 21
28.40952894462214
 72
     1
 10
145.107240153834
 20
28.40952894462214
 11
145.064948153834
 21
28.41854694462222
 72
     1
 10
145.064948153834
 20
28.41854694462222
 11
145.0211031538341
 21
28.42632094462237
 72
     1
 10
145.0211031538341
 20
28.42632094462237
 11
144.976635153834
 21
28.43378494462217
 72
     1
 10
144.976635153834
 20
28.43378494462217
 11
144.930923153834
 21
28.44000394462227
 72
     1
 10
144.930923153834
 20
28.44000394462227
 11
144.8842781538341
 21
28.44528994462223
 72
     1
 10
144.8842781538341
 20
28.44528994462223
 11
144.8363901538341
 21
28.44995494462239
 72
     1
 10
144.8363901538341
 20
28.44995494462239
 11
144.787258153834
 21
28.45399694462241
 72
     1
 10
144.787258153834
 20
28.45399694462241
 11
144.737193153834
 21
28.45679594462217
 72
     1
 10
144.737193153834
 20
28.45679594462217
 11
144.686194153834
 21
28.45897294462236
 72
     1
 10
144.686194153834
 20
28.45897294462236
 11
144.6339521538341
 21
28.46021594462218
 72
     1
 10
144.6339521538341
 20
28.46021594462218
 11
144.580778153834
 21
28.46052694462219
 72
     1
 10
144.580778153834
 20
28.46052694462219
 11
142.5209531538341
 21
28.46052694462219
 72
     1
 10
142.5209531538341
 20
28.46052694462219
 11
142.5209531538341
 21
23.96087994462232
 72
     1
 10
142.5209531538341
 20
23.96087994462232
 11
143.1005901538341
 21
23.96087994462232
 72
     1
 10
143.1005901538341
 20
23.96087994462232
 11
143.1005901538341
 21
25.89289894462218
 72
     1
 10
143.1005901538341
 20
25.89289894462218
 11
144.611563153834
 21
25.89289894462218
 72
     1
 10
144.611563153834
 20
25.89289894462218
 11
144.6457691538341
 21
25.89227694462238
 72
     1
 10
144.6457691538341
 20
25.89227694462238
 11
144.686194153834
 21
25.8900999446222
 72
     1
 10
144.686194153834
 20
25.8900999446222
 11
144.7256871538341
 21
25.88636794462217
 72
     1
 10
144.7256871538341
 20
25.88636794462217
 11
144.7636241538341
 21
25.88108194462233
 72
     1
 10
144.7636241538341
 20
25.88108194462233
 11
144.800318153834
 21
25.87424094462233
 72
     1
 10
144.800318153834
 20
25.87424094462233
 11
144.835768153834
 21
25.86553394462237
 72
     1
 10
144.835768153834
 20
25.86553394462237
 11
144.8699741538341
 21
25.85558294462225
 72
     1
 10
144.8699741538341
 20
25.85558294462225
 11
144.9029361538341
 21
25.84376594462219
 72
     1
 10
144.9029361538341
 20
25.84376594462219
 11
144.9346551538341
 21
25.83039494462218
 72
     1
 10
144.9346551538341
 20
25.83039494462218
 11
144.9648181538341
 21
25.81515794462224
 72
     1
 10
144.9648181538341
 20
25.81515794462224
 11
144.9940491538341
 21
25.79867694462222
 72
     1
 10
144.9940491538341
 20
25.79867694462222
 11
145.021724153834
 21
25.78032994462251
 72
     1
 10
145.021724153834
 20
25.78032994462251
 11
145.0481561538341
 21
25.76073894462217
 72
     1
 10
145.0481561538341
 20
25.76073894462217
 11
145.0733441538341
 21
25.73928294462223
 72
     1
 10
145.0733441538341
 20
25.73928294462223
 11
145.097289153834
 21
25.71627094462235
 72
     1
 10
145.097289153834
 20
25.71627094462235
 11
145.119989153834
 21
25.69139394462217
 72
     1
 10
145.119989153834
 20
25.69139394462217
 11
145.1414461538341
 21
25.6652729446223
 72
     1
 10
145.1414461538341
 20
25.6652729446223
 11
145.161347153834
 21
25.63728594462236
 72
     1
 10
145.161347153834
 20
25.63728594462236
 11
145.180316153834
 21
25.60774494462236
 72
     1
 10
145.180316153834
 20
25.60774494462236
 11
145.197730153834
 21
25.57664794462232
 72
     1
 10
145.197730153834
 20
25.57664794462232
 11
145.2142111538341
 21
25.54399694462233
 72
     1
 10
145.2142111538341
 20
25.54399694462233
 11
145.2291371538341
 21
25.50979094462229
 72
     1
 10
145.2291371538341
 20
25.50979094462229
 11
145.242820153834
 21
25.47371894462219
 72
     1
 10
145.242820153834
 20
25.47371894462219
 11
145.255258153834
 21
25.43640394462227
 72
     1
 10
145.255258153834
 20
25.43640394462227
 11
145.2664531538341
 21
25.39722194462218
 72
     1
 10
145.2664531538341
 20
25.39722194462218
 11
145.2760931538341
 21
25.35648594462236
 72
     1
 10
145.2760931538341
 20
25.35648594462236
 11
145.2848001538341
 21
25.31388394462237
 72
     1
 10
145.2848001538341
 20
25.31388394462237
 11
145.2919521538341
 21
25.27003794462234
 72
     1
 10
145.2919521538341
 20
25.27003794462234
 11
145.2981711538341
 21
25.22432594462236
 72
     1
 10
145.2981711538341
 20
25.22432594462236
 11
145.3028361538341
 21
25.17737094462233
 72
     1
 10
145.3028361538341
 20
25.17737094462233
 11
145.306256153834
 21
25.12854994462213
 72
     1
 10
145.306256153834
 20
25.12854994462213
 11
145.308433153834
 21
25.07817294462233
 72
     1
 10
145.308433153834
 20
25.07817294462233
 11
145.3071891538341
 21
25.05018694462228
 72
     1
 10
145.3071891538341
 20
25.05018694462228
 11
145.3047021538341
 21
24.99701194462227
 72
     1
 10
145.3047021538341
 20
24.99701194462227
 11
145.3025251538341
 21
24.9453919446222
 72
     1
 10
145.3025251538341
 20
24.9453919446222
 11
145.300970153834
 21
24.89532694462218
 72
     1
 10
145.300970153834
 20
24.89532694462218
 11
145.300037153834
 21
24.84681594462222
 72
     1
 10
145.300037153834
 20
24.84681594462222
 11
145.2997261538341
 21
24.7998609446222
 72
     1
 10
145.2997261538341
 20
24.7998609446222
 11
145.2997261538341
 21
24.75414894462221
 72
     1
 10
145.2997261538341
 20
24.75414894462221
 11
145.300037153834
 21
24.70999194462218
 72
     1
 10
145.300037153834
 20
24.70999194462218
 11
145.301281153834
 21
24.66738994462218
 72
     1
 10
145.301281153834
 20
24.66738994462218
 11
145.3025251538341
 21
24.62634294462236
 72
     1
 10
145.3025251538341
 20
24.62634294462236
 11
145.3047021538341
 21
24.58684994462226
 72
     1
 10
145.3047021538341
 20
24.58684994462226
 11
145.3071891538341
 21
24.54860194462219
 72
     1
 10
145.3071891538341
 20
24.54860194462219
 11
145.3099881538341
 21
24.5122189446223
 72
     1
 10
145.3099881538341
 20
24.5122189446223
 11
145.3137201538341
 21
24.47707994462234
 72
     1
 10
145.3137201538341
 20
24.47707994462234
 11
145.3174511538341
 21
24.44349594462221
 72
     1
 10
145.3174511538341
 20
24.44349594462221
 11
145.3221161538341
 21
24.41115594462235
 72
     1
 10
145.3221161538341
 20
24.41115594462235
 11
145.3270911538341
 21
24.38068094462221
 72
     1
 10
145.3270911538341
 20
24.38068094462221
 11
145.3289571538341
 21
24.36886494462237
 72
     1
 10
145.3289571538341
 20
24.36886494462237
 11
145.3367311538341
 21
24.32595194462237
 72
     1
 10
145.3367311538341
 20
24.32595194462237
 11
145.3451271538341
 21
24.28366094462229
 72
     1
 10
145.3451271538341
 20
24.28366094462229
 11
145.3544561538341
 21
24.24168094462231
 72
     1
 10
145.3544561538341
 20
24.24168094462231
 11
145.364096153834
 21
24.20001094462236
 72
     1
 10
145.364096153834
 20
24.20001094462236
 11
145.3746681538341
 21
24.15896394462231
 72
     1
 10
145.3746681538341
 20
24.15896394462231
 11
145.386174153834
 21
24.11853894462217
 72
     1
 10
145.386174153834
 20
24.11853894462217
 11
145.397991153834
 21
24.07842494462227
 72
     1
 10
145.397991153834
 20
24.07842494462227
 11
145.410740153834
 21
24.03862094462238
 72
     1
 10
145.410740153834
 20
24.03862094462238
 11
145.424112153834
 21
23.99943994462228
 72
     1
 10
145.424112153834
 20
23.99943994462228
 11
145.438105153834
 21
23.96087994462232
 72
     1
 10
145.438105153834
 20
23.96087994462232
 11
146.1349751538341
 21
23.96087994462232
 72
     1
 10
146.1349751538341
 20
23.96087994462232
 11
146.1349751538341
 21
24.10889894462218
 72
     1
 10
146.1349751538341
 20
24.10889894462218
 11
146.1066771538341
 21
24.13315394462232
 72
     1
 10
146.1066771538341
 20
24.13315394462232
 11
146.076203153834
 21
24.16238494462231
 72
     1
 10
146.076203153834
 20
24.16238494462231
 11
146.0485271538341
 21
24.19316994462235
 72
     1
 10
146.0485271538341
 20
24.19316994462235
 11
146.0236501538341
 21
24.22519894462221
 72
     1
 10
146.0236501538341
 20
24.22519894462221
 11
146.0015721538341
 21
24.25909494462235
 72
     1
 10
146.0015721538341
 20
24.25909494462235
 11
145.9819811538341
 21
24.2942329446223
 72
     1
 10
145.9819811538341
 20
24.2942329446223
 11
145.9651891538341
 21
24.33061594462219
 72
     1
 10
145.9651891538341
 20
24.33061594462219
 11
145.9511951538341
 21
24.36886494462237
 72
     1
 10
145.9511951538341
 20
24.36886494462237
 11
145.939690153834
 21
24.40835694462236
 72
     1
 10
145.939690153834
 20
24.40835694462236
 11
145.9312941538341
 21
24.44909294462218
 72
     1
 10
145.9312941538341
 20
24.44909294462218
 11
145.9253851538341
 21
24.49169494462228
 72
     1
 10
145.9253851538341
 20
24.49169494462228
 11
145.9247641538341
 21
24.50071294462236
 72
     1
 10
145.9247641538341
 20
24.50071294462236
 11
145.9210321538341
 21
24.5588639446222
 72
     1
 10
145.9210321538341
 20
24.5588639446222
 11
145.9173001538341
 21
24.61545894462223
 72
     1
 10
145.9173001538341
 20
24.61545894462223
 11
145.913880153834
 21
24.67049994462218
 72
     1
 10
145.913880153834
 20
24.67049994462218
 11
145.9104591538341
 21
24.72398594462219
 72
     1
 10
145.9104591538341
 20
24.72398594462219
 11
145.9073501538341
 21
24.77622694462218
 72
     1
 10
145.9073501538341
 20
24.77622694462218
 11
145.904240153834
 21
24.82660394462232
 72
     1
 10
145.904240153834
 20
24.82660394462232
 11
145.901130153834
 21
24.8757359446223
 72
     1
 10
145.901130153834
 20
24.8757359446223
 11
145.898643153834
 21
24.92331294462235
 72
     1
 10
145.898643153834
 20
24.92331294462235
 11
145.8958441538341
 21
24.96933594462234
 72
     1
 10
145.8958441538341
 20
24.96933594462234
 11
145.8933561538341
 21
25.01380394462228
 72
     1
 10
145.8933561538341
 20
25.01380394462228
 11
145.891179153834
 21
25.0567169446224
 72
     1
 10
145.891179153834
 20
25.0567169446224
 11
145.8890031538341
 21
25.09807494462234
 72
     1
 10
145.8890031538341
 20
25.09807494462234
 11
145.887137153834
 21
25.13818894462235
 72
     1
 10
145.887137153834
 20
25.13818894462235
 11
145.8852711538341
 21
25.17643794462242
 72
     1
 10
145.8852711538341
 20
25.17643794462242
 11
145.8834051538341
 21
25.21344294462233
 72
     1
 10
145.8834051538341
 20
25.21344294462233
 11
145.882161153834
 21
25.24889294462218
 72
     1
 10
145.882161153834
 20
25.24889294462218
 11
145.8806071538341
 21
25.28278794462233
 72
     1
 10
145.8806071538341
 20
25.28278794462233
 11
145.8793631538341
 21
25.3154389446222
 72
     1
 10
145.8793631538341
 20
25.3154389446222
 11
145.8784301538341
 21
25.34622394462235
 72
     1
 10
145.8784301538341
 20
25.34622394462235
 11
145.8774971538341
 21
25.37576594462223
 72
     1
 10
145.8774971538341
 20
25.37576594462223
 11
145.876564153834
 21
25.40344194462238
 72
     1
 10
145.876564153834
 20
25.40344194462238
 11
145.8759421538341
 21
25.42987394462227
 72
     1
 10
145.8759421538341
 20
25.42987394462227
 11
145.871900153834
 21
25.47247594462237
 72
     1
 10
145.871900153834
 20
25.47247594462237
 11
145.865369153834
 21
25.52502794462236
 72
     1
 10
145.865369153834
 20
25.52502794462236
 11
145.8579061538341
 21
25.57416094462235
 72
     1
 10
145.8579061538341
 20
25.57416094462235
 11
145.8495101538341
 21
25.62018294462234
 72
     1
 10
145.8495101538341
 20
25.62018294462234
 11
145.840181153834
 21
25.66278494462233
 72
     1
 10
145.840181153834
 20
25.66278494462233
 11
145.8296091538341
 21
25.70196694462242
 72
     1
 10
145.8296091538341
 20
25.70196694462242
 11
145.818103153834
 21
25.73772794462218
 72
     1
 10
145.818103153834
 20
25.73772794462218
 11
145.8056641538341
 21
25.77006794462238
 72
     1
 10
145.8056641538341
 20
25.77006794462238
 11
145.791982153834
 21
25.79929894462236
 72
     1
 10
145.791982153834
 20
25.79929894462236
 11
145.7773671538341
 21
25.82479794462233
 72
     1
 10
145.7773671538341
 20
25.82479794462233
 11
145.7643061538341
 21
25.84469894462222
 72
     1
 10
145.7643061538341
 20
25.84469894462222
 11
145.746270153834
 21
25.86864394462236
 72
     1
 10
145.746270153834
 20
25.86864394462236
 11
145.7257471538341
 21
25.89352094462219
 72
     1
 10
145.7257471538341
 20
25.89352094462219
 11
145.702735153834
 21
25.91901994462228
 72
     1
 10
145.702735153834
 20
25.91901994462228
 11
145.6769251538341
 21
25.94545194462239
 72
     1
 10
145.6769251538341
 20
25.94545194462239
 11
145.6486281538341
 21
25.97250494462219
 72
     1
 10
145.6486281538341
 20
25.97250494462219
 11
145.617531153834
 21
26.00018094462234
 72
     1
 10
145.617531153834
 20
26.00018094462234
 11
145.5839471538341
 21
26.0287899446222
 72
     1
 10
145.5839471538341
 20
26.0287899446222
 11
145.5475641538341
 21
26.05833094462218
 72
     1
 10
145.5475641538341
 20
26.05833094462218
 11
145.508694153834
 21
26.08818394462218
 97
        0
 92
       16
 93
        1
 72
     2
 10
143.9999981538341
 20
25.99999994462223
 40
3.5
 50
0.0
 51
360.0
 73
     1
 97
        0
 92
        1
 93
        1
 72
     2
 10
143.9999981538341
 20
25.99999994462223
 40
4.0
 50
0.0
 51
360.0
 73
     1
 97
        0
 75
     0
 76
     1
 47
0.5016490000000001
 98
        2
 10
14.36045815383403
 20
14.55321394462237
 10
89.17606215383404
 20
16.05816194462227
  0
LWPOLYLINE
  5
1BA
330
1B6
100
AcDbEntity
  8
TOTO
100
AcDbPolyline
 90
       27
 70
     0
 43
0.0
 10
11.65816215383411
 20
6.483784944622357
 10
11.66233415383402
 20
25.64512694462234
 10
9.103697153834033
 20
25.64512694462234
 42
0.414152
 10
3.387006153834121
 20
19.92963894462218
 10
3.387006153834121
 20
19.92963894462218
 10
3.386681153834118
 20
18.38770694462221
 10
-0.0000018461658726
 20
18.38770694462221
 10
0.0002181538341262
 20
29.03248394462218
 10
30.19520915383411
 20
29.03248394462218
 10
30.19296815383404
 20
18.38770694462221
 10
26.80561115383402
 20
18.38770694462221
 10
26.80593515383411
 20
19.92723194462234
 10
26.80593515383411
 20
19.92723194462234
 42
0.4142750000000003
 10
21.08924415383403
 20
25.64512694462234
 10
21.08924415383403
 20
25.64512694462234
 10
18.53316815383412
 20
25.64512694462234
 10
18.52899615383412
 20
6.484711944622174
 10
18.52899615383412
 20
6.484711944622174
 42
0.4142770000000002
 10
20.65837215383412
 20
4.354871944622344
 10
20.65837215383412
 20
4.354871944622344
 10
24.28661915383412
 20
4.354871944622344
 10
24.28588115383411
 20
0.9675149446222803
 10
5.898874153834128
 20
0.9675149446222803
 10
5.899612153834112
 20
4.354871944622344
 10
9.528785153834023
 20
4.354871944622344
 10
9.528785153834023
 20
4.354871944622344
 42
0.4142140000000003
 10
11.65816215383411
 20
6.484248944622322
  0
CIRCLE
  5
1BB
330
1B6
100
AcDbEntity
  8
TOTO
100
AcDbCircle
 10
143.9999981538341
 20
25.99999994462223
 30
0.0
 40
3.5
  0
CIRCLE
  5
1BC
330
1B6
100
AcDbEntity
  8
TOTO
100
AcDbCircle
 10
143.9999981538341
 20
25.99999994462223
 30
0.0
 40
4.0
  0
LWPOLYLINE
  5
1BD
330
1B6
100
AcDbEntity
  8
TOTO
100
AcDbPolyline
 90
        6
 70
     0
 43
0.0
 10
116.2931711538341
 20
8.653999944622341
 42
0.7116310000000004
 10
131.0925851538341
 20
8.65244194462241
 42
0.168805
 10
131.0857981538341
 20
21.35889694462241
 42
0.7106690000000003
 10
116.302632153834
 20
21.36045294462235
 10
116.302632153834
 20
21.36045294462235
 42
0.168805
 10
116.2931711538341
 20
8.653999944622341
  0
LWPOLYLINE
  5
1BE
330
1B6
100
AcDbEntity
  8
TOTO
100
AcDbPolyline
 90
        7
 70
     1
 43
0.0
 10
110.310588153834
 20
23.73162294462236
 10
110.310588153834
 20
23.73162294462236
 42
0.331883
 10
110.224955153834
 20
6.373072944622205
 42
0.4729860000000001
 10
137.156622153834
 20
6.365232944622332
 10
137.156622153834
 20
6.365232944622332
 42
0.331879
 10
137.082197153834
 20
23.72368594462227
 10
137.082197153834
 20
23.72368594462227
 42
0.468582
  0
LWPOLYLINE
  5
1BF
330
1B6
100
AcDbEntity
  8
TOTO
100
AcDbPolyline
 90
        6
 70
     0
 43
0.0
 10
43.89490515383411
 20
8.653999944622341
 42
0.7116310000000004
 10
58.69431915383414
 20
8.65244194462241
 42
0.168805
 10
58.68753215383399
 20
21.35889694462241
 42
0.7106690000000003
 10
43.90436615383413
 20
21.36045294462235
 10
43.90436615383413
 20
21.36045294462235
 42
0.168805
 10
43.89490515383411
 20
8.653999944622341
  0
LWPOLYLINE
  5
1C0
330
1B6
100
AcDbEntity
  8
TOTO
100
AcDbPolyline
 90
       27
 70
     0
 43
0.0
 10
84.05777415383402
 20
6.483784944622357
 10
84.06194615383412
 20
25.64512694462234
 10
81.50330915383412
 20
25.64512694462234
 42
0.414152
 10
75.78661815383412
 20
19.92963894462218
 10
75.78661815383412
 20
19.92963894462218
 10
75.78629415383403
 20
18.38770694462221
 10
72.39961015383411
 20
18.38770694462221
 10
72.39983115383409
 20
29.03248394462218
 10
102.5948211538341
 20
29.03248394462218
 10
102.5925811538341
 20
18.38770694462221
 10
99.20522315383406
 20
18.38770694462221
 10
99.20554715383413
 20
19.92723194462234
 10
99.20554715383413
 20
19.92723194462234
 42
0.4142750000000003
 10
93.48885615383403
 20
25.64512694462234
 10
93.48885615383403
 20
25.64512694462234
 10
90.93278015383408
 20
25.64512694462234
 10
90.92860815383414
 20
6.484711944622174
 10
90.92860815383414
 20
6.484711944622174
 42
0.4142770000000002
 10
93.05798515383413
 20
4.354871944622344
 10
93.05798515383413
 20
4.354871944622344
 10
96.68623115383406
 20
4.354871944622344
 10
96.68549315383414
 20
0.9675149446222803
 10
78.29848715383412
 20
0.9675149446222803
 10
78.29922415383411
 20
4.354871944622344
 10
81.92839815383406
 20
4.354871944622344
 10
81.92839815383406
 20
4.354871944622344
 42
0.4142140000000003
 10
84.05777415383402
 20
6.484248944622322
  0
LWPOLYLINE
  5
1C1
330
1B6
100
AcDbEntity
  8
TOTO
100
AcDbPolyline
 90
       67
 70
     1
 43
0.0
 10
144.6053441538341
 20
27.94836994462218
 10
144.628044153834
 20
27.94805894462217
 10
144.6746891538341
 20
27.94650394462223
 10
144.719779153834
 20
27.94308394462234
 10
144.763935153834
 20
27.93810794462217
 10
144.806537153834
 20
27.9312669446224
 10
144.848207153834
 20
27.92255994462232
 10
144.8886321538341
 20
27.91260894462232
 10
144.9275021538341
 20
27.90048094462235
 10
144.9654401538341
 20
27.88679894462234
 10
145.0021341538341
 20
27.87156194462227
 10
145.037584153834
 20
27.85445894462236
 10
145.0717901538341
 20
27.83580094462218
 10
145.1044411538341
 20
27.81527694462238
 10
145.136159153834
 20
27.7931989446223
 10
145.166634153834
 20
27.76925494462239
 10
145.1921331538341
 20
27.74624294462239
 10
145.2204301538341
 20
27.7176349446222
 10
145.2462401538341
 20
27.68747094462219
 10
145.269874153834
 20
27.65606394462236
 10
145.291330153834
 20
27.62310194462236
 10
145.310610153834
 20
27.58889594462222
 10
145.327402153834
 20
27.55313494462223
 10
145.342017153834
 20
27.51581894462231
 10
145.3544561538341
 20
27.47725994462234
 10
145.364407153834
 20
27.43745594462234
 10
145.3724921538341
 20
27.39578694462227
 10
145.3780891538341
 20
27.35318494462218
 10
145.3815101538341
 20
27.30871694462234
 10
145.382443153834
 20
27.26300594462236
 10
145.382132153834
 20
27.22973194462224
 10
145.3808881538341
 20
27.18184394462218
 10
145.3780891538341
 20
27.13550994462218
 10
145.373736153834
 20
27.09073194462234
 10
145.368449153834
 20
27.04719694462232
 10
145.3619191538341
 20
27.00490594462223
 10
145.3538341538341
 20
26.96447994462233
 10
145.3448161538341
 20
26.92498794462233
 10
145.334243153834
 20
26.88736094462218
 10
145.3224271538341
 20
26.85097794462218
 10
145.3093661538341
 20
26.81583894462232
 10
145.295062153834
 20
26.7825659446222
 10
145.2795141538341
 20
26.75022594462223
 10
145.262410153834
 20
26.71975194462231
 10
145.2443751538341
 20
26.69052094462232
 10
145.2247841538341
 20
26.66253394462251
 10
145.2042601538341
 20
26.63610194462239
 10
145.1821821538341
 20
26.61122494462233
 10
145.1588601538341
 20
26.58790294462221
 10
145.1342931538341
 20
26.56551394462224
 10
145.1084831538341
 20
26.54498994462233
 10
145.0811191538341
 20
26.52570994462235
 10
145.052821153834
 20
26.50798494462219
 10
145.0229681538341
 20
26.4915039446223
 10
144.9921831538341
 20
26.47657794462236
 10
144.9598431538341
 20
26.46289494462223
 10
144.9262591538341
 20
26.45076794462238
 10
144.8914311538341
 20
26.44019494462236
 10
144.8553591538341
 20
26.43086594462227
 10
144.8177321538341
 20
26.42309194462234
 10
144.779173153834
 20
26.41656194462234
 10
144.7390581538341
 20
26.41158594462218
 10
144.6980111538341
 20
26.40816594462228
 10
144.655409153834
 20
26.4059889446222
 10
144.611563153834
 20
26.40505594462217
 10
143.1005901538341
 20
26.40505594462217
 10
143.1005901538341
 20
27.94836994462218
  0
LWPOLYLINE
  5
1C2
330
1B6
100
AcDbEntity
  8
TOTO
100
AcDbPolyline
 90
      207
 70
     1
 43
0.0
 10
145.508694153834
 20
26.08818394462218
 10
145.467336153834
 20
26.11896894462233
 10
145.4231791538341
 20
26.15068794462218
 10
145.3765341538341
 20
26.18302794462227
 10
145.4038991538341
 20
26.20292994462238
 10
145.4418371538341
 20
26.23184894462236
 10
145.4782191538341
 20
26.26076894462221
 10
145.5133581538341
 20
26.29031094462232
 10
145.547253153834
 20
26.32016294462232
 10
145.5799051538341
 20
26.35032694462234
 10
145.611001153834
 20
26.38080094462236
 10
145.640854153834
 20
26.41189694462218
 10
145.6694621538341
 20
26.44330494462235
 10
145.6968271538341
 20
26.47502294462219
 10
145.722637153834
 20
26.50705194462239
 10
145.7472031538341
 20
26.53970394462227
 10
145.7705251538341
 20
26.57235494462236
 10
145.7922931538341
 20
26.60562794462236
 10
145.812817153834
 20
26.63921194462227
 10
145.8320961538341
 20
26.6734179446222
 10
145.850132153834
 20
26.70762394462224
 10
145.8666131538341
 20
26.7424519446222
 10
145.8818511538341
 20
26.77759094462226
 10
145.8958441538341
 20
26.81304094462234
 10
145.908593153834
 20
26.84911294462233
 10
145.9197881538341
 20
26.88518394462232
 10
145.9297391538341
 20
26.92187794462233
 10
145.938446153834
 20
26.95888294462235
 10
145.945598153834
 20
26.99650994462218
 10
145.9518171538341
 20
27.03413594462222
 10
145.9561711538341
 20
27.07238494462217
 10
145.9595911538341
 20
27.11094394462236
 10
145.9617681538341
 20
27.14981494462233
 10
145.9623901538341
 20
27.1889959446222
 10
145.962079153834
 20
27.22568994462221
 10
145.960835153834
 20
27.27637694462237
 10
145.958659153834
 20
27.32613094462237
 10
145.9555491538341
 20
27.37433094462221
 10
145.951506153834
 20
27.42190794462227
 10
145.9462201538341
 20
27.46793094462214
 10
145.9400011538341
 20
27.51333094462234
 10
145.932849153834
 20
27.55717694462237
 10
145.9247641538341
 20
27.60008994462237
 10
145.9157461538341
 20
27.6417599446222
 10
145.9057951538341
 20
27.68249594462236
 10
145.8946001538341
 20
27.72198794462235
 10
145.882472153834
 20
27.7602369446222
 10
145.8694121538341
 20
27.79755194462234
 10
145.8554191538341
 20
27.83393494462222
 10
145.8404921538341
 20
27.86876294462218
 10
145.8243221538341
 20
27.90265794462232
 10
145.8075301538341
 20
27.9356199446222
 10
145.789494153834
 20
27.96733894462238
 10
145.7705251538341
 20
27.99781294462241
 10
145.750624153834
 20
28.02735494462218
 10
145.729478153834
 20
28.05565194462235
 10
145.707711153834
 20
28.08270594462237
 10
145.684699153834
 20
28.10882694462236
 10
145.6641761538341
 20
28.13028394462219
 10
145.639921153834
 20
28.1532949446223
 10
145.614733153834
 20
28.1756849446224
 10
145.5886121538341
 20
28.19714094462222
 10
145.561247153834
 20
28.21766494462235
 10
145.532638153834
 20
28.23756594462236
 10
145.503097153834
 20
28.25653494462221
 10
145.472622153834
 20
28.27457094462238
 10
145.440904153834
 20
28.29198494462231
 10
145.408253153834
 20
28.30846594462218
 10
145.374357153834
 20
28.32401394462237
 10
145.3395301538341
 20
28.33894094462221
 10
145.3034581538341
 20
28.35262294462222
 10
145.2664531538341
 20
28.36568294462233
 10
145.2282041538341
 20
28.3781219446222
 10
145.1890231538341
 20
28.38931694462223
 10
145.148598153834
 20
28.39988894462237
 10
145.107240153834
 20
28.40952894462214
 10
145.064948153834
 20
28.41854694462222
 10
145.0211031538341
 20
28.42632094462237
 10
144.976635153834
 20
28.43378494462217
 10
144.930923153834
 20
28.44000394462227
 10
144.8842781538341
 20
28.44528994462223
 10
144.8363901538341
 20
28.44995494462239
 10
144.787258153834
 20
28.45399694462241
 10
144.737193153834
 20
28.45679594462217
 10
144.686194153834
 20
28.45897294462236
 10
144.6339521538341
 20
28.46021594462218
 10
144.580778153834
 20
28.46052694462219
 10
142.5209531538341
 20
28.46052694462219
 10
142.5209531538341
 20
23.96087994462232
 10
143.1005901538341
 20
23.96087994462232
 10
143.1005901538341
 20
25.89289894462218
 10
144.611563153834
 20
25.89289894462218
 10
144.6457691538341
 20
25.89227694462238
 10
144.686194153834
 20
25.8900999446222
 10
144.7256871538341
 20
25.88636794462217
 10
144.7636241538341
 20
25.88108194462233
 10
144.800318153834
 20
25.87424094462233
 10
144.835768153834
 20
25.86553394462237
 10
144.8699741538341
 20
25.85558294462225
 10
144.9029361538341
 20
25.84376594462219
 10
144.9346551538341
 20
25.83039494462218
 10
144.9648181538341
 20
25.81515794462224
 10
144.9940491538341
 20
25.79867694462222
 10
145.021724153834
 20
25.78032994462251
 10
145.0481561538341
 20
25.76073894462217
 10
145.0733441538341
 20
25.73928294462223
 10
145.097289153834
 20
25.71627094462235
 10
145.119989153834
 20
25.69139394462217
 10
145.1414461538341
 20
25.6652729446223
 10
145.161347153834
 20
25.63728594462236
 10
145.180316153834
 20
25.60774494462236
 10
145.197730153834
 20
25.57664794462232
 10
145.2142111538341
 20
25.54399694462233
 10
145.2291371538341
 20
25.50979094462229
 10
145.242820153834
 20
25.47371894462219
 10
145.255258153834
 20
25.43640394462227
 10
145.2664531538341
 20
25.39722194462218
 10
145.2760931538341
 20
25.35648594462236
 10
145.2848001538341
 20
25.31388394462237
 10
145.2919521538341
 20
25.27003794462234
 10
145.2981711538341
 20
25.22432594462236
 10
145.3028361538341
 20
25.17737094462233
 10
145.306256153834
 20
25.12854994462213
 10
145.308433153834
 20
25.07817294462233
 10
145.3071891538341
 20
25.05018694462228
 10
145.3047021538341
 20
24.99701194462227
 10
145.3025251538341
 20
24.9453919446222
 10
145.300970153834
 20
24.89532694462218
 10
145.300037153834
 20
24.84681594462222
 10
145.2997261538341
 20
24.7998609446222
 10
145.2997261538341
 20
24.75414894462221
 10
145.300037153834
 20
24.70999194462218
 10
145.301281153834
 20
24.66738994462218
 10
145.3025251538341
 20
24.62634294462236
 10
145.3047021538341
 20
24.58684994462226
 10
145.3071891538341
 20
24.54860194462219
 10
145.3099881538341
 20
24.5122189446223
 10
145.3137201538341
 20
24.47707994462234
 10
145.3174511538341
 20
24.44349594462221
 10
145.3221161538341
 20
24.41115594462235
 10
145.3270911538341
 20
24.38068094462221
 10
145.3289571538341
 20
24.36886494462237
 10
145.3367311538341
 20
24.32595194462237
 10
145.3451271538341
 20
24.28366094462229
 10
145.3544561538341
 20
24.24168094462231
 10
145.364096153834
 20
24.20001094462236
 10
145.3746681538341
 20
24.15896394462231
 10
145.386174153834
 20
24.11853894462217
 10
145.397991153834
 20
24.07842494462227
 10
145.410740153834
 20
24.03862094462238
 10
145.424112153834
 20
23.99943994462228
 10
145.438105153834
 20
23.96087994462232
 10
146.1349751538341
 20
23.96087994462232
 10
146.1349751538341
 20
24.10889894462218
 10
146.1066771538341
 20
24.13315394462232
 10
146.076203153834
 20
24.16238494462231
 10
146.0485271538341
 20
24.19316994462235
 10
146.0236501538341
 20
24.22519894462221
 10
146.0015721538341
 20
24.25909494462235
 10
145.9819811538341
 20
24.2942329446223
 10
145.9651891538341
 20
24.33061594462219
 10
145.9511951538341
 20
24.36886494462237
 10
145.939690153834
 20
24.40835694462236
 10
145.9312941538341
 20
24.44909294462218
 10
145.9253851538341
 20
24.49169494462228
 10
145.9247641538341
 20
24.50071294462236
 10
145.9210321538341
 20
24.5588639446222
 10
145.9173001538341
 20
24.61545894462223
 10
145.913880153834
 20
24.67049994462218
 10
145.9104591538341
 20
24.72398594462219
 10
145.9073501538341
 20
24.77622694462218
 10
145.904240153834
 20
24.82660394462232
 10
145.901130153834
 20
24.8757359446223
 10
145.898643153834
 20
24.92331294462235
 10
145.8958441538341
 20
24.96933594462234
 10
145.8933561538341
 20
25.01380394462228
 10
145.891179153834
 20
25.0567169446224
 10
145.8890031538341
 20
25.09807494462234
 10
145.887137153834
 20
25.13818894462235
 10
145.8852711538341
 20
25.17643794462242
 10
145.8834051538341
 20
25.21344294462233
 10
145.882161153834
 20
25.24889294462218
 10
145.8806071538341
 20
25.28278794462233
 10
145.8793631538341
 20
25.3154389446222
 10
145.8784301538341
 20
25.34622394462235
 10
145.8774971538341
 20
25.37576594462223
 10
145.876564153834
 20
25.40344194462238
 10
145.8759421538341
 20
25.42987394462227
 10
145.871900153834
 20
25.47247594462237
 10
145.865369153834
 20
25.52502794462236
 10
145.8579061538341
 20
25.57416094462235
 10
145.8495101538341
 20
25.62018294462234
 10
145.840181153834
 20
25.66278494462233
 10
145.8296091538341
 20
25.70196694462242
 10
145.818103153834
 20
25.73772794462218
 10
145.8056641538341
 20
25.77006794462238
 10
145.791982153834
 20
25.79929894462236
 10
145.7773671538341
 20
25.82479794462233
 10
145.7643061538341
 20
25.84469894462222
 10
145.746270153834
 20
25.86864394462236
 10
145.7257471538341
 20
25.89352094462219
 10
145.702735153834
 20
25.91901994462228
 10
145.6769251538341
 20
25.94545194462239
 10
145.6486281538341
 20
25.97250494462219
 10
145.617531153834
 20
26.00018094462234
 10
145.5839471538341
 20
26.0287899446222
 10
145.5475641538341
 20
26.05833094462218
  0
ENDBLK
  5
1C3
330
1B6
100
AcDbEntity
  8
0
100
AcDbBlockEnd
  0
BLOCK
  5
211
330
1D6
100
AcDbEntity
  8
0
100
AcDbBlockBegin
  2
A$C394F5FD0
 70
     0
 10
0.0
 20
0.0
 30
0.0
  3
A$C394F5FD0
  1

  0
LINE
  5
1D7
330
1D6
100
AcDbEntity
  8
LINE CENTER
 62
     5
100
AcDbLine
 10
0.0
 20
353.9999999999998
 30
0.0
 11
0.0
 21
344.0
 31
0.0
  0
LINE
  5
1D8
330
1D6
100
AcDbEntity
  8
LINE CENTER
 62
     5
100
AcDbLine
 10
0.0
 20
10.00000000000011
 30
0.0
 11
0.0
 21
0.0
 31
0.0
  0
ARC
  5
1D9
330
1D6
100
AcDbEntity
  8
LINE TEMPLATE
 62
     5
100
AcDbCircle
 10
-260.9999999999999
 20
98.82617400852549
 30
0.0
 40
39.99999999999995
100
AcDbArc
 50
174.2366455605082
 51
248.8079105709819
  0
ARC
  5
1DA
330
1D6
100
AcDbEntity
  8
LINE TEMPLATE
 62
     5
100
AcDbCircle
 10
-0.0000000000000284
 20
772.0000000000003
 30
0.0
 40
762.0000000000003
100
AcDbArc
 50
248.8079105709819
 51
291.192089429018
  0
ARC
  5
1DB
330
1D6
100
AcDbEntity
  8
LINE TEMPLATE
 62
     5
100
AcDbCircle
 10
261.0000000000006
 20
98.82617400852641
 30
0.0
 40
40.00000000000059
100
AcDbArc
 50
291.1920894290162
 51
5.76335443949058
  0
ARC
  5
1DC
330
1D6
100
AcDbEntity
  8
LINE TEMPLATE
 62
     5
100
AcDbCircle
 10
-3666.048465597843
 20
-297.5314282216057
 30
0.0
 40
3987.0
100
AcDbArc
 50
5.763354439491793
 51
9.013978604527313
  0
ARC
  5
1DD
330
1D6
100
AcDbEntity
  8
LINE TEMPLATE
 62
     5
100
AcDbCircle
 10
251.9596614652969
 20
324.0000000000001
 30
0.0
 40
19.99999999999992
100
AcDbArc
 50
9.013978604527313
 51
90.0
  0
LINE
  5
1DE
330
1D6
100
AcDbEntity
  8
LINE TEMPLATE
 62
     5
100
AcDbLine
 10
251.9596614652969
 20
344.0
 30
0.0
 11
-251.9596614652969
 21
344.0
 31
0.0
  0
ARC
  5
1DF
330
1D6
100
AcDbEntity
  8
LINE TEMPLATE
 62
     5
100
AcDbCircle
 10
-251.9596614652968
 20
323.9999999999998
 30
0.0
 40
20.00000000000023
100
AcDbArc
 50
90.0
 51
170.9860213954726
  0
ARC
  5
1E0
330
1D6
100
AcDbEntity
  8
LINE TEMPLATE
 62
     5
100
AcDbCircle
 10
3666.048465598177
 20
-297.5314282216213
 30
0.0
 40
3987.000000000332
100
AcDbArc
 50
170.9860213954731
 51
174.2366455605085
  0
INSERT
  5
1E1
330
1D6
100
AcDbEntity
  8
TOTO
 62
     5
100
AcDbBlockReference
  2
A$C74DC1801
 10
-285.3805218857715
 20
395.1260796170113
 30
0.0
  0
TEXT
  5
1E2
330
1D6
100
AcDbEntity
  8
TEXT
 62
     5
100
AcDbText
 10
-77.25280497266997
 20
241.8031135772384
 30
0.0
 40
6.0
  1
Undercounter Lavatories:  LT967
  7
DUTCH
100
AcDbText
  0
TEXT
  5
1E3
330
1D6
100
AcDbEntity
  8
TEXT
 62
     5
100
AcDbText
 10
-68.87936796575491
 20
128.4674575147531
 30
0.0
 40
4.0
  1
Press down firmly on fixture to spread adhesive.
  7
STYLE4
100
AcDbText
  0
TEXT
  5
1E4
330
1D6
100
AcDbEntity
  8
TEXT
 62
     5
100
AcDbText
 10
-68.87936796575491
 20
95.82876768211622
 30
0.0
 40
4.0
  1
DONE AS SOON AS FIXTURE HAS BEEN PLACED.
  7
STYLE4
100
AcDbText
  0
TEXT
  5
1E5
330
1D6
100
AcDbEntity
  8
TEXT
 62
     5
100
AcDbText
 10
-68.07275107656483
 20
144.8778599612976
 30
0.0
 40
4.0
  1
Carefully place fixture in counter or slab using the pencil line for 
  7
STYLE4
100
AcDbText
  0
TEXT
  5
1E6
330
1D6
100
AcDbEntity
  8
TEXT
 62
     5
100
AcDbText
 10
-68.87936796575491
 20
117.282241152237
 30
0.0
 40
4.0
  1
Immediately remove surplus adhesive with damp cloth or sponge and 
  7
STYLE4
100
AcDbText
  0
TEXT
  5
1E7
330
1D6
100
AcDbEntity
  8
TEXT
 62
     5
100
AcDbText
 10
-68.87936796575491
 20
102.7599858901738
 30
0.0
 40
4.0
  1
Use a damp cloth to clean fixture and countertop. THIS SHOULD BE
  7
STYLE4
100
AcDbText
  0
TEXT
  5
1E8
330
1D6
100
AcDbEntity
  8
TEXT
 62
     5
100
AcDbText
 10
-68.87936796575491
 20
87.25671291693187
 30
0.0
 40
4.0
  1
If fixture must be removed, heat thin knife, insert into sealant between
  7
STYLE4
100
AcDbText
  0
TEXT
  5
1E9
330
1D6
100
AcDbEntity
  8
TEXT
 62
     5
100
AcDbText
 10
-68.87936796575491
 20
81.17455342066898
 30
0.0
 40
4.0
  1
fixture and countertop and begin cutting through sealant. Keep fixture 
  7
STYLE4
100
AcDbText
  0
TEXT
  5
1EA
330
1D6
100
AcDbEntity
  8
TEXT
 62
     5
100
AcDbText
 10
-68.87936796575491
 20
74.66786456850861
 30
0.0
 40
4.0
  1
raised to prevent resealing. Reheat knife as often as necessary.
  7
STYLE4
100
AcDbText
  0
LINE
  5
1EB
330
1D6
100
AcDbEntity
  8
0
 62
     5
100
AcDbLine
 10
-68.18044079772199
 20
217.5550499315572
 30
0.0
 11
96.71463414263186
 21
217.5550499315572
 31
0.0
  0
TEXT
  5
1EC
330
1D6
100
AcDbEntity
  8
TEXT
 62
     5
100
AcDbText
 10
-68.42644643486096
 20
209.8764102350015
 30
0.0
 40
4.0
  1
Cut out template with scissors, position the template carefully on the
  7
STYLE4
100
AcDbText
  0
TEXT
  5
1ED
330
1D6
100
AcDbEntity
  8
TEXT
 62
     5
100
AcDbText
 10
-68.43831409191989
 20
203.8650381434087
 30
0.0
 40
4.0
  1
countertop, and trace (with a soft lead pencil) on to countertop.
  7
STYLE4
100
AcDbText
  0
TEXT
  5
1EE
330
1D6
100
AcDbEntity
  8
TEXT
 62
     5
100
AcDbText
 10
-68.07275107656483
 20
195.0397832851982
 30
0.0
 40
4.0
  1
Cut the opening in countertop, carefully following pencil line you traced.
  7
STYLE4
100
AcDbText
  0
TEXT
  5
1EF
330
1D6
100
AcDbEntity
  8
TEXT
 62
     5
100
AcDbText
 10
-68.07275107656483
 20
183.3824345201476
 30
0.0
 40
4.0
  1
Place lavatory in countertop and trace outside edge with soft pencil.
  7
STYLE4
100
AcDbText
  0
TEXT
  5
1F0
330
1D6
100
AcDbEntity
  8
TEXT
 62
     5
100
AcDbText
 10
-68.07275107656483
 20
173.1380998080003
 30
0.0
 40
4.0
  1
Assembly fittings on lavatory following the manufacturer`s instructions.
  7
STYLE4
100
AcDbText
  0
TEXT
  5
1F1
330
1D6
100
AcDbEntity
  8
TEXT
 62
     5
100
AcDbText
 10
-68.07275107656483
 20
162.1872557798808
 30
0.0
 40
4.0
  1
Quickly apply two ribbons of adhesive between the opening and the
  7
STYLE4
100
AcDbText
  0
TEXT
  5
1F2
330
1D6
100
AcDbEntity
  8
TEXT
 62
     5
100
AcDbText
 10
-68.07275107656483
 20
156.036757403911
 30
0.0
 40
4.0
  1
pencil line and spread slightly with a flat knife or similar object.
  7
STYLE4
100
AcDbText
  0
TEXT
  5
1F3
330
1D6
100
AcDbEntity
  8
TEXT
 62
     5
100
AcDbText
 10
-76.34266826813586
 20
220.3273161083866
 30
0.0
 40
5.0
  1
    Instructions for Installing Undercounter Lavatories
 41
0.95
  7
SWISS
100
AcDbText
  0
TEXT
  5
1F4
330
1D6
100
AcDbEntity
  8
TEXT
 62
     5
100
AcDbText
 10
-68.87936796575491
 20
111.200081655974
 30
0.0
 40
4.0
  1
quickly fill in any gaps where necessary.
  7
STYLE4
100
AcDbText
  0
TEXT
  5
1F5
330
1D6
100
AcDbEntity
  8
TEXT
 62
     5
100
AcDbText
 10
-67.84596471472672
 20
139.2322208347471
 30
0.0
 40
4.0
  1
proper positioning.
  7
STYLE4
100
AcDbText
  0
TEXT
  5
1F6
330
1D6
100
AcDbEntity
  8
TEXT
 62
     5
100
AcDbText
 10
-77.7551116665338
 20
128.8486281311841
 30
0.0
 40
4.0
  1
7.
  7
STYLE4
100
AcDbText
  0
TEXT
  5
1F7
330
1D6
100
AcDbEntity
  8
TEXT
 62
     5
100
AcDbText
 10
-80.51605591304086
 20
87.37613725710003
 30
0.0
 40
4.0
  1
10.
  7
STYLE4
100
AcDbText
  0
TEXT
  5
1F8
330
1D6
100
AcDbEntity
  8
TEXT
 62
     5
100
AcDbText
 10
-77.7551116665338
 20
102.0223944551327
 30
0.0
 40
4.0
  1
9.
  7
STYLE4
100
AcDbText
  0
TEXT
  5
1F9
330
1D6
100
AcDbEntity
  8
TEXT
 62
     5
100
AcDbText
 10
-77.7551116665338
 20
117.6634117686677
 30
0.0
 40
4.0
  1
8.
  7
STYLE4
100
AcDbText
  0
TEXT
  5
1FA
330
1D6
100
AcDbEntity
  8
TEXT
 62
     5
100
AcDbText
 10
-77.7551116665338
 20
162.2834075037568
 30
0.0
 40
4.0
  1
5.
  7
STYLE4
100
AcDbText
  0
TEXT
  5
1FB
330
1D6
100
AcDbEntity
  8
TEXT
 62
     5
100
AcDbText
 10
-77.7551116665338
 20
145.1708636234532
 30
0.0
 40
4.0
  1
6.
  7
STYLE4
100
AcDbText
  0
TEXT
  5
1FC
330
1D6
100
AcDbEntity
  8
TEXT
 62
     5
100
AcDbText
 10
-77.7551116665338
 20
183.4420653157737
 30
0.0
 40
4.0
  1
3.
  7
STYLE4
100
AcDbText
  0
TEXT
  5
1FD
330
1D6
100
AcDbEntity
  8
TEXT
 62
     5
100
AcDbText
 10
-77.7551116665338
 20
172.9781090484275
 30
0.0
 40
4.0
  1
4.
  7
STYLE4
100
AcDbText
  0
TEXT
  5
1FE
330
1D6
100
AcDbEntity
  8
TEXT
 62
     5
100
AcDbText
 10
-77.7551116665338
 20
194.9879087447474
 30
0.0
 40
4.0
  1
2.
  7
STYLE4
100
AcDbText
  0
TEXT
  5
1FF
330
1D6
100
AcDbEntity
  8
TEXT
 62
     5
100
AcDbText
 10
-77.7551116665338
 20
209.7087352848892
 30
0.0
 40
4.0
  1
1.
  7
STYLE4
100
AcDbText
  0
TEXT
  5
200
330
1D6
100
AcDbEntity
  8
TEXT
 62
     5
100
AcDbText
 10
-76.95879409730991
 20
251.3499945246491
 30
0.0
 40
9.0
  1
TEMPLATE
  7
SWISS
100
AcDbText
  0
CIRCLE
  5
201
330
1D6
100
AcDbEntity
  8
LINE HOLE BRACKET
 62
     5
100
AcDbCircle
 10
-325.0
 20
317.5
 30
0.0
 40
3.000000000000003
  0
LINE
  5
202
330
1D6
100
AcDbEntity
  8
LINE CENTER
 62
     5
100
AcDbLine
 10
-325.0
 20
323.5
 30
0.0
 11
-325.0
 21
311.5
 31
0.0
  0
LINE
  5
203
330
1D6
100
AcDbEntity
  8
LINE CENTER
 62
     5
100
AcDbLine
 10
-331.0
 20
317.5
 30
0.0
 11
-319.0
 21
317.5
 31
0.0
  0
CIRCLE
  5
204
330
1D6
100
AcDbEntity
  8
LINE HOLE BRACKET
 62
     5
100
AcDbCircle
 10
-349.0
 20
134.0
 30
0.0
 40
3.000000000000003
  0
LINE
  5
205
330
1D6
100
AcDbEntity
  8
LINE CENTER
 62
     5
100
AcDbLine
 10
-349.0
 20
140.0
 30
0.0
 11
-349.0
 21
128.0
 31
0.0
  0
LINE
  5
206
330
1D6
100
AcDbEntity
  8
LINE CENTER
 62
     5
100
AcDbLine
 10
-355.0
 20
134.0
 30
0.0
 11
-343.0
 21
134.0
 31
0.0
  0
CIRCLE
  5
207
330
1D6
100
AcDbEntity
  8
LINE HOLE BRACKET
 62
     5
100
AcDbCircle
 10
325.0
 20
317.4999999999999
 30
0.0
 40
3.000000000000003
  0
LINE
  5
208
330
1D6
100
AcDbEntity
  8
LINE CENTER
 62
     5
100
AcDbLine
 10
325.0
 20
323.4999999999999
 30
0.0
 11
325.0
 21
311.4999999999999
 31
0.0
  0
LINE
  5
209
330
1D6
100
AcDbEntity
  8
LINE CENTER
 62
     5
100
AcDbLine
 10
331.0
 20
317.4999999999999
 30
0.0
 11
319.0
 21
317.4999999999999
 31
0.0
  0
CIRCLE
  5
20A
330
1D6
100
AcDbEntity
  8
LINE HOLE BRACKET
 62
     5
100
AcDbCircle
 10
349.0
 20
133.9999999999999
 30
0.0
 40
3.000000000000003
  0
LINE
  5
20B
330
1D6
100
AcDbEntity
  8
LINE CENTER
 62
     5
100
AcDbLine
 10
349.0
 20
139.9999999999999
 30
0.0
 11
349.0
 21
127.9999999999999
 31
0.0
  0
LINE
  5
20C
330
1D6
100
AcDbEntity
  8
LINE CENTER
 62
     5
100
AcDbLine
 10
355.0
 20
133.9999999999999
 30
0.0
 11
343.0
 21
133.9999999999999
 31
0.0
  0
TEXT
  5
20D
330
1D6
100
AcDbEntity
  8
TEXT
  6
Continuous
 62
     5
100
AcDbText
 10
263.6126457274562
 20
-10.52969968483103
 30
0.0
 40
5.0
  1
REV:Dec. 2005
  7
black
100
AcDbText
  0
TEXT
  5
20E
330
1D6
100
AcDbEntity
  8
TEXT
  6
Continuous
 62
     5
100
AcDbText
 10
263.055262727455
 20
-20.04521900721284
 30
0.0
 40
5.0
  1
# 0GU....
  7
black
100
AcDbText
  0
ENDBLK
  5
212
330
1D6
100
AcDbEntity
  8
0
100
AcDbBlockEnd
  0
BLOCK
  5
31B
330
315
100
AcDbEntity
  8
0
 62
     1
100
AcDbBlockBegin
  2
A$C067F4E84
 70
     0
 10
0.0
 20
0.0
 30
0.0
  3
A$C067F4E84
  1

  0
INSERT
  5
316
330
315
100
AcDbEntity
  8
TOTO
 62
     5
100
AcDbBlockReference
  2
A$C74DC1801
 10
0.0000025067875242
 20
416.9789405322758
 30
0.0
  0
TEXT
  5
317
330
315
100
AcDbEntity
  8
TEXT
  6
Continuous
 62
     5
100
AcDbText
 10
548.993170120015
 20
11.32316123043358
 30
0.0
 40
5.0
  1
REV:Dec. 2005
  7
black
100
AcDbText
  0
TEXT
  5
318
330
315
100
AcDbEntity
  8
TEXT
  6
Continuous
 62
     5
100
AcDbText
 10
548.4357871200138
 20
1.807641908051778
 30
0.0
 40
5.0
  1
# 0GU....
  7
black
100
AcDbText
  0
ENDBLK
  5
31C
330
315
100
AcDbEntity
  8
0
 62
     1
100
AcDbBlockEnd
  0
BLOCK
  5
3CE
330
3B4
100
AcDbEntity
  8
0
 62
     1
100
AcDbBlockBegin
  2
A$C2EAC6319
 70
     0
 10
0.0
 20
0.0
 30
0.0
  3
A$C2EAC6319
  1

  0
ARC
  5
3B5
330
3B4
100
AcDbEntity
  8
PIC20
  6
Continuous
 62
     7
100
AcDbCircle
 10
453.5000009135085
 20
896.4940599405823
 30
0.0
 40
761.9923923611642
100
AcDbArc
 50
248.8006024855492
 51
291.1993975144508
  0
ARC
  5
3B6
330
3B4
100
AcDbEntity
  8
PIC20
  6
Continuous
 62
     7
100
AcDbCircle
 10
-3212.226319866714
 20
-174.9668624396101
 30
0.0
 40
3986.960194677113
100
AcDbArc
 50
5.792148426002999
 51
9.04235250054964
  0
LINE
  5
3B7
330
3B4
100
AcDbEntity
  8
PIC20
  6
Continuous
 62
     7
100
AcDbLine
 10
201.5655819844291
 20
468.498332997566
 30
0.0
 11
705.4344198425889
 21
468.498332997566
 31
0.0
  0
ARC
  5
3B8
330
3B4
100
AcDbEntity
  8
PIC20
  6
Continuous
 62
     7
100
AcDbCircle
 10
4119.226321693733
 20
-174.9668624396101
 30
0.0
 40
3986.960194677113
100
AcDbArc
 50
170.9576474994499
 51
174.207851573997
  0
ARC
  5
3B9
330
3B4
100
AcDbEntity
  8
PIC20
  6
Continuous
 62
     7
100
AcDbCircle
 10
714.5832555912724
 20
223.3602505004665
 30
0.0
 40
39.9996006488802
100
AcDbArc
 50
291.1993975144508
 51
5.792148426002999
  0
ARC
  5
3BA
330
3B4
100
AcDbEntity
  8
PIC20
  6
Continuous
 62
     7
100
AcDbCircle
 10
192.416746235745
 20
223.360250500465
 30
0.0
 40
39.99960064888011
100
AcDbArc
 50
174.207851573997
 51
248.8006024855492
  0
ARC
  5
3BB
330
3B4
100
AcDbEntity
  8
PIC20
  6
Continuous
 62
     7
100
AcDbCircle
 10
705.4344198425889
 20
448.4985326731262
 30
0.0
 40
19.99980032444
100
AcDbArc
 50
9.042352500550041
 51
90.0
  0
ARC
  5
3BC
330
3B4
100
AcDbEntity
  8
PIC20
  6
Continuous
 62
     7
100
AcDbCircle
 10
201.5655819844291
 20
448.4985326731262
 30
0.0
 40
19.99980032444
100
AcDbArc
 50
90.0
 51
170.9576474994499
  0
CIRCLE
  5
3BD
330
3B4
100
AcDbEntity
  8
PIC20
  6
Continuous
 62
     7
100
AcDbCircle
 10
778.3215181022065
 20
441.9985941628302
 30
0.0
 40
4.999950081109999
  0
CIRCLE
  5
3BE
330
3B4
100
AcDbEntity
  8
PIC20
  6
Continuous
 62
     7
100
AcDbCircle
 10
802.4000053907894
 20
258.5004261860935
 30
0.0
 40
4.999950081109999
  0
LINE
  5
3BF
330
3B4
100
AcDbEntity
  8
PIC20
  6
CENTER
 62
     7
100
AcDbLine
 10
771.3215879886525
 20
441.9985941628302
 30
0.0
 11
785.3214482157608
 21
441.9985941628302
 31
0.0
  0
LINE
  5
3C0
330
3B4
100
AcDbEntity
  8
PIC20
  6
CENTER
 62
     7
100
AcDbLine
 10
778.3215181022065
 20
434.9986640492763
 30
0.0
 11
778.3215181022065
 21
448.9985242763847
 31
0.0
  0
LINE
  5
3C1
330
3B4
100
AcDbEntity
  8
PIC20
  6
CENTER
 62
     7
100
AcDbLine
 10
795.4000752772352
 20
258.5004261860935
 30
0.0
 11
809.3999355043433
 21
258.5004261860935
 31
0.0
  0
LINE
  5
3C2
330
3B4
100
AcDbEntity
  8
PIC20
  6
CENTER
 62
     7
100
AcDbLine
 10
802.4000053907894
 20
251.5004960725395
 30
0.0
 11
802.4000053907894
 21
265.5003562996475
 31
0.0
  0
CIRCLE
  5
3C3
330
3B4
100
AcDbEntity
  8
PIC20
  6
Continuous
 62
     7
100
AcDbCircle
 10
128.6784837248103
 20
441.9985941628302
 30
0.0
 40
4.999950081109999
  0
LINE
  5
3C4
330
3B4
100
AcDbEntity
  8
PIC20
  6
CENTER
 62
     7
100
AcDbLine
 10
135.6784138383642
 20
441.9985941628302
 30
0.0
 11
121.6785536112563
 21
441.9985941628302
 31
0.0
  0
LINE
  5
3C5
330
3B4
100
AcDbEntity
  8
PIC20
  6
CENTER
 62
     7
100
AcDbLine
 10
128.6784837248103
 20
434.9986640492763
 30
0.0
 11
128.6784837248103
 21
448.9985242763847
 31
0.0
  0
CIRCLE
  5
3C6
330
3B4
100
AcDbEntity
  8
PIC20
  6
Continuous
 62
     7
100
AcDbCircle
 10
104.5999964362275
 20
258.5004261860935
 30
0.0
 40
4.999950081109999
  0
LINE
  5
3C7
330
3B4
100
AcDbEntity
  8
PIC20
  6
CENTER
 62
     7
100
AcDbLine
 10
111.5999265497814
 20
258.5004261860935
 30
0.0
 11
97.60006632267346
 21
258.5004261860935
 31
0.0
  0
LINE
  5
3C8
330
3B4
100
AcDbEntity
  8
PIC20
  6
CENTER
 62
     7
100
AcDbLine
 10
104.5999964362275
 20
251.5004960725395
 30
0.0
 11
104.5999964362275
 21
265.5003562996475
 31
0.0
  0
LINE
  5
3C9
330
3B4
100
AcDbEntity
  8
0
 62
     7
100
AcDbLine
 10
453.500000913509
 20
468.498332997566
 30
0.0
 11
453.500000913509
 21
515.490529931789
 31
0.0
  0
LINE
  5
3CA
330
3B4
100
AcDbEntity
  8
0
 62
     7
100
AcDbLine
 10
453.5000009135083
 20
134.5016675794179
 30
0.0
 11
453.5000009135085
 21
82.75846306342307
 31
0.0
  0
INSERT
  5
3CB
330
3B4
100
AcDbEntity
  8
TOTO
 62
     7
100
AcDbBlockReference
  2
A$C74DC1801
 10
191.5825267056692
 20
508.2094543991561
 30
0.0
  0
MTEXT
  5
3CC
330
3B4
100
AcDbEntity
  8
0
 62
     7
100
AcDbMText
 10
677.7393070222082
 20
103.5578182223437
 30
0.0
 40
5.0
 41
86.54887012155789
 71
     1
 72
     5
  1
{\fArial|b0|i0|c0|p34;\C256;Template for LT967\P0GU130\PRev: Feb.2006}
 73
     1
 44
1.0
1001
ACAD
1000
MTEXTBEGIN
1070
    73
1070
     1
1070
    44
1040
1.0
1070
    74
1070
     0
1000
MTEXTEND
  0
LWPOLYLINE
  5
3CD
330
3B4
100
AcDbEntity
  8
LINE_TEX
100
AcDbPolyline
 90
        4
 70
     1
 43
0.0
 10
0.0000009135092114
 20
603.0000002884919
 10
907.0000009135092
 20
603.0000002884919
 10
907.0000009135092
 20
0.0000002884919752
 10
0.0000009135092114
 20
0.0000002884919752
  0
ENDBLK
  5
3CF
330
3B4
100
AcDbEntity
  8
0
 62
     1
100
AcDbBlockEnd
  0
BLOCK
  5
56E
330
4AA
100
AcDbEntity
  8
0
 62
     1
100
AcDbBlockBegin
  2
ISO A0 title block.dwg
 70
     2
 10
0.0
 20
0.0
 30
0.0
  3
ISO A0 title block.dwg
  1

  0
LINE
  5
4AB
330
4AA
100
AcDbEntity
  8
FRAME 070
100
AcDbLine
 10
1168.0
 20
820.0
 30
0.0
 11
20.0
 21
820.0
 31
0.0
  0
LINE
  5
4AC
330
4AA
100
AcDbEntity
  8
FRAME 070
100
AcDbLine
 10
20.0
 20
20.0
 30
0.0
 11
1168.0
 21
20.0
 31
0.0
  0
LINE
  5
4AD
330
4AA
100
AcDbEntity
  8
FRAME 070
100
AcDbLine
 10
20.0
 20
820.0
 30
0.0
 11
20.0
 21
20.0
 31
0.0
  0
TEXT
  5
4AE
330
4AA
100
AcDbEntity
  8
FRAME 050
100
AcDbText
 10
15.9
 20
43.0
 30
0.0
 40
4.0
  1
P
  7
ISO Proportional
 72
     4
 11
17.5
 21
45.0
 31
0.0
100
AcDbText
  0
TEXT
  5
4AF
330
4AA
100
AcDbEntity
  8
FRAME 050
100
AcDbText
 10
54.875
 20
15.5
 30
0.0
 40
4.0
  1
1
  7
ISO Proportional
 72
     4
 11
55.875
 21
17.5
 31
0.0
100
AcDbText
  0
LINE
  5
4B0
330
4AA
100
AcDbEntity
  8
FRAME 050
100
AcDbLine
 10
15.0
 20
70.0
 30
0.0
 11
20.0
 21
70.0
 31
0.0
  0
TEXT
  5
4B1
330
4AA
100
AcDbEntity
  8
FRAME 050
100
AcDbText
 10
15.9
 20
93.0
 30
0.0
 40
4.0
  1
O
  7
ISO Proportional
 72
     4
 11
17.5
 21
95.0
 31
0.0
100
AcDbText
  0
LINE
  5
4B2
330
4AA
100
AcDbEntity
  8
FRAME 050
100
AcDbLine
 10
15.0
 20
120.0
 30
0.0
 11
20.0
 21
120.0
 31
0.0
  0
TEXT
  5
4B3
330
4AA
100
AcDbEntity
  8
FRAME 050
100
AcDbText
 10
15.9
 20
143.0
 30
0.0
 40
4.0
  1
N
  7
ISO Proportional
 72
     4
 11
17.5
 21
145.0
 31
0.0
100
AcDbText
  0
LINE
  5
4B4
330
4AA
100
AcDbEntity
  8
FRAME 050
100
AcDbLine
 10
91.75
 20
15.0
 30
0.0
 11
91.75
 21
20.0
 31
0.0
  0
TEXT
  5
4B5
330
4AA
100
AcDbEntity
  8
FRAME 050
100
AcDbText
 10
126.1556692913386
 20
15.39960629921259
 30
0.0
 40
4.0
  1
2
  7
ISO Proportional
 72
     4
 11
127.625
 21
17.5
 31
0.0
100
AcDbText
  0
LINE
  5
4B6
330
4AA
100
AcDbEntity
  8
FRAME 050
100
AcDbLine
 10
163.5
 20
15.0
 30
0.0
 11
163.5
 21
20.0
 31
0.0
  0
TEXT
  5
4B7
330
4AA
100
AcDbEntity
  8
FRAME 050
100
AcDbText
 10
197.8921572875254
 20
15.58284271247461
 30
0.0
 40
4.0
  1
3
  7
ISO Proportional
 72
     4
 11
199.375
 21
17.5
 31
0.0
100
AcDbText
  0
TEXT
  5
4B8
330
4AA
100
AcDbEntity
  8
FRAME 050
100
AcDbText
 10
15.7
 20
193.0
 30
0.0
 40
4.0
  1
M
  7
ISO Proportional
 72
     4
 11
17.5
 21
195.0
 31
0.0
100
AcDbText
  0
LINE
  5
4B9
330
4AA
100
AcDbEntity
  8
FRAME 050
100
AcDbLine
 10
15.0
 20
170.0
 30
0.0
 11
20.0
 21
170.0
 31
0.0
  0
LINE
  5
4BA
330
4AA
100
AcDbEntity
  8
FRAME 050
100
AcDbLine
 10
15.0
 20
220.0
 30
0.0
 11
20.0
 21
220.0
 31
0.0
  0
TEXT
  5
4BB
330
4AA
100
AcDbEntity
  8
FRAME 050
100
AcDbText
 10
16.1
 20
243.0
 30
0.0
 40
4.0
  1
L
  7
ISO Proportional
 72
     4
 11
17.5
 21
245.0
 31
0.0
100
AcDbText
  0
LINE
  5
4BC
330
4AA
100
AcDbEntity
  8
FRAME 050
100
AcDbLine
 10
15.0
 20
270.0
 30
0.0
 11
20.0
 21
270.0
 31
0.0
  0
TEXT
  5
4BD
330
4AA
100
AcDbEntity
  8
FRAME 050
100
AcDbText
 10
15.89
 20
293.0
 30
0.0
 40
4.0
  1
K
  7
ISO Proportional
 72
     4
 11
17.5
 21
295.0
 31
0.0
100
AcDbText
  0
LINE
  5
4BE
330
4AA
100
AcDbEntity
  8
FRAME 050
100
AcDbLine
 10
15.0
 20
320.0
 30
0.0
 11
20.0
 21
320.0
 31
0.0
  0
TEXT
  5
4BF
330
4AA
100
AcDbEntity
  8
FRAME 050
100
AcDbText
 10
16.21715728752538
 20
343.0828427124747
 30
0.0
 40
4.0
  1
J
  7
ISO Proportional
 72
     4
 11
17.5
 21
345.0
 31
0.0
100
AcDbText
  0
LINE
  5
4C0
330
4AA
100
AcDbEntity
  8
FRAME 050
100
AcDbLine
 10
15.0
 20
370.0
 30
0.0
 11
20.0
 21
370.0
 31
0.0
  0
TEXT
  5
4C1
330
4AA
100
AcDbEntity
  8
FRAME 050
100
AcDbText
 10
16.9
 20
393.0
 30
0.0
 40
4.0
  1
I
  7
ISO Proportional
 72
     4
 11
17.5
 21
395.0
 31
0.0
100
AcDbText
  0
LINE
  5
4C2
330
4AA
100
AcDbEntity
  8
FRAME 050
100
AcDbLine
 10
17.5
 20
420.0
 30
0.0
 11
22.5
 21
422.4999999999998
 31
0.0
  0
LINE
  5
4C3
330
4AA
100
AcDbEntity
  8
FRAME 050
100
AcDbLine
 10
22.5
 20
417.4999999999998
 30
0.0
 11
17.5
 21
420.0
 31
0.0
  0
LINE
  5
4C4
330
4AA
100
AcDbEntity
  8
FRAME 050
100
AcDbLine
 10
15.0
 20
420.0
 30
0.0
 11
25.0
 21
420.0
 31
0.0
  0
LINE
  5
4C5
330
4AA
100
AcDbEntity
  8
FRAME 050
100
AcDbLine
 10
22.5
 20
422.4999999999998
 30
0.0
 11
22.5
 21
417.4999999999998
 31
0.0
  0
TEXT
  5
4C6
330
4AA
100
AcDbEntity
  8
FRAME 050
100
AcDbText
 10
15.9
 20
443.0
 30
0.0
 40
4.0
  1
H
  7
ISO Proportional
 72
     4
 11
17.5
 21
445.0
 31
0.0
100
AcDbText
  0
LINE
  5
4C7
330
4AA
100
AcDbEntity
  8
FRAME 050
100
AcDbLine
 10
15.0
 20
470.0
 30
0.0
 11
20.0
 21
470.0
 31
0.0
  0
TEXT
  5
4C8
330
4AA
100
AcDbEntity
  8
FRAME 050
100
AcDbText
 10
16.00355339059327
 20
493.0
 30
0.0
 40
4.0
  1
G
  7
ISO Proportional
 72
     4
 11
17.5
 21
495.0
 31
0.0
100
AcDbText
  0
LINE
  5
4C9
330
4AA
100
AcDbEntity
  8
FRAME 050
100
AcDbLine
 10
15.0
 20
520.0
 30
0.0
 11
20.0
 21
520.0
 31
0.0
  0
TEXT
  5
4CA
330
4AA
100
AcDbEntity
  8
FRAME 050
100
AcDbText
 10
16.1
 20
543.0
 30
0.0
 40
4.0
  1
F
  7
ISO Proportional
 72
     4
 11
17.5
 21
545.0
 31
0.0
100
AcDbText
  0
LINE
  5
4CB
330
4AA
100
AcDbEntity
  8
FRAME 050
100
AcDbLine
 10
15.0
 20
570.0
 30
0.0
 11
20.0
 21
570.0
 31
0.0
  0
TEXT
  5
4CC
330
4AA
100
AcDbEntity
  8
FRAME 050
100
AcDbText
 10
16.1
 20
593.0
 30
0.0
 40
4.0
  1
E
  7
ISO Proportional
 72
     4
 11
17.5
 21
595.0
 31
0.0
100
AcDbText
  0
LINE
  5
4CD
330
4AA
100
AcDbEntity
  8
FRAME 050
100
AcDbLine
 10
15.0
 20
620.0
 30
0.0
 11
20.0
 21
620.0
 31
0.0
  0
TEXT
  5
4CE
330
4AA
100
AcDbEntity
  8
FRAME 050
100
AcDbText
 10
15.7860912703474
 20
643.0
 30
0.0
 40
4.0
  1
D
  7
ISO Proportional
 72
     4
 11
17.5
 21
645.0
 31
0.0
100
AcDbText
  0
LINE
  5
4CF
330
4AA
100
AcDbEntity
  8
FRAME 050
100
AcDbLine
 10
15.0
 20
670.0
 30
0.0
 11
20.0
 21
670.0
 31
0.0
  0
TEXT
  5
4D0
330
4AA
100
AcDbEntity
  8
FRAME 050
100
AcDbText
 10
16.19319805153395
 20
693.0
 30
0.0
 40
4.0
  1
C
  7
ISO Proportional
 72
     4
 11
17.5
 21
695.0
 31
0.0
100
AcDbText
  0
LINE
  5
4D1
330
4AA
100
AcDbEntity
  8
FRAME 050
100
AcDbLine
 10
15.0
 20
720.0
 30
0.0
 11
20.0
 21
720.0
 31
0.0
  0
TEXT
  5
4D2
330
4AA
100
AcDbEntity
  8
FRAME 050
100
AcDbText
 10
15.9
 20
743.0
 30
0.0
 40
4.0
  1
B
  7
ISO Proportional
 72
     4
 11
17.5
 21
745.0
 31
0.0
100
AcDbText
  0
LINE
  5
4D3
330
4AA
100
AcDbEntity
  8
FRAME 050
100
AcDbLine
 10
15.0
 20
770.0
 30
0.0
 11
20.0
 21
770.0
 31
0.0
  0
TEXT
  5
4D4
330
4AA
100
AcDbEntity
  8
FRAME 050
100
AcDbText
 10
15.7
 20
793.0
 30
0.0
 40
4.0
  1
A
  7
ISO Proportional
 72
     4
 11
17.5
 21
795.0
 31
0.0
100
AcDbText
  0
TEXT
  5
4D5
330
4AA
100
AcDbEntity
  8
FRAME 050
100
AcDbText
 10
54.875
 20
820.4999999999998
 30
0.0
 40
4.0
  1
1
  7
ISO Proportional
 72
     4
 11
55.875
 21
822.4999999999999
 31
0.0
100
AcDbText
  0
LINE
  5
4D6
330
4AA
100
AcDbEntity
  8
FRAME 050
100
AcDbLine
 10
91.75
 20
820.0
 30
0.0
 11
91.75
 21
825.0
 31
0.0
  0
TEXT
  5
4D7
330
4AA
100
AcDbEntity
  8
FRAME 050
100
AcDbText
 10
126.1556692913386
 20
820.3996062992125
 30
0.0
 40
4.0
  1
2
  7
ISO Proportional
 72
     4
 11
127.625
 21
822.4999999999999
 31
0.0
100
AcDbText
  0
LINE
  5
4D8
330
4AA
100
AcDbEntity
  8
FRAME 050
100
AcDbLine
 10
163.5
 20
820.0
 30
0.0
 11
163.5
 21
825.0
 31
0.0
  0
TEXT
  5
4D9
330
4AA
100
AcDbEntity
  8
FRAME 050
100
AcDbText
 10
197.8921572875254
 20
820.5828427124744
 30
0.0
 40
4.0
  1
3
  7
ISO Proportional
 72
     4
 11
199.375
 21
822.4999999999999
 31
0.0
100
AcDbText
  0
LINE
  5
4DA
330
4AA
100
AcDbEntity
  8
FRAME 070
100
AcDbLine
 10
1168.0
 20
20.0
 30
0.0
 11
1168.0
 21
820.0
 31
0.0
  0
LINE
  5
4DB
330
4AA
100
AcDbEntity
  8
FRAME 050
100
AcDbLine
 10
235.25
 20
15.0
 30
0.0
 11
235.25
 21
20.0
 31
0.0
  0
TEXT
  5
4DC
330
4AA
100
AcDbEntity
  8
FRAME 050
100
AcDbText
 10
269.525
 20
15.5
 30
0.0
 40
4.0
  1
4
  7
ISO Proportional
 72
     4
 11
271.125
 21
17.5
 31
0.0
100
AcDbText
  0
LINE
  5
4DD
330
4AA
100
AcDbEntity
  8
FRAME 050
100
AcDbLine
 10
307.0
 20
15.0
 30
0.0
 11
307.0
 21
20.0
 31
0.0
  0
TEXT
  5
4DE
330
4AA
100
AcDbEntity
  8
FRAME 050
100
AcDbText
 10
341.3921572875254
 20
15.58284271247462
 30
0.0
 40
4.0
  1
5
  7
ISO Proportional
 72
     4
 11
342.875
 21
17.5
 31
0.0
100
AcDbText
  0
LINE
  5
4DF
330
4AA
100
AcDbEntity
  8
FRAME 050
100
AcDbLine
 10
378.75
 20
15.0
 30
0.0
 11
378.75
 21
20.0
 31
0.0
  0
TEXT
  5
4E0
330
4AA
100
AcDbEntity
  8
FRAME 050
100
AcDbText
 10
413.2454724409448
 20
15.41023622047244
 30
0.0
 40
4.0
  1
6
  7
ISO Proportional
 72
     4
 11
414.625
 21
17.5
 31
0.0
100
AcDbText
  0
LINE
  5
4E1
330
4AA
100
AcDbEntity
  8
FRAME 050
100
AcDbLine
 10
450.4999999999998
 20
15.0
 30
0.0
 11
450.4999999999998
 21
20.0
 31
0.0
  0
LINE
  5
4E2
330
4AA
100
AcDbEntity
  8
FRAME 050
100
AcDbLine
 10
544.0
 20
15.0
 30
0.0
 11
644.0
 21
15.0
 31
0.0
  0
TEXT
  5
4E3
330
4AA
100
AcDbEntity
  8
FRAME 050
100
AcDbText
 10
484.975
 20
15.5
 30
0.0
 40
4.0
  1
7
  7
ISO Proportional
 72
     4
 11
486.375
 21
17.5
 31
0.0
100
AcDbText
  0
LINE
  5
4E4
330
4AA
100
AcDbEntity
  8
FRAME 050
100
AcDbLine
 10
522.25
 20
15.0
 30
0.0
 11
522.25
 21
20.0
 31
0.0
  0
LINE
  5
4E5
330
4AA
100
AcDbEntity
  8
FRAME 050
100
AcDbLine
 10
544.0
 20
15.0
 30
0.0
 11
544.0
 21
20.0
 31
0.0
  0
LINE
  5
4E6
330
4AA
100
AcDbEntity
  8
FRAME 050
100
AcDbLine
 10
554.0
 20
15.0
 30
0.0
 11
554.0
 21
20.0
 31
0.0
  0
LINE
  5
4E7
330
4AA
100
AcDbEntity
  8
FRAME 050
100
AcDbLine
 10
564.0
 20
15.0
 30
0.0
 11
564.0
 21
20.0
 31
0.0
  0
LINE
  5
4E8
330
4AA
100
AcDbEntity
  8
FRAME 050
100
AcDbLine
 10
574.0
 20
15.0
 30
0.0
 11
574.0
 21
20.0
 31
0.0
  0
LINE
  5
4E9
330
4AA
100
AcDbEntity
  8
FRAME 050
100
AcDbLine
 10
584.0
 20
15.0
 30
0.0
 11
584.0
 21
20.0
 31
0.0
  0
LINE
  5
4EA
330
4AA
100
AcDbEntity
  8
FRAME 050
100
AcDbLine
 10
596.4999999999998
 20
22.5
 30
0.0
 11
594.0
 21
17.5
 31
0.0
  0
LINE
  5
4EB
330
4AA
100
AcDbEntity
  8
FRAME 050
100
AcDbLine
 10
594.0
 20
17.5
 30
0.0
 11
591.5
 21
22.5
 31
0.0
  0
LINE
  5
4EC
330
4AA
100
AcDbEntity
  8
FRAME 050
100
AcDbLine
 10
594.0
 20
20.0
 30
0.0
 11
594.0
 21
25.0
 31
0.0
  0
LINE
  5
4ED
330
4AA
100
AcDbEntity
  8
FRAME 050
100
AcDbLine
 10
594.0
 20
20.0
 30
0.0
 11
594.0
 21
15.0
 31
0.0
  0
LINE
  5
4EE
330
4AA
100
AcDbEntity
  8
FRAME 050
100
AcDbLine
 10
591.5
 20
22.5
 30
0.0
 11
596.4999999999998
 21
22.5
 31
0.0
  0
LINE
  5
4EF
330
4AA
100
AcDbEntity
  8
FRAME 050
100
AcDbLine
 10
604.0
 20
15.0
 30
0.0
 11
604.0
 21
20.0
 31
0.0
  0
LINE
  5
4F0
330
4AA
100
AcDbEntity
  8
FRAME 050
100
AcDbLine
 10
614.0
 20
15.0
 30
0.0
 11
614.0
 21
20.0
 31
0.0
  0
LINE
  5
4F1
330
4AA
100
AcDbEntity
  8
FRAME 050
100
AcDbLine
 10
624.0
 20
15.0
 30
0.0
 11
624.0
 21
20.0
 31
0.0
  0
LINE
  5
4F2
330
4AA
100
AcDbEntity
  8
FRAME 050
100
AcDbLine
 10
634.0
 20
15.0
 30
0.0
 11
634.0
 21
20.0
 31
0.0
  0
LINE
  5
4F3
330
4AA
100
AcDbEntity
  8
FRAME 050
100
AcDbLine
 10
644.0
 20
15.0
 30
0.0
 11
644.0
 21
20.0
 31
0.0
  0
LINE
  5
4F4
330
4AA
100
AcDbEntity
  8
FRAME 050
100
AcDbLine
 10
665.7499999999998
 20
15.0
 30
0.0
 11
665.7499999999998
 21
20.0
 31
0.0
  0
TEXT
  5
4F5
330
4AA
100
AcDbEntity
  8
FRAME 050
100
AcDbText
 10
699.2234251968503
 20
15.5
 30
0.0
 40
4.0
  1
10
  7
ISO Proportional
 72
     4
 11
701.625
 21
17.5
 31
0.0
100
AcDbText
  0
LINE
  5
4F6
330
4AA
100
AcDbEntity
  8
FRAME 050
100
AcDbLine
 10
737.5
 20
15.0
 30
0.0
 11
737.5
 21
20.0
 31
0.0
  0
TEXT
  5
4F7
330
4AA
100
AcDbEntity
  8
FRAME 050
100
AcDbText
 10
771.375
 20
15.5
 30
0.0
 40
4.0
  1
11
  7
ISO Proportional
 72
     4
 11
773.375
 21
17.5
 31
0.0
100
AcDbText
  0
LINE
  5
4F8
330
4AA
100
AcDbEntity
  8
FRAME 050
100
AcDbLine
 10
809.2499999999999
 20
15.0
 30
0.0
 11
809.2499999999999
 21
20.0
 31
0.0
  0
TEXT
  5
4F9
330
4AA
100
AcDbEntity
  8
FRAME 050
100
AcDbText
 10
842.6048818897637
 20
15.39960629921259
 30
0.0
 40
4.0
  1
12
  7
ISO Proportional
 72
     4
 11
845.1249999999998
 21
17.5
 31
0.0
100
AcDbText
  0
LINE
  5
4FA
330
4AA
100
AcDbEntity
  8
FRAME 050
100
AcDbLine
 10
881.0
 20
15.0
 30
0.0
 11
881.0
 21
20.0
 31
0.0
  0
TEXT
  5
4FB
330
4AA
100
AcDbEntity
  8
FRAME 050
100
AcDbText
 10
914.3921572875253
 20
15.58284271247461
 30
0.0
 40
4.0
  1
13
  7
ISO Proportional
 72
     4
 11
916.8750000000001
 21
17.5
 31
0.0
100
AcDbText
  0
LINE
  5
4FC
330
4AA
100
AcDbEntity
  8
FRAME 050
100
AcDbLine
 10
952.7499999999999
 20
15.0
 30
0.0
 11
952.7499999999999
 21
20.0
 31
0.0
  0
TEXT
  5
4FD
330
4AA
100
AcDbEntity
  8
FRAME 050
100
AcDbText
 10
986.025
 20
15.5
 30
0.0
 40
4.0
  1
14
  7
ISO Proportional
 72
     4
 11
988.625
 21
17.5
 31
0.0
100
AcDbText
  0
TEXT
  5
4FE
330
4AA
100
AcDbEntity
  8
FRAME 025
100
AcDbText
 10
1120.0
 20
51.75
 30
0.0
 40
2.5
  1
Article No./Reference
  7
ISO Proportional
 11
1120.0
 21
53.0
 31
0.0
100
AcDbText
 73
     2
  0
LINE
  5
4FF
330
4AA
100
AcDbEntity
  8
FRAME 070
100
AcDbLine
 10
998.0
 20
56.0
 30
0.0
 11
1168.0
 21
56.0
 31
0.0
  0
LINE
  5
500
330
4AA
100
AcDbEntity
  8
FRAME 070
100
AcDbLine
 10
998.0
 20
50.0
 30
0.0
 11
1168.0
 21
50.0
 31
0.0
  0
LINE
  5
501
330
4AA
100
AcDbEntity
  8
FRAME 070
100
AcDbLine
 10
998.0
 20
40.0
 30
0.0
 11
1168.0
 21
40.0
 31
0.0
  0
LINE
  5
502
330
4AA
100
AcDbEntity
  8
FRAME 070
100
AcDbLine
 10
1073.0
 20
30.0
 30
0.0
 11
1168.0
 21
30.0
 31
0.0
  0
LINE
  5
503
330
4AA
100
AcDbEntity
  8
FRAME 070
100
AcDbLine
 10
1118.0
 20
50.0
 30
0.0
 11
1118.0
 21
56.0
 31
0.0
  0
LINE
  5
504
330
4AA
100
AcDbEntity
  8
FRAME 070
100
AcDbLine
 10
1030.0
 20
50.0
 30
0.0
 11
1030.0
 21
56.0
 31
0.0
  0
LINE
  5
505
330
4AA
100
AcDbEntity
  8
FRAME 070
100
AcDbLine
 10
998.0
 20
50.0
 30
0.0
 11
998.0
 21
56.0
 31
0.0
  0
LINE
  5
506
330
4AA
100
AcDbEntity
  8
FRAME 070
100
AcDbLine
 10
1013.0
 20
50.0
 30
0.0
 11
1013.0
 21
56.0
 31
0.0
  0
ATTDEF
  5
507
330
4AA
100
AcDbEntity
  8
FRAME 025
100
AcDbText
 10
1057.0
 20
41.74999999999999
 30
0.0
 40
2.5
  1

  7
ISO Proportional
 11
1057.0
 21
43.0
 31
0.0
100
AcDbAttributeDefinition
  3
Approved by - Date
  2
APPROVED_BY_DATE
 70
     8
 74
     2
  0
TEXT
  5
508
330
4AA
100
AcDbEntity
  8
FRAME 025
100
AcDbText
 10
1032.0
 20
51.75
 30
0.0
 40
2.5
  1
Title/Name, designation, material, dimension etc
  7
ISO Proportional
 11
1032.0
 21
53.0
 31
0.0
100
AcDbText
 73
     2
  0
TEXT
  5
509
330
4AA
100
AcDbEntity
  8
FRAME 025
100
AcDbText
 10
1057.0
 20
45.75
 30
0.0
 40
2.5
  1
Approved by - date
  7
ISO Proportional
 11
1057.0
 21
47.0
 31
0.0
100
AcDbText
 73
     2
  0
ATTDEF
  5
50A
330
4AA
100
AcDbEntity
  8
FRAME 050
100
AcDbText
 10
1035.5
 20
30.0
 30
0.0
 40
5.0
  1

  7
ISO Proportional
 72
     4
 11
1035.5
 21
30.0
 31
0.0
100
AcDbAttributeDefinition
  3
Owner
  2
OWNER
 70
     8
  0
LINE
  5
50B
330
4AA
100
AcDbEntity
  8
FRAME 070
100
AcDbLine
 10
998.0
 20
20.0
 30
0.0
 11
998.0
 21
50.0
 31
0.0
  0
LINE
  5
50C
330
4AA
100
AcDbEntity
  8
FRAME 050
100
AcDbLine
 10
1024.5
 20
15.0
 30
0.0
 11
1024.5
 21
20.0
 31
0.0
  0
ATTDEF
  5
50D
330
4AA
100
AcDbEntity
  8
FRAME 025
100
AcDbText
 10
1000.0
 20
41.74999999999999
 30
0.0
 40
2.5
  1

  7
ISO Proportional
 11
1000.0
 21
43.0
 31
0.0
100
AcDbAttributeDefinition
  3
Designed by
  2
DESIGNED_BY
 70
     8
 74
     2
  0
TEXT
  5
50E
330
4AA
100
AcDbEntity
  8
FRAME 025
100
AcDbText
 10
1000.0
 20
45.75
 30
0.0
 40
2.5
  1
Designed by
  7
ISO Proportional
 11
1000.0
 21
47.0
 31
0.0
100
AcDbText
 73
     2
  0
TEXT
  5
50F
330
4AA
100
AcDbEntity
  8
FRAME 025
100
AcDbText
 10
1000.0
 20
51.75
 30
0.0
 40
2.5
  1
Itemref
  7
ISO Proportional
 11
1000.0
 21
53.0
 31
0.0
100
AcDbText
 73
     2
  0
LINE
  5
510
330
4AA
100
AcDbEntity
  8
FRAME 070
100
AcDbLine
 10
1030.0
 20
40.0
 30
0.0
 11
1030.0
 21
50.0
 31
0.0
  0
TEXT
  5
511
330
4AA
100
AcDbEntity
  8
FRAME 025
100
AcDbText
 10
1015.0
 20
51.75
 30
0.0
 40
2.5
  1
Quantity
  7
ISO Proportional
 11
1015.0
 21
53.0
 31
0.0
100
AcDbText
 73
     2
  0
TEXT
  5
512
330
4AA
100
AcDbEntity
  8
FRAME 050
100
AcDbText
 10
1057.892157287525
 20
15.58284271247462
 30
0.0
 40
4.0
  1
15
  7
ISO Proportional
 72
     4
 11
1060.375
 21
17.5
 31
0.0
100
AcDbText
  0
ATTDEF
  5
513
330
4AA
100
AcDbEntity
  8
FRAME 025
100
AcDbText
 10
1032.0
 20
41.74999999999999
 30
0.0
 40
2.5
  1

  7
ISO Proportional
 11
1032.0
 21
43.0
 31
0.0
100
AcDbAttributeDefinition
  3
Checked by
  2
CHECKED_BY
 70
     8
 74
     2
  0
TEXT
  5
514
330
4AA
100
AcDbEntity
  8
FRAME 025
100
AcDbText
 10
1032.0
 20
45.75
 30
0.0
 40
2.5
  1
Checked by
  7
ISO Proportional
 11
1032.0
 21
47.0
 31
0.0
100
AcDbText
 73
     2
  0
LINE
  5
515
330
4AA
100
AcDbEntity
  8
FRAME 070
100
AcDbLine
 10
1055.0
 20
40.0
 30
0.0
 11
1055.0
 21
50.0
 31
0.0
  0
ATTDEF
  5
516
330
4AA
100
AcDbEntity
  8
FRAME 025
100
AcDbText
 10
1095.0
 20
41.74999999999999
 30
0.0
 40
2.5
  1

  7
ISO Proportional
 11
1095.0
 21
43.0
 31
0.0
100
AcDbAttributeDefinition
  3
File name
  2
FILENAME
 70
     8
 74
     2
  0
ATTDEF
  5
517
330
4AA
100
AcDbEntity
  8
FRAME 050
100
AcDbText
 10
1103.0
 20
25.0
 30
0.0
 40
3.0
  1

  7
ISO Proportional
 72
     4
 11
1103.0
 21
25.0
 31
0.0
100
AcDbAttributeDefinition
  3
Drawing number
  2
DRAWING_NUMBER
 70
     8
  0
TEXT
  5
518
330
4AA
100
AcDbEntity
  8
FRAME 025
100
AcDbText
 10
1095.0
 20
45.75
 30
0.0
 40
2.5
  1
Filename
  7
ISO Proportional
 11
1095.0
 21
47.0
 31
0.0
100
AcDbText
 73
     2
  0
LINE
  5
519
330
4AA
100
AcDbEntity
  8
FRAME 070
100
AcDbLine
 10
1073.0
 20
20.0
 30
0.0
 11
1073.0
 21
40.0
 31
0.0
  0
LINE
  5
51A
330
4AA
100
AcDbEntity
  8
FRAME 070
100
AcDbLine
 10
1093.0
 20
40.0
 30
0.0
 11
1093.0
 21
50.0
 31
0.0
  0
LINE
  5
51B
330
4AA
100
AcDbEntity
  8
FRAME 050
100
AcDbLine
 10
1096.25
 20
15.0
 30
0.0
 11
1096.25
 21
20.0
 31
0.0
  0
ATTDEF
  5
51C
330
4AA
100
AcDbEntity
  8
FRAME 025
100
AcDbText
 10
1120.0
 20
41.74999999999999
 30
0.0
 40
2.5
  1

  7
ISO Proportional
 11
1120.0
 21
43.0
 31
0.0
100
AcDbAttributeDefinition
  3
Date
  2
DATE
 70
     8
 74
     2
  0
LINE
  5
51D
330
4AA
100
AcDbEntity
  8
FRAME 070
100
AcDbLine
 10
1118.0
 20
40.0
 30
0.0
 11
1118.0
 21
50.0
 31
0.0
  0
ATTDEF
  5
51E
330
4AA
100
AcDbEntity
  8
FRAME 050
100
AcDbText
 10
1120.5
 20
35.0
 30
0.0
 40
5.0
  1

  7
ISO Proportional
 72
     4
 11
1120.5
 21
35.0
 31
0.0
100
AcDbAttributeDefinition
  3
Title / Name
  2
TITLE
 70
     8
  0
TEXT
  5
51F
330
4AA
100
AcDbEntity
  8
FRAME 025
100
AcDbText
 10
1120.0
 20
45.75
 30
0.0
 40
2.5
  1
Date
  7
ISO Proportional
 11
1120.0
 21
47.0
 31
0.0
100
AcDbText
 73
     2
  0
ATTDEF
  5
520
330
4AA
100
AcDbEntity
  8
FRAME 025
100
AcDbText
 10
1135.0
 20
21.75
 30
0.0
 40
2.5
  1

  7
ISO Proportional
 11
1135.0
 21
23.0
 31
0.0
100
AcDbAttributeDefinition
  3
Edition
  2
EDITION
 70
     8
 74
     2
  0
LINE
  5
521
330
4AA
100
AcDbEntity
  8
FRAME 070
100
AcDbLine
 10
1133.0
 20
20.0
 30
0.0
 11
1133.0
 21
30.0
 31
0.0
  0
TEXT
  5
522
330
4AA
100
AcDbEntity
  8
FRAME 050
100
AcDbText
 10
1129.625787401575
 20
15.41023622047244
 30
0.0
 40
4.0
  1
16
  7
ISO Proportional
 72
     4
 11
1132.125
 21
17.5
 31
0.0
100
AcDbText
  0
TEXT
  5
523
330
4AA
100
AcDbEntity
  8
FRAME 025
100
AcDbText
 10
1135.0
 20
25.75
 30
0.0
 40
2.5
  1
Edition
  7
ISO Proportional
 11
1135.0
 21
27.0
 31
0.0
100
AcDbText
 73
     2
  0
LINE
  5
524
330
4AA
100
AcDbEntity
  8
FRAME 070
100
AcDbLine
 10
1148.0
 20
20.0
 30
0.0
 11
1148.0
 21
30.0
 31
0.0
  0
ATTDEF
  5
525
330
4AA
100
AcDbEntity
  8
FRAME 025
100
AcDbText
 10
1150.0
 20
21.75
 30
0.0
 40
2.5
  1
1/?
  7
ISO Proportional
 11
1150.0
 21
23.0
 31
0.0
100
AcDbAttributeDefinition
  3
Sheet
  2
SHEET
 70
     8
 74
     2
  0
TEXT
  5
526
330
4AA
100
AcDbEntity
  8
FRAME 025
100
AcDbText
 10
1150.0
 20
25.75
 30
0.0
 40
2.5
  1
Sheet
  7
ISO Proportional
 11
1150.0
 21
27.0
 31
0.0
100
AcDbText
 73
     2
  0
ATTDEF
  5
527
330
4AA
100
AcDbEntity
  8
FRAME 025
100
AcDbText
 10
1150.0
 20
41.74999999999999
 30
0.0
 40
2.5
  1

  7
ISO Proportional
 11
1150.0
 21
43.0
 31
0.0
100
AcDbAttributeDefinition
  3
Scale
  2
SCALE
 70
     8
 74
     2
  0
LINE
  5
528
330
4AA
100
AcDbEntity
  8
FRAME 070
100
AcDbLine
 10
1148.0
 20
40.0
 30
0.0
 11
1148.0
 21
50.0
 31
0.0
  0
TEXT
  5
529
330
4AA
100
AcDbEntity
  8
FRAME 025
100
AcDbText
 10
1150.0
 20
45.75
 30
0.0
 40
2.5
  1
Scale
  7
ISO Proportional
 11
1150.0
 21
47.0
 31
0.0
100
AcDbText
 73
     2
  0
TEXT
  5
52A
330
4AA
100
AcDbEntity
  8
FRAME 050
100
AcDbText
 10
1168.9
 20
43.0
 30
0.0
 40
4.0
  1
P
  7
ISO Proportional
 72
     4
 11
1170.5
 21
45.0
 31
0.0
100
AcDbText
  0
LINE
  5
52B
330
4AA
100
AcDbEntity
  8
FRAME 050
100
AcDbLine
 10
1168.0
 20
70.0
 30
0.0
 11
1173.0
 21
70.0
 31
0.0
  0
TEXT
  5
52C
330
4AA
100
AcDbEntity
  8
FRAME 050
100
AcDbText
 10
1168.9
 20
93.0
 30
0.0
 40
4.0
  1
O
  7
ISO Proportional
 72
     4
 11
1170.5
 21
95.0
 31
0.0
100
AcDbText
  0
LINE
  5
52D
330
4AA
100
AcDbEntity
  8
FRAME 050
100
AcDbLine
 10
1168.0
 20
120.0
 30
0.0
 11
1173.0
 21
120.0
 31
0.0
  0
TEXT
  5
52E
330
4AA
100
AcDbEntity
  8
FRAME 050
100
AcDbText
 10
1168.9
 20
143.0
 30
0.0
 40
4.0
  1
N
  7
ISO Proportional
 72
     4
 11
1170.5
 21
145.0
 31
0.0
100
AcDbText
  0
LINE
  5
52F
330
4AA
100
AcDbEntity
  8
FRAME 050
100
AcDbLine
 10
235.25
 20
820.0
 30
0.0
 11
235.25
 21
825.0
 31
0.0
  0
TEXT
  5
530
330
4AA
100
AcDbEntity
  8
FRAME 050
100
AcDbText
 10
269.525
 20
820.4999999999998
 30
0.0
 40
4.0
  1
4
  7
ISO Proportional
 72
     4
 11
271.125
 21
822.4999999999999
 31
0.0
100
AcDbText
  0
LINE
  5
531
330
4AA
100
AcDbEntity
  8
FRAME 050
100
AcDbLine
 10
307.0
 20
820.0
 30
0.0
 11
307.0
 21
825.0
 31
0.0
  0
TEXT
  5
532
330
4AA
100
AcDbEntity
  8
FRAME 050
100
AcDbText
 10
341.3921572875254
 20
820.5828427124744
 30
0.0
 40
4.0
  1
5
  7
ISO Proportional
 72
     4
 11
342.875
 21
822.4999999999999
 31
0.0
100
AcDbText
  0
LINE
  5
533
330
4AA
100
AcDbEntity
  8
FRAME 050
100
AcDbLine
 10
378.75
 20
820.0
 30
0.0
 11
378.75
 21
825.0
 31
0.0
  0
TEXT
  5
534
330
4AA
100
AcDbEntity
  8
FRAME 050
100
AcDbText
 10
413.2454724409448
 20
820.4102362204723
 30
0.0
 40
4.0
  1
6
  7
ISO Proportional
 72
     4
 11
414.625
 21
822.4999999999999
 31
0.0
100
AcDbText
  0
LINE
  5
535
330
4AA
100
AcDbEntity
  8
FRAME 050
100
AcDbLine
 10
450.4999999999998
 20
820.0
 30
0.0
 11
450.4999999999998
 21
825.0
 31
0.0
  0
TEXT
  5
536
330
4AA
100
AcDbEntity
  8
FRAME 050
100
AcDbText
 10
484.975
 20
820.4999999999998
 30
0.0
 40
4.0
  1
7
  7
ISO Proportional
 72
     4
 11
486.375
 21
822.4999999999999
 31
0.0
100
AcDbText
  0
LINE
  5
537
330
4AA
100
AcDbEntity
  8
FRAME 050
100
AcDbLine
 10
522.25
 20
820.0
 30
0.0
 11
522.25
 21
825.0
 31
0.0
  0
TEXT
  5
538
330
4AA
100
AcDbEntity
  8
FRAME 050
100
AcDbText
 10
556.7249999999999
 20
820.4999999999998
 30
0.0
 40
4.0
  1
8
  7
ISO Proportional
 72
     4
 11
558.1249999999998
 21
822.4999999999999
 31
0.0
100
AcDbText
  0
LINE
  5
539
330
4AA
100
AcDbEntity
  8
FRAME 050
100
AcDbLine
 10
594.0
 20
815.0
 30
0.0
 11
594.0
 21
825.0
 31
0.0
  0
TEXT
  5
53A
330
4AA
100
AcDbEntity
  8
FRAME 050
100
AcDbText
 10
628.4076670934825
 20
820.5961825830806
 30
0.0
 40
4.0
  1
9
  7
ISO Proportional
 72
     4
 11
629.875
 21
822.4999999999999
 31
0.0
100
AcDbText
  0
LINE
  5
53B
330
4AA
100
AcDbEntity
  8
FRAME 050
100
AcDbLine
 10
665.7499999999998
 20
820.0
 30
0.0
 11
665.7499999999998
 21
825.0
 31
0.0
  0
TEXT
  5
53C
330
4AA
100
AcDbEntity
  8
FRAME 050
100
AcDbText
 10
699.2234251968503
 20
820.4999999999998
 30
0.0
 40
4.0
  1
10
  7
ISO Proportional
 72
     4
 11
701.625
 21
822.4999999999999
 31
0.0
100
AcDbText
  0
TEXT
  5
53D
330
4AA
100
AcDbEntity
  8
FRAME 050
100
AcDbText
 10
1168.7
 20
193.0
 30
0.0
 40
4.0
  1
M
  7
ISO Proportional
 72
     4
 11
1170.5
 21
195.0
 31
0.0
100
AcDbText
  0
LINE
  5
53E
330
4AA
100
AcDbEntity
  8
FRAME 050
100
AcDbLine
 10
1168.0
 20
170.0
 30
0.0
 11
1173.0
 21
170.0
 31
0.0
  0
LINE
  5
53F
330
4AA
100
AcDbEntity
  8
FRAME 050
100
AcDbLine
 10
1168.0
 20
220.0
 30
0.0
 11
1173.0
 21
220.0
 31
0.0
  0
TEXT
  5
540
330
4AA
100
AcDbEntity
  8
FRAME 050
100
AcDbText
 10
1169.1
 20
243.0
 30
0.0
 40
4.0
  1
L
  7
ISO Proportional
 72
     4
 11
1170.5
 21
245.0
 31
0.0
100
AcDbText
  0
LINE
  5
541
330
4AA
100
AcDbEntity
  8
FRAME 050
100
AcDbLine
 10
1168.0
 20
270.0
 30
0.0
 11
1173.0
 21
270.0
 31
0.0
  0
TEXT
  5
542
330
4AA
100
AcDbEntity
  8
FRAME 050
100
AcDbText
 10
1168.89
 20
293.0
 30
0.0
 40
4.0
  1
K
  7
ISO Proportional
 72
     4
 11
1170.5
 21
295.0
 31
0.0
100
AcDbText
  0
LINE
  5
543
330
4AA
100
AcDbEntity
  8
FRAME 050
100
AcDbLine
 10
1168.0
 20
320.0
 30
0.0
 11
1173.0
 21
320.0
 31
0.0
  0
TEXT
  5
544
330
4AA
100
AcDbEntity
  8
FRAME 050
100
AcDbText
 10
1169.217157287525
 20
343.0828427124747
 30
0.0
 40
4.0
  1
J
  7
ISO Proportional
 72
     4
 11
1170.5
 21
345.0
 31
0.0
100
AcDbText
  0
LINE
  5
545
330
4AA
100
AcDbEntity
  8
FRAME 050
100
AcDbLine
 10
1168.0
 20
370.0
 30
0.0
 11
1173.0
 21
370.0
 31
0.0
  0
TEXT
  5
546
330
4AA
100
AcDbEntity
  8
FRAME 050
100
AcDbText
 10
1169.9
 20
393.0
 30
0.0
 40
4.0
  1
I
  7
ISO Proportional
 72
     4
 11
1170.5
 21
395.0
 31
0.0
100
AcDbText
  0
LINE
  5
547
330
4AA
100
AcDbEntity
  8
FRAME 050
100
AcDbLine
 10
1163.0
 20
420.0
 30
0.0
 11
1173.0
 21
420.0
 31
0.0
  0
TEXT
  5
548
330
4AA
100
AcDbEntity
  8
FRAME 050
100
AcDbText
 10
1168.9
 20
443.0
 30
0.0
 40
4.0
  1
H
  7
ISO Proportional
 72
     4
 11
1170.5
 21
445.0
 31
0.0
100
AcDbText
  0
LINE
  5
549
330
4AA
100
AcDbEntity
  8
FRAME 050
100
AcDbLine
 10
1168.0
 20
470.0
 30
0.0
 11
1173.0
 21
470.0
 31
0.0
  0
TEXT
  5
54A
330
4AA
100
AcDbEntity
  8
FRAME 050
100
AcDbText
 10
1169.003553390593
 20
493.0
 30
0.0
 40
4.0
  1
G
  7
ISO Proportional
 72
     4
 11
1170.5
 21
495.0
 31
0.0
100
AcDbText
  0
LINE
  5
54B
330
4AA
100
AcDbEntity
  8
FRAME 050
100
AcDbLine
 10
737.5
 20
820.0
 30
0.0
 11
737.5
 21
825.0
 31
0.0
  0
TEXT
  5
54C
330
4AA
100
AcDbEntity
  8
FRAME 050
100
AcDbText
 10
771.375
 20
820.4999999999998
 30
0.0
 40
4.0
  1
11
  7
ISO Proportional
 72
     4
 11
773.375
 21
822.4999999999999
 31
0.0
100
AcDbText
  0
LINE
  5
54D
330
4AA
100
AcDbEntity
  8
FRAME 050
100
AcDbLine
 10
809.2499999999999
 20
820.0
 30
0.0
 11
809.2499999999999
 21
825.0
 31
0.0
  0
TEXT
  5
54E
330
4AA
100
AcDbEntity
  8
FRAME 050
100
AcDbText
 10
842.6048818897637
 20
820.3996062992125
 30
0.0
 40
4.0
  1
12
  7
ISO Proportional
 72
     4
 11
845.1249999999998
 21
822.4999999999999
 31
0.0
100
AcDbText
  0
LINE
  5
54F
330
4AA
100
AcDbEntity
  8
FRAME 050
100
AcDbLine
 10
881.0
 20
820.0
 30
0.0
 11
881.0
 21
825.0
 31
0.0
  0
TEXT
  5
550
330
4AA
100
AcDbEntity
  8
FRAME 050
100
AcDbText
 10
914.3921572875253
 20
820.5828427124744
 30
0.0
 40
4.0
  1
13
  7
ISO Proportional
 72
     4
 11
916.8750000000001
 21
822.4999999999999
 31
0.0
100
AcDbText
  0
LINE
  5
551
330
4AA
100
AcDbEntity
  8
FRAME 050
100
AcDbLine
 10
952.7499999999999
 20
820.0
 30
0.0
 11
952.7499999999999
 21
825.0
 31
0.0
  0
TEXT
  5
552
330
4AA
100
AcDbEntity
  8
FRAME 050
100
AcDbText
 10
986.025
 20
820.4999999999998
 30
0.0
 40
4.0
  1
14
  7
ISO Proportional
 72
     4
 11
988.625
 21
822.4999999999999
 31
0.0
100
AcDbText
  0
LINE
  5
553
330
4AA
100
AcDbEntity
  8
FRAME 050
100
AcDbLine
 10
1168.0
 20
520.0
 30
0.0
 11
1173.0
 21
520.0
 31
0.0
  0
TEXT
  5
554
330
4AA
100
AcDbEntity
  8
FRAME 050
100
AcDbText
 10
1169.1
 20
543.0
 30
0.0
 40
4.0
  1
F
  7
ISO Proportional
 72
     4
 11
1170.5
 21
545.0
 31
0.0
100
AcDbText
  0
LINE
  5
555
330
4AA
100
AcDbEntity
  8
FRAME 050
100
AcDbLine
 10
1168.0
 20
570.0
 30
0.0
 11
1173.0
 21
570.0
 31
0.0
  0
TEXT
  5
556
330
4AA
100
AcDbEntity
  8
FRAME 050
100
AcDbText
 10
1169.1
 20
593.0
 30
0.0
 40
4.0
  1
E
  7
ISO Proportional
 72
     4
 11
1170.5
 21
595.0
 31
0.0
100
AcDbText
  0
LINE
  5
557
330
4AA
100
AcDbEntity
  8
FRAME 050
100
AcDbLine
 10
1168.0
 20
620.0
 30
0.0
 11
1173.0
 21
620.0
 31
0.0
  0
TEXT
  5
558
330
4AA
100
AcDbEntity
  8
FRAME 050
100
AcDbText
 10
1168.786091270347
 20
643.0
 30
0.0
 40
4.0
  1
D
  7
ISO Proportional
 72
     4
 11
1170.5
 21
645.0
 31
0.0
100
AcDbText
  0
LINE
  5
559
330
4AA
100
AcDbEntity
  8
FRAME 050
100
AcDbLine
 10
1168.0
 20
670.0
 30
0.0
 11
1173.0
 21
670.0
 31
0.0
  0
TEXT
  5
55A
330
4AA
100
AcDbEntity
  8
FRAME 050
100
AcDbText
 10
1169.193198051534
 20
693.0
 30
0.0
 40
4.0
  1
C
  7
ISO Proportional
 72
     4
 11
1170.5
 21
695.0
 31
0.0
100
AcDbText
  0
LINE
  5
55B
330
4AA
100
AcDbEntity
  8
FRAME 070
100
AcDbLine
 10
998.0
 20
814.0
 30
0.0
 11
1168.0
 21
814.0
 31
0.0
  0
TEXT
  5
55C
330
4AA
100
AcDbEntity
  8
FRAME 025
100
AcDbText
 10
1012.0
 20
815.75
 30
0.0
 40
2.5
  1
Revision note
  7
ISO Proportional
 11
1012.0
 21
817.0
 31
0.0
100
AcDbText
 73
     2
  0
LINE
  5
55D
330
4AA
100
AcDbEntity
  8
FRAME 050
100
AcDbLine
 10
1024.5
 20
820.0
 30
0.0
 11
1024.5
 21
825.0
 31
0.0
  0
TEXT
  5
55E
330
4AA
100
AcDbEntity
  8
FRAME 025
100
AcDbText
 10
1000.0
 20
815.75
 30
0.0
 40
2.5
  1
RevNo
  7
ISO Proportional
 11
1000.0
 21
817.0
 31
0.0
100
AcDbText
 73
     2
  0
LINE
  5
55F
330
4AA
100
AcDbEntity
  8
FRAME 070
100
AcDbLine
 10
998.0
 20
814.0
 30
0.0
 11
998.0
 21
820.0
 31
0.0
  0
LINE
  5
560
330
4AA
100
AcDbEntity
  8
FRAME 070
100
AcDbLine
 10
1010.0
 20
814.0
 30
0.0
 11
1010.0
 21
820.0
 31
0.0
  0
TEXT
  5
561
330
4AA
100
AcDbEntity
  8
FRAME 050
100
AcDbText
 10
1057.892157287525
 20
820.5828427124744
 30
0.0
 40
4.0
  1
15
  7
ISO Proportional
 72
     4
 11
1060.375
 21
822.4999999999999
 31
0.0
100
AcDbText
  0
LINE
  5
562
330
4AA
100
AcDbEntity
  8
FRAME 050
100
AcDbLine
 10
1096.25
 20
820.0
 30
0.0
 11
1096.25
 21
825.0
 31
0.0
  0
LINE
  5
563
330
4AA
100
AcDbEntity
  8
FRAME 070
100
AcDbLine
 10
1119.0
 20
814.0
 30
0.0
 11
1119.0
 21
820.0
 31
0.0
  0
TEXT
  5
564
330
4AA
100
AcDbEntity
  8
FRAME 025
100
AcDbText
 10
1121.0
 20
815.75
 30
0.0
 40
2.5
  1
Date
  7
ISO Proportional
 11
1121.0
 21
817.0
 31
0.0
100
AcDbText
 73
     2
  0
LINE
  5
565
330
4AA
100
AcDbEntity
  8
FRAME 050
100
AcDbLine
 10
1168.0
 20
720.0
 30
0.0
 11
1173.0
 21
720.0
 31
0.0
  0
TEXT
  5
566
330
4AA
100
AcDbEntity
  8
FRAME 050
100
AcDbText
 10
1168.9
 20
743.0
 30
0.0
 40
4.0
  1
B
  7
ISO Proportional
 72
     4
 11
1170.5
 21
745.0
 31
0.0
100
AcDbText
  0
LINE
  5
567
330
4AA
100
AcDbEntity
  8
FRAME 050
100
AcDbLine
 10
1168.0
 20
770.0
 30
0.0
 11
1173.0
 21
770.0
 31
0.0
  0
TEXT
  5
568
330
4AA
100
AcDbEntity
  8
FRAME 050
100
AcDbText
 10
1168.7
 20
793.0
 30
0.0
 40
4.0
  1
A
  7
ISO Proportional
 72
     4
 11
1170.5
 21
795.0
 31
0.0
100
AcDbText
  0
TEXT
  5
569
330
4AA
100
AcDbEntity
  8
FRAME 025
100
AcDbText
 10
1155.082993918505
 20
815.75
 30
0.0
 40
2.5
  1
Checked
  7
ISO Proportional
 11
1155.082993918505
 21
817.0
 31
0.0
100
AcDbText
 73
     2
  0
TEXT
  5
56A
330
4AA
100
AcDbEntity
  8
FRAME 050
100
AcDbText
 10
1129.625787401575
 20
820.4102362204723
 30
0.0
 40
4.0
  1
16
  7
ISO Proportional
 72
     4
 11
1132.125
 21
822.4999999999999
 31
0.0
100
AcDbText
  0
TEXT
  5
56B
330
4AA
100
AcDbEntity
  8
FRAME 025
100
AcDbText
 10
1139.360997972835
 20
815.75
 30
0.0
 40
2.5
  1
Signature
  7
ISO Proportional
 11
1139.360997972835
 21
817.0
 31
0.0
100
AcDbText
 73
     2
  0
LINE
  5
56C
330
4AA
100
AcDbEntity
  8
FRAME 070
100
AcDbLine
 10
1139.0
 20
814.0
 30
0.0
 11
1139.0
 21
820.0
 31
0.0
  0
LINE
  5
56D
330
4AA
100
AcDbEntity
  8
FRAME 070
100
AcDbLine
 10
1154.0
 20
814.0
 30
0.0
 11
1154.0
 21
820.0
 31
0.0
  0
ENDBLK
  5
56F
330
4AA
100
AcDbEntity
  8
0
 62
     1
100
AcDbBlockEnd
  0
BLOCK
  5
9EA
330
9DF
100
AcDbEntity
  8
0
 62
     1
100
AcDbBlockBegin
  2
*D6
 70
     1
 10
0.0
 20
0.0
 30
0.0
  3
*D6
  1

  0
LINE
  5
3264
330
9DF
100
AcDbEntity
  8
PIC06
  6
PHANTOM
 62
     0
 48
12.0
370
    -2
100
AcDbLine
 10
129.0080077634569
 20
341.2608604139568
 30
0.0
 11
127.1312730018081
 21
341.2608604139568
 31
0.0
  0
LINE
  5
3265
330
9DF
100
AcDbEntity
  8
PIC06
  6
PHANTOM
 62
     0
 48
12.0
370
    -2
100
AcDbLine
 10
128.2003005631282
 20
342.7608604139568
 30
0.0
 11
127.1312730018081
 21
342.7608604139568
 31
0.0
  0
LINE
  5
3266
330
9DF
100
AcDbEntity
  8
PIC06
  6
PHANTOM
 62
     0
 48
12.0
370
    -2
100
AcDbLine
 10
127.3812730018081
 20
341.0108604139568
 30
0.0
 11
127.3812730018081
 21
340.7608604139568
 31
0.0
  0
LINE
  5
3267
330
9DF
100
AcDbEntity
  8
PIC06
  6
PHANTOM
 62
     0
 48
12.0
370
    -2
100
AcDbLine
 10
127.3812730018081
 20
343.0108604139568
 30
0.0
 11
127.3812730018081
 21
343.2608604139568
 31
0.0
  0
SOLID
  5
3268
330
9DF
100
AcDbEntity
  8
PIC06
  6
PHANTOM
 62
     0
 48
12.0
100
AcDbTrace
 10
127.3396063351414
 20
341.0108604139568
 30
0.0
 11
127.4229396684747
 21
341.0108604139568
 31
0.0
 12
127.3812730018081
 22
341.2608604139568
 32
0.0
 13
127.3812730018081
 23
341.2608604139568
 33
0.0
  0
SOLID
  5
3269
330
9DF
100
AcDbEntity
  8
PIC06
  6
PHANTOM
 62
     0
 48
12.0
100
AcDbTrace
 10
127.3396063351414
 20
343.0108604139568
 30
0.0
 11
127.4229396684747
 21
343.0108604139568
 31
0.0
 12
127.3812730018081
 22
342.7608604139568
 32
0.0
 13
127.3812730018081
 23
342.7608604139568
 33
0.0
  0
MTEXT
  5
326A
330
9DF
100
AcDbEntity
  8
PIC06
  6
PHANTOM
 62
     0
 48
12.0
100
AcDbMText
 10
127.381273001808
 20
341.9933698024061
 30
0.0
 40
0.25
 41
0.0
 71
     5
 72
     1
  1
\A1;1{\H1.000000x;\S1/2;}"\P [38.10mm]
 73
     1
 44
1.0
1001
ACAD
1000
MTEXTBEGIN
1070
    73
1070
     1
1070
    44
1040
1.0
1070
    74
1070
     0
1000
MTEXTEND
  0
POINT
  5
326B
330
9DF
100
AcDbEntity
  8
Defpoints
  6
PHANTOM
 62
     0
 48
12.0
100
AcDbPoint
 10
129.1330077634569
 20
341.2608604139568
 30
0.0
  0
POINT
  5
326C
330
9DF
100
AcDbEntity
  8
Defpoints
  6
PHANTOM
 62
     0
 48
12.0
100
AcDbPoint
 10
128.3253005631282
 20
342.7608604139568
 30
0.0
  0
POINT
  5
326D
330
9DF
100
AcDbEntity
  8
Defpoints
  6
PHANTOM
 62
     0
 48
12.0
100
AcDbPoint
 10
127.3812730018081
 20
342.7608604139568
 30
0.0
  0
ENDBLK
  5
9EB
330
9DF
100
AcDbEntity
  8
0
 62
     1
100
AcDbBlockEnd
  0
BLOCK
  5
9F7
330
9EC
100
AcDbEntity
  8
0
 62
     1
100
AcDbBlockBegin
  2
*D7
 70
     1
 10
0.0
 20
0.0
 30
0.0
  3
*D7
  1

  0
LINE
  5
326E
330
9EC
100
AcDbEntity
  8
0
 62
     0
370
    -2
100
AcDbLine
 10
127.7481781992947
 20
344.7608604139567
 30
0.0
 11
125.3616708269765
 21
344.7608604139567
 31
0.0
  0
LINE
  5
326F
330
9EC
100
AcDbEntity
  8
0
 62
     0
370
    -2
100
AcDbLine
 10
127.7481781992947
 20
342.7608604139567
 30
0.0
 11
125.3616708269765
 21
342.7608604139567
 31
0.0
  0
LINE
  5
3270
330
9EC
100
AcDbEntity
  8
0
 62
     0
370
    -2
100
AcDbLine
 10
125.6116708269765
 20
344.5108604139567
 30
0.0
 11
125.6116708269765
 21
344.4172224525437
 31
0.0
  0
LINE
  5
3271
330
9EC
100
AcDbEntity
  8
0
 62
     0
370
    -2
100
AcDbLine
 10
125.6116708269765
 20
343.0108604139566
 30
0.0
 11
125.6116708269765
 21
343.4991028527256
 31
0.0
  0
SOLID
  5
3272
330
9EC
100
AcDbEntity
  8
0
 62
     0
100
AcDbTrace
 10
125.5700041603098
 20
344.5108604139567
 30
0.0
 11
125.6533374936432
 21
344.5108604139567
 31
0.0
 12
125.6116708269765
 22
344.7608604139567
 32
0.0
 13
125.6116708269765
 23
344.7608604139567
 33
0.0
  0
SOLID
  5
3273
330
9EC
100
AcDbEntity
  8
0
 62
     0
100
AcDbTrace
 10
125.5700041603098
 20
343.0108604139566
 30
0.0
 11
125.6533374936432
 21
343.0108604139566
 31
0.0
 12
125.6116708269765
 22
342.7608604139567
 32
0.0
 13
125.6116708269765
 23
342.7608604139567
 33
0.0
  0
MTEXT
  5
3274
330
9EC
100
AcDbEntity
  8
0
 62
     0
100
AcDbMText
 10
125.6116708269765
 20
343.9581626526347
 30
0.0
 40
0.25
 41
0.0
 71
     5
 72
     1
  1
\A1;2"\P [50.80mm]
 73
     1
 44
1.0
1001
ACAD
1000
MTEXTBEGIN
1070
    73
1070
     1
1070
    44
1040
1.0
1070
    74
1070
     0
1000
MTEXTEND
  0
POINT
  5
3275
330
9EC
100
AcDbEntity
  8
Defpoints
 62
     0
100
AcDbPoint
 10
127.8731781992947
 20
344.7608604139567
 30
0.0
  0
POINT
  5
3276
330
9EC
100
AcDbEntity
  8
Defpoints
 62
     0
100
AcDbPoint
 10
127.8731781992947
 20
342.7608604139567
 30
0.0
  0
POINT
  5
3277
330
9EC
100
AcDbEntity
  8
Defpoints
 62
     0
100
AcDbPoint
 10
125.6116708269765
 20
342.7608604139567
 30
0.0
  0
ENDBLK
  5
9F8
330
9EC
100
AcDbEntity
  8
0
 62
     1
100
AcDbBlockEnd
  0
BLOCK
  5
A04
330
9F9
100
AcDbEntity
  8
0
 62
     1
100
AcDbBlockBegin
  2
*D8
 70
     1
 10
0.0
 20
0.0
 30
0.0
  3
*D8
  1

  0
LINE
  5
3226
330
9F9
100
AcDbEntity
  8
0
 62
     0
370
    -2
100
AcDbLine
 10
127.7481781992947
 20
342.7608604139567
 30
0.0
 11
123.7385845315748
 21
342.7608604139567
 31
0.0
  0
LINE
  5
3227
330
9F9
100
AcDbEntity
  8
0
 62
     0
370
    -2
100
AcDbLine
 10
137.6399082353907
 20
336.8120948298882
 30
0.0
 11
123.7385845315748
 21
336.8120948298882
 31
0.0
  0
LINE
  5
3228
330
9F9
100
AcDbEntity
  8
0
 62
     0
370
    -2
100
AcDbLine
 10
123.9885845315749
 20
342.5108604139567
 30
0.0
 11
123.9885845315749
 21
340.2455374218315
 31
0.0
  0
LINE
  5
3229
330
9F9
100
AcDbEntity
  8
0
 62
     0
370
    -2
100
AcDbLine
 10
123.9885845315749
 20
337.0620948298882
 30
0.0
 11
123.9885845315749
 21
339.3274178220133
 31
0.0
  0
SOLID
  5
322A
330
9F9
100
AcDbEntity
  8
0
 62
     0
100
AcDbTrace
 10
123.9469178649082
 20
342.5108604139567
 30
0.0
 11
124.0302511982415
 21
342.5108604139567
 31
0.0
 12
123.9885845315749
 22
342.7608604139567
 32
0.0
 13
123.9885845315749
 23
342.7608604139567
 33
0.0
  0
SOLID
  5
322B
330
9F9
100
AcDbEntity
  8
0
 62
     0
100
AcDbTrace
 10
123.9469178649082
 20
337.0620948298882
 30
0.0
 11
124.0302511982415
 21
337.0620948298882
 31
0.0
 12
123.9885845315749
 22
336.8120948298882
 32
0.0
 13
123.9885845315749
 23
336.8120948298882
 33
0.0
  0
MTEXT
  5
322C
330
9F9
100
AcDbEntity
  8
0
 62
     0
100
AcDbMText
 10
123.9885845315748
 20
339.7864776219225
 30
0.0
 40
0.25
 41
0.0
 71
     5
 72
     1
  1
\A1;6"\P [151.10mm]
 73
     1
 44
1.0
1001
ACAD
1000
MTEXTBEGIN
1070
    73
1070
     1
1070
    44
1040
1.0
1070
    74
1070
     0
1000
MTEXTEND
  0
POINT
  5
322D
330
9F9
100
AcDbEntity
  8
Defpoints
 62
     0
100
AcDbPoint
 10
127.8731781992947
 20
342.7608604139567
 30
0.0
  0
POINT
  5
322E
330
9F9
100
AcDbEntity
  8
Defpoints
 62
     0
100
AcDbPoint
 10
137.7649082353907
 20
336.8120948298882
 30
0.0
  0
POINT
  5
322F
330
9F9
100
AcDbEntity
  8
Defpoints
 62
     0
100
AcDbPoint
 10
123.9885845315749
 20
336.8120948298882
 30
0.0
  0
ENDBLK
  5
A05
330
9F9
100
AcDbEntity
  8
0
 62
     1
100
AcDbBlockEnd
  0
ENDSEC
  0
SECTION
  2
ENTITIES
  0
ARC
  5
4E
330
22
100
AcDbEntity
  8
PIC20
  6
Continuous
 62
     7
100
AcDbCircle
 10
139.4878447197199
 20
356.7292074959504
 30
0.0
 40
29.99964048725904
100
AcDbArc
 50
248.8006024855598
 51
291.1993975144402
  0
ARC
  5
4F
330
22
100
AcDbEntity
  8
PIC20
  6
Continuous
 62
     7
100
AcDbCircle
 10
-4.831800529397411
 20
314.5457909818422
 30
0.0
 40
156.9666228644379
100
AcDbArc
 50
5.792148426014347
 51
9.042352500535491
  0
LINE
  5
50
330
22
100
AcDbEntity
  8
PIC20
  6
Continuous
 62
     7
100
AcDbLine
 10
129.569186646482
 20
339.8790157262038
 30
0.0
 11
149.4065027929578
 21
339.8790157262038
 31
0.0
  0
ARC
  5
51
330
22
100
AcDbEntity
  8
PIC20
  6
Continuous
 62
     7
100
AcDbCircle
 10
283.8074899688373
 20
314.5457909818422
 30
0.0
 40
156.9666228644379
100
AcDbArc
 50
170.9576474994645
 51
174.2078515739856
  0
ARC
  5
52
330
22
100
AcDbEntity
  8
PIC20
  6
Continuous
 62
     7
100
AcDbCircle
 10
149.7666924563834
 20
330.227929418293
 30
0.0
 40
1.574784277546412
100
AcDbArc
 50
291.1993975144402
 51
5.792148426014347
  0
ARC
  5
53
330
22
100
AcDbEntity
  8
PIC20
  6
Continuous
 62
     7
100
AcDbCircle
 10
129.2089969830563
 20
330.2279294182929
 30
0.0
 40
1.574784277546409
100
AcDbArc
 50
174.2078515739856
 51
248.8006024855598
  0
ARC
  5
54
330
22
100
AcDbEntity
  8
PIC20
  6
Continuous
 62
     7
100
AcDbCircle
 10
149.4065027929578
 20
339.0916235874306
 30
0.0
 40
0.7873921387732029
100
AcDbArc
 50
9.042352500535491
 51
90.0
  0
ARC
  5
55
330
22
100
AcDbEntity
  8
PIC20
  6
Continuous
 62
     7
100
AcDbCircle
 10
129.569186646482
 20
339.0916235874306
 30
0.0
 40
0.7873921387732029
100
AcDbArc
 50
90.0
 51
170.9576474994645
  0
CIRCLE
  5
82
330
22
100
AcDbEntity
  8
PIC20
  6
Continuous
 62
     7
100
AcDbCircle
 10
152.2760678514389
 20
338.8357210082802
 30
0.0
 40
0.1968480346933007
  0
CIRCLE
  5
83
330
22
100
AcDbEntity
  8
PIC20
  6
Continuous
 62
     7
100
AcDbCircle
 10
153.2240378959904
 20
331.6113981350361
 30
0.0
 40
0.1968480346933007
  0
LINE
  5
84
330
22
100
AcDbEntity
  8
PIC20
  6
CENTER
 62
     7
100
AcDbLine
 10
152.0004806028683
 20
338.8357210082802
 30
0.0
 11
152.5516551000096
 21
338.8357210082802
 31
0.0
  0
LINE
  5
85
330
22
100
AcDbEntity
  8
PIC20
  6
CENTER
 62
     7
100
AcDbLine
 10
152.2760678514389
 20
338.5601337597096
 30
0.0
 11
152.2760678514389
 21
339.1113082568509
 31
0.0
  0
LINE
  5
86
330
22
100
AcDbEntity
  8
PIC20
  6
CENTER
 62
     7
100
AcDbLine
 10
152.9484506474198
 20
331.6113981350361
 30
0.0
 11
153.499625144561
 21
331.6113981350361
 31
0.0
  0
LINE
  5
87
330
22
100
AcDbEntity
  8
PIC20
  6
CENTER
 62
     7
100
AcDbLine
 10
153.2240378959904
 20
331.3358108864655
 30
0.0
 11
153.2240378959904
 21
331.8869853836068
 31
0.0
  0
CIRCLE
  5
88
330
22
100
AcDbEntity
  8
PIC20
  6
Continuous
 62
     7
100
AcDbCircle
 10
126.6996215880008
 20
338.8357210082802
 30
0.0
 40
0.1968480346933007
  0
LINE
  5
89
330
22
100
AcDbEntity
  8
PIC20
  6
CENTER
 62
     7
100
AcDbLine
 10
126.9752088365714
 20
338.8357210082802
 30
0.0
 11
126.4240343394302
 21
338.8357210082802
 31
0.0
  0
LINE
  5
8A
330
22
100
AcDbEntity
  8
PIC20
  6
CENTER
 62
     7
100
AcDbLine
 10
126.6996215880008
 20
338.5601337597096
 30
0.0
 11
126.6996215880008
 21
339.1113082568509
 31
0.0
  0
CIRCLE
  5
8B
330
22
100
AcDbEntity
  8
PIC20
  6
Continuous
 62
     7
100
AcDbCircle
 10
125.7516515434493
 20
331.6113981350361
 30
0.0
 40
0.1968480346933007
  0
LINE
  5
8C
330
22
100
AcDbEntity
  8
PIC20
  6
CENTER
 62
     7
100
AcDbLine
 10
126.02723879202
 20
331.6113981350361
 30
0.0
 11
125.4760642948787
 21
331.6113981350361
 31
0.0
  0
LINE
  5
8D
330
22
100
AcDbEntity
  8
PIC20
  6
CENTER
 62
     7
100
AcDbLine
 10
125.7516515434493
 20
331.3358108864655
 30
0.0
 11
125.7516515434493
 21
331.8869853836068
 31
0.0
  0
INSERT
  5
FB
330
22
100
AcDbEntity
  8
DRAW1
  6
Continuous
 62
     3
100
AcDbBlockReference
  2
SYM1
 10
0.0
 20
0.0
 30
0.0
  0
LINE
  5
30B
330
22
100
AcDbEntity
  8
0
 62
     7
100
AcDbLine
 10
139.4878447197199
 20
339.8790157262038
 30
0.0
 11
139.4878447197199
 21
341.7290985195042
 31
0.0
  0
LINE
  5
30C
330
22
100
AcDbEntity
  8
0
 62
     7
100
AcDbLine
 10
139.4878447197199
 20
326.7295670086913
 30
0.0
 11
139.4878447197199
 21
324.6924370468966
 31
0.0
  0
INSERT
  5
314
330
22
100
AcDbEntity
  8
TOTO
 62
     7
100
AcDbBlockReference
  2
A$C74DC1801
 10
123.5448105908275
 20
345.5276909507091
 30
0.0
 41
0.0295275000000004
 42
0.029527499999972
 43
0.0295275
  0
MTEXT
  5
32B
330
22
100
AcDbEntity
  8
0
 62
     7
100
AcDbMText
 10
148.3161462012194
 20
325.5113076595033
 30
0.0
 40
0.19685
 41
3.407429016685735
 71
     1
 72
     5
  1
{\fArial|b0|i0|c0|p34;\C256;Template for LT967\P0GU130\PRev: Feb.2006}
 73
     1
 44
1.0
1001
ACAD
1000
MTEXTBEGIN
1070
    73
1070
     1
1070
    44
1040
1.0
1070
    74
1070
     0
1000
MTEXTEND
  0
LWPOLYLINE
  5
369
330
22
100
AcDbEntity
  8
LINE_TEX
100
AcDbPolyline
 90
        4
 70
     1
 43
0.0
 10
121.9091397197199
 20
347.3097178146909
 10
157.3421397197199
 20
347.3097178146909
 10
157.3421397197199
 20
323.6877178146909
 10
121.9091397197199
 20
323.6877178146909
  0
TEXT
  5
5A9
330
22
100
AcDbEntity
  8
DIM
  6
Continuous
 62
     7
100
AcDbText
 10
148.2966933903499
 20
322.2143157306446
 30
0.0
 40
0.23622
  1
70# OFFSET UNCOATED SHEET
  7
black
100
AcDbText
  0
TEXT
  5
5AA
330
22
100
AcDbEntity
  8
DIM
  6
Continuous
 62
     7
100
AcDbText
 10
148.2966933903499
 20
321.7891646317695
 30
0.0
 40
0.23622
  1
BRIGHTNESS FACTOR- 86%%% OR HIGHER
  7
black
100
AcDbText
  0
LINE
  5
7FC
330
22
100
AcDbEntity
  8
PIC06
  6
PHANTOM
 62
     7
 48
0.5
100
AcDbLine
 10
129.1330077634569
 20
341.2608604139568
 30
0.0
 11
149.842681675983
 21
341.2608604139568
 31
0.0
  0
LINE
  5
88F
330
22
100
AcDbEntity
  8
PIC21
  6
CENTER
 62
     3
100
AcDbLine
 10
137.6399082353907
 20
336.8120948298882
 30
0.0
 11
140.747672141757
 21
336.8120948298882
 31
0.0
  0
ARC
  5
915
330
22
100
AcDbEntity
  8
PIC06
  6
PHANTOM
 62
     7
 48
0.5
100
AcDbCircle
 10
139.48784471972
 20
356.4968982992183
 30
0.0
 40
31.61379437174411
100
AcDbArc
 50
248.0282336228026
 51
291.9717663771974
  0
ARC
  5
916
330
22
100
AcDbEntity
  8
PIC06
  6
PHANTOM
 62
     7
 48
0.5
100
AcDbCircle
 10
150.3144866278515
 20
329.6619550236226
 30
0.0
 40
2.677133271828921
100
AcDbArc
 50
291.9717663771974
 51
5.649832765447215
  0
ARC
  5
917
330
22
100
AcDbEntity
  8
PIC06
  6
PHANTOM
 62
     7
 48
0.5
100
AcDbCircle
 10
-4.83180052939744
 20
314.3134817851101
 30
0.0
 40
158.5807767489231
100
AcDbArc
 50
5.649832765447215
 51
9.202107218946288
  0
ARC
  5
918
330
22
100
AcDbEntity
  8
PIC06
  6
PHANTOM
 62
     7
 48
0.5
100
AcDbCircle
 10
149.842681675983
 20
339.3711192809011
 30
0.0
 40
1.889741133055705
100
AcDbArc
 50
9.202107218946288
 51
90.0
  0
ARC
  5
919
330
22
100
AcDbEntity
  8
PIC06
  6
PHANTOM
 62
     7
 48
0.5
100
AcDbCircle
 10
129.1330077634569
 20
339.3711192809011
 30
0.0
 40
1.889741133055686
100
AcDbArc
 50
90.0
 51
170.7978927810537
  0
ARC
  5
91A
330
22
100
AcDbEntity
  8
PIC06
  6
PHANTOM
 62
     7
 48
0.5
100
AcDbCircle
 10
283.8074899688373
 20
314.3134817851101
 30
0.0
 40
158.5807767489231
100
AcDbArc
 50
170.7978927810537
 51
174.3501672345527
  0
ARC
  5
91B
330
22
100
AcDbEntity
  8
PIC06
  6
PHANTOM
 62
     7
 48
0.5
100
AcDbCircle
 10
128.6612028115884
 20
329.6619550236226
 30
0.0
 40
2.677133271828926
100
AcDbArc
 50
174.3501672345527
 51
248.0282336228026
  0
CIRCLE
  5
92C
330
22
100
AcDbEntity
  8
PIC20
  6
Continuous
 62
     7
100
AcDbCircle
 10
139.48784471972
 20
336.8120948298882
 30
0.0
 40
0.8661313526505232
  0
CIRCLE
  5
92D
330
22
100
AcDbEntity
  8
PIC20
  6
Continuous
 62
     7
100
AcDbCircle
 10
139.48784471972
 20
336.8120948298882
 30
0.0
 40
1.259827422037123
  0
MTEXT
  5
9CD
330
22
100
AcDbEntity
  8
0
 62
     7
100
AcDbMText
 10
144.1099814200842
 20
337.4087837814796
 30
0.0
 40
0.1968513482367818
 41
5.219019296194453
 71
     6
 72
     5
  1
RIM OF LAVATORY\PBORDE DEL LAVABO\PBORD DU LAVABO
 73
     1
 44
1.0
1001
ACAD
1000
MTEXTBEGIN
1070
    73
1070
     1
1070
    44
1040
1.0
1070
    74
1070
     0
1000
MTEXTEND
  0
MTEXT
  5
9CE
330
22
100
AcDbEntity
  8
0
 62
     7
100
AcDbMText
 10
144.4774975157156
 20
330.9836617082035
 30
0.0
 40
0.1968513482367818
 41
5.431551331840547
 71
     6
 72
     5
  1
 CUT ALONG THIS LINE\PCORTE A LO LARGO DE ESTA LINEA\PDECOUPER AU LONG DE CETTE LIGNE
 73
     1
 44
1.0
1001
ACAD
1000
MTEXTBEGIN
1070
    73
1070
     1
1070
    44
1040
1.0
1070
    74
1070
     0
1000
MTEXTEND
1000
ACAD_MTEXT_DEFINED_HEIGHT_BEGIN
1070
    46
1040
1.895578545603916
1000
ACAD_MTEXT_DEFINED_HEIGHT_END
  0
LEADER
  5
9CF
330
22
100
AcDbEntity
  8
0
 62
     7
100
AcDbLeader
  3
COPY_OF_STANDARD
 40
0.511811014
 41
1.766029213142856
 76
     3
 10
147.4992946645607
 20
327.9105223298225
 30
0.0
 10
145.3734438268299
 20
330.7399457961536
 30
0.0
 10
144.6980475760253
 20
330.7399457961536
 30
0.0
213
0.0
223
0.0590554044710346
233
0.0
  0
LEADER
  5
9D0
330
22
100
AcDbEntity
  8
0
 62
     7
100
AcDbLeader
  3
COPY_OF_STANDARD
 76
     3
 10
147.6492306633423
 20
341.2608604139568
 30
0.0
 10
144.9458944485064
 20
337.5485320282231
 30
0.0
 10
144.0795823234675
 20
337.5485320282231
 30
0.0
  0
LINE
  5
9D1
102
{ACAD_REACTORS
330
9D7
330
9DA
102
}
330
22
100
AcDbEntity
  8
0
  6
CENTER
 62
     7
100
AcDbLine
 10
127.8731781992947
 20
342.7608604139567
 30
0.0
 11
151.1012923126447
 21
342.7608604139567
 31
0.0
  0
LINE
  5
9D2
330
22
100
AcDbEntity
  8
0
  6
PHANTOM
 62
     7
100
AcDbLine
 10
127.8731781992947
 20
343.851440371572
 30
0.0
 11
151.1012923126447
 21
343.851440371572
 31
0.0
  0
MTEXT
  5
9D3
330
22
100
AcDbEntity
  8
0
 62
     7
100
AcDbMText
 10
141.5295499089365
 20
345.3025262486183
 30
0.0
 40
0.19685039
 41
5.218993890951871
 71
     6
 72
     5
  1
FINISHED WALL/BACK SPLASH\PPARED ACBADA/PARED POSTERIOR\PMUR FINI/DOSSERET
 73
     1
 44
1.0
1001
ACAD
1000
MTEXTBEGIN
1070
    73
1070
     1
1070
    44
1040
1.0
1070
    74
1070
     0
1000
MTEXTEND
  0
MTEXT
  5
9D4
330
22
100
AcDbEntity
  8
0
 62
     7
100
AcDbMText
 10
146.6498553153089
 20
343.3045474142352
 30
0.0
 40
0.19685039
 41
5.218993890951871
 71
     6
 72
     5
  1
CENTERLINE OF FITTING\PLINEA CENTRAL DEL GRIFO\PAXE DU ROBINET
 73
     1
 44
1.0
1001
ACAD
1000
MTEXTBEGIN
1070
    73
1070
     1
1070
    44
1040
1.0
1070
    74
1070
     0
1000
MTEXTEND
  0
DIMENSION
  5
9D5
102
{ACAD_XDICTIONARY
360
9D6
102
}
102
{ACAD_REACTORS
330
9D7
102
}
330
22
100
AcDbEntity
  8
0
 62
     7
100
AcDbDimension
  2
*D7
 10
125.6116708269765
 20
342.7608604139567
 30
0.0
 11
125.6116708269765
 21
343.9581626526347
 31
0.0
 70
   160
 71
     5
 42
1.999999999999943
  3
COPY_OF_STANDARD
100
AcDbAlignedDimension
 13
127.8731781992947
 23
344.7608604139567
 33
0.0
 14
127.8731781992947
 24
342.7608604139567
 34
0.0
 50
90.0
100
AcDbRotatedDimension
  0
DIMENSION
  5
9D8
102
{ACAD_XDICTIONARY
360
9D9
102
}
102
{ACAD_REACTORS
330
9DA
102
}
330
22
100
AcDbEntity
  8
0
 62
     7
100
AcDbDimension
  2
*D8
 10
123.9885845315749
 20
336.8120948298882
 30
0.0
 11
123.9885845315748
 21
339.7864776219225
 31
0.0
 70
   160
 71
     5
 42
5.948765584068496
  3
COPY_OF_STANDARD
100
AcDbAlignedDimension
 13
127.8731781992947
 23
342.7608604139567
 33
0.0
 14
137.7649082353907
 24
336.8120948298882
 34
0.0
 50
90.0
100
AcDbRotatedDimension
  0
DIMENSION
  5
9DB
330
22
100
AcDbEntity
  8
PIC06
  6
PHANTOM
 62
     7
 48
12.0
100
AcDbDimension
  2
*D6
 10
127.3812730018081
 20
342.7608604139568
 30
0.0
 11
127.381273001808
 21
341.9933698024061
 31
0.0
 70
   160
 71
     5
 42
1.5
  3
COPY_OF_STANDARD
100
AcDbAlignedDimension
 13
129.1330077634569
 23
341.2608604139568
 33
0.0
 14
128.3253005631282
 24
342.7608604139568
 34
0.0
 50
90.0
100
AcDbRotatedDimension
  0
TEXT
  5
9DC
330
22
100
AcDbEntity
  8
0
 62
     7
100
AcDbText
 10
125.9196803392815
 20
344.1260444353889
 30
0.0
 40
0.19685039
  1
(MIN)
100
AcDbText
  0
LEADER
  5
9DD
330
22
100
AcDbEntity
  8
0
 62
     7
100
AcDbLeader
  3
COPY_OF_STANDARD
 76
     3
 10
125.554803508756
 20
331.6113981350361
 30
0.0
 10
125.1447752454638
 20
333.0596963081536
 30
0.0
 10
124.8383332547591
 20
333.051341558702
 30
0.0
  0
MTEXT
  5
9DE
330
22
100
AcDbEntity
  8
0
 62
     7
100
AcDbMText
 10
124.6731191662802
 20
333.0663487340026
 30
0.0
 40
0.1968513482367818
 41
5.219019296194453
 71
     6
 72
     5
  1
Mounting holes
 73
     1
 44
1.0
1001
ACAD
1000
MTEXTBEGIN
1070
    73
1070
     1
1070
    44
1040
1.0
1070
    74
1070
     0
1000
MTEXTEND
  0
LINE
  5
3230
102
{ACAD_REACTORS
330
9D7
330
9DA
102
}
330
22
100
AcDbEntity
  8
0
  6
CENTER
 62
     7
100
AcDbLine
 10
127.8731781992947
 20
344.7608604139567
 30
0.0
 11
151.1012923126447
 21
344.7608604139567
 31
0.0
  0
LINE
  5
3278
330
22
100
AcDbEntity
  8
PIC20
  6
Continuous
 62
     7
100
AcDbLine
 10
137.48784471972
 20
336.8120948298882
 30
0.0
 11
141.48784471972
 21
336.8120948298882
 31
0.0
  0
LINE
  5
3279
330
22
100
AcDbEntity
  8
PIC20
  6
Continuous
 62
     7
100
AcDbLine
 10
139.48784471972
 20
334.8120948298882
 30
0.0
 11
139.48784471972
 21
338.8120948298882
 31
0.0
  0
VIEWPORT
  5
4A2
102
{ACAD_XDICTIONARY
360
331D
102
}
330
49A
100
AcDbEntity
 67
     1
  8
0
 62
     1
100
AcDbViewport
 10
36.32387247554311
 20
11.61043718136236
 30
0.0
 40
53.20357818360089
 41
37.72769459245913
 68
     1
 69
     1
 12
36.32387247554311
 22
11.61043718136236
 13
0.0
 23
0.0
 14
0.0
 24
0.0
 15
0.0
 25
0.0
 16
0.0
 26
0.0
 36
1.0
 17
0.0
 27
0.0
 37
0.0
 42
50.0
 43
0.0
 44
0.0
 45
37.72769459245913
 50
0.0
 51
0.0
 72
   100
 90
    32800
  1

281
     0
 71
     1
 74
     0
110
0.0
120
0.0
130
0.0
111
1.0
121
0.0
131
0.0
112
0.0
122
1.0
132
0.0
 79
     0
146
0.0
  0
VIEWPORT
  5
327C
102
{ACAD_XDICTIONARY
360
331F
102
}
330
49A
100
AcDbEntity
 67
     1
  8
Defpoints
100
AcDbViewport
 10
17.9422340682102
 20
12.89277235920613
 30
0.0
 40
35.43299999999999
 41
23.62200000000001
 68
     2
 69
     2
 12
139.6256397197199
 22
335.4987178146909
 13
0.0
 23
0.0
 14
0.0
 24
0.0
 15
0.0
 25
0.0
 16
0.0
 26
0.0
 36
1.0
 17
0.0
 27
0.0
 37
0.0
 42
50.0
 43
0.0
 44
0.0
 45
23.62200000000001
 50
0.0
 51
0.0
 72
   100
 90
    32800
  1

281
     0
 71
     1
 74
     0
110
0.0
120
0.0
130
0.0
111
1.0
121
0.0
131
0.0
112
0.0
122
1.0
132
0.0
 79
     0
146
0.0
  0
ENDSEC
  0
SECTION
  2
OBJECTS
  0
DICTIONARY
  5
C
330
0
100
AcDbDictionary
281
     1
  3
ACAD_2007HEADERVARS_RT
350
3314
  3
ACAD_COLOR
350
1B
  3
ACAD_GROUP
350
D
  3
ACAD_LAYOUT
350
19
  3
ACAD_MATERIAL
350
1A
  3
ACAD_MLINESTYLE
350
16
  3
ACAD_PLOTSETTINGS
350
18
  3
ACAD_PLOTSTYLENAME
350
E
  3
ACAD_TABLESTYLE
350
1C
  3
ACAD_VISUALSTYLE
350
32F3
  3
AcDbVariableDictionary
350
328
  3
ASE_INDEX_DICTIONARY
350
32EC
  3
DWGPROPS
350
3313
  0
DICTIONARY
  5
1D4
330
2
100
AcDbDictionary
280
     1
281
     1
  3
ACAD_LAYERSTATES
360
1D5
  0
DICTIONARY
  5
2FA8
330
22
100
AcDbDictionary
280
     1
281
     1
  3
ACAD_SORTENTS
360
2FA9
  0
DICTIONARY
  5
20F
330
1D6
100
AcDbDictionary
280
     1
281
     1
  3
ACAD_SORTENTS
360
210
  0
DICTIONARY
  5
319
330
315
100
AcDbDictionary
280
     1
281
     1
  3
ACAD_SORTENTS
360
31A
  0
DICTIONARY
  5
9D6
330
9D5
100
AcDbDictionary
280
     1
281
     1
  3
ACAD_DIMASSOC
360
9D7
  0
DICTIONARY
  5
9D9
330
9D8
100
AcDbDictionary
280
     1
281
     1
  3
ACAD_DIMASSOC
360
9DA
  0
DICTIONARY
  5
331D
330
4A2
100
AcDbDictionary
280
     1
281
     1
  3
ACAD_XREC_ROUNDTRIP
360
331E
  0
DICTIONARY
  5
331F
330
327C
100
AcDbDictionary
280
     1
281
     1
  3
ACAD_XREC_ROUNDTRIP
360
3320
  0
DICTIONARY
  5
3314
102
{ACAD_REACTORS
330
C
102
}
330
C
100
AcDbDictionary
281
     1
  3
DIMFXL
350
3315
  0
DICTIONARY
  5
1B
102
{ACAD_REACTORS
330
C
102
}
330
C
100
AcDbDictionary
281
     1
  0
DICTIONARY
  5
D
102
{ACAD_REACTORS
330
C
102
}
330
C
100
AcDbDictionary
281
     1
  0
DICTIONARY
  5
19
102
{ACAD_REACTORS
330
C
102
}
330
C
100
AcDbDictionary
281
     1
  3
AO
350
49B
  3
Model
350
25
  0
DICTIONARY
  5
1A
102
{ACAD_REACTORS
330
C
102
}
330
C
100
AcDbDictionary
281
     1
  3
ByBlock
350
32F1
  3
ByLayer
350
32F0
  3
Global
350
32F2
  0
DICTIONARY
  5
16
102
{ACAD_REACTORS
330
C
102
}
330
C
100
AcDbDictionary
281
     1
  3
Standard
350
17
  0
DICTIONARY
  5
18
102
{ACAD_REACTORS
330
C
102
}
330
C
100
AcDbDictionary
281
     1
  3
Setup1
350
3DE
  0
ACDBDICTIONARYWDFLT
  5
E
102
{ACAD_REACTORS
330
C
102
}
330
C
100
AcDbDictionary
281
     1
  3
Normal
350
F
100
AcDbDictionaryWithDefault
340
F
  0
DICTIONARY
  5
1C
102
{ACAD_REACTORS
330
C
102
}
330
C
100
AcDbDictionary
281
     1
  3
Standard
350
1D
  0
DICTIONARY
  5
32F3
102
{ACAD_REACTORS
330
C
102
}
330
C
100
AcDbDictionary
281
     1
  3
2dWireframe
350
32F9
  3
3D Hidden
350
32FB
  3
3dWireframe
350
32FA
  3
Basic
350
32F8
  3
Brighten
350
32FF
  3
ColorChange
350
3303
  3
Conceptual
350
32FC
  3
Dim
350
32FE
  3
Facepattern
350
3302
  3
Flat
350
32F4
  3
FlatWithEdges
350
32F5
  3
Gouraud
350
32F6
  3
GouraudWithEdges
350
32F7
  3
Linepattern
350
3301
  3
Realistic
350
32FD
  3
Thicken
350
3300
  0
DICTIONARY
  5
328
102
{ACAD_REACTORS
330
C
102
}
330
C
100
AcDbDictionary
281
     1
  3
CTABLESTYLE
350
329
  3
DIMASSOC
350
332
  3
INDEXCTL
350
3312
  3
PROJECTNAME
350
333
  3
SORTENTS
350
3311
  0
DICTIONARY
  5
32EC
102
{ACAD_REACTORS
330
C
102
}
330
C
100
AcDbDictionary
281
     1
  3
ASEBlockHierarchyIndexRecord
350
32ED
1001
DCO15
1040
1651550694.937
  0
XRECORD
  5
3313
102
{ACAD_REACTORS
330
C
102
}
330
C
100
AcDbXrecord
280
     1
  1
DWGPROPS COOKIE
  2

  3

  4

  6

  7

  8
nnguyen
  9

300
=
301
=
302
=
303
=
304
=
305
=
306
=
307
=
308
=
309
=
 40
0.0805182407407408
 41
2453763.555706019
 42
2454918.381932142
  1

 90
        0
  0
DICTIONARY
  5
1D5
102
{ACAD_REACTORS
330
1D4
102
}
330
1D4
100
AcDbDictionary
281
     1
  0
SORTENTSTABLE
  5
2FA9
102
{ACAD_REACTORS
330
2FA8
102
}
330
2FA8
100
AcDbSortentsTable
330
22
331
92D
  5
92D
331
8C
  5
8C
331
9D4
  5
9D5
331
8A
  5
8A
331
369
  5
369
331
9D2
  5
9D3
331
9DE
  5
2FA7
331
88
  5
88
331
91B
  5
91B
331
9D0
  5
9D0
331
9DC
  5
9DD
331
9CE
  5
9CE
331
919
  5
919
331
3230
  5
9D2
331
86
  5
86
331
9D8
  5
9DB
331
917
  5
917
331
84
  5
84
331
915
  5
915
331
4E
  5
4E
331
82
  5
82
331
30C
  5
30C
331
5AA
  5
5AA
331
88F
  5
88F
331
314
  5
314
331
54
  5
54
331
52
  5
52
331
FB
  5
FB
331
50
  5
50
331
92C
  5
92C
331
9D5
  5
9D8
331
8D
  5
8D
331
8B
  5
8B
331
9D3
  5
9D4
331
32B
  5
32B
331
9DD
  5
9DE
331
9D1
  5
9D1
331
89
  5
89
331
9DB
  5
9DC
331
87
  5
87
331
9CF
  5
9CF
331
91A
  5
91A
331
85
  5
85
331
9CD
  5
9CD
331
918
  5
918
331
83
  5
83
331
4F
  5
4F
331
916
  5
916
331
30B
  5
30B
331
55
  5
55
331
7FC
  5
7FC
331
5A9
  5
5A9
331
53
  5
53
331
51
  5
51
  0
SORTENTSTABLE
  5
210
102
{ACAD_REACTORS
330
20F
102
}
330
20F
100
AcDbSortentsTable
330
1D6
  0
SORTENTSTABLE
  5
31A
102
{ACAD_REACTORS
330
319
102
}
330
319
100
AcDbSortentsTable
330
315
  0
DIMASSOC
  5
9D7
102
{ACAD_REACTORS
330
9D6
102
}
330
9D6
100
AcDbDimAssoc
330
9D5
 90
        2
 70
     0
 71
     0
  1
AcDbOsnapPointRef
 72
    13
331
9D1
 73
     2
 91
        0
 40
0.0
 10
0.0
 20
0.0
 30
2.000000000000000E+50
 75
     0
  0
DIMASSOC
  5
9DA
102
{ACAD_REACTORS
330
9D9
102
}
330
9D9
100
AcDbDimAssoc
330
9D8
 90
        1
 70
     0
 71
     0
  1
AcDbOsnapPointRef
 72
    13
331
9D1
 73
     2
 91
        0
 40
0.0
 10
0.0
 20
0.0
 30
2.000000000000000E+50
 75
     0
  0
XRECORD
  5
331E
102
{ACAD_REACTORS
330
331D
102
}
330
331D
100
AcDbXrecord
280
     1
102
SHADEPLOT
 70
     0
  0
XRECORD
  5
3320
102
{ACAD_REACTORS
330
331F
102
}
330
331F
100
AcDbXrecord
280
     1
102
SHADEPLOT
 70
     0
  0
XRECORD
  5
3315
102
{ACAD_REACTORS
330
3314
102
}
330
3314
100
AcDbXrecord
280
     1
 40
0.5
  0
LAYOUT
  5
49B
102
{ACAD_XDICTIONARY
360
582
102
}
102
{ACAD_REACTORS
330
19
102
}
330
19
100
AcDbPlotSettings
  1

  2
\\totosrv3\RD-03-HPDJ500
  4
User272
  6

 40
4.995333194732666
 41
16.97562789916992
 42
4.99530029296875
 43
16.9757080078125
 44
840.9516601562499
 45
1188.931640625
 46
0.0
 47
0.0
 48
0.0
 49
0.0
140
0.0
141
0.0
142
1.0
143
1.0
 70
   688
 72
     1
 73
     1
 74
     5
  7

 75
    16
147
1.0
148
0.0
149
0.0
100
AcDbLayout
  1
AO
 70
     1
 71
     1
 10
-16.9757080078125
 20
-4.995333194732666
 11
1171.955932617187
 21
835.9563269615174
 12
0.0
 22
0.0
 32
0.0
 14
0.2257340682102011
 24
1.081772359206125
 34
0.0
 15
35.65873406821019
 25
24.70377235920614
 35
0.0
146
0.0
 13
0.0
 23
0.0
 33
0.0
 16
1.0
 26
0.0
 36
0.0
 17
0.0
 27
1.0
 37
0.0
 76
     0
330
49A
331
4A2
1001
ACAD_PSEXT
1000
\\totosrv3\RD-03-HPDJ500
1000
HP DesignJet 500 42+HPGL2 Card
1000
R & D/Quality Engineering
1000
IP 172.16.4.69, HP DesignJet 500, S/N
1070
     0
  0
LAYOUT
  5
25
102
{ACAD_XDICTIONARY
360
3318
102
}
102
{ACAD_REACTORS
330
19
102
}
330
19
100
AcDbPlotSettings
  1

  2
none_device
  4
Letter_(8.50_x_11.00_Inches)
  6

 40
6.349999904632567
 41
6.349999904632567
 42
6.350006103515625
 43
6.350006103515625
 44
215.8999938964844
 45
279.3999938964844
 46
0.0
 47
0.0
 48
0.0
 49
0.0
140
0.0
141
0.0
142
1.0
143
181.5760041178596
 70
 11952
 72
     0
 73
     1
 74
     0
  7

 75
     0
147
0.0055073356463495
148
21472.92725005353
149
9749.923271338456
100
AcDbLayout
  1
Model
 70
     1
 71
     0
 10
0.0
 20
0.0
 11
12.0
 21
9.0
 12
0.0
 22
0.0
 32
0.0
 14
0.0
 24
0.0
 34
0.0
 15
0.0
 25
0.0
 35
0.0
146
0.0
 13
0.0
 23
0.0
 33
0.0
 16
1.0
 26
0.0
 36
0.0
 17
0.0
 27
1.0
 37
0.0
 76
     0
330
22
331
32EE
1001
ACAD_PSEXT
1000
None
1000
None
1000
Not applicable
1000
The layout will not be plotted unless a new plotter configuration name is selected.
1070
     0
  0
MATERIAL
  5
32F1
102
{ACAD_XDICTIONARY
360
3323
102
}
102
{ACAD_REACTORS
330
1A
102
}
330
1A
100
AcDbMaterial
  1
ByBlock
  0
MATERIAL
  5
32F0
102
{ACAD_XDICTIONARY
360
3321
102
}
102
{ACAD_REACTORS
330
1A
102
}
330
1A
100
AcDbMaterial
  1
ByLayer
  0
MATERIAL
  5
32F2
102
{ACAD_XDICTIONARY
360
3325
102
}
102
{ACAD_REACTORS
330
1A
102
}
330
1A
100
AcDbMaterial
  1
Global
  0
MLINESTYLE
  5
17
102
{ACAD_REACTORS
330
16
102
}
330
16
100
AcDbMlineStyle
  2
STANDARD
 70
     0
  3

 62
   256
 51
90.0
 52
90.0
 71
     2
 49
0.5
 62
   256
  6
BYLAYER
 49
-0.5
 62
   256
  6
BYLAYER
  0
PLOTSETTINGS
  5
3DE
102
{ACAD_XDICTIONARY
360
331A
102
}
102
{ACAD_REACTORS
330
18
102
}
330
18
100
AcDbPlotSettings
  1
Setup1
  2
none_device
  4
Letter_(8.50_x_11.00_Inches)
  6

 40
6.349999904632567
 41
6.349999904632567
 42
6.350006103515625
 43
6.350006103515625
 44
215.8999938964844
 45
279.3999938964844
 46
0.0
 47
0.0
 48
0.0
 49
0.0
140
0.0
141
0.0
142
1.0
143
181.5760041178596
 70
 11952
 72
     0
 73
     1
 74
     0
  7

 75
     0
147
0.0055073356463495
148
21472.92725005353
149
9749.923271338456
1001
ACAD_PSEXT
1000
None
1000
None
1000
Not applicable
1000
The layout will not be plotted unless a new plotter configuration name is selected.
1070
     0
  0
ACDBPLACEHOLDER
  5
F
102
{ACAD_REACTORS
330
E
102
}
330
E
  0
TABLESTYLE
  5
1D
102
{ACAD_XDICTIONARY
360
3316
102
}
102
{ACAD_REACTORS
330
1C
102
}
330
1C
100
AcDbTableStyle
  3
Standard
 70
     0
 71
     0
 40
0.06
 41
0.06
280
     0
281
     0
  7
STANDARD
140
0.18
170
     2
 62
     0
 63
     7
283
     0
274
    -2
284
     1
 64
     0
275
    -2
285
     1
 65
     0
276
    -2
286
     1
 66
     0
277
    -2
287
     1
 67
     0
278
    -2
288
     1
 68
     0
279
    -2
289
     1
 69
     0
  7
STANDARD
140
0.25
170
     5
 62
     0
 63
     7
283
     0
274
    -2
284
     1
 64
     0
275
    -2
285
     1
 65
     0
276
    -2
286
     1
 66
     0
277
    -2
287
     1
 67
     0
278
    -2
288
     1
 68
     0
279
    -2
289
     1
 69
     0
  7
STANDARD
140
0.18
170
     5
 62
     0
 63
     7
283
     0
274
    -2
284
     1
 64
     0
275
    -2
285
     1
 65
     0
276
    -2
286
     1
 66
     0
277
    -2
287
     1
 67
     0
278
    -2
288
     1
 68
     0
279
    -2
289
     1
 69
     0
  0
VISUALSTYLE
  5
32F9
102
{ACAD_REACTORS
330
32F3
102
}
330
32F3
100
AcDbVisualStyle
  2
2dWireframe
 70
     4
 71
     0
 72
     2
 73
     0
 90
        0
 40
-0.6
 41
-30.0
 62
     5
 63
     7
 74
     1
 91
        4
 64
     7
 65
   257
 75
     1
175
     1
 42
1.0
 92
        0
 66
   257
 43
1.0
 76
     1
 77
     6
 78
     2
 67
     7
 79
     5
170
     0
171
     0
290
     0
174
     0
 93
        1
 44
0.0
173
     0
291
     0
 45
0.0
1001
ACAD
1000
AcDbSavedByObjectVersion
1070
     0
  0
VISUALSTYLE
  5
32FB
102
{ACAD_REACTORS
330
32F3
102
}
330
32F3
100
AcDbVisualStyle
  2
3D Hidden
 70
     6
 71
     1
 72
     2
 73
     2
 90
        0
 40
-0.6
 41
-30.0
 62
     5
 63
     7
 74
     2
 91
        2
 64
     7
 65
   257
 75
     2
175
     1
 42
40.0
 92
        0
 66
   257
 43
1.0
 76
     1
 77
     6
 78
     2
 67
     7
 79
     3
170
     0
171
     0
290
     0
174
     0
 93
        1
 44
0.0
173
     0
291
     0
 45
0.0
1001
ACAD
1000
AcDbSavedByObjectVersion
1070
     0
  0
VISUALSTYLE
  5
32FA
102
{ACAD_REACTORS
330
32F3
102
}
330
32F3
100
AcDbVisualStyle
  2
3dWireframe
 70
     5
 71
     0
 72
     2
 73
     0
 90
        0
 40
-0.6
 41
-30.0
 62
     5
 63
     7
 74
     1
 91
        4
 64
     7
 65
   257
 75
     1
175
     1
 42
1.0
 92
        0
 66
   257
 43
1.0
 76
     1
 77
     6
 78
     2
 67
     7
 79
     5
170
     0
171
     0
290
     0
174
     0
 93
        1
 44
0.0
173
     0
291
     0
 45
0.0
1001
ACAD
1000
AcDbSavedByObjectVersion
1070
     0
  0
VISUALSTYLE
  5
32F8
102
{ACAD_REACTORS
330
32F3
102
}
330
32F3
100
AcDbVisualStyle
  2
Basic
 70
     7
 71
     1
 72
     0
 73
     1
 90
        0
 40
-0.6
 41
-30.0
 62
     5
 63
     7
 74
     0
 91
        4
 64
     7
 65
   257
 75
     1
175
     1
 42
1.0
 92
        8
 66
     7
 43
1.0
 76
     1
 77
     6
 78
     2
 67
     7
 79
     5
170
     0
171
     0
290
     0
174
     0
 93
        1
 44
0.0
173
     0
291
     1
 45
0.0
1001
ACAD
1000
AcDbSavedByObjectVersion
1070
     0
  0
VISUALSTYLE
  5
32FF
102
{ACAD_REACTORS
330
32F3
102
}
330
32F3
100
AcDbVisualStyle
  2
Brighten
 70
    12
 71
     2
 72
     2
 73
     0
 90
        0
 40
-0.6
 41
-30.0
 62
     5
 63
     7
 74
     1
 91
        4
 64
     7
 65
   257
 75
     1
175
     1
 42
1.0
 92
        8
 66
     7
 43
1.0
 76
     1
 77
     6
 78
     2
 67
     7
 79
     5
170
     0
171
     0
290
     0
174
     0
 93
        1
 44
50.0
173
     0
291
     1
 45
0.0
1001
ACAD
1000
AcDbSavedByObjectVersion
1070
     0
  0
VISUALSTYLE
  5
3303
102
{ACAD_REACTORS
330
32F3
102
}
330
32F3
100
AcDbVisualStyle
  2
ColorChange
 70
    16
 71
     2
 72
     2
 73
     3
 90
        0
 40
-0.6
 41
-30.0
 62
     5
 63
     8
 74
     1
 91
        4
 64
     7
 65
   257
 75
     1
175
     1
 42
1.0
 92
        8
 66
     8
 43
1.0
 76
     1
 77
     6
 78
     2
 67
     7
 79
     5
170
     0
171
     0
290
     0
174
     0
 93
        1
 44
0.0
173
     0
291
     1
 45
0.0
1001
ACAD
1000
AcDbSavedByObjectVersion
1070
     0
  0
VISUALSTYLE
  5
32FC
102
{ACAD_REACTORS
330
32F3
102
}
330
32F3
100
AcDbVisualStyle
  2
Conceptual
 70
     9
 71
     3
 72
     2
 73
     0
 90
        0
 40
-0.6
 41
-30.0
 62
     5
 63
     7
 74
     2
 91
        2
 64
     7
 65
   257
 75
     1
175
     1
 42
40.0
 92
        8
 66
     7
 43
1.0
 76
     1
 77
     6
 78
     2
 67
     7
 79
     3
170
     0
171
     0
290
     0
174
     0
 93
        1
 44
0.0
173
     0
291
     0
 45
0.0
1001
ACAD
1000
AcDbSavedByObjectVersion
1070
     0
  0
VISUALSTYLE
  5
32FE
102
{ACAD_REACTORS
330
32F3
102
}
330
32F3
100
AcDbVisualStyle
  2
Dim
 70
    11
 71
     2
 72
     2
 73
     0
 90
        0
 40
-0.6
 41
-30.0
 62
     5
 63
     7
 74
     1
 91
        4
 64
     7
 65
   257
 75
     1
175
     1
 42
1.0
 92
        8
 66
     7
 43
1.0
 76
     1
 77
     6
 78
     2
 67
     7
 79
     5
170
     0
171
     0
290
     0
174
     0
 93
        1
 44
-50.0
173
     0
291
     1
 45
0.0
1001
ACAD
1000
AcDbSavedByObjectVersion
1070
     0
  0
VISUALSTYLE
  5
3302
102
{ACAD_REACTORS
330
32F3
102
}
330
32F3
100
AcDbVisualStyle
  2
Facepattern
 70
    15
 71
     2
 72
     2
 73
     0
 90
        0
 40
-0.6
 41
-30.0
 62
     5
 63
     7
 74
     1
 91
        4
 64
     7
 65
   257
 75
     1
175
     1
 42
1.0
 92
        8
 66
     7
 43
1.0
 76
     1
 77
     6
 78
     2
 67
     7
 79
     5
170
     0
171
     0
290
     0
174
     0
 93
        1
 44
0.0
173
     0
291
     1
 45
0.0
1001
ACAD
1000
AcDbSavedByObjectVersion
1070
     0
  0
VISUALSTYLE
  5
32F4
102
{ACAD_REACTORS
330
32F3
102
}
330
32F3
100
AcDbVisualStyle
  2
Flat
 70
     0
 71
     2
 72
     1
 73
     1
 90
        2
 40
-0.6
 41
30.0
 62
     5
 63
     7
 74
     0
 91
        4
 64
     7
 65
   257
 75
     1
175
     1
 42
1.0
 92
        8
 66
     7
 43
1.0
 76
     1
 77
     6
 78
     2
 67
     7
 79
     5
170
     0
171
     0
290
     0
174
     0
 93
       13
 44
0.0
173
     0
291
     1
 45
0.0
1001
ACAD
1000
AcDbSavedByObjectVersion
1070
     0
  0
VISUALSTYLE
  5
32F5
102
{ACAD_REACTORS
330
32F3
102
}
330
32F3
100
AcDbVisualStyle
  2
FlatWithEdges
 70
     1
 71
     2
 72
     1
 73
     1
 90
        2
 40
-0.6
 41
30.0
 62
     5
 63
     7
 74
     1
 91
        4
 64
     7
 65
   257
 75
     1
175
     1
 42
1.0
 92
        0
 66
   257
 43
1.0
 76
     1
 77
     6
 78
     2
 67
     7
 79
     5
170
     0
171
     0
290
     0
174
     0
 93
       13
 44
0.0
173
     0
291
     1
 45
0.0
1001
ACAD
1000
AcDbSavedByObjectVersion
1070
     0
  0
VISUALSTYLE
  5
32F6
102
{ACAD_REACTORS
330
32F3
102
}
330
32F3
100
AcDbVisualStyle
  2
Gouraud
 70
     2
 71
     2
 72
     2
 73
     1
 90
        2
 40
-0.6
 41
30.0
 62
     5
 63
     7
 74
     0
 91
        4
 64
     7
 65
   257
 75
     1
175
     1
 42
1.0
 92
        0
 66
     7
 43
1.0
 76
     1
 77
     6
 78
     2
 67
     7
 79
     5
170
     0
171
     0
290
     0
174
     0
 93
       13
 44
0.0
173
     0
291
     1
 45
0.0
1001
ACAD
1000
AcDbSavedByObjectVersion
1070
     0
  0
VISUALSTYLE
  5
32F7
102
{ACAD_REACTORS
330
32F3
102
}
330
32F3
100
AcDbVisualStyle
  2
GouraudWithEdges
 70
     3
 71
     2
 72
     2
 73
     1
 90
        2
 40
-0.6
 41
30.0
 62
     5
 63
     7
 74
     1
 91
        4
 64
     7
 65
   257
 75
     1
175
     1
 42
1.0
 92
        0
 66
   257
 43
1.0
 76
     1
 77
     6
 78
     2
 67
     7
 79
     5
170
     0
171
     0
290
     0
174
     0
 93
       13
 44
0.0
173
     0
291
     1
 45
0.0
1001
ACAD
1000
AcDbSavedByObjectVersion
1070
     0
  0
VISUALSTYLE
  5
3301
102
{ACAD_REACTORS
330
32F3
102
}
330
32F3
100
AcDbVisualStyle
  2
Linepattern
 70
    14
 71
     2
 72
     2
 73
     0
 90
        0
 40
-0.6
 41
-30.0
 62
     5
 63
     7
 74
     1
 91
        4
 64
     7
 65
   257
 75
     7
175
     7
 42
1.0
 92
        8
 66
     7
 43
1.0
 76
     1
 77
     6
 78
     2
 67
     7
 79
     5
170
     0
171
     0
290
     0
174
     0
 93
        1
 44
0.0
173
     0
291
     1
 45
0.0
1001
ACAD
1000
AcDbSavedByObjectVersion
1070
     0
  0
VISUALSTYLE
  5
32FD
102
{ACAD_REACTORS
330
32F3
102
}
330
32F3
100
AcDbVisualStyle
  2
Realistic
 70
     8
 71
     2
 72
     2
 73
     0
 90
        0
 40
-0.6
 41
-30.0
 62
     5
 63
     7
 74
     1
 91
        0
 64
     7
 65
   257
 75
     1
175
     1
 42
1.0
 92
        8
 66
     8
 43
1.0
 76
     1
 77
     6
 78
     2
 67
     7
 79
     5
170
     0
171
     0
290
     0
174
     0
 93
       13
 44
0.0
173
     0
291
     0
 45
0.0
1001
ACAD
1000
AcDbSavedByObjectVersion
1070
     0
  0
VISUALSTYLE
  5
3300
102
{ACAD_REACTORS
330
32F3
102
}
330
32F3
100
AcDbVisualStyle
  2
Thicken
 70
    13
 71
     2
 72
     2
 73
     0
 90
        0
 40
-0.6
 41
-30.0
 62
     5
 63
     7
 74
     1
 91
        4
 64
     7
 65
   257
 75
     1
175
     1
 42
1.0
 92
       12
 66
     7
 43
1.0
 76
     1
 77
     6
 78
     2
 67
     7
 79
     5
170
     0
171
     0
290
     0
174
     0
 93
        1
 44
0.0
173
     0
291
     1
 45
0.0
1001
ACAD
1000
AcDbSavedByObjectVersion
1070
     0
  0
DICTIONARYVAR
  5
329
102
{ACAD_REACTORS
330
328
102
}
330
328
100
DictionaryVariables
280
     0
  1
STANDARD
  0
DICTIONARYVAR
  5
332
102
{ACAD_REACTORS
330
328
102
}
330
328
100
DictionaryVariables
280
     0
  1
1
  0
DICTIONARYVAR
  5
3312
102
{ACAD_REACTORS
330
328
102
}
330
328
100
DictionaryVariables
280
     0
  1
0
  0
DICTIONARYVAR
  5
333
102
{ACAD_REACTORS
330
328
102
}
330
328
100
DictionaryVariables
280
     0
  1

  0
DICTIONARYVAR
  5
3311
102
{ACAD_REACTORS
330
328
102
}
330
328
100
DictionaryVariables
280
     0
  1
127
  0
XRECORD
  5
32ED
102
{ACAD_REACTORS
330
32EC
102
}
330
32EC
100
AcDbXrecord
280
     1
330
314
330
FB
330
1E1
330
316
330
3CB
  0
DICTIONARY
  5
582
330
49B
100
AcDbDictionary
280
     1
281
     1
  3
ACAD_XREC_ROUNDTRIP
360
331C
  3
ADSK_XREC_LAYOUTTHUMBNAIL
360
583
  0
DICTIONARY
  5
3318
330
25
100
AcDbDictionary
280
     1
281
     1
  3
ACAD_XREC_ROUNDTRIP
360
3319
  0
DICTIONARY
  5
3323
330
32F1
100
AcDbDictionary
280
     1
281
     1
  3
ACAD_XREC_ROUNDTRIP
360
3324
  0
DICTIONARY
  5
3321
330
32F0
100
AcDbDictionary
280
     1
281
     1
  3
ACAD_XREC_ROUNDTRIP
360
3322
  0
DICTIONARY
  5
3325
330
32F2
100
AcDbDictionary
280
     1
281
     1
  3
ACAD_XREC_ROUNDTRIP
360
3326
  0
DICTIONARY
  5
331A
330
3DE
100
AcDbDictionary
280
     1
281
     1
  3
ACAD_XREC_ROUNDTRIP
360
331B
  0
DICTIONARY
  5
3316
330
1D
100
AcDbDictionary
280
     1
281
     1
  3
ACAD_XREC_ROUNDTRIP
360
3317
  0
XRECORD
  5
331C
102
{ACAD_REACTORS
330
582
102
}
330
582
100
AcDbXrecord
280
     1
102
SHADEPLOT
 70
     0
102
SHADEPLOTRESLEVEL
 70
     2
102
SHADEPLOTCUSTOMDPI
 70
   300
  0
XRECORD
  5
583
102
{ACAD_REACTORS
330
582
102
}
330
582
100
AcDbXrecord
280
     1
310
28000000B40000007F00000001000800000000004C590000000000000000000000010000000000000000000000000000FFFFFF000000000000000000000000000000000000000000000000000000000000000000330000006600000099000000CC000000FF00000000330000333300006633000099330000CC330000FF3300
310
0000660000336600006666000099660000CC660000FF66000000990000339900006699000099990000CC990000FF99000000CC000033CC000066CC000099CC0000CCCC0000FFCC000000FF000033FF000066FF000099FF0000CCFF0000FFFF000000003300330033006600330099003300CC003300FF003300003333003333
310
33006633330099333300CC333300FF33330000663300336633006666330099663300CC663300FF66330000993300339933006699330099993300CC993300FF99330000CC330033CC330066CC330099CC3300CCCC3300FFCC330000FF330033FF330066FF330099FF3300CCFF3300FFFF330000006600330066006600660099
310
006600CC006600FF00660000336600333366006633660099336600CC336600FF33660000666600336666006666660099666600CC666600FF66660000996600339966006699660099996600CC996600FF99660000CC660033CC660066CC660099CC6600CCCC6600FFCC660000FF660033FF660066FF660099FF6600CCFF6600
310
FFFF660000009900330099006600990099009900CC009900FF00990000339900333399006633990099339900CC339900FF33990000669900336699006666990099669900CC669900FF66990000999900339999006699990099999900CC999900FF99990000CC990033CC990066CC990099CC9900CCCC9900FFCC990000FF99
310
0033FF990066FF990099FF9900CCFF9900FFFF99000000CC003300CC006600CC009900CC00CC00CC00FF00CC000033CC003333CC006633CC009933CC00CC33CC00FF33CC000066CC003366CC006666CC009966CC00CC66CC00FF66CC000099CC003399CC006699CC009999CC00CC99CC00FF99CC0000CCCC0033CCCC0066CC
310
CC0099CCCC00CCCCCC00FFCCCC0000FFCC0033FFCC0066FFCC0099FFCC00CCFFCC00FFFFCC000000FF003300FF006600FF009900FF00CC00FF00FF00FF000033FF003333FF006633FF009933FF00CC33FF00FF33FF000066FF003366FF006666FF009966FF00CC66FF00FF66FF000099FF003399FF006699FF009999FF00CC
310
99FF00FF99FF0000CCFF0033CCFF0066CCFF0099CCFF00CCCCFF00FFCCFF0000FFFF0033FFFF0066FFFF0099FFFF00CCFFFF00FFFFFF00000000000D0D0D001A1A1A00282828003535350043434300505050005D5D5D006B6B6B00787878008686860093939300A1A1A100AEAEAE00BBBBBB00C9C9C900D6D6D600E4E4E400
310
F1F1F100FFFFFF0000000000000000000000000000000000000000000000000000000000000000000000000000000000E2E2E2E2E2E2E2E2E2E2E2E2E2E2E2E2E2E2E2E2E2E2E2E2E2E2E2E2E2E2E2E2E2E2E2E2E2E2E2E2E2E2E2E2E2E2E2E2E2E2E2E2E2E2E2E2E2E2E2E2E2E2E2E2E2E2E2E2E2E2E2E2E2E2E2E2E2E2E2
310
E2E2E2E2E2E2E2E2E2E2E2E2E2E2E2E2E2E2E2E2E2E2E2E2E2E2E2E2E2E2E2E2E2E2E2E2E2E2E2E2E2E2E2E2E2E2E2E2E2E2E2E2E2E2E2E2E2E2E2E2E2E2E2E2E2E2E2E2E2E2E2E2E2E2E2E2E2E2E2E2E2E2E2E2E2E2E2E2E2E2E2E2E2E2E2E2E2E2E2E2E2E2E2E2F5F5F5F5F5F5E2E2E2E2E2E2E2E2E2E2E2E2E2E2E2E2E2
310
E2E2E2E2E2E2E2E2E2E2E2E2E2E2E2E2E2E2E2E2E2E2E2E2E2E2E2E2E2E2E2E2E2E2E2E2E2E2E2E2E2E2E2E2E2E2E2E2E2E2E2E2E2E2E2E2E2E2E2E2E2E2E2E2E2E2E2E2E2E2E2E2E2E2E2E2E2E2E2E2E2E2E2E2E2E2E2E2E2E2E2E2E2E2E2E2E2E2E2E2E2E2E2E2E2E2E2E2E2E2E2E2E2E2E2E2E2E2E2E2E2E2E2E2E2E2E2
310
E2E2E2E2E2E2E2E2E2E2E2E2E2E2E2E2E2E2E2E2E2E2E2E2E2E2E2E2E2E2F5F5F5F5F5F5E2E2E2E2E2E2E2E2E2E2E2E2E2E2E2E2E2E2E2E2E2E2E2E2E2E2E2E2E2E2E2E2E2E2E2E2E2E2E2E2E2E2E2E2E2E2E2E2E2E2E2E2E2E2E2E2E2E2E2E2E2E2E2E2E2E2E2E2E2E2E2E2E2E2E2E2E2E2E2E2E2E2E2E2E2E2E2E2E2E2E2
310
E2E2E2E2E2E2E2E2E2E2E2E2E2E2E2E2E2E2E2E2E2E2E2E2E2E2E2E2E2E2E2E2E2E2E2E2E2E2E2E2E2E2E2E2E2E2E2E2E2E2E2E2E2E2E2E2E2E2E2E2E2E2E2E2E2E2E2E2E2E2E2E2E2E2E2E2E2E2E2E2E2E2E2F5F5F5F5F5F5E2E2E2E2E2E2E2E2E2E2E2E2E2E2E2E2E2E2E2E2E2E2E2E2E2E2E2E2E2E2E2E2E2E2E2E2E2E2
310
E2E2E2E2E2E2E2E2E2E2E2E2E2E2E2E2E2E2E2E2E2E2E2E2E2E2E2E2E2E2E2E2E2E2E2E2E2E2E2E2E2E2E2E2E2E2E2E2E2E2E2E2E2E2E2E2E2E2E2E2E2E2E2E2E2E2E2E2E2E2E2E2E2E2E2E2E2E2E2E2E2E2E2E2E2E2E2E2E2E2E2E2E2E2E2E2E2E2E2E2E2E2E2E2E2E2E2E2E2E2E2E2E2E2E2E2E2E2E2E2E2E2E2E2E2E2E2
310
E2E2E2E2E2E2E2E2E2F5F5F5F5F5F5E2E2E2E2E2E2E2E2E2E2E2E2E2E2E2E2E2E2E2E2E2E2E2E2E2E2E2E2E2E2E2E2E2E2E2E2E2E2E2E2E2E2E2E2E2E2E2E2E2E2E2E2E2E2E2E2E2E2E2E2E2E2E2E2E2E2E2E2E2E2E2E2E2E2E2E2E2E2E2E2E2E2E2E2E2E2E2E2E2E2E2E2E2E2E2E2E2E2E2E2E2E2E2E2E2E2E2E2E2E2E2E2
310
E2E2E2E2E2E2E2E2E2E2E2E2E2E2E2E2E2E2E2E2E2E2E2E2E2E2E2E2E2E2E2E2E2E2E2E2E2E2E2E2E2E2E2E2E2E2E2E2E2E2E2E2E2E2E2E2E2E2E2E2E2E2F5F5F5F5F5F5E2E2E2E2E2E2E2E2E2E2E2E2E2E2E2E2E2E2E2E2E2E2E2E2E2E2E2E2E2E2E2E2E2E2E2E2E2E2E2E2E2E2E2E2E2E2E2E2E2E2E2E2E2E2E2E2E2E2E2
310
E2E2E2E2E2E2E2E2E2E2E2E2E2E2E2E2E2E2E2E2E2E2E2E2E2E2E2E2E2E2E2E2E2E2E2E2E2E2E2E2E2E2E2E2E2E2E2E2E2E2E2E2E2E2E2E2E2E2E2E2E2E2E2E2E2E2E2E2E2E2E2E2E2E2E2E2E2E2E2E2E2E2E2E2E2E2E2E2E2E2E2E2E2E2E2E2E2E2E2E2E2E2E2E2E2E2E2E2E2E2E2E2E2E2E2E2E2E2E2E2E2E2E2E2E2E2E2
310
E2E2E2E2E2E2E2E2E2E2E2E2E2E2E2E2E2E2E2E2E2E2E2E2E2E2E2E2E2E2E2E2E2E2E2E2E2E2E2E2E2E2E2E2E2E2E2E2E2E2E2E2E2E2E2E2E2E2E2E2E2E2E2E2E2E2E2E2E2E2E2E2E2E2E2E2E2E2E2E2E2E2E2E2E2E2E2E2E2E2E2E2E2E2E2E2E2E2E2E2E2E2E2E2E2E2E2E2E2E2E2E2E2E2E2E2E2E2E2E2E2E2E2E2E2E2E2
310
E2E2E2E2E2E2E2E2E2E2E2E2E2E2E2E2E2E2E2E2E2E2E2E2E2E2E2E2E2E2E2E2E2E2E2E2E2E2E2E2E2E2E2E2E2E2E2E2E2E2E2E2E2E2E2E2E2E2E2E2E2E2E2E2E2E2E2E2E2E2E2E2E2E2E2E2E2E2E2E2E2E2E2E2E2E2E2E2E2E2E2E2E2E2E2E2E2E2E2E2E2E2E2E2E2E2E2E2E2E2E2E2E2E2E2E2E2E2E2E2E2E2E2E2E2E2E2
310
E2E2E2E2E2E2E2E2E2E2E2E2E2E2E2E2E2E2E2E2E2E2E2E2E2E2E2E2E2E2E2E2E2E2E2E2E2E2E2E2E2E2E2E2E2E2E2E2E2E2E2E2E2E2E2E2E2E2E2E2E2E2E2E2E2E2E2E2E2E2E2E2E2E2E2E2E2E2E2E2E2E2E2E2E2E2E2E2E2E2E2E2E2E2E2E2E2E2E2E2E2E2E2E2E2E2E2E2E2E2E2E2E2E2E2E2E2E2E2E2E2E2E2E2E2E2E2
310
E2E2E2E2E2E2E2E2E2E2E2E2E2E2E2E2E2E2E2E2E2E2E2E2E2E2E2E2E2E2E2E2E2E2E2E2E2E2E2E2E2E2E2E2E2E2E2E2E2E2E2E2E2E2E2E2E2E2E2E2E2E2E2E2E2E2E2E2E2E2E2E2E2E2E2E2E2E2E2E2E2E2E2E2E2E2E2E2E2E2E2E2E2E2E2E2E2E2E2E2E2E2E2E2E2E2E2E2E2E2E2E2E2E2E2E2E2E2E2E2E2E2E2E2E2E2E2
310
E2E2E2E2E2E2E2E2E2E2E2E2E2E2E2E2E2E2E2E2E2E2E2E2E2E2E2E2E2E2E2E2E2E2E2E2E2E2E2E2E2E2E2E2E2E2E2E2E2E2E2E2E2E2E2E2E2E2E2E2E2E2E2E2E2E2E2E2E2E2E2E2E2E2E2E2E2E2E2E2E2E2E2E2E2E2E2E2E2E2E2E2E2E2E2E2E2E2E2E2E2E2E2E2E2E2E2E2E2E2E2E2E2E2E2E2E2E2E2E2E2E2E2E2E2E2E2
310
E2E2E2E2E2E2E2E2E2E2E2E2E2E2E2E2E2E2E2E2E2E2E2E2E2E2E2E2E2E2E2E2E2E2E2E2E2E2E2E2E2E2E2E2E2E2E2E2E2E2E2E2E2E2E2E2E2E2E2E2E2E2E2E2E2E2E2E2E2E2E2E2E2E2E2E2E2E2E2E2E2E2E2E2E2E2E2E2E2E2E2E2E2E2E2E2E2E2E2E2E2E2E2E2E2E2E2E2E2E2E2E2E2E2E2E2E2E2E2E2E2E2E2E2E2E2E2
310
E2E2E2E2E2E2E2E2E2E2E2E2E2E2E2E2E2E2E2E2E2E2E2E2E2E2E2E2E2E2E2E2E2E2E2E2E2E2E2E2E2E2E2E2E2E2E2E2E2E2E2E2E2E2E2E2E2E2E2E2E2E2E2E2E2E2E2E2E2E2E2E2E2E2E2E2E2E2E2E2E2E2E2E2E2E2E2E2E2E2E2E2E2E2E2E2E2E2E2E2E2E2E2E2E2E2E2E2E2E2E2E2E2E2E2E2E2E2E2E2E2E2E2E2E2E2E2
310
E2E2E2E2E2E2E2E2E2E2E2E2E2E2E2E2E2E2E2E2E2E2E2E2E2E2E2E2E2E2E2E2E2E2E2E2E2E2E2E2E2E2E2E2E2E2E2E2E2E2E2E2E2E2E2E2E2E2E2E2E2E2E2E2E2E2E2E2E2E2E2E2E2E2E2E2E2E2E2E2E2E2E2E2E2E2E2E2E2E2E2E2E2E2E2E2E2E2E2E2E2E2E2E2E2E2E2E2E2E2E2E2E2E2E2E2E2E2E2E2E2E2E2E2E2E2E2
310
E2E2E2E2E2E2E2E2E2E2E2E2E2E2E2E2E2E2E2E2E2E2E2E2E2E2E2E2E2E2E2E2E2E2E2E2E2E2E2E2E2E2E2E2E2E2E2E2E2E2E2E2E2E2E2E2E2E2E2E2E2E2E2E2E2E2E2E2E2E2E2E2E2E2E2E2E2E2E2E2E2E2E2E2E2E2E2E2E2E2E2E2E2E2E2E2E2E2E2E2E2E2E2E2E2E2E2E2E2E2E2E2E2E2E2E2E2E2E2E2E2E2E2E2E2E2E2
310
E2E2E2E2E2E2E2E2E2E2E2E2E2E2E2E2E2E2E2E2E2E2E2E2E2E2E2E2E2E2E2E2E2E2E2E2E2E2E2E2E2E2E2E2E2E2E2E2E2E2E2E2E2E2E2E2E2E2E2E2E2E2E2E2E2E2E2E2E2E2E2E2E2E2E2E2E2E2E2E2E2E2E2E2E2E2E2E2E2E2E2E2E2E2E2E2E2E2E2E2E2E2E2E2E2E2E2E2E2E2E2E2E2E2E2E2E2E2E2E2E2E2E2E2E2E2E2
310
E2E2E2E2E2E2E2E2E2E2E2E2E2E2E2E2E2E2E2E2E2E2E2E2E2E2E2E2E2E2E2E2E2E2E2E2E2E2E2E2E2E2E2E2E2E2E2E2E2E2E2E2E2E2E2E2E2E2E2E2E2E2E2E2E2E2E2E2E2E2E2E2E2E2E2E2E2E2E2E2E2E2E2E2E2E2E2E2E2E2E2E2E2E2E2E2E2E2E2E2E2E2E2E2E2E2E2E2E2E2E2E2E2E2E2E2E2E2E2E2E2E2E2E2E2E2E2
310
E2E2E2E2E2E2E2E2E2E2E2E2E2E2E2E2E2E2E2E2E2E2E2E2E2E2E2E2E2E2E2E2E2E2E2E2E2E2E2E2E2E2E2E2E2E2E2E2E2E2E2E2E2E2E2E2E2E2E2E2E2E2E2E2E2E2E2E2E2E2E2E2E2E2E2E2E2E2E2E2E2E2E2E2E2E2E2E2E2E2E2E2E2E2E2E2E2E2E2E2E2E2E2E2E2E2E2E2E2E2E2E2E2E2E2E2E2E2E2E2E2E2E2E2E2E2E2
310
E2E2E2E2E2E2E2E2E2E2E2E2E2E2E2E2E2E2E2E2E2E2E2E2E2E2E2E2E2E2E2E2E2E2E2E2E2E2E2E2E2E2E2E2E2E2E2E2E2E2E2E2E2E2E2E2E2E2E2E2E2E2E2E2E2E2E2E2E2E2E2E2E2E2E2E2E2E2E2E2E2E2E2E2E2E2E2E2E2E2E2E2E2E2E2E2E2E2E2E2E2E2E2E2E2E2E2E2E2E2E2E2E2E2E2E2E2E2E2E2E2E2E2E2E2E2E2
310
E2E2E2E2E2E2E2E2E2E2E2E2E2E2E2E2E2E2E2E2E2E2E2E2E2E2E2E2E2E2E2E2E2E2E2E2E2E2E2E2E2E2E2E2E2E2E2E2E2E2E2E2E2E2E2E2E2E2E2E2E2E2E2E2E2E2E2E2E2E2E2E2E2E2E2E2E2E2E2E2E2E2E2E2E2E2E2E2E2E2E2E2E2E2E2E2E2E2E2E2E2E2E2E2E2E2E2E2E2E2E2E2E2E2E2E2E2E2E2E2E2E2E2E2E2E2E2
310
E2E2E2E2E2E2E2E2E2E2E2E2E2E2E2E2E2E2E2E2E2E2E2E2E2E2E2E2E2E2E2E2E2E2E2E2E2E2E2E2E2E2E2E2E2E2E2E2E2E2E2E2E2E2E2E2E2E2E2E2E2E2E2E2E2E2E2E2E2E2E2E2E2E2E2E2E2E2E2E2E2E2E2E2E2E2E2E2E2E2E2E2E2E2E2E2E2E2E2E2E2E2E2E2E2E2E2E2E2E2E2E2E2E2E2E2E2E2E2E2E2E2E2E2E2E2E2
310
E2E2E2E2E2E2E2E2E2E2E2E2E2E2E2E2E2E2E2E2E2E2E2E2E2E2E2E2E2E2E2E2E2E2E2E2E2E2E2E2E2E2E2E2E2E2E2E2E2E2E2E2E2E2E2E2E2E2E2E2E2E2E2E2E2E2E2E2E2E2E2E2E2E2E2E2E2E2E2E2E2E2E2E2E2E2E2E2E2E2E2E2E2E2E2E2E2E2E2E2E2E2E2E2E2E2E2E2E2E2E2E2E2E2E2E2E2E2E2E2E2E2E2E2E2E2E2
310
E2E2E2E2E2E2E2E2E2E2E2E2E2E2E2E2E2E2E2E2E2E2E2E2E2E2E2E2E2E2E2E2E2E2E2E2E2E2E2E2E2E2E2E2E2E2E2E2E2E2E2E2E2E2E2E2E2E2E2E2E2E2E2E2E2E2E2E2E2E2E2E2E2E2E2E2E2E2E2E2E2E2E2E2E2E2E2E2E2E2E2E2E2E2E2E2E2E2E2E2E2E2E2E2E2E2E2E2E2E2E2E2E2E2E2E2E2E2E2E2E2E2E2E2E2E2E2
310
E2E2E2E2E2E2E2E2E2E2E2E2E2E2E2E2E2E2E2E2E2E2E2E2E2E2E2E2E2E2E2E2E2E2E2E2E2E2E2E2E2E2E2E2E2E2E2E2E2E2E2E2E2E2E2E2E2E2E2E2E2E2E2E2E2E2E2E2E2E2E2E2E2E2E2E2E2E2E2E2E2E2E2E2E2E2E2E2E2E2E2E2E2E2E2E2E2E2E2E2E2E2E2E2E2E2E2E2E2E2E2E2E2E2E2E2E2E2E2E2E2E2E2E2E2E2E2
310
E2E2E2E2E2E2E2E2E2E2E2E2E2E2E2E2E2E2E2E2E2E2E2E2E2E2E2E2E2E2E2E2E2E2E2E2E2E2E2E2E2E2E2E2E2E2E2E2E2E2E2E2E2E2E2E2E2E2E2E2E2E2E2E2E2E2E2E2E2E2E2E2E2E2E2E2E2E2E2E2E2E2E2E2E2E2E2E2E2E2E2E2E2E2E2E2E2E2E2E2E2E2E2E2E2E2E2E2E2E2E2E2E2E2E2E2E2E2E2E2E2E2E2E2E2E2E2
310
E2E2E2E2E2E2E2E2E2E2E2E2E2E2E2E2E2E2E2E2E2E2E2E2E2E2E2E2E2E2E2E2E2E2E2E2E2E2E2E2E2E2E2E2E2E2E2E2E2E2E2E2E2E2E2E2E2E2E2E2E2E2E2E2E2E2E2E2E2E2E2E2E2E2E2E2E2E2E2E2E2E2E2E2E2E2E2E2E2E2E2E2E2E2E2E2E2E2E2E2E2E2E2E2E2E2E2E2E2E2E2E2E2E2E2E2E2E2E2E2E2E2E2E2E2E2E2
310
E2E2E2E2E2E2E2E2E2E2E2E2E2E2E2E2E2E2E2E2E2E2E2E2E2E2E2E2E2E2E2E2E2E2E2E2E2E2E2E2E2E2E2E2E2E2E2E2E2E2E2E2E2E2E2E2E2E2E2E2E2E2E2E2E2E2E2E2E2E2E2E2E2E2E2E2E2E2E2E2E2E2E2E2E2E2E2E2E2E2E2E2E2E2E2E2E2E2E2E2E2E2E2E2E2E2E2E2E2E2E2E2E2E2E2E2E2E2E2E2E2E2E2E2E2E2E2
310
E2E2E2E2E2E2E2E2E2E2E2E2E2E2E2E2E2E2E2E2E2E2E2E2E2E2E2E2E2E2E2E2E2E2E2E2E2E2E2E2E2E2E2E2E2E2E2E2E2E2E2E2E2E2E2E2E2E2E2E2E2E2E2E2E2E2E2E2E2E2E2E2E2E2E2E2E2E2E2E2E2E2E2E2E2E2E2E2E2E2E2E2E2E2E2E2E2E2E2E2E2E2E2E2E2E2E2E2E2E2E2E2E2E2E2E2E2E2E2E2E2E2E2E2E2E2E2
310
E2E2E2E2E2E2E2E2E2E2E2E2E2E2E2E2E2E2E2E2E2E2E2E2E2E2E2E2E2E2E2E2E2E2E2E2E2E2E2E2E2E2E2E2E2E2E2E2E2E2E2E2E2E2E2E2E2E2E2E2E2E2E2E2E2E2E2E2E2E2E2E2E2E2E2E2E2E2E2E2E2E2E2E2E2E2E2E2E2E2E2E2E2E2E2E2E2E2E2E2E2E2E2E2E2E2E2E2E2E2E2E2E2E2E2E2E2E2E2E2E2E2E2E2E2E2E2
310
E2E2E2E2E2E2E2E2E2E2E2E2E2E2E2E2E2E2E2E2E2E2E2E2E2E2E2E2E2E2E2E2E2E2E2E2E2E2E2E2E2E2E2E2E2E2E2E2E2E2E2E2E2E2E2E2E2E2E2E2E2E2E2E2E2E2E2E2E2E2E2E2E2E2E2E2E2E2E2E2E2E2E2E2E2E2E2E2E2E2E2E2E2E2E2E2E2E2E2E2E2E2E2E2E2E2E2E2E2E2E2E2E2E2E2E2E2E2E2E2E2E2E2E2E2E2E2
310
E2E2E2E2E2E2E2E2E2E2E2E2E2E2E2E2E2E2E2E2E2E2E2E2E2E2E2E2E2E2E2E2E2E2E2E2E2E2E2E2E2E2E2E2E2E2E2E2E2E2E2E2E2E2E2E2E2E2E2E2E2E2E2E2E2E2E2E2E2E2E2E2E2E2E2E2E2E2E2E2E2E2E2E2E2E2E2E2E2E2E2E2E2E2E2E2E2E2E2E2E2E2E2E2E2E2E2E2E2E2E2E2E2E2E2E2E2E2E2E2E2E2E2E2E2E2E2
310
E2E2E2E2E2E2E2E2E2E2E2E2E2E2E2E2E2E2E2E2E2E2E2E2E2E2E2E2E2E2E2E2E2E2E2E2E2E2E2E2E2E2E2E2E2E2E2E2E2E2E2E2E2E2E2E2E2E2E2E2E2E2E2E2E2E2E2E2E2E2E2E2E2E2E2E2E2E2E2E2E2E2E2E2E2E2E2E2E2E2E2E2E2E2E2E2E2E2E2E2E2E2E2E2E2E2E2E2E2E2E2E2E2E2E2E2E2E2E2E2E2E2E2E2E2E2E2
310
E2E2E2E2E2E2E2E2E2E2E2E2E2E2E2E2E2E2E2E2E2E2E2E2E2E2E2E2E2E2E2E2E2E2E2E2E2E2E2E2E2E2E2E2E2E2E2E2E2E2E2E2E2E2E2E2E2E2E2E2E2E2E2E2E2E2E2E2E2E2E2E2E2E2E2E2E2E2E2E2E2E2E2E2E2E2E2E2E2E2E2E2E2E2E2E2E2E2E2E2E2E2E2E2E2E2E2E2E2E2E2E2E2E2E2E2E2E2E2E2E2E2E2E2E2E2E2
310
E2E2E2E2E2E2E2E2E2E2E2E2E2E2E2E2E2E2E2E2E2E2E2E2E2E2E2E2E2E2E2E2E2E2E2E2E2E2E2E2E2E2E2E2E2E2E2E2E2E2E2E2E2E2E2E2E2E2E2E2E2E2E2E2E2E2E2E2E2E2E2E2E2E2E2E2E2E2E2E2E2E2E2E2E2E2E2E2E2E2E2E2E2E2E2E2E2E2E2E2E2E2E2E2E2E2E2E2E2E2E2E2E2E2E2E2E2E2E2E2E2E2E2E2E2E2E2
310
E2E2E2E2E2E2E2E2E2E2E2E2E2E2E2E2E2E2E2E2E2E2E2E2E2E2E2E2E2E2E2E2E2E2E2E2E2E2E2E2E2E2E2E2E2E2E2E2E2E2E2E2E2E2E2E2E2E2E2E2E2E2E2E2E2E2E2E2E2E2E2E2E2E2E2E2E2E2E2E2E2E2E2E2E2E2E2E2E2E2E2E2E2E2E2E2E2E2E2E2E2E2E2E2E2E2E2E2E2E2E2E2E2E2E2E2E2E2E2E2E2E2E2E2E2E2E2
310
E2E2E2E2E2E2E2E2E2E2E2E2E2E2E2E2E2E2E2E2E2E2E2E2E2E2E2E2E2E2E2E2E2E2E2E2E2E2E2E2E2E2E2E2E2E2E2E2E2E2E2E2E2E2E2E2E2E2E2E2E2E2E2E2E2E2E2E2E2E2E2E2E2E2E2E2E2E2E2E2E2E2E2E2E2E2E2E2E2E2E2E2E2E2E2E2E2E2E2E2E2E2E2E2E2E2E2E2E2E2E2E2E2E2E2E2E2E2E2E2E2E2E2E2E2E2E2
310
E2E2E2E2E2E2E2E2E2E2E2E2E2E2E2E2E2E2E2E2E2E2E2E2E2E2E2E2E2E2E2E2E2E2E2E2E2E2E2E2E2E2E2E2E2E2E2E2E2E2E2E2E2E2E2E2E2E2E2E2E2E2E2E2E2E2E2E2E2E2E2E2E2E2E2E2E2E2E2E2E2E2E2E2E2E2E2E2E2E2E2E2E2E2E2E2E2E2E2E2E2E2E2E2E2E2E2E2E2E2E2E2E2E2E2E2E2E2E2E2E2E2E2E2E2E2E2
310
E2E2E2E2E2E2E2E2E2E2E2E2E2E2E2E2E2E2E2E2E2E2E2E2E2E2E2E2E2E2E2E2E2E2E2E2E2E2E2E2E2E2E2E2E2E2E2E2E2E2E2E2E2E2E2E2E2E2E2E2E2E2E2E2E2E2E2E2E2E2E2E2E2E2E2E2E2E2E2E2E2E2E2E2E2E2E2E2E2E2E2E2E2E2E2E2E2E2E2E2E2E2E2E2E2E2E2E2E2E2E2E2E2E2E2E2E2E2E2E2E2E2E2E2E2E2E2
310
E2E2E2E2E2E2E2E2E2E2E2E2E2E2E2E2E2E2E2E2E2E2E2E2E2E2E2E2E2E2E2E2E2E2E2E2E2E2E2E2E2E2E2E2E2E2E2E2E2E2E2E2E2E2E2E2E2E2E2E2E2E2E2E2E2E2E2E2E2E2E2E2E2E2E2E2E2E2E2E2E2E2E2E2E2E2E2E2E2E2E2E2E2E2E2E2E2E2E2E2E2E2E2E2E2E2E2E2E2E2E2E2E2E2E2E2E2E2E2E2E2E2E2E2E2E2E2
310
E2E2E2E2E2E2E2E2E2E2E2E2E2E2E2E2E2E2E2E2E2E2E2E2E2E2E2E2E2E2E2E2E2E2E2E2E2E2E2E2E2E2E2E2E2E2E2E2E2E2E2E2E2E2E2E2E2E2E2E2E2E2E2E2E2E2E2E2E2E2E2E2E2E2E2E2E2E2E2E2E2E2E2E2E2E2E2E2E2E2E2E2E2E2E2E2E2E2E2E2E2E2E2E2E2E2E2E2E2E2E2E2E2E2E2E2E2E2E2E2E2E2E2E2E2E2E2
310
E2E2E2E2E2E2E2E2E2E2E2E2E2E2E2E2E2E2E2E2E2E2E2E2E2E2E2E2E2E2E2E2E2E2E2E2E2E2E2E2E2E2E2E2E2E2E2E2E2E2E2E2E2E2E2E2E2E2E2E2E2E2E2E2E2E2E2E2E2E2E2E2E2E2E2E2E2E2E2E2E2E2E2E2E2E2E2E2E2E2E2E2E2E2E2E2E2E2E2E2E2E2E2E2E2E2E2E2E2E2E2E2E2E2E2E2E2E2E2E2E2E2E2E2E2E2E2
310
E2E2E2E2E2E2E2E2E2E2E2E2E2E2E2E2E2E2E2E2E2E2E2E2E2E2E2E2E2E2E2E2E2E2E2E2E2E2E2E2E2E2E2E2E2E2E2E2E2E2E2E2E2E2E2E2E2E2E2E2E2E2E2E2E2E2E2E2E2E2E2E2E2E2E2E2E2E2E2E2E2E2E2E2E2E2E2E2E2E2E2E2E2E2E2E2E2E2E2E2E2E2E2E2E2E2E2E2E2E2E2E2E2E2E2E2E2E2E2E2E2E2E2E2E2E2E2
310
E2E2E2E2E2E2E2E2E2E2E2E2E2E2E2E2E2E2E2E2E2E2E2E2E2E2E2E2E2E2E2E2E2E2E2E2E2E2E2E2E2E2E2E2E2E2E2E2E2E2E2E2E2E2E2E2E2E2E2E2E2E2E2E2E2E2E2E2E2E2E2E2E2E2E2E2E2E2E2E2E2E2E2E2E2E2E2E2E2E2E2E2E2E2E2E2E2E2E2E2E2E2E2E2E2E2E2E2E2E2E2E2E2E2E2E2E2E2E2E2E2E2E2E2E2E2E2
310
E2E2E2E2E2E2E2E2E2E2E2E2E2E2E2E2E2E2E2E2E2E2E2E2E2E2E2E2E2E2E2E2E2E2E2E2E2E2E2E2E2E2E2E2E2E2E2E2E2E2E2E2E2E2E2E2E2E2E2E2E2E2E2E2E2E2E2E2E2E2E2E2E2E2E2E2E2E2E2E2E2E2E2E2E2E2E2E2E2E2E2E2E2E2E2E2E2E2E2E2E2E2E2E2E2E2E2E2E2E2E2E2E2E2E2E2E2E2E2E2E2E2E2E2E2E2E2
310
E2E2E2E2E2E2E2E2E2E2E2E2E2E2E2E2E2E2E2E2E2E2E2E2E2E2E2E2E2E2E2E2E2E2E2E2E2E2E2E2E2E2E2E2E2E2E2E2E2E2E2E2E2E2E2E2E2E2E2E2E2E2E2E2E2E2E2E2E2E2E2E2E2E2E2E2E2E2E2E2E2E2E2E2E2E2E2E2E2E2E2E2E2E2E2E2E2E2E2E2E2E2E2E2E2E2E2E2E2E2E2E2E2E2E2E2E2E2E2E2E2E2E2E2E2E2E2
310
E2E2E2E2E2E2E2E2E2E2E2E2E2E2E2E2E2E2E2E2E2E2E2E2E2E2E2E2E2E2E2E2E2E2E2E2E2E2E2E2E2E2E2E2E2E2E2E2E2E2E2E2E2E2E2E2E2E2E2E2E2E2E2E2E2E2E2E2E2E2E2E2E2E2E2E2E2E2E2E2E2E2E2E2E2E2E2E2E2E2E2E2E2E2E2E2E2E2E2E2E2E2E2E2E2E2E2E2E2E2E2E2E2E2E2E2E2E2E2E2E2E2E2E2E2E2E2
310
E2E2E2E2E2E2E2E2E2E2E2E2E2E2E2E2E2E2E2E2E2E2E2E2E2E2E2E2E2E2E2E2E2E2E2E2E2E2E2E2E2E2E2E2E2E2E2E2E2E2E2E2E2E2E2E2E2E2E2E2E2E2E2E2E2E2E2E2E2E2E2E2E2E2E2E2E2E2E2E2E2E2E2E2E2E2E2E2E2E2E2E2E2E2E2E2E2E2E2E2E2E2E2E2E2E2E2E2E2E2E2E2E2E2E2E2E2E2E2E2E2E2E2E2E2E2E2
310
E2E2E2E2E2E2E2E2E2E2E2E2E2E2E2E2E2E2E2E2E2E2E2E2E2E2E2E2E2E2E2E2E2E2E2E2E2E2E2E2E2E2E2E2E2E2E2E2E2E2E2E2E2E2E2E2E2E2E2E2E2E2E2E2E2E2E2E2E2E2E2E2E2E2E2E2E2E2E2E2E2E2E2E2E2E2E2E2E2E2E2E2E2E2E2E2E2E2E2E2E2E2E2E2E2E2E2E2E2E2E2E2E2E2E2E2E2E2E2E2E2E2E2E2E2E2E2
310
E2E2E2E2E2E2E2E2E2E2E2E2E2E2E2E2E2E2E2E2E2E2E2E2E2E2E2E2E2E2E2E2E2E2E2E2E2E2E2E2E2E2E2E2E2E2E2E2E2E2E2E2E2E2E2E2E2E2E2E2E2E2E2E2E2E2E2E2E2E2E2E2E2E2E2E2E2E2E2E2E2E2E2E2E2E2E2E2E2E2E2E2E2E2E2E2E2E2E2E2E2E2E2E2E2E2E2E2E2E2E2E2E2E2E2E2E2E2E2E2E2E2E2E2E2E2E2
310
E2E2E2E2E2E2E2E2E2E2E2E2E2E2E2E2E2E2E2E2E2E2E2E2E2E2E2E2E2E2E2E2E2E2E2E2E2E2E2E2E2E2E2E2E2E2E2E2E2E2E2E2E2E2E2E2E2E2E2E2E2E2E2E2E2E2E2E2E2E2E2E2E2E2E2E2E2E2E2E2E2E2E2E2E2E2E2E2E2E2E2E2E2E2E2E2E2E2E2E2E2E2E2E2E2E2E2E2E2E2E2E2E2E2E2E2E2E2E2E2E2E2E2E2E2E2E2
310
E2E2E2E2E2E2E2E2E2E2E2E2E2E2E2E2E2E2E2E2E2E2E2E2E2E2E2E2E2E2E2E2E2E2E2E2E2E2E2E2E2E2E2E2E2E2E2E2E2E2E2E2E2E2E2E2E2E2E2E2E2E2E2E2E2E2E2E2E2E2E2E2E2E2E2E2E2E2E2E2E2E2E2E2E2E2E2E2E2E2E2E2E2E2E2E2E2E2E2E2E2E2E2E2E2E2E2E2E2E2E2E2E2E2E2E2E2E2E2E2E2E2E2E2E2E2E2
310
E2E2E2E2E2E2E2E2E2E2E2E2E2E2E2E2E2E2E2E2E2E2E2E2E2E2E2E2E2E2E2E2E2E2E2E2E2E2E2E2E2E2E2E2E2E2E2E2E2E2E2E2E2E2E2E2E2E2E2E2E2E2E2E2E2E2E2E2E2E2E2E2E2E2E2E2E2E2E2E2E2E2E2E2E2E2E2E2E2E2E2E2E2E2E2E2E2E2E2E2E2E2E2E2E2E2E2E2E2E2E2E2E2E2E2E2E2E2E2E2E2E2E2E2E2E2E2
310
E2E2E2E2E2E2E2E2E2E2E2E2E2E2E2E2E2E2E2E2E2E2E2E2E2E2E2E2E2E2E2E2E2E2E2E2E2E2E2E2E2E2E2E2E2E2E2E2E2E2E2E2E2E2E2E2E2E2E2E2E2E2E2E2E2E2E2E2E2E2E2E2E2E2E2E2E2E2E2E2E2E2E2E2E2E2E2E2E2E2E2E2E2E2E2E2E2E2E2E2E2E2E2E2E2E2E2E2E2E2E2E2E2E2E2E2E2E2E2E2E2E2E2E2E2E2E2
310
E2E2E2E2E2E2E2E2E2E2E2E2E2E2E2E2E2E2E2E2E2E2E2E2E2E2E2E2E2E2E2E2E2E2E2E2E2E2E2E2E2E2E2E2E2E2E2E2E2E2E2E2E2E2E2E2E2E2E2E2E2E2E2E2E2E2E2E2E2E2E2E2E2E2E2E2E2E2E2E2E2E2E2E2E2E2E2E2E2E2E2E2E2E2E2E2E2E2E2E2E2E2E2E2E2E2E2E2E2E2E2E2E2E2E2E2E2E2E2E2E2E2E2E2E2E2E2
310
E2E2E2E2E2E2E2E2E2E2E2E2E2E2E2E2E2E2E2E2E2E2E2E2E2E2E2E2E2E2E2E2E2E2E2E2E2E2E2E2E2E2E2E2E2E2E2E2E2E2E2E2E2E2E2E2E2E2E2E2E2E2E2E2E2E2E2E2E2E2E2E2E2E2E2E2E2E2E2E2E2E2E2E2E2E2E2E2E2E2E2E2E2E2E2E2E2E2E2E2E2E2E2E2E2E2E2E2E2E2E2E2E2E2E2E2E2E2E2E2E2E2E2E2E2E2E2
310
E2E2E2E2E2E2E2E2E2E2E2E2E2E2E2E2E2E2E2E2E2E2E2E2E2E2E2E2E2E2E2E2E2E2E2E2E2E2E2E2E2E2E2E2E2E2E2E2E2E2E2E2E2E2E2E2E2E2E2E2E2E2E2E2E2E2E2E2E2E2E2E2E2E2E2E2E2E2E2E2E2E2E2E2E2E2E2E2E2E2E2E2E2E2E2E2E2E2E2E2E2E2E2E2E2E2E2E2E2E2E2E2E2E2E2E2E2E2E2E2E2E2E2E2E2E2E2
310
E2E2E2E2E2E2E2E2E2E2E2E2E2E2E2E2E2E2E2E2E2E2E2E2E2E2E2E2E2E2E2E2E2E2E2E2E2E2E2E2E2E2E2E2E2E2E2E2E2E2E2E2E2E2E2E2E2E2E2E2E2E2E2E2E2E2E2E2E2E2E2E2E2E2E2E2E2E2E2E2E2E2E2E2E2E2E2E2E2E2E2E2E2E2E2E2E2E2E2E2E2E2E2E2E2E2E2E2E2E2E2E2E2E2E2E2E2E2E2E2E2E2E2E2E2E2E2
310
E2E2E2E2E2E2E2E2E2E2E2E2E2E2E2E2E2E2E2E2E2E2E2E2E2E2E2E2E2E2E2E2E2E2E2E2E2E2E2E2E2E2E2E2E2E2E2E2E2E2E2E2E2E2E2E2E2E2E2E2E2E2E2E2E2E2E2E2E2E2E2E2E2E2E2E2E2E2E2E2E2E2E2E2E2E2E2E2E2E2E2E2E2E2E2E2E2E2E2E2E2E2E2E2E2E2E2E2E2E2E2E2E2E2E2E2E2E2E2E2E2E2E2E2E2E2E2
310
E2E2E2E2E2E2E2E2E2E2E2E2E2E2E2E2E2E2E2E2E2E2E2E2E2E2E2E2E2E2E2E2E2E2E2E2E2E2E2E2E2E2E2E2E2E2E2E2E2E2E2E2E2E2E2E2E2E2E2E2E2E2E2E2E2E2E2E2E2E2E2E2E2E2E2E2E2E2E2E2E2E2E2E2E2E2E2E2E2E2E2E2E2E2E2E2E2E2E2E2E2E2E2E2E2E2E2E2E2E2E2E2E2E2E2E2E2E2E2E2E2E2E2E2E2E2E2
310
E2E2E2E2E2E2E2E2E2E2E2E2E2E2E2E2E2E2E2E2E2E2E2E2E2E2E2E2E2E2E2E2E2E2E2E2E2E2E2E2E2E2E2E2E2E2E2E2E2E2E2E2E2E2E2E2E2E2E2E2E2E2E2E2E2E2E2E2E2E2E2E2E2E2E2E2E2E2E2E2E2E2E2E2E2E2E2E2E2E2E2E2E2E2E2E2E2E2E2E2E2E2E2E2E2E2E2E2E2E2E2E2E2E2E2E2E2E2E2E2E2E2E2E2E2E2E2
310
E2E2E2E2E2E2E2E2E2E2E2E2E2E2E2E2E2E2E2E2E2E2E2E2E2E2E2E2E2E2E2E2E2E2E2E2E2E2E2E2E2E2E2E2E2E2E2E2E2E2E2E2E2E2E2E2E2E2E2E2E2E2E2E2E2E2E2E2E2E2E2E2E2E2E2E2E2E2E2E2E2E2E2E2E2E2E2E2E2E2E2E2E2E2E2E2E2E2E2E2E2E2E2E2E2E2E2E2E2E2E2E2E2E2E2E2E2E2E2E2E2E2E2E2E2E2E2
310
E2E2E2E2E2E2E2E2E2E2E2E2E2E2E2E2E2E2E2E2E2E2E2E2E2E2E2E2E2E2E2E2E2E2E2E2E2E2E2E2E2E2E2E2E2E2E2E2E2E2E2E2E2E2E2E2E2E2E2E2E2E2E2E2E2E2E2E2E2E2E2E2E2E2E2E2E2E2E2E2E2E2E2E2E2E2E2E2E2E2E2E2E2E2E2E2E2E2E2E2E2E2E2E2E2E2E2E2E2E2E2E2E2E2E2E2E2E2E2E2E2E2E2E2E2E2E2
310
E2E2E2E2E2E2E2E2E2E2E2E2E2E2E2E2E2E2E2E2E2E2E2E2E2E2E2E2E2E2E2E2E2E2E2E2E2E2E2E2E2E2E2E2E2E2E2E2E2E2E2E2E2E2E2E2E2E2E2E2E2E2E2E2E2E2E2E2E2E2E2E2E2E2E2E2E2E2E2E2E2E2E2E2E2E2E2E2E2E2E2E2E2E2E2E2E2E2E2E2E2E2E2E2E2E2E2E2E2E2E2E2E2E2E2E2E2E2E2E2E2E2E2E2E2E2E2
310
E2E2E2E2E2E2E2E2E2E2E2E2E2E2E2E2E2E2E2E2E2E2E2E2E2E2E2E2E2E2E2E2E2E2E2E2E2E2E2E2E2E2E2E2E2E2E2E2E2E2E2E2E2E2E2E2E2E2E2E2E2E2E2E2E2E2E2E2E2E2E2E2E2E2E2E2E2E2E2E2E2E2E2E2E2E2E2E2E2E2E2E2E2E2E2E2E2E2E2E2E2E2E2E2E2E2E2E2E2E2E2E2E2E2E2E2E2E2E2E2E2E2E2E2E2E2E2
310
E2E2E2E2E2E2E2E2E2E2E2E2E2E2E2E2E2E2E2E2E2E2E2E2E2E2E2E2E2E2E2E2E2E2E2E2E2E2E2E2E2E2E2E2E2E2E2E2E2E2E2E2E2E2E2E2E2E2E2E2E2E2E2E2E2E2E2E2E2E2E2E2E2E2E2E2E2E2E2E2E2E2E2E2E2E2E2E2E2E2E2E2E2E2E2E2E2E2E2E2E2E2E2E2E2E2E2E2E2E2E2E2E2E2E2E2E2E2E2E2E2E2E2E2E2E2E2
310
E2E2E2E2E2E2E2E2E2E2E2E2E2E2E2E2E2E2E2E2E2E2E2E2E2E2E2E2E2E2E2E2E2E2E2E2E2E2E2E2E2E2E2E2E2E2E2E2E2E2E2E2E2E2E2E2E2E2E2E2E2E2E2E2E2E2E2E2E2E2E2E2E2E2E2E2E2E2E2E2E2E2E2E2E2E2E2E2E2E2E2E2E2E2E2E2E2E2E2E2E2E2E2E2E2E2E2E2E2E2E2E2E2E2E2E2E2E2E2E2E2E2E2E2E2E2E2
310
E2E2E2E2E2E2E2E2E2E2E2E2E2E2E2E2E2E2E2E2E2E2E2E2E2E2E2E2E2E2E2E2E2E2E2E2E2E2E2E2E2E2E2E2E2E2E2E2E2E2E2E2E2E2E2E2E2E2E2E2E2E2E2E2E2E2E2E2E2E2E2E2E2E2E2E2E2E2E2E2E2E2E2E2E2E2E2E2E2E2E2E2E2E2E2E2E2E2E2E2E2E2E2E2E2E2E2E2E2E2E2E2E2E2E2E2E2E2E2E2E2E2E2E2E2E2E2
310
E2E2E2E2E2E2E2E2E2E2E2E2E2E2E2E2E2E2E2E2E2E2E2E2E2E2E2E2E2E2E2E2E2E2E2E2E2E2E2E2E2E2E2E2E2E2E2E2E2E2E2E2E2E2E2E2E2E2E2E2E2E2E2E2E2E2E2E2E2E2E2E2E2E2E2E2E2E2E2E2E2E2E2E2E2E2E2E2E2E2E2E2E2E2E2E2E2E2E2E2E2E2E2E2E2E2E2E2E2E2E2E2E2E2E2E2E2E2E2E2E2E2E2E2E2E2E2
310
E2E2E2E2E2E2E2E2E2E2E2E2E2E2E2E2E2E2E2E2E2E2E2E2E2E2E2E2E2E2E2E2E2E2E2E2E2E2E2E2E2E2E2E2E2E2E2E2E2E2E2E2E2E2E2E2E2E2E2E2E2E2E2E2E2E2E2E2E2E2E2E2E2E2E2E2E2E2E2E2E2E2E2E2E2E2E2E2E2E2E2E2E2E2E2E2E2E2E2E2E2E2E2E2E2E2E2E2E2E2E2E2E2E2E2E2E2E2E2E2E2E2E2E2E2E2E2
310
E2E2E2E2E2E2E2E2E2E2E2E2E2E2E2E2E2E2E2E2E2E2E2E2E2E2E2E2E2E2E2E2E2E2E2E2E2E2E2E2E2E2E2E2E2E2E2E2E2E2E2E2E2E2E2E2E2E2E2E2E2E2E2E2E2E2E2E2E2E2E2E2E2E2E2E2E2E2E2E2E2E2E2E2E2E2E2E2E2E2E2E2E2E2E2E2E2E2E2E2E2E2E2E2E2E2E2E2E2E2E2E2E2E2E2E2E2E2E2E2E2E2E2E2E2E2E2
310
E2E2E2E2E2E2E2E2E2E2E2E2E2E2E2E2E2E2E2E2E2E2E2E2E2E2E2E2E2E2E2E2E2E2E2E2E2E2E2E2E2E2E2E2E2E2E2E2E2E2E2E2E2E2E2E2E2E2E2E2E2E2E2E2E2E2E2E2E2E2E2E2E2E2E2E2E2E2E2E2E2E2E2E2E2E2E2E2E2E2E2E2E2E2E2E2E2E2E2E2E2E2E2E2E2E2E2E2E2E2E2E2E2E2E2E2E2E2E2E2E2E2E2E2E2E2E2
310
E2E2E2E2E2E2E2E2E2E2E2E2E2E2E2E2E2E2E2E2E2E2E2E2E2E2E2E2E2E2E2E2E2E2E2E2E2E2E2E2E2E2E2E2E2E2E2E2E2E2E2E2E2E2E2E2E2E2E2E2E2E2E2E2E2E2E2E2E2E2E2E2E2E2E2E2E2E2E2E2E2E2E2E2E2E2E2E2E2E2E2E2E2E2E2E2E2E2E2E2E2E2E2E2E2E2E2E2E2E2E2E2E2E2E2E2E2E2E2E2E2E2E2E2E2E2E2
310
E2E2E2E2E2E2E2E2E2E2E2E2E2E2E2E2E2E2E2E2E2E2E2E2E2E2E2E2E2E2E2E2E2E2E2E2E2E2E2E2E2E2E2E2E2E2E2E2E2E2E2E2E2E2E2E2E2E2E2E2E2E2E2E2E2E2E2E2E2E2E2E2E2E2E2E2E2E2E2E2E2E2E2E2E2E2E2E2E2E2E2E2E2E2E2E2E2E2E2E2E2E2E2E2E2E2E2E2E2E2E2E2E2E2E2E2E2E2E2E2E2E2E2E2E2E2E2
310
E2E2E2E2E2E2E2E2E2E2E2E2E2E2E2E2E2E2E2E2E2E2E2E2E2E2E2E2E2E2E2E2E2E2E2E2E2E2E2E2E2E2E2E2E2E2E2E2E2E2E2E2E2E2E2E2E2E2E2E2E2E2E2E2E2E2E2E2E2E2E2E2E2E2E2E2E2E2E2E2E2E2E2E2E2E2E2E2E2E2E2E2E2E2E2E2E2E2E2E2E2E2E2E2E2E2E2E2E2E2E2E2E2E2E2E2E2E2E2E2E2E2E2E2E2E2E2
310
E2E2E2E2E2E2E2E2E2E2E2E2E2E2E2E2E2E2E2E2E2E2E2E2E2E2E2E2E2E2E2E2E2E2E2E2E2E2E2E2E2E2E2E2E2E2E2E2E2E2E2E2E2E2E2E2E2E2E2E2E2E2E2E2E2E2E2E2E2E2E2E2E2E2E2E2E2E2E2E2E2E2E2E2E2E2E2E2E2E2E2E2E2E2E2E2E2E2E2E2E2E2E2E2E2E2E2E2E2E2E2E2E2E2E2E2E2E2E2E2E2E2E2E2E2E2E2
310
E2E2E2E2E2E2E2E2E2E2E2E2E2E2E2E2E2E2E2E2E2E2E2E2E2E2E2E2E2E2E2E2E2E2E2E2E2E2E2E2E2E2E2E2E2E2E2E2E2E2E2E2E2E2E2E2E2E2E2E2E2E2E2E2E2E2E2E2E2E2E2E2E2E2E2E2E2E2E2E2E2E2E2E2E2E2E2E2E2E2E2E2E2E2E2E2E2E2E2E2E2E2E2E2E2E2E2E2E2E2E2E2E2E2E2E2E2E2E2E2E2E2E2E2E2E2E2
310
E2E2E2E2E2E2E2E2E2E2E2E2E2E2E2E2E2E2E2E2E2E2E2E2E2E2E2E2E2E2E2E2E2E2E2E2E2E2E2E2E2E2E2E2E2E2E2E2E2E2E2E2E2E2E2E2E2E2E2E2E2E2E2E2E2E2E2E2E2E2E2E2E2E2E2E2E2E2E2E2E2E2E2E2E2E2E2E2E2E2E2E2E2E2E2E2E2E2E2E2E2E2E2E2E2E2E2E2E2E2E2E2E2E2E2E2E2E2E2E2E2E2E2E2E2E2E2
310
E2E2E2E2E2E2E2E2E2E2E2E2E2E2E2E2E2E2E2E2E2E2E2E2E2E2E2E2E2E2E2E2E2E2E2E2E2E2E2E2E2E2E2E2E2E2E2E2E2E2E2E2E2E2E2E2E2E2E2E2E2E2E2E2E2E2E2E2E2E2E2E2E2E2E2E2E2E2E2E2E2E2E2E2E2E2E2E2E2E2E2E2E2E2E2E2E2E2E2E2E2E2E2E2E2E2E2E2E2E2E2E2E2E2E2E2E2E2E2E2E2E2E2E2E2E2E2
310
E2E2E2E2E2E2E2E2E2E2E2E2E2E2E2E2E2E2E2E2E2E2E2E2E2E2E2E2E2E2E2E2E2E2E2E2E2E2E2E2E2E2E2E2E2E2E2E2E2E2E2E2E2E2E2E2E2E2E2E2E2E2E2E2E2E2E2E2E2E2E2E2E2E2E2E2E2E2E2E2E2E2E2E2E2E2E2E2E2E2E2E2E2E2E2E2E2E2E2E2E2E2E2E2E2E2E2E2E2E2E2E2E2E2E2E2E2E2E2E2E2E2E2E2E2E2E2
310
E2E2E2E2E2E2E2E2E2E2E2E2E2E2E2E2E2E2E2E2E2E2E2E2E2E2E2E2E2E2E2E2E2E2E2E2E2E2E2E2E2E2E2E2E2E2E2E2E2E2E2E2E2E2E2E2E2E2E2E2E2E2E2E2E2E2E2E2E2E2E2E2E2E2E2E2E2E2E2E2E2E2E2E2E2E2E2E2E2E2E2E2E2E2E2E2E2E2E2E2E2E2E2E2E2E2E2E2E2E2E2E2E2E2E2E2E2E2E2E2E2E2E2E2E2E2E2
310
E2E2E2E2E2E2E2E2E2E2E2E2E2E2E2E2E2E2E2E2E2E2E2E2E2E2E2E2E2E2E2E2E2E2E2E2E2E2E2E2E2E2E2E2E2E2E2E2E2E2E2E2E2E2E2E2E2E2E2E2E2E2E2E2E2E2E2E2E2E2E2E2E2E2E2E2E2E2E2E2E2E2E2E2E2E2E2E2E2E2E2E2E2E2E2E2E2E2E2E2E2E2E2E2E2E2E2E2E2E2E2E2E2E2E2E2E2E2E2E2E2E2E2E2E2E2E2
310
E2E2E2E2E2E2E2E2E2E2E2E2E2E2E2E2E2E2E2E2E2E2E2E2E2E2E2E2E2E2E2E2E2E2E2E2E2E2E2E2E2E2E2E2E2E2E2E2E2E2E2E2E2E2E2E2E2E2E2E2E2E2E2E2E2E2E2E2E2E2E2E2E2E2E2E2E2E2E2E2E2E2E2E2E2E2E2E2E2E2E2E2E2E2E2E2E2E2E2E2E2E2E2E2E2E2E2E2E2E2E2E2E2E2E2E2E2E2E2E2E2E2E2E2E2E2E2
310
E2E2E2E2E2E2E2E2E2E2E2E2E2E2E2E2E2E2E2E2E2E2E2E2E2E2E2E2E2E2E2E2E2E2E2E2E2E2E2E2E2E2E2E2E2E2E2E2E2E2E2E2E2E2E2E2E2E2E2E2E2E2E2E2E2E2E2E2E2E2E2E2E2E2E2E2E2E2E2E2E2E2E2E2E2E2E2E2E2E2E2E2E2E2E2E2E2E2E2E2E2E2E2E2E2E2E2E2E2E2E2E2E2E2E2E2E2E2E2E2E2E2E2E2E2E2E2
310
E2E2E2E2E2E2E2E2E2E2E2E2E2E2E2E2E2E2E2E2E2E2E2E2E2E2E2E2E2E2E2E2E2E2E2E2E2E2E2E2E2E2E2E2E2E2E2E2E2E2E2E2E2E2E2E2E2E2E2E2E2E2E2E2E2E2E2E2E2E2E2E2E2E2E2E2E2E2E2E2E2E2E2E2E2E2E2E2E2E2E2E2E2E2E2E2E2E2E2E2E2E2E2E2E2E2E2E2E2E2E2E2E2E2E2E2E2E2E2E2E2E2E2E2E2E2E2
310
E2E2E2E2E2E2E2E2E2E2E2E2E2E2E2E2E2E2E2E2E2E2E2E2E2E2E2E2E2E2E2E2E2E2E2E2E2E2E2E2E2E2E2E2E2E2E2E2E2E2E2E2E2E2E2E2E2E2E2E2E2E2E2E2E2E2E2E2E2E2E2E2E2E2E2E2E2E2E2E2E2E2E2E2E2E2E2E2E2E2E2E2E2E2E2E2E2E2E2E2E2E2E2E2E2E2E2E2E2E2E2E2E2E2E2E2E2E2E2E2E2E2E2E2E2E2E2
310
E2E2E2E2E2E2E2E2E2E2E2E2E2E2E2E2E2E2E2E2E2E2E2E2E2E2E2E2E2E2E2E2E2E2E2E2E2E2E2E2E2E2E2E2E2E2E2E2E2E2E2E2E2E2E2E2E2E2E2E2E2E2E2E2E2E2E2E2E2E2E2E2E2E2E2E2E2E2E2E2E2E2E2E2E2E2E2E2E2E2E2E2E2E2E2E2E2E2E2E2E2E2E2E2E2E2E2E2E2E2E2E2E2E2E2E2E2E2E2E2E2E2E2E2E2E2E2
310
E2E2E2E2E2E2E2E2E2E2E2E2E2E2E2E2E2E2E2E2E2E2E2E2E2E2E2E2E2E2E2E2E2E2E2E2E2E2E2E2E2E2E2E2E2E2E2E2E2E2E2E2E2E2E2E2E2E2E2E2E2E2E2E2E2E2E2E2E2E2E2E2E2E2E2E2E2E2E2E2E2E2E2E2E2E2E2E2E2E2E2E2E2E2E2E2E2E2E2E2E2E2E2E2E2E2E2E2E2E2E2E2E2E2E2E2E2E2E2E2E2E2E2E2E2E2E2
310
E2E2E2E2E2E2E2E2E2E2E2E2E2E2E2E2E2E2E2E2E2E2E2E2E2E2E2E2E2E2E2E2E2E2E2E2E2E2E2E2E2E2E2E2E2E2E2E2E2E2E2E2E2E2E2E2E2E2E2E2E2E2E2E2E2E2E2E2E2E2E2E2E2E2E2E2E2E2E2E2E2E2E2E2E2E2E2E2E2E2E2E2E2E2E2E2E2E2E2E2E2E2E2E2E2E2E2E2E2E2E2E2E2E2E2E2E2E2E2E2E2E2E2E2E2E2E2
310
E2E2E2E2E2E2E2E2E2E2E2E2E2E2E2E2E2E2E2E2E2E2E2E2E2E2E2E2E2E2E2E2E2E2E2E2E2E2E2E2E2E2E2E2E2E2E2E2E2E2E2E2E2E2E2E2E2E2E2E2E2E2E2E2E2E2E2E2E2E2E2E2E2E2E2E2E2E2E2E2E2E2E2E2E2E2E2E2E2E2E2E2E2E2E2E2E2E2E2E2E2E2E2E2E2E2E2E2E2E2E2E2E2E2E2E2E2E2E2E2E2E2E2E2E2E2E2
310
E2E2E2E2E2E2E2E2E2E2E2E2E2E2E2E2E2E2E2E2E2E2E2E2E2E2E2E2E2E2E2E2E2E2E2E2E2E2E2E2E2E2E2E2E2E2E2E2E2E2E2E2E2E2E2E2E2E2E2E2E2E2E2E2E2E2E2E2E2E2E2E2E2E2E2E2E2E2E2E2E2E2E2E2E2E2E2E2E2E2E2E2E2E2E2E2E2E2E2E2E2E2E2E2E2E2E2E2E2E2E2E2E2E2E2E2E2E2E2E2E2E2E2E2E2E2E2
310
E2E2E2E2E2E2E2E2E2E2E2E2E2E2E2E2E2E2E2E2E2E2E2E2E2E2E2E2E2E2E2E2E2E2E2E2E2E2E2E2E2E2E2E2E2E2E2E2E2E2E2E2E2E2E2E2E2E2E2E2E2E2E2E2E2E2E2E2E2E2E2E2E2E2E2E2E2E2E2E2E2E2E2E2E2E2E2E2E2E2E2E2E2E2E2E2E2E2E2E2E2E2E2E2E2E2E2E2E2E2E2E2E2E2E2E2E2E2E2E2E2E2E2E2E2E2E2
310
E2E2E2E2E2E2E2E2E2E2E2E2E2E2E2E2E2E2E2E2E2E2E2E2E2E2E2E2E2E2E2E2E2E2E2E2E2E2E2E2E2E2E2E2E2E2E2E2E2E2E2E2E2E2E2E2E2E2E2E2E2E2E2E2E2E2E2E2E2E2E2E2E2E2E2E2E2E2E2E2E2E2E2E2E2E2E2E2E2E2E2E2E2E2E2E2E2E2E2E2E2E2E2E2E2E2E2E2E2E2E2E2E2E2E2E2E2E2E2E2E2E2E2E2E2E2E2
310
E2E2E2E2E2E2E2E2E2E2E2E2E2E2E2E2E2E2E2E2E2E2E2E2E2E2E2E2E2E2E2E2E2E2E2E2E2E2E2E2E2E2E2E2E2E2E2E2E2E2E2E2E2E2E2E2E2E2E2E2E2E2E2E2E2E2E2E2E2E2E2E2E2E2E2E2E2E2E2E2E2E2E2E2E2E2E2E2E2E2E2E2E2E2E2E2E2E2E2E2E2E2E2E2E2E2E2E2E2E2E2E2E2E2E2E2E2E2E2E2E2E2E2E2E2E2E2
310
E2E2E2E2E2E2E2E2E2E2E2E2E2E2E2E2E2E2E2E2E2E2E2E2E2E2E2E2E2E2E2E2E2E2E2E2E2E2E2E2E2E2E2E2E2E2E2E2E2E2E2E2E2E2E2E2E2E2E2E2E2E2E2E2E2E2E2E2E2E2E2E2E2E2E2E2E2E2E2E2E2E2E2E2E2E2E2E2E2E2E2E2E2E2E2E2E2E2E2E2E2E2E2E2E2E2E2E2E2E2E2E2E2E2E2E2E2E2E2E2E2E2E2E2E2E2E2
310
E2E2E2E2E2E2E2E2E2E2E2E2E2E2E2E2E2E2E2E2E2E2E2E2E2E2E2E2E2E2E2E2E2E2E2E2E2E2E2E2E2E2E2E2E2E2E2E2E2E2E2E2E2E2E2E2E2E2E2E2E2E2E2E2E2E2E2E2E2E2E2E2E2E2E2E2E2E2E2E2E2E2E2E2E2E2E2E2E2E2E2E2E2E2E2E2E2E2E2E2E2E2E2E2E2E2E2E2E2E2E2E2E2E2E2E2E2E2E2E2E2E2E2E2E2E2E2
310
E2E2E2E2E2E2E2E2E2E2E2E2E2E2E2E2E2E2E2E2E2E2E2E2E2E2E2E2E2E2E2E2E2E2E2E2E2E2E2E2E2E2E2E2E2E2E2E2E2E2E2E2E2E2E2E2E2E2E2E2E2E2E2E2E2E2E2E2E2E2E2E2E2E2E2E2E2E2E2E2E2E2E2E2E2E2E2E2E2E2E2E2E2E2E2E2E2E2E2E2E2E2E2E2E2E2E2E2E2E2E2E2E2E2E2E2E2E2E2E2E2E2E2E2E2E2E2
310
E2E2E2E2E2E2E2E2E2E2E2E2E2E2E2E2E2E2E2E2E2E2E2E2E2E2E2E2E2E2E2E2E2E2E2E2E2E2E2E2E2E2E2E2E2E2E2E2E2E2E2E2E2E2E2E2E2E2E2E2E2E2E2E2E2E2E2E2E2E2E2E2E2E2E2E2E2E2E2E2E2E2E2E2E2E2E2E2E2E2E2E2E2E2E2E2E2E2E2E2E2E2E2E2E2E2E2E2E2E2E2E2E2E2E2E2E2E2E2E2E2E2E2E2E2E2E2
310
E2E2E2E2E2E2E2E2E2E2E2E2E2E2E2E2E2E2E2E2E2E2E2E2E2E2E2E2E2E2E2E2E2E2E2E2E2E2E2E2E2E2E2E2E2E2E2E2E2E2E2E2E2E2E2E2E2E2E2E2E2E2E2E2E2E2E2E2E2E2E2E2E2E2E2E2E2E2E2E2E2E2E2E2E2E2E2E2E2E2E2E2E2E2E2E2E2E2E2E2E2E2E2E2E2E2E2E2E2E2E2E2E2E2E2E2E2E2E2E2E2E2E2E2E2E2E2
310
E2E2E2E2E2E2E2E2E2E2E2E2E2E2E2E2E2E2E2E2E2E2E2E2E2E2E2E2E2E2E2E2E2E2E2E2E2E2E2E2E2E2E2E2E2E2E2E2E2E2E2E2E2E2E2E2E2E2E2E2E2E2E2E2E2E2E2E2E2E2E2E2E2E2E2E2E2E2E2E2E2E2E2E2E2E2E2E2E2E2E2E2E2E2E2E2E2E2E2E2E2E2E2E2E2E2E2E2E2E2E2E2E2E2E2E2E2E2E2E2E2E2E2E2E2E2E2
310
E2E2E2E2E2E2E2E2E2E2E2E2E2E2E2E2E2E2E2E2E2E2E2E2E2E2E2E2E2E2E2E2E2E2E2E2E2E2E2E2E2E2E2E2E2E2E2E2E2E2E2E2E2E2E2E2E2E2E2E2E2E2E2E2E2E2E2E2E2E2E2E2E2E2E2E2E2E2E2E2E2E2E2E2E2E2E2E2E2E2E2E2E2E2E2E2E2E2E2E2E2E2E2E2E2E2E2E2E2E2E2E2E2E2E2E2E2E2E2E2E2E2E2E2E2E2E2
310
E2E2E2E2E2E2E2E2E2E2E2E2E2E2E2E2E2E2E2E2E2E2E2E2E2E2E2E2E2E2E2E2E2E2E2E2E2E2E2E2E2E2E2E2E2E2E2E2E2E2E2E2E2E2E2E2E2E2E2E2E2E2E2E2E2E2E2E2E2E2E2E2E2E2E2E2E2E2E2E2E2E2E2E2E2E2E2E2E2E2E2E2E2E2E2E2E2E2E2E2E2E2E2E2E2E2E2E2E2E2E2E2E2E2E2E2E2E2E2E2E2E2E2E2E2E2E2
310
E2E2E2E2E2E2E2E2E2E2E2E2E2E2E2E2E2E2E2E2E2E2E2E2E2E2E2E2E2E2E2E2E2E2E2E2E2E2E2E2E2E2E2E2E2E2E2E2E2E2E2E2E2E2E2E2E2E2E2E2E2E2E2E2E2E2E2E2E2E2E2E2E2E2E2E2E2E2E2E2E2E2E2E2E2E2E2E2E2E2E2E2E2E2E2E2E2E2E2E2E2E2E2E2E2E2E2E2E2E2E2E2E2E2E2E2E2E2E2E2E2E2E2E2E2E2E2
310
E2E2E2E2E2E2E2E2E2E2E2E2E2E2E2E2E2E2E2E2E2E2E2E2E2E2E2E2E2E2E2E2E2E2E2E2E2E2E2E2E2E2E2E2E2E2E2E2E2E2E2E2E2E2E2E2E2E2E2E2E2E2E2E2E2E2E2E2E2E2E2E2E2E2E2E2E2E2E2E2E2E2E2E2E2E2E2E2E2E2E2E2E2E2E2E2E2E2E2E2E2E2E2E2E2E2E2E2E2E2E2E2E2E2E2E2E2E2E2E2E2E2E2E2E2E2E2
310
E2E2E2E2E2E2E2E2E2E2E2E2E2E2E2E2E2E2E2E2E2E2E2E2E2E2E2E2E2E2E2E2E2E2E2E2E2E2E2E2E2E2E2E2E2E2E2E2E2E2E2E2E2E2E2E2E2E2E2E2E2E2E2E2E2E2E2E2E2E2E2E2E2E2E2E2E2E2E2E2E2E2E2E2E2E2E2E2E2E2E2E2E2E2E2E2E2E2E2E2E2E2E2E2E2E2E2E2E2E2E2E2E2E2E2E2E2E2E2E2E2E2E2E2E2E2E2
310
E2E2E2E2E2E2E2E2E2E2E2E2E2E2E2E2E2E2E2E2E2E2E2E2E2E2E2E2E2E2E2E2E2E2E2E2E2E2E2E2E2E2E2E2E2E2E2E2E2E2E2E2E2E2E2E2E2E2E2E2E2E2E2E2E2E2E2E2E2E2E2E2E2E2E2E2E2E2E2E2E2E2E2E2E2E2E2E2E2E2E2E2E2E2E2E2E2E2E2E2E2E2E2E2E2E2E2E2E2E2E2E2E2E2E2E2E2E2E2E2E2E2E2E2E2E2E2
310
E2E2E2E2E2E2E2E2E2E2E2E2E2E2E2E2E2E2E2E2E2E2E2E2E2E2E2E2E2E2E2E2E2E2E2E2E2E2E2E2E2E2E2E2E2E2E2E2E2E2E2E2E2E2E2E2E2E2E2E2E2E2E2E2E2E2E2E2E2E2E2E2E2E2E2E2E2E2E2E2E2E2E2E2E2E2E2E2E2E2E2E2E2E2E2E2E2E2E2E2E2E2E2E2E2E2E2E2E2E2E2E2E2E2E2E2E2E2E2E2E2E2E2E2E2E2E2
310
E2E2E2E2E2E2E2E2E2E2E2E2E2E2E2E2E2E2E2E2E2E2E2E2E2E2E2E2E2E2E2E2E2E2E2E2E2E2E2E2E2E2E2E2E2E2E2E2E2E2E2E2E2E2E2E2E2E2E2E2E2E2E2E2E2E2E2E2E2E2E2E2E2E2E2E2E2E2E2E2E2E2E2E2E2E2E2E2E2E2E2E2E2E2E2E2E2E2E2E2E2E2E2E2E2E2E2E2E2E2E2E2E2E2E2E2E2E2E2E2E2E2E2E2E2E2E2
310
E2E2E2E2E2E2E2E2E2E2E2E2E2E2E2E2E2E2E2E2E2E2E2E2E2E2E2E2E2E2E2E2E2E2E2E2E2E2E2E2E2E2E2E2E2E2E2E2E2E2E2E2E2E2E2E2E2E2E2E2E2E2E2E2E2E2E2E2E2E2E2E2E2E2E2E2E2E2E2E2E2E2E2E2E2E2E2E2E2E2E2E2E2E2E2E2E2E2E2E2E2E2E2E2E2E2E2E2E2E2E2E2E2E2E2E2E2E2E2E2E2E2E2E2E2E2E2
310
E2E2E2E2E2E2E2E2E2E2E2E2E2E2E2E2E2E2E2E2E2E2E2E2E2E2E2E2E2E2E2E2E2E2E2E2E2E2E2E2E2E2E2E2E2E2E2E2E2E2E2E2E2E2E2E2E2E2E2E2E2E2E2E2E2E2E2E2E2E2E2E2E2E2E2E2E2E2E2E2E2E2E2E2E2E2E2E2E2E2E2E2E2E2E2E2E2E2E2E2E2E2E2E2E2E2E2E2E2E2E2E2E2E2E2E2E2E2E2E2E2E2E2E2E2E2E2
310
E2E2E2E2E2E2E2E2E2E2E2E2E2E2E2E2E2E2E2E2E2E2E2E2E2E2E2E2E2E2E2E2E2E2E2E2E2E2E2E2E2E2E2E2E2E2E2E2E2E2E2E2E2E2E2E2E2E2E2E2E2E2E2E2E2E2E2E2E2E2E2E2E2E2E2E2E2E2E2E2E2E2E2E2E2E2E2E2E2E2E2E2E2E2E2E2E2E2E2E2E2E2E2E2E2E2E2E2E2E2E2E2E2E2E2E2E2E2E2E2E2E2E2E2E2E2E2
310
E2E2E2E2E2E2E2E2E2E2E2E2E2E2E2E2E2E2E2E2E2E2E2E2E2E2E2E2E2E2E2E2E2E2E2E2E2E2E2E2E2E2E2E2E2E2E2E2E2E2E2E2E2E2E2E2E2E2E2E2E2E2E2E2E2E2E2E2E2E2E2E2E2E2E2E2E2E2E2E2E2E2E2E2E2E2E2E2E2E2E2E2E2E2E2E2E2E2E2E2E2E2E2E2E2E2E2E2E2E2E2E2E2E2E2E2E2E2E2E2E2E2E2E2E2E2E2
310
E2E2E2E2E2E2E2E2E2E2E2E2E2E2E2E2E2E2E2E2E2E2E2E2E2E2E2E2E2E2E2E2E2E2E2E2E2E2E2E2E2E2E2E2E2E2E2E2E2E2E2E2E2E2E2E2E2E2E2E2E2E2E2E2E2E2E2E2E2E2E2E2E2E2E2E2E2E2E2E2E2E2E2E2E2E2E2E2E2E2E2E2E2E2E2E2E2E2E2E2E2E2E2E2E2E2E2E2E2E2E2E2E2E2E2E2E2E2E2E2E2E2E2E2E2E2E2
310
E2E2E2E2E2E2E2E2E2E2E2E2E2E2E2E2E2E2E2E2E2E2E2E2E2E2E2E2E2E2E2E2E2E2E2E2E2E2E2E2E2E2E2E2E2E2E2E2E2E2E2E2E2E2E2E2E2E2E2E2E2E2E2E2E2E2E2E2E2E2E2E2E2E2E2E2E2E2E2E2E2E2E2E2E2E2E2E2E2E2E2E2E2E2E2E2E2E2E2E2E2E2E2E2E2E2E2E2E2E2E2E2E2E2E2E2E2E2E2E2E2E2E2E2E2E2E2
310
E2E2E2E2E2E2E2E2E2E2E2E2E2E2E2E2E2E2E2E2E2E2E2E2E2E2E2E2E2E2E2E2E2E2E2E2E2E2E2E2E2E2E2E2E2E2E2E2E2E2E2E2E2E2E2E2E2E2E2E2E2E2E2E2E2E2E2E2E2E2E2E2E2E2E2E2E2E2E2E2E2E2E2E2E2E2E2E2E2E2E2E2E2E2E2E2E2E2E2E2E2E2E2E2E2E2E2E2E2E2E2E2E2E2E2E2E2E2E2E2E2E2E2E2E2E2E2
310
E2E2E2E2E2E2E2E2E2E2E2E2E2E2E2E2E2E2E2E2E2E2E2E2E2E2E2E2E2E2E2E2E2E2E2E2E2E2E2E2E2E2E2E2E2E2E2E2E2E2E2E2E2E2E2E2E2E2E2E2E2E2E2E2E2E2E2E2E2E2E2E2E2E2E2E2E2E2E2E2E2E2E2E2E2E2E2E2E2E2E2E2E2E2E2E2E2E2E2E2E2E2E2E2E2E2E2E2E2E2E2E2E2E2E2E2E2E2E2E2E2E2E2E2E2E2E2
310
E2E2E2E2E2E2E2E2E2E2E2E2E2E2E2E2E2E2E2E2E2E2E2E2E2E2E2E2E2E2E2E2E2E2E2E2E2E2E2E2E2E2E2E2E2E2E2E2E2E2E2E2E2E2E2E2E2E2E2E2E2E2E2E2E2E2E2E2E2E2E2E2E2E2E2E2E2E2E2E2E2E2E2E2E2E2E2E2E2E2E2E2E2E2E2E2E2E2E2E2E2E2E2E2E2E2E2E2E2E2E2E2E2E2E2E2E2E2E2E2E2E2E2E2E2E2E2
310
E2E2E2E2E2E2E2E2E2E2E2E2E2E2E2E2E2E2E2E2E2E2E2E2E2E2E2E2E2E2E2E2E2E2E2E2E2E2E2E2E2E2E2E2E2E2E2E2E2E2E2E2E2E2E2E2E2E2E2E2E2E2E2E2E2E2E2E2E2E2E2E2E2E2E2E2E2E2E2E2E2E2E2E2E2E2E2E2E2E2E2E2E2E2E2E2E2E2E2E2E2E2E2E2E2E2E2E2E2E2E2E2E2E2E2E2E2E2E2E2E2E2E2E2E2E2E2
310
E2E2E2E2E2E2E2E2E2E2E2E2E2E2E2E2E2E2E2E2E2E2E2E2E2E2E2E2E2E2E2E2E2E2E2E2E2E2E2E2E2E2E2E2E2E2E2E2E2E2E2E2E2E2E2E2E2E2E2E2E2E2E2E2E2E2E2E2E2E2E2E2E2E2E2E2E2E2E2E2E2E2E2E2E2E2E2E2E2E2E2E2E2E2E2E2E2E2E2E2E2E2E2E2E2E2E2E2E2E2E2E2E2E2E2E2E2E2E2E2E2E2E2E2E2E2E2
310
E2E2E2E2E2E2E2E2E2E2E2E2E2E2E2E2E2E2E2E2E2E2E2E2E2E2E2E2E2E2E2E2E2E2E2E2E2E2E2E2E2E2E2E2E2E2E2E2E2E2E2E2E2E2E2E2E2E2E2E2E2E2E2E2E2E2E2E2E2E2E2E2E2E2E2E2E2E2E2E2E2E2E2E2E2E2E2E2E2E2E2E2E2E2E2E2E2E2E2E2E2E2E2E2E2E2E2E2E2E2E2E2E2E2E2E2E2E2E2E2E2E2E2E2E2E2E2
310
E2E2E2E2E2E2E2E2E2E2E2E2E2E2E2E2E2E2E2E2E2E2E2E2E2E2E2E2E2E2E2E2E2E2E2E2E2E2E2E2E2E2E2E2E2E2E2E2E2E2E2E2E2E2E2E2E2E2E2E2E2E2E2E2E2E2E2E2E2E2E2E2E2E2E2E2E2E2E2E2E2E2E2E2E2E2E2E2E2E2E2E2E2E2E2E2E2E2E2E2E2E2E2E2E2E2E2E2E2E2E2E2E2E2E2E2E2E2E2E2E2E2E2E2E2E2E2
310
E2E2E2E2E2E2E2E2E2E2E2E2E2E2E2E2E2E2E2E2E2E2E2E2E2E2E2E2E2E2E2E2E2E2E2E2E2E2E2E2E2E2E2E2E2E2E2E2E2E2E2E2E2E2E2E2E2E2E2E2E2E2E2E2E2E2E2E2E2E2E2E2E2E2E2E2E2E2E2E2E2E2E2E2E2E2E2E2E2E2E2E2E2E2E2E2E2E2E2E2E2E2E2E2E2E2E2E2E2E2E2E2E2E2E2E2E2E2E2E2E2E2E2E2E2E2E2
310
E2E2E2E2E2E2E2E2E2E2E2E2E2E2E2E2E2E2E2E2E2E2E2E2E2E2E2E2E2E2E2E2E2E2E2E2E2E2E2E2E2E2E2E2E2E2E2E2E2E2E2E2E2E2E2E2E2E2E2E2E2E2E2E2E2E2E2E2E2E2E2E2E2E2E2E2E2E2E2E2E2E2E2E2E2E2E2E2E2E2E2E2E2E2E2E2E2E2E2E2E2E2E2E2E2E2E2E2E2E2E2E2E2E2E2E2E2E2E2E2E2E2E2E2E2E2E2
310
E2E2E2E2E2E2E2E2E2E2E2E2E2E2E2E2E2E2E2E2E2E2E2E2E2E2E2E2E2E2E2E2E2E2E2E2E2E2E2E2E2E2E2E2E2E2E2E2E2E2E2E2E2E2E2E2E2E2E2E2E2E2E2E2E2E2E2E2E2E2E2E2E2E2E2E2E2E2E2E2E2E2E2E2E2E2E2E2E2E2E2E2E2E2E2E2E2E2E2E2E2E2E2E2E2E2E2E2E2E2E2E2E2E2E2E2E2E2E2E2E2E2E2E2E2E2E2
310
E2E2E2E2E2E2E2E2E2E2E2E2E2E2E2E2E2E2E2E2E2E2E2E2E2E2E2E2E2E2E2E2E2E2E2E2E2E2E2E2E2E2E2E2E2E2E2E2E2E2E2E2E2E2E2E2E2E2E2E2E2E2E2E2E2E2E2E2E2E2E2E2E2E2E2E2E2E2E2E2E2E2E2E2E2E2E2E2E2E2E2E2E2E2E2E2E2E2E2E2E2E2E2E2E2E2E2E2E2E2E2E2E2E2E2E2E2E2E2E2E2E2E2E2E2E2E2
310
E2E2E2E2E2E2E2E2E2E2E2E2E2E2E2E2E2E2E2E2E2E2E2E2E2E2E2E2E2E2E2E2E2E2E2E2E2E2E2E2E2E2E2E2E2E2E2E2E2E2E2E2E2E2E2E2E2E2E2E2E2E2E2E2E2E2E2E2E2E2E2E2E2E2E2E2E2E2E2E2E2E2E2E2E2E2E2E2E2E2E2E2E2E2E2E2E2E2E2E2E2E2E2E2E2E2E2E2E2E2E2E2E2E2E2E2E2E2E2E2E2E2E2E2E2E2E2
310
E2E2E2E2E2E2E2E2E2E2E2E2E2E2E2E2E2E2E2E2E2E2E2E2E2E2E2E2E2E2E2E2E2E2E2E2E2E2E2E2E2E2E2E2E2E2E2E2E2E2E2E2E2E2E2E2E2E2E2E2E2E2E2E2E2E2E2E2E2E2E2E2E2E2E2E2E2E2E2E2E2E2E2E2E2E2E2E2E2E2E2E2E2E2E2E2E2E2E2E2E2E2E2E2E2E2E2E2E2E2E2E2E2E2E2E2E2E2E2E2E2E2E2E2E2E2E2
310
E2E2E2E2E2E2E2E2E2E2E2E2E2E2E2E2E2E2E2E2E2E2E2E2E2E2E2E2E2E2E2E2E2E2E2E2E2E2E2E2E2E2E2E2E2E2E2E2E2E2E2E2E2E2E2E2E2E2E2E2E2E2E2E2E2E2E2E2E2E2E2E2E2E2E2E2E2E2E2E2E2E2E2E2E2E2E2E2E2E2E2E2E2E2E2E2E2E2E2E2E2E2E2E2E2E2E2E2E2E2E2E2E2E2E2E2E2E2E2E2E2E2E2E2E2E2E2
310
E2E2E2E2E2E2E2E2E2E2E2E2E2E2E2E2E2E2E2E2E2E2E2E2E2E2E2E2E2E2E2E2E2E2E2E2E2E2E2E2E2E2E2E2E2E2E2E2E2E2E2E2E2E2E2E2E2E2E2E2E2E2E2E2E2E2E2E2E2E2E2E2E2E2E2E2E2E2E2E2E2E2E2E2E2E2E2E2E2E2E2E2E2E2E2E2E2E2E2E2E2E2E2E2E2E2E2E2E2E2E2E2E2E2E2E2E2E2E2E2E2E2E2E2E2E2E2
310
E2E2E2E2E2E2E2E2E2E2E2E2E2E2E2E2E2E2E2E2E2E2E2E2E2E2E2E2E2E2E2E2E2E2E2E2E2E2E2E2E2E2E2E2E2E2E2E2E2E2E2E2E2E2E2E2E2E2E2E2E2E2E2E2E2E2E2E2E2E2E2E2E2E2E2E2E2E2E2E2E2E2E2E2E2E2E2E2E2E2E2E2E2E2E2E2E2E2E2E2E2E2E2E2E2E2E2E2E2E2E2E2E2E2E2E2E2E2E2E2E2E2E2E2E2E2E2
310
E2E2E2E2E2E2E2E2E2E2E2E2E2E2E2E2E2E2E2E2E2E2E2E2E2E2E2E2E2E2E2E2E2E2E2E2E2E2E2E2E2E2E2E2E2E2E2E2E2E2E2E2E2E2E2E2E2E2E2E2E2E2E2E2E2E2E2E2E2E2E2E2E2E2E2E2E2E2E2E2E2E2E2E2E2E2E2E2E2E2E2E2E2E2E2E2E2E2E2E2E2E2E2E2E2E2E2E2E2E2E2E2E2E2E2E2E2E2E2E2E2E2E2E2E2E2E2
310
E2E2E2E2E2E2E2E2E2E2E2E2E2E2E2E2E2E2E2E2E2E2E2E2E2E2E2E2E2E2E2E2E2E2E2E2E2E2E2E2E2E2E2E2E2E2E2E2E2E2E2E2E2E2E2E2E2E2E2E2E2E2E2E2E2E2E2E2E2E2E2E2E2E2E2E2E2E2E2E2E2E2E2E2E2E2E2E2E2E2E2E2E2E2E2E2E2E2E2E2E2E2E2E2E2E2E2E2E2E2E2E2E2E2E2E2E2E2E2E2E2E2E2E2E2E2E2
310
E2E2E2E2E2E2E2E2E2E2E2E2E2E2E2E2E2E2E2E2E2E2E2E2E2E2E2E2E2E2E2E2E2E2E2E2E2E2E2E2E2E2E2E2E2E2E2E2E2E2E2E2E2E2E2E2E2E2E2E2E2E2E2E2E2E2E2E2E2E2E2E2E2E2E2E2E2E2E2E2E2E2E2E2E2E2E2E2E2E2E2E2E2E2E2E2E2E2E2E2E2E2E2E2E2E2E2E2E2E2E2E2E2E2E2E2E2E2E2E2E2E2E2E2E2E2E2
310
E2E2E2E2E2E2E2E2E2E2E2E2E2E2E2E2E2E2E2E2E2E2E2E2E2E2E2E2E2E2E2E2E2E2E2E2E2E2E2E2E2E2E2E2E2E2E2E2E2E2E2E2E2E2E2E2E2E2E2E2E2E2E2E2E2E2E2E2E2E2E2E2E2E2E2E2E2E2E2E2E2E2E2E2E2E2E2E2E2E2E2E2E2E2E2E2E2E2E2E2E2E2E2E2E2E2E2E2E2E2E2E2E2E2E2E2E2E2E2E2E2E2E2E2E2E2E2
310
E2E2E2E2E2E2E2E2E2E2E2E2E2E2E2E2E2E2E2E2E2E2E2E2E2E2E2E2E2E2E2E2E2E2E2E2E2E2E2E2E2E2E2E2E2E2E2E2E2E2E2E2E2E2E2E2E2E2E2E2E2E2E2E2E2E2E2E2E2E2E2E2E2E2E2E2E2E2E2E2E2E2E2E2E2E2E2E2E2E2E2E2E2E2E2E2E2E2E2E2E2E2E2E2E2E2E2E2E2E2E2E2E2E2E2E2E2E2E2E2E2E2E2E2E2E2E2
310
E2E2E2E2E2E2E2E2E2E2E2E2E2E2E2E2E2E2E2E2E2E2E2E2E2E2E2E2E2E2E2E2E2E2E2E2E2E2E2E2E2E2E2E2E2E2E2E2E2E2E2E2E2E2E2E2E2E2E2E2E2E2E2E2E2E2E2E2E2E2E2E2E2E2E2E2E2E2E2E2E2E2E2E2E2E2E2E2E2E2E2E2E2E2E2E2E2E2E2E2E2E2E2E2E2E2E2E2E2E2E2E2E2E2E2E2E2E2E2E2E2E2E2E2E2E2E2
310
E2E2E2E2E2E2E2E2E2E2E2E2E2E2E2E2E2E2E2E2E2E2E2E2E2E2E2E2E2E2E2E2E2E2E2E2E2E2E2E2E2E2E2E2E2E2E2E2E2E2E2E2E2E2E2E2E2E2E2E2E2E2E2E2E2E2E2E2E2E2E2E2E2E2E2E2E2E2E2E2E2E2E2E2E2E2E2E2E2E2E2E2E2E2E2E2E2E2E2E2E2E2E2E2E2E2E2E2E2E2E2E2E2E2E2E2E2E2E2E2E2E2E2E2E2E2E2
310
E2E2E2E2E2E2E2E2E2E2E2E2E2E2E2E2E2E2E2E2E2E2E2E2E2E2E2E2E2E2E2E2E2E2E2E2E2E2E2E2E2E2E2E2E2E2E2E2E2E2E2E2E2E2E2E2E2E2E2E2E2E2E2E2E2E2E2E2E2E2E2E2E2E2E2E2E2E2E2E2E2E2E2E2E2E2E2E2E2E2E2E2E2E2E2E2E2E2E2E2E2E2E2E2E2E2E2E2E2E2E2E2E2E2E2E2E2E2E2E2E2E2E2E2E2E2E2
310
E2E2E2E2E2E2E2E2E2E2E2E2E2E2E2E2E2E2E2E2E2E2E2E2E2E2E2E2E2E2E2E2E2E2E2E2E2E2E2E2E2E2E2E2E2E2E2E2E2E2E2E2E2E2E2E2E2E2E2E2E2E2E2E2E2E2E2E2E2E2E2E2E2E2E2E2E2E2E2E2E2E2E2E2E2E2E2E2E2E2E2E2E2E2E2E2E2E2E2E2E2E2E2E2E2E2E2E2E2E2E2E2E2E2E2E2E2E2E2E2E2E2E2E2E2E2E2
310
E2E2E2E2E2E2E2E2E2E2E2E2E2E2E2E2E2E2E2E2E2E2E2E2E2E2E2E2E2E2E2E2E2E2E2E2E2E2E2E2E2E2E2E2E2E2E2E2E2E2E2E2E2E2E2E2E2E2E2E2E2E2E2E2E2E2E2E2E2E2E2E2E2E2E2E2E2E2E2E2E2E2E2E2E2E2E2E2E2E2E2E2E2E2E2E2E2E2E2E2E2E2E2E2E2E2E2E2E2E2E2E2E2E2E2E2E2E2E2E2E2E2E2E2E2E2E2
310
E2E2E2E2E2E2E2E2E2E2E2E2E2E2E2E2E2E2E2E2E2E2E2E2E2E2E2E2E2E2E2E2E2E2E2E2E2E2E2E2E2E2E2E2E2E2E2E2E2E2E2E2E2E2E2E2E2E2E2E2E2E2E2E2E2E2E2E2E2E2E2E2E2E2E2E2E2E2E2E2E2E2E2E2E2E2E2E2E2E2E2E2E2E2E2E2E2E2E2E2E2E2E2E2E2E2E2E2E2E2E2E2E2E2E2E2E2E2E2E2E2E2E2E2E2E2E2
310
E2E2E2E2E2E2E2E2E2E2E2E2E2E2E2E2E2E2E2E2E2E2E2E2E2E2E2E2E2E2E2E2E2E2E2E2E2E2E2E2E2E2E2E2E2E2E2E2E2E2E2E2E2E2E2E2E2E2E2E2E2E2E2E2E2E2E2E2E2E2E2E2E2E2E2E2E2E2E2E2E2E2E2E2E2E2E2E2E2E2E2E2E2E2E2E2E2E2E2E2E2E2E2E2E2E2E2E2E2E2E2E2E2E2E2E2E2E2E2E2E2E2E2E2E2E2E2
310
E2E2E2E2E2E2E2E2E2E2E2E2E2E2E2E2E2E2E2E2E2E2E2E2E2E2E2E2E2E2E2E2E2E2E2E2E2E2E2E2E2E2E2E2E2E2E2E2E2E2E2E2E2E2E2E2E2E2E2E2E2E2E2E2E2E2E2E2E2E2E2E2E2E2E2E2E2E2E2E2E2E2E2E2E2E2E2E2E2E2E2E2E2E2E2E2E2E2E2E2E2E2E2E2E2E2E2E2E2E2E2E2E2E2E2E2E2E2E2E2E2E2E2E2E2E2E2
310
E2E2E2E2E2E2E2E2E2E2E2E2E2E2E2E2E2E2E2E2E2E2E2E2E2E2E2E2E2E2E2E2E2E2E2E2E2E2E2E2E2E2E2E2E2E2E2E2E2E2E2E2E2E2E2E2E2E2E2E2E2E2E2E2E2E2E2E2E2E2E2E2E2E2E2E2E2E2E2E2E2E2E2E2E2E2E2E2E2E2E2E2E2E2E2E2E2E2E2E2E2E2E2E2E2E2E2E2E2E2E2E2E2E2E2E2E2E2E2E2E2E2E2E2E2E2E2
310
E2E2E2E2E2E2E2E2E2E2E2E2E2E2E2E2E2E2E2E2E2E2E2E2E2E2E2E2E2E2E2E2E2E2E2E2E2E2E2E2E2E2E2E2E2E2E2E2E2E2E2E2E2E2E2E2E2E2E2E2E2E2E2E2E2E2E2E2E2E2E2E2E2E2E2E2E2E2E2E2E2E2E2E2E2E2E2E2E2E2E2E2E2E2E2E2E2E2E2E2E2E2E2E2E2E2E2E2E2E2E2E2E2E2E2E2E2E2E2E2E2E2E2E2E2E2E2
310
E2E2E2E2E2E2E2E2E2E2E2E2E2E2E2E2E2E2E2E2E2E2E2E2E2E2E2E2E2E2E2E2E2E2E2E2E2E2E2E2E2E2E2E2E2E2E2E2E2E2E2E2E2E2E2E2E2E2E2E2E2E2E2E2E2E2E2E2E2E2E2E2E2E2E2E2E2E2E2E2E2E2E2E2E2E2E2E2E2E2E2E2E2E2E2E2E2E2E2E2E2E2E2E2E2E2E2E2E2E2E2E2E2E2E2E2E2E2E2E2E2E2E2E2E2E2E2
310
E2E2E2E2E2E2E2E2E2E2E2E2E2E2E2E2E2E2E2E2E2E2E2E2E2E2E2E2E2E2E2E2E2E2E2E2E2E2E2E2E2E2E2E2E2E2E2E2E2E2E2E2E2E2E2E2E2E2E2E2E2E2E2E2E2E2E2E2E2E2E2E2E2E2E2E2E2E2E2E2E2E2E2E2E2E2E2E2E2E2E2E2E2E2E2E2E2E2E2E2E2E2E2E2E2E2E2E2E2E2E2E2E2E2E2E2E2E2E2E2E2E2E2E2E2E2E2
310
E2E2E2E2E2E2E2E2E2E2E2E2E2E2E2E2E2E2E2E2E2E2E2E2E2E2E2E2E2E2E2E2E2E2E2E2E2E2E2E2E2E2E2E2E2E2E2E2E2E2E2E2E2E2E2E2E2E2E2E2E2E2E2E2E2E2E2E2E2E2E2E2E2E2E2E2E2E2E2E2E2E2E2E2E2E2E2E2E2E2E2E2E2E2E2E2E2E2E2E2E2E2E2E2E2E2E2E2E2E2E2E2E2E2E2E2E2E2E2E2E2E2E2E2E2E2E2
310
E2E2E2E2E2E2E2E2E2E2E2E2E2E2E2E2E2E2E2E2E2E2E2E2E2E2E2E2E2E2E2E2E2E2E2E2E2E2E2E2E2E2E2E2E2E2E2E2E2E2E2E2E2E2E2E2E2E2E2E2E2E2E2E2E2E2E2E2E2E2E2E2E2E2E2E2E2E2E2E2E2E2E2E2E2E2E2E2E2E2E2E2E2E2E2E2E2E2E2E2E2E2E2E2E2E2E2E2E2E2E2E2E2E2E2E2E2E2E2E2E2E2E2E2E2E2E2
310
E2E2E2E2E2E2E2E2E2E2E2E2E2E2E2E2E2E2E2E2E2E2E2E2E2E2E2E2E2E2E2E2E2E2E2E2E2E2E2E2E2E2E2E2E2E2E2E2E2E2E2E2E2E2E2E2E2E2E2E2E2E2E2E2E2E2E2E2E2E2E2E2E2E2E2E2E2E2E2E2E2E2E2E2E2E2E2E2E2E2E2E2E2E2E2E2E2E2E2E2E2E2E2E2E2E2E2E2E2E2E2E2E2E2E2E2E2E2E2E2E2E2E2E2E2E2E2
310
E2E2E2E2E2E2E2E2E2E2E2E2E2E2E2E2E2E2E2E2E2E2E2E2E2E2E2E2E2E2E2E2E2E2E2E2E2E2E2E2E2E2E2E2E2E2E2E2E2E2E2E2E2E2E2E2E2E2E2E2E2E2E2E2E2E2E2E2E2E2E2E2E2E2E2E2E2E2E2E2E2E2E2E2E2E2E2E2E2E2E2E2E2E2E2E2E2E2E2E2E2E2E2E2E2E2E2E2E2E2E2E2E2E2E2E2E2E2E2E2E2E2E2E2E2E2E2
310
E2E2E2E2E2E2E2E2E2E2E2E2E2E2E2E2E2E2E2E2E2E2E2E2E2E2E2E2E2E2E2E2E2E2E2E2E2E2E2E2E2E2E2E2E2E2E2E2E2E2E2E2E2E2E2E2E2E2E2E2E2E2E2E2E2E2E2E2E2E2E2E2E2E2E2E2E2E2E2E2E2E2E2E2E2E2E2E2E2E2E2E2E2E2E2E2E2E2E2E2E2E2E2E2E2E2E2E2E2E2E2E2E2E2E2E2E2E2E2E2E2E2E2E2E2E2E2
310
E2E2E2E2E2E2E2E2E2E2E2E2E2E2E2E2E2E2E2E2E2E2E2E2E2E2E2E2E2E2E2E2E2E2E2E2E2E2E2E2E2E2E2E2E2E2E2E2E2E2E2E2E2E2E2E2E2E2E2E2E2E2E2E2E2E2E2E2E2E2E2E2E2E2E2E2E2E2E2E2E2E2E2E2E2E2E2E2E2E2E2E2E2E2E2E2E2E2E2E2E2E2E2E2E2E2E2E2E2E2E2E2E2E2E2E2E2E2E2E2E2E2E2E2E2E2E2
310
E2E2E2E2E2E2E2E2E2E2E2E2E2E2E2E2E2E2E2E2E2E2E2E2E2E2E2E2E2E2E2E2E2E2E2E2E2E2E2E2E2E2E2E2E2E2E2E2E2E2E2E2E2E2E2E2E2E2E2E2E2E2E2E2E2E2E2E2E2E2E2E2E2E2E2E2E2E2E2E2E2E2E2E2E2E2E2E2E2E2E2E2E2E2E2E2E2E2E2E2E2E2E2E2E2E2E2E2E2E2E2E2E2E2E2E2E2E2E2E2E2E2E2E2E2E2E2
310
E2E2E2E2E2E2E2E2E2E2E2E2E2E2E2E2E2E2E2E2E2E2E2E2E2E2E2E2E2E2E2E2E2E2E2E2E2E2E2E2E2E2E2E2E2E2E2E2E2E2E2E2E2E2E2E2E2E2E2E2E2E2E2E2E2E2E2E2E2E2E2E2E2E2E2E2E2E2E2E2E2E2E2E2E2E2E2E2E2E2E2E2E2E2E2E2E2E2E2E2E2E2E2E2E2E2E2E2E2E2E2E2E2E2E2E2E2E2E2E2E2E2E2E2E2E2E2
310
E2E2E2E2E2E2E2E2E2E2E2E2E2E2E2E2E2E2E2E2E2E2E2E2E2E2E2E2E2E2E2E2E2E2E2E2E2E2E2E2E2E2E2E2E2E2E2E2E2E2E2E2E2E2E2E2E2E2E2E2E2E2E2E2E2E2E2E2E2E2E2E2E2E2E2E2E2E2E2E2E2E2E2E2E2E2E2E2E2E2E2E2E2E2E2E2E2E2E2E2E2E2E2E2E2E2E2E2E2E2E2E2E2E2E2E2E2E2E2E2E2E2E2E2E2E2E2
310
E2E2E2E2E2E2E2E2E2E2E2E2E2E2E2E2E2E2E2E2E2E2E2E2E2E2E2E2E2E2E2E2E2E2E2E2E2E2E2E2E2E2E2E2E2E2E2E2E2E2E2E2E2E2E2E2E2E2E2E2E2E2E2E2E2E2E2E2E2E2E2E2E2E2E2E2E2E2E2E2E2E2E2E2E2E2E2E2E2E2E2E2E2E2E2E2E2E2E2E2E2E2E2E2E2E2E2E2E2E2E2E2E2E2E2E2E2E2E2E2E2E2E2E2E2E2E2
310
E2E2E2E2E2E2E2E2E2E2E2E2E2E2E2E2E2E2E2E2E2E2E2E2E2E2E2E2E2E2E2E2E2E2E2E2E2E2E2E2E2E2E2E2E2E2E2E2E2E2E2E2E2E2E2E2E2E2E2E2E2E2E2E2E2E2E2E2E2E2E2E2E2E2E2E2E2E2E2E2E2E2E2E2E2E2E2E2E2E2E2E2E2E2E2E2E2E2E2E2E2E2E2E2E2E2E2E2E2E2E2E2E2E2E2E2E2E2E2E2E2E2E2E2E2E2E2
310
E2E2E2E2E2E2E2E2E2E2E2E2E2E2E2E2E2E2E2E2E2E2E2E2E2E2E2E2E2E2E2E2E2E2E2E2E2E2E2E2E2E2E2E2E2E2E2E2E2E2E2E2E2E2E2E2E2E2E2E2E2E2E2E2E2E2E2E2E2E2E2E2E2E2E2E2E2E2E2E2E2E2E2E2E2E2E2E2E2E2E2E2E2E2E2E2E2E2E2E2E2E2E2E2E2E2E2E2E2E2E2E2E2E2E2E2E2E2E2E2E2E2E2E2E2E2E2
310
E2E2E2E2E2E2E2E2E2E2E2E2E2E2E2E2E2E2E2E2E2E2E2E2E2E2E2E2E2E2E2E2E2E2E2E2E2E2E2E2E2E2E2E2E2E2E2E2E2E2E2E2E2E2E2E2E2E2E2E2E2E2E2E2E2E2E2E2E2E2E2E2E2E2E2E2E2E2E2E2E2E2E2E2E2E2E2E2E2E2E2E2E2E2E2E2E2E2E2E2E2E2E2E2E2E2E2E2E2E2E2E2E2E2E2E2E2E2E2E2E2E2E2E2E2E2E2
310
E2E2E2E2E2E2E2E2E2E2E2E2E2E2E2E2E2E2E2E2E2E2E2E2E2E2E2E2E2E2E2E2E2E2E2E2E2E2E2E2E2E2E2E2E2E2E2E2E2E2E2E2E2E2E2E2E2E2E2E2E2E2E2E2E2E2E2E2E2E2E2E2E2E2E2E2E2E2E2E2E2E2E2E2E2E2E2E2E2E2E2E2E2E2E2E2E2E2E2E2E2E2E2E2E2E2E2E2E2E2E2E2E2E2E2E2E2E2E2E2E2E2E2E2E2E2E2
310
E2E2E2E2E2E2E2E2E2E2E2E2E2E2E2E2E2E2E2E2E2E2E2E2E2E2E2E2E2E2E2E2E2E2E2E2E2E2E2E2E2E2E2E2E2E2E2E2E2E2E2E2E2E2E2E2E2E2E2E2E2E2E2E2E2E2E2E2E2E2E2E2E2E2E2E2E2E2E2E2E2E2E2E2E2E2E2E2E2E2E2E2E2E2E2E2E2E2E2E2E2E2E2E2E2E2E2E2E2E2E2E2E2E2E2E2E2E2E2E2E2E2E2E2E2E2E2
310
E2E2E2E2E2E2E2E2E2E2E2E2E2E2E2E2E2E2E2E2E2E2E2E2E2E2E2E2E2E2E2E2E2E2E2E2E2E2E2E2E2E2E2E2E2E2E2E2E2E2E2E2E2E2E2E2E2E2E2E2E2E2E2E2E2E2E2E2E2E2E2E2E2E2E2E2E2E2E2E2E2E2E2E2E2E2E2E2E2E2E2E2E2E2E2E2E2E2E2E2E2E2E2E2E2E2E2E2E2E2E2E2E2E2E2E2E2E2E2E2E2E2E2E2E2E2E2
310
E2E2E2E2E2E2E2E2E2E2E2E2E2E2E2E2E2E2E2E2E2E2E2E2E2E2E2E2E2E2E2E2E2E2E2E2E2E2E2E2E2E2E2E2E2E2E2E2E2E2E2E2E2E2E2E2E2E2E2E2E2E2E2E2E2E2E2E2E2E2E2E2E2E2E2E2E2E2E2E2E2E2E2E2E2E2E2E2E2E2E2E2E2E2E2E2E2E2E2E2E2E2E2E2E2E2E2E2E2E2E2E2E2E2E2E2E2E2E2E2E2E2E2E2E2E2E2
310
E2E2E2E2E2E2E2E2E2E2E2E2E2E2E2E2E2E2E2E2E2E2E2E2E2E2E2E2E2E2E2E2E2E2E2E2E2E2E2E2E2E2E2E2E2E2E2E2E2E2E2E2E2E2E2E2E2E2E2E2E2E2E2E2E2E2E2E2E2E2E2E2E2E2E2E2E2E2E2E2E2E2E2E2E2E2E2E2E2E2E2E2E2E2E2E2E2E2E2E2E2E2E2E2E2E2E2E2E2E2E2E2E2E2E2E2E2E2E2E2E2E2E2E2E2E2E2
310
E2E2E2E2E2E2E2E2E2E2E2E2E2E2E2E2E2E2E2E2E2E2E2E2E2E2E2E2E2E2E2E2E2E2E2E2E2E2E2E2E2E2E2E2E2E2E2E2E2E2E2E2E2E2E2E2E2E2E2E2E2E2E2E2E2E2E2E2E2E2E2E2E2E2E2E2E2E2E2E2E2E2E2E2E2E2E2E2E2E2E2E2E2E2E2E2E2E2E2E2E2E2E2E2E2E2E2E2E2E2E2E2E2E2E2E2E2E2E2E2E2E2E2E2E2E2E2
310
E2E2E2E2E2E2E2E2E2E2E2E2E2E2E2E2E2E2E2E2E2E2E2E2E2E2E2E2E2E2E2E2E2E2E2E2E2E2E2E2E2E2E2E2E2E2E2E2E2E2E2E2E2E2E2E2E2E2E2E2E2E2E2E2E2E2E2E2E2E2E2E2E2E2E2E2E2E2E2E2E2E2E2E2E2E2E2E2E2E2E2E2E2E2E2E2E2E2E2E2E2E2E2E2E2E2E2E2E2E2E2E2E2E2E2E2E2E2E2E2E2E2E2E2E2E2E2
310
E2E2E2E2E2E2E2E2E2E2E2E2E2E2E2E2E2E2E2E2E2E2E2E2E2E2E2E2E2E2E2E2E2E2E2E2E2E2E2E2E2E2E2E2E2E2E2E2E2E2E2E2E2E2E2E2E2E2E2E2E2E2E2E2E2E2E2E2E2E2E2E2E2E2E2E2E2E2E2E2E2E2E2E2E2E2E2E2E2E2E2E2E2E2E2E2E2E2E2E2E2E2E2E2E2E2E2E2E2E2E2E2E2E2E2E2E2E2E2E2E2E2E2E2E2E2E2
310
E2E2E2E2E2E2E2E2E2E2E2E2E2E2E2E2E2E2E2E2E2E2E2E2E2E2E2E2E2E2E2E2E2E2E2E2E2E2E2E2E2E2E2E2E2E2E2E2E2E2E2E2E2E2E2E2E2E2E2E2E2E2E2E2E2E2E2E2E2E2E2E2E2E2E2E2E2E2E2E2E2E2E2E2E2E2E2E2E2E2E2E2E2E2E2E2E2E2E2E2E2E2E2E2E2E2E2E2E2E2E2E2E2E2E2E2E2E2E2E2E2E2E2E2E2E2E2
310
E2E2E2E2E2E2E2E2E2E2E2E2E2E2E2E2E2E2E2E2E2E2E2E2E2E2E2E2E2E2E2E2E2E2E2E2E2E2E2E2E2E2E2E2E2E2E2E2E2E2E2E2E2E2E2E2E2E2E2E2E2E2E2E2E2E2E2E2E2E2E2E2E2E2E2E2E2E2E2E2E2E2E2E2E2E2E2E2E2E2E2E2E2E2E2E2E2E2E2E2E2E2E2E2E2E2E2E2E2E2E2E2E2E2E2E2E2E2E2E2E2E2E2E2E2E2E2
310
E2E2E2E2E2E2E2E2E2E2E2E2E2E2E2E2E2E2E2E2E2E2E2E2E2E2E2E2E2E2E2E2E2E2E2E2E2E2E2E2E2E2E2E2E2E2E2E2E2E2E2E2E2E2E2E2E2E2E2E2E2E2E2E2E2E2E2E2E2E2E2E2E2E2E2E2E2E2E2E2E2E2E2E2E2E2E2E2E2E2E2E2E2E2E2E2E2E2E2E2E2E2E2E2E2E2E2E2E2E2E2E2E2E2E2E2E2E2E2E2E2E2E2E2E2E2E2
310
E2E2E2E2E2E2E2E2E2E2E2E2E2E2E2E2E2E2E2E2E2E2E2E2E2E2E2E2E2E2E2E2E2E2E2E2E2E2E2E2E2E2E2E2E2E2E2E2E2E2E2E2E2E2E2E2E2E2E2E2E2E2E2E2E2E2E2E2E2E2E2E2E2E2E2E2E2E2E2E2E2E2E2E2E2E2E2E2E2E2E2E2E2E2E2E2E2E2E2E2E2E2E2E2E2E2E2E2E2E2E2E2E2E2E2E2E2E2E2E2E2E2E2E2E2E2E2
310
E2E2E2E2E2E2E2E2E2E2E2E2E2E2E2E2E2E2E2E2E2E2E2E2E2E2E2E2E2E2E2E2E2E2E2E2E2E2E2E2E2E2E2E2E2E2E2E2E2E2E2E2E2E2E2E2E2E2E2E2E2E2E2E2E2E2E2E2E2E2E2E2E2E2E2E2E2E2E2E2E2E2E2E2E2E2E2E2E2E2E2E2E2E2E2E2E2E2E2E2E2E2E2E2E2E2E2E2E2E2E2E2E2E2E2E2E2E2E2E2E2E2E2E2E2E2E2
310
E2E2E2E2E2E2E2E2E2E2E2E2E2E2E2E2E2E2E2E2E2E2E2E2E2E2E2E2E2E2E2E2E2E2E2E2E2E2E2E2E2E2E2E2E2E2E2E2E2E2E2E2E2E2E2E2E2E2E2E2E2E2E2E2E2E2E2E2E2E2E2E2E2E2E2E2E2E2E2E2E2E2E2E2E2E2E2E2E2E2E2E2E2E2E2E2E2E2E2E2E2E2E2E2E2E2E2E2E2E2E2E2E2E2E2E2E2E2E2E2E2E2E2E2E2E2E2
310
E2E2E2E2E2E2E2E2E2E2E2E2E2E2E2E2E2E2E2E2E2E2E2E2E2E2E2E2E2E2E2E2E2E2E2E2E2E2E2E2E2E2E2E2E2E2E2E2E2E2E2E2E2E2E2E2E2E2E2E2E2E2E2E2E2E2E2E2E2E2E2E2E2E2E2E2E2E2E2E2E2E2E2E2E2E2E2E2E2E2E2E2E2E2E2E2E2E2E2E2E2E2E2E2E2E2E2E2E2E2E2E2E2E2E2E2E2E2E2E2E2E2E2E2E2E2E2
310
E2E2E2E2E2E2E2E2E2E2E2E2E2E2E2E2E2E2E2E2E2E2E2E2E2E2E2E2E2E2E2E2E2E2E2E2E2E2E2E2E2E2E2E2E2E2E2E2E2E2E2E2E2E2E2E2E2E2E2E2E2E2E2E2E2E2E2E2E2E2E2E2E2E2E2E2E2E2E2E2E2E2E2E2E2E2E2E2E2E2E2E2E2E2E2E2E2E2E2E2E2E2E2E2E2E2E2E2E2E2E2E2E2E2E2E2E2E2E2E2E2E2E2E2E2E2E2
310
E2E2E2E2E2E2E2E2E2E2E2E2E2E2E2E2E2E2E2E2E2E2E2E2E2E2E2E2E2E2E2E2E2E2E2E2E2E2E2E2E2E2E2E2E2E2E2E2E2E2E2E2E2E2E2E2E2E2E2E2E2E2E2E2E2E2E2E2E2E2E2E2E2E2E2E2E2E2E2E2E2E2E2E2E2E2E2E2E2E2E2E2E2E2E2E2E2E2E2E2E2E2E2E2E2E2E2E2E2E2E2E2E2E2E2E2E2E2E2E2E2E2E2E2E2E2E2
310
E2E2E2E2E2E2E2E2E2E2E2E2E2E2E2E2E2E2E2E2E2E2E2E2E2E2E2E2E2E2E2E2E2E2E2E2E2E2E2E2E2E2E2E2E2E2E2E2E2E2E2E2E2E2E2E2E2E2E2E2E2E2E2E2E2E2E2E2E2E2E2E2E2E2E2E2E2E2E2E2E2E2E2E2E2E2E2E2E2E2E2E2E2E2E2E2E2E2E2E2E2E2E2E2E2E2E2E2E2E2E2E2E2E2E2E2E2E2E2E2E2E2E2E2E2E2E2
310
E2E2E2E2E2E2E2E2E2E2E2E2E2E2E2E2E2E2E2E2E2E2E2E2E2E2E2E2E2E2E2E2E2E2E2E2E2E2E2E2E2E2E2E2E2E2E2E2
  0
XRECORD
  5
3319
102
{ACAD_REACTORS
330
3318
102
}
330
3318
100
AcDbXrecord
280
     1
102
SHADEPLOT
 70
     0
102
SHADEPLOTRESLEVEL
 70
     2
102
SHADEPLOTCUSTOMDPI
 70
   300
  0
XRECORD
  5
3324
102
{ACAD_REACTORS
330
3323
102
}
330
3323
100
AcDbXrecord
280
     1
102
MATERIAL
148
0.0
149
0.0
149
0.0
 93
        0
 94
       63
282
     0
 72
     1
 77
     1
171
     1
175
     1
179
     1
273
     0
  0
XRECORD
  5
3322
102
{ACAD_REACTORS
330
3321
102
}
330
3321
100
AcDbXrecord
280
     1
102
MATERIAL
148
0.0
149
0.0
149
0.0
 93
        0
 94
       63
282
     0
 72
     1
 77
     1
171
     1
175
     1
179
     1
273
     0
  0
XRECORD
  5
3326
102
{ACAD_REACTORS
330
3325
102
}
330
3325
100
AcDbXrecord
280
     1
102
MATERIAL
148
0.0
149
0.0
149
0.0
 93
        0
 94
       63
282
     0
 72
     1
 77
     1
171
     1
175
     1
179
     1
273
     0
  0
XRECORD
  5
331B
102
{ACAD_REACTORS
330
331A
102
}
330
331A
100
AcDbXrecord
280
     1
102
SHADEPLOT
 70
     0
102
SHADEPLOTRESLEVEL
 70
     2
102
SHADEPLOTCUSTOMDPI
 70
   300
  0
XRECORD
  5
3317
102
{ACAD_REACTORS
330
3316
102
}
330
3316
100
AcDbXrecord
280
     1
102
ACAD_ROUNDTRIP_PRE2007_TABLESTYLE
 90
        4
 91
        0
  1

 92
        4
 93
        0
  2

 94
        4
 95
        0
  3

  0
ENDSEC
  0
EOF
