  0
SECTION
  2
HEADER
  9
$ACADVER
  1
AC1015
  9
$ACADMAINTVER
 70
     6
  9
$DWGCODEPAGE
  3
ANSI_1252
  9
$INSBASE
 10
0.0
 20
0.0
 30
0.0
  9
$EXTMIN
 10
0.0
 20
0.0
 30
0.0
  9
$EXTMAX
 10
909.0
 20
680.0
 30
0.0
  9
$LIMMIN
 10
0.0
 20
0.0
  9
$LIMMAX
 10
909.0
 20
680.0
  9
$ORTHOMODE
 70
     0
  9
$REGENMODE
 70
     1
  9
$FILLMODE
 70
     1
  9
$QTEXTMODE
 70
     0
  9
$MIRRTEXT
 70
     1
  9
$LTSCALE
 40
1.0
  9
$ATTMODE
 70
     1
  9
$TEXTSIZE
 40
9.8777777778
  9
$TRACEWID
 40
1.0
  9
$TEXTSTYLE
  7
Standard
  9
$CLAYER
  8
0
  9
$CELTYPE
  6
ByLayer
  9
$CECOLOR
 62
   256
  9
$CELTSCALE
 40
1.0
  9
$DISPSILH
 70
     0
  9
$DIMSCALE
 40
1.0
  9
$DIMASZ
 40
7.1912923177
  9
$DIMEXO
 40
1.0
  9
$DIMDLI
 40
3.75
  9
$DIMRND
 40
0.0
  9
$DIMDLE
 40
0.0
  9
$DIMEXE
 40
1.0
  9
$DIMTP
 40
0.0
  9
$DIMTM
 40
0.0
  9
$DIMTXT
 40
9.8777777778
  9
$DIMCEN
 40
2.5
  9
$DIMTSZ
 40
0.0
  9
$DIMTOL
 70
     0
  9
$DIMLIM
 70
     0
  9
$DIMTIH
 70
     1
  9
$DIMTOH
 70
     1
  9
$DIMSE1
 70
     0
  9
$DIMSE2
 70
     0
  9
$DIMTAD
 70
     1
  9
$DIMZIN
 70
     0
  9
$DIMBLK
  1

  9
$DIMASO
 70
     1
  9
$DIMSHO
 70
     1
  9
$DIMPOST
  1

  9
$DIMAPOST
  1

  9
$DIMALT
 70
     0
  9
$DIMALTD
 70
     3
  9
$DIMALTF
 40
0.0393700787
  9
$DIMLFAC
 40
10.0
  9
$DIMTOFL
 70
     1
  9
$DIMTVP
 40
0.0
  9
$DIMTIX
 70
     0
  9
$DIMSOXD
 70
     0
  9
$DIMSAH
 70
     0
  9
$DIMBLK1
  1

  9
$DIMBLK2
  1

  9
$DIMSTYLE
  2
ISO-25
  9
$DIMCLRD
 70
     0
  9
$DIMCLRE
 70
     0
  9
$DIMCLRT
 70
     0
  9
$DIMTFAC
 40
1.0
  9
$DIMGAP
 40
1.524
  9
$DIMJUST
 70
     0
  9
$DIMSD1
 70
     0
  9
$DIMSD2
 70
     0
  9
$DIMTOLJ
 70
     0
  9
$DIMTZIN
 70
     0
  9
$DIMALTZ
 70
     0
  9
$DIMALTTZ
 70
     0
  9
$DIMUPT
 70
     0
  9
$DIMDEC
 70
     2
  9
$DIMTDEC
 70
     2
  9
$DIMALTU
 70
     2
  9
$DIMALTTD
 70
     3
  9
$DIMTXSTY
  7
Standard
  9
$DIMAUNIT
 70
     0
  9
$DIMADEC
 70
     0
  9
$DIMALTRND
 40
0.0
  9
$DIMAZIN
 70
     0
  9
$DIMDSEP
 70
    44
  9
$DIMATFIT
 70
     3
  9
$DIMFRAC
 70
     0
  9
$DIMLDRBLK
  1

  9
$DIMLUNIT
 70
     2
  9
$DIMLWD
 70
    -2
  9
$DIMLWE
 70
    -2
  9
$DIMTMOVE
 70
     0
  9
$LUNITS
 70
     2
  9
$LUPREC
 70
     2
  9
$SKETCHINC
 40
1.0
  9
$FILLETRAD
 40
10.0
  9
$AUNITS
 70
     0
  9
$AUPREC
 70
     0
  9
$MENU
  1
.
  9
$ELEVATION
 40
0.0
  9
$PELEVATION
 40
0.0
  9
$THICKNESS
 40
0.0
  9
$LIMCHECK
 70
     0
  9
$CHAMFERA
 40
10.0
  9
$CHAMFERB
 40
10.0
  9
$CHAMFERC
 40
20.0
  9
$CHAMFERD
 40
0.0
  9
$SKPOLY
 70
     0
  9
$TDCREATE
 40
2454929.706540012
  9
$TDUCREATE
 40
2454929.873206678
  9
$TDUPDATE
 40
2454929.706540023
  9
$TDUUPDATE
 40
2454929.87320669
  9
$TDINDWG
 40
0.0000000116
  9
$TDUSRTIMER
 40
0.0000000116
  9
$USRTIMER
 70
     1
  9
$ANGBASE
 50
0.0
  9
$ANGDIR
 70
     0
  9
$PDMODE
 70
     0
  9
$PDSIZE
 40
-1.0
  9
$PLINEWID
 40
0.0
  9
$SPLFRAME
 70
     0
  9
$SPLINETYPE
 70
     6
  9
$SPLINESEGS
 70
     8
  9
$HANDSEED
  5
2C1
  9
$SURFTAB1
 70
     6
  9
$SURFTAB2
 70
     6
  9
$SURFTYPE
 70
     6
  9
$SURFU
 70
     6
  9
$SURFV
 70
     6
  9
$UCSBASE
  2

  9
$UCSNAME
  2

  9
$UCSORG
 10
0.0
 20
0.0
 30
0.0
  9
$UCSXDIR
 10
1.0
 20
0.0
 30
0.0
  9
$UCSYDIR
 10
0.0
 20
1.0
 30
0.0
  9
$UCSORTHOREF
  2

  9
$UCSORTHOVIEW
 70
     0
  9
$UCSORGTOP
 10
0.0
 20
0.0
 30
0.0
  9
$UCSORGBOTTOM
 10
0.0
 20
0.0
 30
0.0
  9
$UCSORGLEFT
 10
0.0
 20
0.0
 30
0.0
  9
$UCSORGRIGHT
 10
0.0
 20
0.0
 30
0.0
  9
$UCSORGFRONT
 10
0.0
 20
0.0
 30
0.0
  9
$UCSORGBACK
 10
0.0
 20
0.0
 30
0.0
  9
$PUCSBASE
  2

  9
$PUCSNAME
  2

  9
$PUCSORG
 10
0.0
 20
0.0
 30
0.0
  9
$PUCSXDIR
 10
1.0
 20
0.0
 30
0.0
  9
$PUCSYDIR
 10
0.0
 20
1.0
 30
0.0
  9
$PUCSORTHOREF
  2

  9
$PUCSORTHOVIEW
 70
     0
  9
$PUCSORGTOP
 10
0.0
 20
0.0
 30
0.0
  9
$PUCSORGBOTTOM
 10
0.0
 20
0.0
 30
0.0
  9
$PUCSORGLEFT
 10
0.0
 20
0.0
 30
0.0
  9
$PUCSORGRIGHT
 10
0.0
 20
0.0
 30
0.0
  9
$PUCSORGFRONT
 10
0.0
 20
0.0
 30
0.0
  9
$PUCSORGBACK
 10
0.0
 20
0.0
 30
0.0
  9
$USERI1
 70
     0
  9
$USERI2
 70
     0
  9
$USERI3
 70
     0
  9
$USERI4
 70
     0
  9
$USERI5
 70
     0
  9
$USERR1
 40
0.0
  9
$USERR2
 40
0.0
  9
$USERR3
 40
0.0
  9
$USERR4
 40
0.0
  9
$USERR5
 40
0.0
  9
$WORLDVIEW
 70
     1
  9
$SHADEDGE
 70
     3
  9
$SHADEDIF
 70
    70
  9
$TILEMODE
 70
     1
  9
$MAXACTVP
 70
    64
  9
$PINSBASE
 10
0.0
 20
0.0
 30
0.0
  9
$PLIMCHECK
 70
     0
  9
$PEXTMIN
 10
1.0000000000E+20
 20
1.0000000000E+20
 30
1.0000000000E+20
  9
$PEXTMAX
 10
-1.0000000000E+20
 20
-1.0000000000E+20
 30
-1.0000000000E+20
  9
$PLIMMIN
 10
0.0
 20
0.0
  9
$PLIMMAX
 10
420.0
 20
297.0
  9
$UNITMODE
 70
     0
  9
$VISRETAIN
 70
     1
  9
$PLINEGEN
 70
     0
  9
$PSLTSCALE
 70
     1
  9
$TREEDEPTH
 70
  3020
  9
$CMLSTYLE
  2
Standard
  9
$CMLJUST
 70
     0
  9
$CMLSCALE
 40
20.0
  9
$PROXYGRAPHICS
 70
     1
  9
$MEASUREMENT
 70
     1
  9
$CELWEIGHT
370
    -1
  9
$ENDCAPS
280
     0
  9
$JOINSTYLE
280
     0
  9
$LWDISPLAY
290
     1
  9
$INSUNITS
 70
     4
  9
$HYPERLINKBASE
  1

  9
$STYLESHEET
  1

  9
$XEDIT
290
     1
  9
$CEPSNTYPE
380
     0
  9
$PSTYLEMODE
290
     1
  9
$FINGERPRINTGUID
  2
{F95E6B05-1CE1-479E-9517-12DAABE0FB21}
  9
$VERSIONGUID
  2
{FAEB1C32-E019-11D5-929B-00C0DF256EC4}
  9
$EXTNAMES
290
     1
  9
$PSVPSCALE
 40
0.0
  9
$OLESTARTUP
290
     0
  0
ENDSEC
  0
SECTION
  2
CLASSES
  0
CLASS
  1
ACDBDICTIONARYWDFLT
  2
AcDbDictionaryWithDefault
  3
ObjectDBX Classes
 90
        0
280
     0
281
     0
  0
CLASS
  1
VISUALSTYLE
  2
AcDbVisualStyle
  3
ObjectDBX Classes
 90
     4095
280
     0
281
     0
  0
CLASS
  1
SCALE
  2
AcDbScale
  3
ObjectDBX Classes
 90
     1153
280
     0
281
     0
  0
CLASS
  1
DICTIONARYVAR
  2
AcDbDictionaryVar
  3
ObjectDBX Classes
 90
        0
280
     0
281
     0
  0
CLASS
  1
ACDBPLACEHOLDER
  2
AcDbPlaceHolder
  3
ObjectDBX Classes
 90
        0
280
     0
281
     0
  0
CLASS
  1
LAYOUT
  2
AcDbLayout
  3
ObjectDBX Classes
 90
        0
280
     0
281
     0
  0
ENDSEC
  0
SECTION
  2
TABLES
  0
TABLE
  2
VPORT
  5
8
330
0
100
AcDbSymbolTable
 70
     1
  0
VPORT
  5
29
330
8
100
AcDbSymbolTableRecord
100
AcDbViewportTableRecord
  2
*Active
 70
     0
 10
0.0
 20
0.0
 11
1.0
 21
1.0
 12
454.5
 22
340.0
 13
0.0
 23
0.0
 14
10.0
 24
10.0
 15
10.0
 25
10.0
 16
0.0
 26
0.0
 36
1.0
 17
0.0
 27
0.0
 37
0.0
 40
680.0
 41
1.3367647059
 42
50.0
 43
0.0
 44
0.0
 50
0.0
 51
0.0
 71
     0
 72
  2000
 73
     1
 74
     3
 75
     0
 76
     0
 77
     0
 78
     0
281
     0
 65
     1
110
0.0
120
0.0
130
0.0
111
1.0
121
0.0
131
0.0
112
0.0
122
1.0
132
0.0
 79
     0
146
0.0
  0
ENDTAB
  0
TABLE
  2
LTYPE
  5
5
330
0
100
AcDbSymbolTable
 70
     6
  0
LTYPE
  5
14
330
5
100
AcDbSymbolTableRecord
100
AcDbLinetypeTableRecord
  2
ByBlock
 70
     0
  3

 72
    65
 73
     0
 40
0.0
  0
LTYPE
  5
15
330
5
100
AcDbSymbolTableRecord
100
AcDbLinetypeTableRecord
  2
ByLayer
 70
     0
  3

 72
    65
 73
     0
 40
0.0
  0
LTYPE
  5
16
330
5
100
AcDbSymbolTableRecord
100
AcDbLinetypeTableRecord
  2
Continuous
 70
     0
  3
Solid line
 72
    65
 73
     0
 40
0.0
  0
LTYPE
  5
5D
330
5
100
AcDbSymbolTableRecord
100
AcDbLinetypeTableRecord
  2
HIDDEN
 70
     0
  3
Hidden __ __ __ __ __ __ __ __ __ __ __ __ __ __
 72
    65
 73
     2
 40
1.905
 49
1.27
 74
     0
 49
-0.635
 74
     0
  0
LTYPE
  5
5E
330
5
100
AcDbSymbolTableRecord
100
AcDbLinetypeTableRecord
  2
PHANTOM
 70
     0
  3
Phantom ______  __  __  ______  __  __  ______
 72
    65
 73
     6
 40
12.7
 49
6.35
 74
     0
 49
-1.27
 74
     0
 49
1.27
 74
     0
 49
-1.27
 74
     0
 49
1.27
 74
     0
 49
-1.27
 74
     0
  0
LTYPE
  5
5F
330
5
100
AcDbSymbolTableRecord
100
AcDbLinetypeTableRecord
  2
CENTER
 70
     0
  3
Center ____ _ ____ _ ____ _ ____ _ ____ _ ____
 72
    65
 73
     4
 40
10.16
 49
6.35
 74
     0
 49
-1.27
 74
     0
 49
1.27
 74
     0
 49
-1.27
 74
     0
  0
LTYPE
  5
60
330
5
100
AcDbSymbolTableRecord
100
AcDbLinetypeTableRecord
  2
CENTERX2
 70
     0
  3
Center (2x) ________  __  ________  __  _____
 72
    65
 73
     4
 40
20.32
 49
12.7
 74
     0
 49
-2.54
 74
     0
 49
2.54
 74
     0
 49
-2.54
 74
     0
  0
LTYPE
  5
61
330
5
100
AcDbSymbolTableRecord
100
AcDbLinetypeTableRecord
  2
DOT2
 70
     0
  3
Dot (.5x) ........................................
 72
    65
 73
     2
 40
0.635
 49
0.0
 74
     0
 49
-0.635
 74
     0
  0
ENDTAB
  0
TABLE
  2
LAYER
  5
2
330
0
100
AcDbSymbolTable
 70
     5
  0
LAYER
  5
10
330
2
100
AcDbSymbolTableRecord
100
AcDbLayerTableRecord
  2
0
 70
     0
 62
     7
  6
Continuous
370
    -3
390
F
  0
LAYER
  5
62
330
2
100
AcDbSymbolTableRecord
100
AcDbLayerTableRecord
  2
FORMAT
 70
     0
 62
     7
  6
Continuous
370
    -3
390
F
  0
LAYER
  5
63
330
2
100
AcDbSymbolTableRecord
100
AcDbLayerTableRecord
  2
SLD-0
 70
     0
 62
     4
  6
Continuous
370
    -3
390
F
  0
LAYER
  5
64
330
2
100
AcDbSymbolTableRecord
100
AcDbLayerTableRecord
  2
GRS_GAMBAR
 70
     0
 62
     4
  6
Continuous
370
    -3
390
F
  0
LAYER
  5
65
330
2
100
AcDbSymbolTableRecord
100
AcDbLayerTableRecord
  2
G__TOTO
 70
     0
 62
   179
  6
Continuous
370
    -3
390
F
  0
ENDTAB
  0
TABLE
  2
STYLE
  5
3
330
0
100
AcDbSymbolTable
 70
     8
  0
STYLE
  5
11
330
3
100
AcDbSymbolTableRecord
100
AcDbTextStyleTableRecord
  2
Standard
 70
     0
 40
0.0
 41
1.0
 50
0.0
 71
     0
 42
2.5
  3
txt
  4

  0
STYLE
  5
BA
330
3
100
AcDbSymbolTableRecord
100
AcDbTextStyleTableRecord
  2
SLDTEXTSTYLE0
 70
     0
 40
0.0
 41
0.638185654
 50
0.0
 71
     0
 42
0.2
  3
TXT
  4

  0
STYLE
  5
C9
330
3
100
AcDbSymbolTableRecord
100
AcDbTextStyleTableRecord
  2
SLDTEXTSTYLE1
 70
     0
 40
0.0
 41
0.5168
 50
0.0
 71
     0
 42
0.2
  3
TXT
  4

  0
STYLE
  5
CB
330
3
100
AcDbSymbolTableRecord
100
AcDbTextStyleTableRecord
  2
SLDTEXTSTYLE2
 70
     0
 40
0.0
 41
0.605
 50
0.0
 71
     0
 42
0.2
  3
TXT
  4

  0
STYLE
  5
24D
330
3
100
AcDbSymbolTableRecord
100
AcDbTextStyleTableRecord
  2
SLDTEXTSTYLE3
 70
     0
 40
0.0
 41
0.5648529412
 50
0.0
 71
     0
 42
0.2
  3
TXT
  4

  0
STYLE
  5
257
330
3
100
AcDbSymbolTableRecord
100
AcDbTextStyleTableRecord
  2
SLDTEXTSTYLE4
 70
     0
 40
0.0
 41
0.54
 50
0.0
 71
     0
 42
0.2
  3
TXT
  4

  0
STYLE
  5
259
330
3
100
AcDbSymbolTableRecord
100
AcDbTextStyleTableRecord
  2
SLDTEXTSTYLE5
 70
     0
 40
0.0
 41
0.5620454545
 50
0.0
 71
     0
 42
0.2
  3
TXT
  4

  0
STYLE
  5
25B
330
3
100
AcDbSymbolTableRecord
100
AcDbTextStyleTableRecord
  2
SLDTEXTSTYLE6
 70
     0
 40
0.0
 41
0.556
 50
0.0
 71
     0
 42
0.2
  3
TXT
  4

  0
ENDTAB
  0
TABLE
  2
VIEW
  5
6
330
0
100
AcDbSymbolTable
 70
     0
  0
ENDTAB
  0
TABLE
  2
UCS
  5
7
330
0
100
AcDbSymbolTable
 70
     0
  0
ENDTAB
  0
TABLE
  2
APPID
  5
9
330
0
100
AcDbSymbolTable
 70
     1
  0
APPID
  5
12
330
9
100
AcDbSymbolTableRecord
100
AcDbRegAppTableRecord
  2
ACAD
 70
     0
  0
ENDTAB
  0
TABLE
  2
DIMSTYLE
  5
A
330
0
100
AcDbSymbolTable
 70
     3
100
AcDbDimStyleTable
  0
DIMSTYLE
105
27
330
A
100
AcDbSymbolTableRecord
100
AcDbDimStyleTableRecord
  2
ISO-25
 70
     0
 41
2.5
 42
0.625
 43
3.75
 44
1.25
 73
     0
 74
     0
 77
     1
 78
     8
140
2.5
141
2.5
143
0.0393700787
147
0.625
171
     3
172
     1
271
     2
272
     2
274
     3
278
    44
283
     0
284
     8
340
11
  0
DIMSTYLE
105
238
102
{ACAD_REACTORS
330
237
102
}
330
A
100
AcDbSymbolTableRecord
100
AcDbDimStyleTableRecord
  2
SLDDIMSTYLE0
 70
     0
 41
7.1912923177
 44
0.0
 45
0.000000001
 78
    12
140
7.1912923177
143
0.0393700787
147
1.7978230794
148
0.000000001
170
     1
171
     3
172
     1
173
     1
271
     1
272
     1
274
     3
284
    12
340
CB
  0
DIMSTYLE
105
265
330
A
100
AcDbSymbolTableRecord
100
AcDbDimStyleTableRecord
  2
SLDDIMSTYLE1
 70
     0
 41
7.1912923177
 44
0.0
 45
0.000000001
140
7.1912923177
147
1.7978230794
173
     1
271
     0
272
     0
340
11
  0
ENDTAB
  0
TABLE
  2
BLOCK_RECORD
  5
1
330
0
100
AcDbSymbolTable
 70
    17
  0
BLOCK_RECORD
  5
1F
330
1
100
AcDbSymbolTableRecord
100
AcDbBlockTableRecord
  2
*Model_Space
340
22
  0
BLOCK_RECORD
  5
1B
330
1
100
AcDbSymbolTableRecord
100
AcDbBlockTableRecord
  2
*Paper_Space
340
1E
  0
BLOCK_RECORD
  5
23
330
1
100
AcDbSymbolTableRecord
100
AcDbBlockTableRecord
  2
*Paper_Space0
340
26
  0
BLOCK_RECORD
  5
66
330
1
100
AcDbSymbolTableRecord
100
AcDbBlockTableRecord
  2
Block1
340
0
102
{BLKREFS
331
CE
102
}
  0
BLOCK_RECORD
  5
BC
330
1
100
AcDbSymbolTableRecord
100
AcDbBlockTableRecord
  2
template line scale
340
0
102
{BLKREFS
331
230
102
}
  0
BLOCK_RECORD
  5
C6
330
1
100
AcDbSymbolTableRecord
100
AcDbBlockTableRecord
  2
SW_NOTE_0
340
0
102
{BLKREFS
331
CD
102
}
  0
BLOCK_RECORD
  5
CF
330
1
100
AcDbSymbolTableRecord
100
AcDbBlockTableRecord
  2
SW_NOTE_1
340
0
102
{BLKREFS
331
D5
102
}
  0
BLOCK_RECORD
  5
239
330
1
100
AcDbSymbolTableRecord
100
AcDbBlockTableRecord
  2
*D5
340
0
  0
BLOCK_RECORD
  5
249
330
1
100
AcDbSymbolTableRecord
100
AcDbBlockTableRecord
  2
SW_NOTE_2
340
0
102
{BLKREFS
331
253
102
}
  0
BLOCK_RECORD
  5
254
330
1
100
AcDbSymbolTableRecord
100
AcDbBlockTableRecord
  2
SW_NOTE_3
340
0
102
{BLKREFS
331
25D
102
}
  0
BLOCK_RECORD
  5
25E
330
1
100
AcDbSymbolTableRecord
100
AcDbBlockTableRecord
  2
SW_NOTE_4
340
0
102
{BLKREFS
331
264
102
}
  0
BLOCK_RECORD
  5
267
330
1
100
AcDbSymbolTableRecord
100
AcDbBlockTableRecord
  2
SW_NOTE_5
340
0
102
{BLKREFS
331
26D
102
}
  0
BLOCK_RECORD
  5
26F
330
1
100
AcDbSymbolTableRecord
100
AcDbBlockTableRecord
  2
SW_NOTE_6
340
0
102
{BLKREFS
331
275
102
}
  0
BLOCK_RECORD
  5
277
330
1
100
AcDbSymbolTableRecord
100
AcDbBlockTableRecord
  2
SW_NOTE_7
340
0
102
{BLKREFS
331
27D
102
}
  0
BLOCK_RECORD
  5
27F
330
1
100
AcDbSymbolTableRecord
100
AcDbBlockTableRecord
  2
SW_CENTERMARKSYMBOL_0
340
0
102
{BLKREFS
331
28A
102
}
  0
BLOCK_RECORD
  5
28B
330
1
100
AcDbSymbolTableRecord
100
AcDbBlockTableRecord
  2
SW_CENTERMARKSYMBOL_1
340
0
102
{BLKREFS
331
296
102
}
  0
BLOCK_RECORD
  5
297
330
1
100
AcDbSymbolTableRecord
100
AcDbBlockTableRecord
  2
SW_CENTERMARKSYMBOL_2
340
0
102
{BLKREFS
331
2A2
102
}
  0
BLOCK_RECORD
  5
2A3
330
1
100
AcDbSymbolTableRecord
100
AcDbBlockTableRecord
  2
SW_CENTERMARKSYMBOL_3
340
0
102
{BLKREFS
331
2AE
102
}
  0
BLOCK_RECORD
  5
2AF
330
1
100
AcDbSymbolTableRecord
100
AcDbBlockTableRecord
  2
SW_CENTERMARKSYMBOL_4
340
0
102
{BLKREFS
331
2BA
102
}
  0
ENDTAB
  0
ENDSEC
  0
SECTION
  2
BLOCKS
  0
BLOCK
  5
20
330
1F
100
AcDbEntity
  8
0
100
AcDbBlockBegin
  2
*Model_Space
 70
     0
 10
0.0
 20
0.0
 30
0.0
  3
*Model_Space
  1

  0
ENDBLK
  5
21
330
1F
100
AcDbEntity
  8
0
100
AcDbBlockEnd
  0
BLOCK
  5
1C
330
1B
100
AcDbEntity
 67
     1
  8
0
100
AcDbBlockBegin
  2
*Paper_Space
 70
     0
 10
0.0
 20
0.0
 30
0.0
  3
*Paper_Space
  1

  0
ENDBLK
  5
1D
330
1B
100
AcDbEntity
 67
     1
  8
0
100
AcDbBlockEnd
  0
BLOCK
  5
24
330
23
100
AcDbEntity
  8
0
100
AcDbBlockBegin
  2
*Paper_Space0
 70
     0
 10
0.0
 20
0.0
 30
0.0
  3
*Paper_Space0
  1

  0
ENDBLK
  5
25
330
23
100
AcDbEntity
  8
0
100
AcDbBlockEnd
  0
BLOCK
  5
67
330
66
100
AcDbEntity
  8
0
100
AcDbBlockBegin
  2
Block1
 70
     0
 10
0.0
 20
0.0
 30
0.0
  3
Block1
  1

  0
ARC
  5
69
330
66
100
AcDbEntity
  8
GRS_GAMBAR
100
AcDbCircle
 10
50.5596373054
 20
89.8512807409
 30
0.0
 40
12.70000000005831
100
AcDbArc
 50
77.678118321
 51
90.0
  0
ARC
  5
6A
330
66
100
AcDbEntity
  8
GRS_GAMBAR
100
AcDbCircle
 10
40.7895241947
 20
89.8512807404
 30
0.0
 40
12.70000000055211
100
AcDbArc
 50
89.999999997
 51
140.1728016809
  0
ARC
  5
6B
330
66
100
AcDbEntity
  8
GRS_GAMBAR
100
AcDbCircle
 10
12.6999999999
 20
44.4801911215
 30
0.0
 40
12.69999999987897
100
AcDbArc
 50
197.678118321
 51
210.0000000016
  0
ARC
  5
6C
330
66
100
AcDbEntity
  8
GRS_GAMBAR
100
AcDbCircle
 10
17.5850565553
 20
36.0190249697
 30
0.0
 40
12.6999999998536
100
AcDbArc
 50
210.0000000007
 51
260.1728016814
  0
ARC
  5
6D
330
66
100
AcDbEntity
  8
GRS_GAMBAR
100
AcDbCircle
 10
70.92233486
 20
34.3783282473
 30
0.0
 40
12.70000000079826
100
AcDbArc
 50
317.67811832
 51
329.9999999985
  0
ARC
  5
6E
330
66
100
AcDbEntity
  8
GRS_GAMBAR
100
AcDbCircle
 10
75.8073914162
 20
42.8394943984
 30
0.0
 40
12.69999999977296
100
AcDbArc
 50
329.9999999983
 51
20.1728016817
  0
ARC
  5
6F
330
66
100
AcDbEntity
  8
GRS_GAMBAR
100
AcDbCircle
 10
50.5596373054
 20
89.8512807409
 30
0.0
 40
12.7000000000583
100
AcDbArc
 50
33.4734623705
 51
77.678118321
  0
ARC
  5
70
330
66
100
AcDbEntity
  8
GRS_GAMBAR
100
AcDbCircle
 10
12.6999999999
 20
44.4801911215
 30
0.0
 40
12.69999999987897
100
AcDbArc
 50
153.4734623698
 51
197.678118321
  0
ARC
  5
71
330
66
100
AcDbEntity
  8
GRS_GAMBAR
100
AcDbCircle
 10
70.92233486
 20
34.3783282473
 30
0.0
 40
12.70000000079826
100
AcDbArc
 50
273.4734623732
 51
317.67811832
  0
ARC
  5
72
330
66
100
AcDbEntity
  8
GRS_GAMBAR
  6
Continuous
 62
   179
100
AcDbCircle
 10
40.7895241947
 20
89.8512807404
 30
0.0
 40
12.70000000055211
100
AcDbArc
 50
89.999999997
 51
140.1728016809
  0
ARC
  5
73
330
66
100
AcDbEntity
  8
GRS_GAMBAR
  6
Continuous
 62
   179
100
AcDbCircle
 10
50.5596373054
 20
89.8512807409
 30
0.0
 40
12.70000000005831
100
AcDbArc
 50
33.4734623705
 51
90.0
  0
ARC
  5
74
330
66
100
AcDbEntity
  8
GRS_GAMBAR
  6
Continuous
 62
   179
100
AcDbCircle
 10
17.5850565553
 20
36.0190249697
 30
0.0
 40
12.6999999998536
100
AcDbArc
 50
210.0000000007
 51
260.1728016814
  0
ARC
  5
75
330
66
100
AcDbEntity
  8
GRS_GAMBAR
  6
Continuous
 62
   179
100
AcDbCircle
 10
12.6999999999
 20
44.4801911215
 30
0.0
 40
12.69999999987897
100
AcDbArc
 50
153.4734623698
 51
210.0000000016
  0
ARC
  5
76
330
66
100
AcDbEntity
  8
GRS_GAMBAR
  6
Continuous
 62
   179
100
AcDbCircle
 10
75.8073914162
 20
42.8394943984
 30
0.0
 40
12.69999999977296
100
AcDbArc
 50
329.9999999983
 51
20.1728016817
  0
ARC
  5
77
330
66
100
AcDbEntity
  8
GRS_GAMBAR
  6
Continuous
 62
   179
100
AcDbCircle
 10
70.92233486
 20
34.3783282473
 30
0.0
 40
12.70000000079806
100
AcDbArc
 50
273.4734623732
 51
329.9999999985
  0
LINE
  5
78
330
66
100
AcDbEntity
  8
GRS_GAMBAR
100
AcDbLine
 10
50.5596373054
 20
102.551280741
 30
0.0
 11
40.7895241953
 21
102.551280741
 31
0.0
  0
LINE
  5
79
330
66
100
AcDbEntity
  8
GRS_GAMBAR
100
AcDbLine
 10
31.0361835686
 20
97.9853047535
 30
0.0
 11
18.4601962959
 21
78.0611782485
 31
0.0
  0
LINE
  5
7A
330
66
100
AcDbEntity
  8
GRS_GAMBAR
100
AcDbLine
 10
18.4601962959
 20
78.0611782485
 30
0.0
 11
32.530085145
 21
70.0624494887
 31
0.0
  0
LINE
  5
7B
330
66
100
AcDbEntity
  8
GRS_GAMBAR
100
AcDbLine
 10
32.530085145
 20
70.0624494887
 30
0.0
 11
53.2698619029
 21
102.2587253865
 31
0.0
  0
LINE
  5
7C
330
66
100
AcDbEntity
  8
GRS_GAMBAR
100
AcDbLine
 10
1.7014773721
 20
38.1301911212
 30
0.0
 11
6.5865339274
 21
29.6690249696
 31
0.0
  0
LINE
  5
7D
330
66
100
AcDbEntity
  8
GRS_GAMBAR
100
AcDbLine
 10
15.4174554383
 20
23.5053722098
 30
0.0
 11
38.9602487761
 21
22.5763110067
 31
0.0
  0
LINE
  5
7E
330
66
100
AcDbEntity
  8
GRS_GAMBAR
100
AcDbLine
 10
38.9602487761
 20
22.5763110067
 30
0.0
 11
38.8524066559
 21
38.760556558
 31
0.0
  0
LINE
  5
7F
330
66
100
AcDbEntity
  8
GRS_GAMBAR
100
AcDbLine
 10
38.8524066559
 20
38.760556558
 30
0.0
 11
0.5997254422
 21
40.6235921501
 31
0.0
  0
LINE
  5
80
330
66
100
AcDbEntity
  8
GRS_GAMBAR
100
AcDbLine
 10
81.9208574885
 20
28.0283282466
 30
0.0
 11
86.8059140438
 21
36.4894943982
 31
0.0
  0
LINE
  5
81
330
66
100
AcDbEntity
  8
GRS_GAMBAR
100
AcDbLine
 10
87.7283331587
 20
47.2191231458
 30
0.0
 11
76.7615270935
 21
68.0723108539
 31
0.0
  0
LINE
  5
82
330
66
100
AcDbEntity
  8
GRS_GAMBAR
100
AcDbLine
 10
76.7615270935
 20
68.0723108539
 30
0.0
 11
62.7994803649
 21
59.8867940624
 31
0.0
  0
LINE
  5
83
330
66
100
AcDbEntity
  8
GRS_GAMBAR
100
AcDbLine
 10
62.7994803649
 20
59.8867940624
 30
0.0
 11
80.3123848207
 21
25.8274825725
 31
0.0
  0
LINE
  5
84
330
66
100
AcDbEntity
  8
GRS_GAMBAR
100
AcDbLine
 10
53.2698619029
 20
102.2587253865
 30
0.0
 11
45.3678063337
 21
89.9916328218
 31
0.0
  0
LINE
  5
85
330
66
100
AcDbEntity
  8
GRS_GAMBAR
100
AcDbLine
 10
45.3678063337
 20
89.9916328218
 30
0.0
 11
57.680146021
 21
77.9774401014
 31
0.0
  0
LINE
  5
86
330
66
100
AcDbEntity
  8
GRS_GAMBAR
100
AcDbLine
 10
57.680146021
 20
77.9774401014
 30
0.0
 11
52.1174939067
 21
74.4668795831
 31
0.0
  0
LINE
  5
87
330
66
100
AcDbEntity
  8
GRS_GAMBAR
100
AcDbLine
 10
52.1174939067
 20
74.4668795831
 30
0.0
 11
68.8005549205
 21
74.5270047811
 31
0.0
  0
LINE
  5
88
330
66
100
AcDbEntity
  8
GRS_GAMBAR
100
AcDbLine
 10
68.8005549205
 20
74.5270047811
 30
0.0
 11
73.782472283
 21
89.9718154402
 31
0.0
  0
LINE
  5
89
330
66
100
AcDbEntity
  8
GRS_GAMBAR
100
AcDbLine
 10
73.782472283
 20
89.9718154402
 30
0.0
 11
69.4181110421
 21
86.9876719853
 31
0.0
  0
LINE
  5
8A
330
66
100
AcDbEntity
  8
GRS_GAMBAR
100
AcDbLine
 10
69.4181110421
 20
86.9876719853
 30
0.0
 11
61.153232739
 21
96.8559745808
 31
0.0
  0
LINE
  5
8B
330
66
100
AcDbEntity
  8
GRS_GAMBAR
100
AcDbLine
 10
19.4227932766
 20
56.5836528762
 30
0.0
 11
25.244353924
 21
53.5215350928
 31
0.0
  0
LINE
  5
8C
330
66
100
AcDbEntity
  8
GRS_GAMBAR
100
AcDbLine
 10
25.244353924
 20
53.5215350928
 30
0.0
 11
16.8507534682
 21
67.9394271442
 31
0.0
  0
LINE
  5
8D
330
66
100
AcDbEntity
  8
GRS_GAMBAR
100
AcDbLine
 10
16.8507534682
 20
67.9394271442
 30
0.0
 11
0.9841963998
 21
64.5314888101
 31
0.0
  0
LINE
  5
8E
330
66
100
AcDbEntity
  8
GRS_GAMBAR
100
AcDbLine
 10
0.9841963998
 20
64.5314888101
 30
0.0
 11
5.7507210602
 21
62.2439128323
 31
0.0
  0
LINE
  5
8F
330
66
100
AcDbEntity
  8
GRS_GAMBAR
100
AcDbLine
 10
5.7507210602
 20
62.2439128323
 30
0.0
 11
1.3369594722
 21
50.1521669645
 31
0.0
  0
LINE
  5
90
330
66
100
AcDbEntity
  8
GRS_GAMBAR
100
AcDbLine
 10
0.5997254422
 20
40.6235921501
 30
0.0
 11
15.1743670181
 21
39.9137575676
 31
0.0
  0
LINE
  5
91
330
66
100
AcDbEntity
  8
GRS_GAMBAR
100
AcDbLine
 10
15.1743670181
 20
39.9137575676
 30
0.0
 11
19.4227932766
 21
56.5836528762
 31
0.0
  0
LINE
  5
92
330
66
100
AcDbEntity
  8
GRS_GAMBAR
100
AcDbLine
 10
80.3123848207
 20
25.8274825725
 30
0.0
 11
73.6397988137
 21
38.8044097196
 31
0.0
  0
LINE
  5
93
330
66
100
AcDbEntity
  8
GRS_GAMBAR
100
AcDbLine
 10
73.6397988137
 20
38.8044097196
 30
0.0
 11
57.0790328685
 21
34.1487071314
 31
0.0
  0
LINE
  5
94
330
66
100
AcDbEntity
  8
GRS_GAMBAR
100
AcDbLine
 10
57.0790328685
 20
34.1487071314
 30
0.0
 11
56.8201243354
 21
40.7213854332
 31
0.0
  0
LINE
  5
95
330
66
100
AcDbEntity
  8
GRS_GAMBAR
100
AcDbLine
 10
56.8201243354
 20
40.7213854332
 30
0.0
 11
48.5306637774
 21
26.2433681838
 31
0.0
  0
LINE
  5
96
330
66
100
AcDbEntity
  8
GRS_GAMBAR
100
AcDbLine
 10
48.5306637774
 20
26.2433681838
 30
0.0
 11
59.4153034836
 21
14.2064958587
 31
0.0
  0
LINE
  5
97
330
66
100
AcDbEntity
  8
GRS_GAMBAR
100
AcDbLine
 10
59.4153034836
 20
14.2064958587
 30
0.0
 11
59.013140063
 21
19.4782152915
 31
0.0
  0
LINE
  5
98
330
66
100
AcDbEntity
  8
GRS_GAMBAR
100
AcDbLine
 10
59.013140063
 20
19.4782152915
 30
0.0
 11
71.6917799549
 21
21.7016585637
 31
0.0
  0
LINE
  5
99
330
66
100
AcDbEntity
  8
GRS_GAMBAR
  6
Continuous
 62
   179
100
AcDbLine
 10
18.4601962959
 20
78.0611782485
 30
0.0
 11
31.0361835686
 21
97.9853047535
 31
0.0
  0
LINE
  5
9A
330
66
100
AcDbEntity
  8
GRS_GAMBAR
  6
Continuous
 62
   179
100
AcDbLine
 10
40.7895241953
 20
102.551280741
 30
0.0
 11
50.5596373054
 21
102.551280741
 31
0.0
  0
LINE
  5
9B
330
66
100
AcDbEntity
  8
GRS_GAMBAR
  6
Continuous
 62
   179
100
AcDbLine
 10
61.153232739
 20
96.8559745808
 30
0.0
 11
69.4181110421
 21
86.9876719853
 31
0.0
  0
LINE
  5
9C
330
66
100
AcDbEntity
  8
GRS_GAMBAR
  6
Continuous
 62
   179
100
AcDbLine
 10
69.4181110421
 20
86.9876719853
 30
0.0
 11
73.782472283
 21
89.9718154402
 31
0.0
  0
LINE
  5
9D
330
66
100
AcDbEntity
  8
GRS_GAMBAR
  6
Continuous
 62
   179
100
AcDbLine
 10
73.782472283
 20
89.9718154402
 30
0.0
 11
68.8005549205
 21
74.5270047811
 31
0.0
  0
LINE
  5
9E
330
66
100
AcDbEntity
  8
GRS_GAMBAR
  6
Continuous
 62
   179
100
AcDbLine
 10
68.8005549205
 20
74.5270047811
 30
0.0
 11
52.1174939067
 21
74.4668795831
 31
0.0
  0
LINE
  5
9F
330
66
100
AcDbEntity
  8
GRS_GAMBAR
  6
Continuous
 62
   179
100
AcDbLine
 10
52.1174939067
 20
74.4668795831
 30
0.0
 11
57.680146021
 21
77.9774401014
 31
0.0
  0
LINE
  5
A0
330
66
100
AcDbEntity
  8
GRS_GAMBAR
  6
Continuous
 62
   179
100
AcDbLine
 10
57.680146021
 20
77.9774401014
 30
0.0
 11
45.3678063337
 21
89.9916328218
 31
0.0
  0
LINE
  5
A1
330
66
100
AcDbEntity
  8
GRS_GAMBAR
  6
Continuous
 62
   179
370
    30
100
AcDbLine
 10
53.2698619029
 20
102.2587253865
 30
0.0
 11
32.530085145
 21
70.0624494887
 31
0.0
  0
LINE
  5
A2
330
66
100
AcDbEntity
  8
GRS_GAMBAR
  6
Continuous
 62
   179
100
AcDbLine
 10
32.530085145
 20
70.0624494887
 30
0.0
 11
18.4601962959
 21
78.0611782485
 31
0.0
  0
LINE
  5
A3
330
66
100
AcDbEntity
  8
GRS_GAMBAR
  6
Continuous
 62
   179
100
AcDbLine
 10
38.9602487761
 20
22.5763110067
 30
0.0
 11
15.4174554383
 21
23.5053722098
 31
0.0
  0
LINE
  5
A4
330
66
100
AcDbEntity
  8
GRS_GAMBAR
  6
Continuous
 62
   179
100
AcDbLine
 10
6.5865339274
 20
29.6690249696
 30
0.0
 11
1.7014773721
 21
38.1301911212
 31
0.0
  0
LINE
  5
A5
330
66
100
AcDbEntity
  8
GRS_GAMBAR
  6
Continuous
 62
   179
100
AcDbLine
 10
1.3369594722
 20
50.1521669645
 30
0.0
 11
5.7507210602
 21
62.2439128323
 31
0.0
  0
LINE
  5
A6
330
66
100
AcDbEntity
  8
GRS_GAMBAR
  6
Continuous
 62
   179
100
AcDbLine
 10
5.7507210602
 20
62.2439128323
 30
0.0
 11
0.9841963998
 21
64.5314888101
 31
0.0
  0
LINE
  5
A7
330
66
100
AcDbEntity
  8
GRS_GAMBAR
  6
Continuous
 62
   179
100
AcDbLine
 10
0.9841963998
 20
64.5314888101
 30
0.0
 11
16.8507534682
 21
67.9394271442
 31
0.0
  0
LINE
  5
A8
330
66
100
AcDbEntity
  8
GRS_GAMBAR
  6
Continuous
 62
   179
100
AcDbLine
 10
16.8507534682
 20
67.9394271442
 30
0.0
 11
25.244353924
 21
53.5215350928
 31
0.0
  0
LINE
  5
A9
330
66
100
AcDbEntity
  8
GRS_GAMBAR
  6
Continuous
 62
   179
100
AcDbLine
 10
25.244353924
 20
53.5215350928
 30
0.0
 11
19.4227932766
 21
56.5836528762
 31
0.0
  0
LINE
  5
AA
330
66
100
AcDbEntity
  8
GRS_GAMBAR
  6
Continuous
 62
   179
100
AcDbLine
 10
19.4227932766
 20
56.5836528762
 30
0.0
 11
15.1743670181
 21
39.9137575676
 31
0.0
  0
LINE
  5
AB
330
66
100
AcDbEntity
  8
GRS_GAMBAR
  6
Continuous
 62
   179
370
    30
100
AcDbLine
 10
0.5997254422
 20
40.6235921501
 30
0.0
 11
38.8524066559
 21
38.760556558
 31
0.0
  0
LINE
  5
AC
330
66
100
AcDbEntity
  8
GRS_GAMBAR
  6
Continuous
 62
   179
100
AcDbLine
 10
38.8524066559
 20
38.760556558
 30
0.0
 11
38.9602487761
 21
22.5763110067
 31
0.0
  0
LINE
  5
AD
330
66
100
AcDbEntity
  8
GRS_GAMBAR
  6
Continuous
 62
   179
100
AcDbLine
 10
76.7615270935
 20
68.0723108539
 30
0.0
 11
87.7283331587
 21
47.2191231458
 31
0.0
  0
LINE
  5
AE
330
66
100
AcDbEntity
  8
GRS_GAMBAR
  6
Continuous
 62
   179
100
AcDbLine
 10
86.8059140438
 20
36.4894943982
 30
0.0
 11
81.9208574885
 21
28.0283282466
 31
0.0
  0
LINE
  5
AF
330
66
100
AcDbEntity
  8
GRS_GAMBAR
  6
Continuous
 62
   179
100
AcDbLine
 10
71.6917799549
 20
21.7016585637
 30
0.0
 11
59.013140063
 21
19.4782152915
 31
0.0
  0
LINE
  5
B0
330
66
100
AcDbEntity
  8
GRS_GAMBAR
  6
Continuous
 62
   179
100
AcDbLine
 10
59.013140063
 20
19.4782152915
 30
0.0
 11
59.4153034836
 21
14.2064958587
 31
0.0
  0
LINE
  5
B1
330
66
100
AcDbEntity
  8
GRS_GAMBAR
  6
Continuous
 62
   179
100
AcDbLine
 10
59.4153034836
 20
14.2064958587
 30
0.0
 11
48.5306637774
 21
26.2433681838
 31
0.0
  0
LINE
  5
B2
330
66
100
AcDbEntity
  8
GRS_GAMBAR
  6
Continuous
 62
   179
100
AcDbLine
 10
48.5306637774
 20
26.2433681838
 30
0.0
 11
56.8201243354
 21
40.7213854332
 31
0.0
  0
LINE
  5
B3
330
66
100
AcDbEntity
  8
GRS_GAMBAR
  6
Continuous
 62
   179
100
AcDbLine
 10
56.8201243354
 20
40.7213854332
 30
0.0
 11
57.0790328685
 21
34.1487071314
 31
0.0
  0
LINE
  5
B4
330
66
100
AcDbEntity
  8
GRS_GAMBAR
  6
Continuous
 62
   179
100
AcDbLine
 10
57.0790328685
 20
34.1487071314
 30
0.0
 11
73.6397988137
 21
38.8044097196
 31
0.0
  0
LINE
  5
B5
330
66
100
AcDbEntity
  8
GRS_GAMBAR
  6
Continuous
 62
   179
370
    30
100
AcDbLine
 10
80.3123848207
 20
25.8274825725
 30
0.0
 11
62.7994803649
 21
59.8867940624
 31
0.0
  0
LINE
  5
B6
330
66
100
AcDbEntity
  8
GRS_GAMBAR
  6
Continuous
 62
   179
100
AcDbLine
 10
62.7994803649
 20
59.8867940624
 30
0.0
 11
76.7615270935
 21
68.0723108539
 31
0.0
  0
HATCH
  5
B7
330
66
100
AcDbEntity
  8
GRS_GAMBAR
 62
   179
100
AcDbHatch
 10
0.0
 20
0.0
 30
0.0
210
0.0
220
0.0
230
1.0
  2
SOLID
 70
     1
 71
     0
 91
        1
 92
        0
 93
        6
 72
     1
 10
81.92085748854794
 20
28.02832824659674
 11
86.80591404383442
 21
36.48949439819749
 72
     2
 10
75.80739141615211
 20
42.83949439840096
 40
12.69999999977226
 50
329.9999999983485
 51
380.1728016816779
 73
     1
 72
     1
 10
87.72833315870798
 20
47.2191231457717
 11
76.76152709348116
 21
68.07231085394116
 72
     1
 10
76.76152709348116
 20
68.07231085394116
 11
62.79948036490168
 21
59.88679406240527
 72
     1
 10
62.79948036490168
 20
59.88679406240527
 11
80.31238482072922
 21
25.82748257246781
 72
     2
 10
70.92233485996502
 20
34.37832824729004
 40
12.70000000079782
 50
317.678118319967
 51
329.9999999984663
 73
     1
 97
        0
 75
     0
 76
     1
 98
        1
 10
0.0
 20
0.0
  0
HATCH
  5
B8
330
66
100
AcDbEntity
  8
GRS_GAMBAR
 62
   179
100
AcDbHatch
 10
0.0
 20
0.0
 30
0.0
210
0.0
220
0.0
230
1.0
  2
SOLID
 70
     1
 71
     0
 91
        1
 92
        0
 93
        6
 72
     1
 10
1.701477372096249
 20
38.13019112124682
 11
6.586533927391613
 21
29.66902496963009
 72
     2
 10
17.58505655525155
 20
36.0190249696879
 40
12.69999999985368
 50
210.0000000006833
 51
260.1728016813727
 73
     1
 72
     1
 10
15.41745543826067
 20
23.50537220984572
 11
38.9602487760925
 21
22.57631100665058
 72
     1
 10
38.9602487760925
 20
22.57631100665058
 11
38.85240665591994
 21
38.76055655804001
 72
     1
 10
38.85240665591994
 20
38.76055655804001
 11
0.5997254422069886
 21
40.62359215012768
 72
     2
 10
12.69999999987803
 20
44.48019112149226
 40
12.69999999987985
 50
197.678118321045
 51
210.0000000015927
 73
     1
 97
        0
 75
     0
 76
     1
 98
        1
 10
0.0
 20
0.0
  0
HATCH
  5
B9
330
66
100
AcDbEntity
  8
GRS_GAMBAR
 62
   179
100
AcDbHatch
 10
0.0
 20
0.0
 30
0.0
210
0.0
220
0.0
230
1.0
  2
SOLID
 70
     1
 71
     0
 91
        1
 92
        0
 93
        6
 72
     1
 10
50.55963730542246
 20
102.5512807409807
 11
40.78952419534332
 21
102.5512807409807
 72
     2
 10
40.78952419468607
 20
89.8512807404288
 40
12.70000000055234
 50
89.99999999703482
 51
140.1728016808893
 73
     1
 72
     1
 10
31.03618356855264
 20
97.98530475346534
 11
18.46019629594764
 21
78.06117824848124
 72
     1
 10
18.46019629594764
 20
78.06117824848124
 11
32.53008514500522
 21
70.0624494886548
 72
     1
 10
32.53008514500522
 20
70.0624494886548
 11
53.26986190289063
 21
102.2587253864873
 72
     2
 10
50.55963730542246
 20
89.85128074092263
 40
12.70000000005804
 50
77.6781183210196
 51
90.0
 73
     1
 97
        0
 75
     0
 76
     1
 98
        1
 10
0.0
 20
0.0
  0
MTEXT
  5
BB
330
66
100
AcDbEntity
  8
GRS_GAMBAR
100
AcDbMText
 10
8.1315783618
 20
3.5176739225
 30
0.0
 40
15.875
 41
0.0
 71
     1
 72
     1
  1
Recycled
  7
SLDTEXTSTYLE0
 73
     1
 44
1.0
  0
ENDBLK
  5
68
330
66
100
AcDbEntity
  8
0
100
AcDbBlockEnd
  0
BLOCK
  5
BD
330
BC
100
AcDbEntity
  8
0
100
AcDbBlockBegin
  2
template line scale
 70
     0
 10
0.0
 20
0.0
 30
0.0
  3
template line scale
  1

  0
LINE
  5
BF
330
BC
100
AcDbEntity
  8
FORMAT
370
     0
100
AcDbLine
 10
308.8291516468
 20
-142.8002221194
 30
0.0
 11
334.2291516468
 21
-142.8002221194
 31
0.0
  0
LINE
  5
C0
330
BC
100
AcDbEntity
  8
FORMAT
370
    15
100
AcDbLine
 10
308.8291516468
 20
-140.5853455549
 30
0.0
 11
308.8291516468
 21
-145.8397463772
 31
0.0
  0
LINE
  5
C1
330
BC
100
AcDbEntity
  8
FORMAT
370
     0
100
AcDbLine
 10
334.2291516468
 20
-142.8002221194
 30
0.0
 11
359.6291516468
 21
-142.8002221194
 31
0.0
  0
LINE
  5
C2
330
BC
100
AcDbEntity
  8
FORMAT
370
     0
100
AcDbLine
 10
359.6291516468
 20
-142.8002221194
 30
0.0
 11
385.0291516468
 21
-142.8002221194
 31
0.0
  0
LINE
  5
C3
330
BC
100
AcDbEntity
  8
FORMAT
370
    15
100
AcDbLine
 10
334.2291516468
 20
-140.5853455549
 30
0.0
 11
334.2291516468
 21
-145.8397463772
 31
0.0
  0
LINE
  5
C4
330
BC
100
AcDbEntity
  8
FORMAT
370
    15
100
AcDbLine
 10
359.6291516468
 20
-145.8397463772
 30
0.0
 11
359.6291516468
 21
-140.5853455549
 31
0.0
  0
LINE
  5
C5
330
BC
100
AcDbEntity
  8
FORMAT
370
    15
100
AcDbLine
 10
385.0291516468
 20
-140.5853455549
 30
0.0
 11
385.0291516468
 21
-145.8397463772
 31
0.0
  0
INSERT
  5
CD
330
BC
100
AcDbEntity
  8
FORMAT
 62
     7
100
AcDbBlockReference
  2
SW_NOTE_0
 10
306.9904107435
 20
-163.4539217701
 30
0.0
  0
ENDBLK
  5
BE
330
BC
100
AcDbEntity
  8
0
100
AcDbBlockEnd
  0
BLOCK
  5
C7
330
C6
100
AcDbEntity
  8
0
100
AcDbBlockBegin
  2
SW_NOTE_0
 70
     0
 10
0.0
 20
0.0
 30
0.0
  3
SW_NOTE_0
  1

  0
MTEXT
  5
CA
330
C6
100
AcDbEntity
  8
FORMAT
 62
     0
100
AcDbMText
 10
0.0
 20
9.5498435055
 30
0.0
 40
7.4083333333
 41
0.0
 71
     1
 72
     1
  1
0       1       2       3
  7
SLDTEXTSTYLE1
 73
     1
 44
1.0
  0
MTEXT
  5
CC
330
C6
100
AcDbEntity
  8
FORMAT
 62
     0
100
AcDbMText
 10
6.2284767628
 20
-10.2057118113
 30
0.0
 40
7.4083333333
 41
0.0
 71
     1
 72
     1
  1
SCALE: 1" = 1"
  7
SLDTEXTSTYLE2
 73
     1
 44
1.0
  0
ENDBLK
  5
C8
330
C6
100
AcDbEntity
  8
0
100
AcDbBlockEnd
  0
BLOCK
  5
D0
330
CF
100
AcDbEntity
  8
0
100
AcDbBlockBegin
  2
SW_NOTE_1
 70
     0
 10
0.0
 20
0.0
 30
0.0
  3
SW_NOTE_1
  1

  0
MTEXT
  5
D2
330
CF
100
AcDbEntity
  8
SLD-0
 62
     0
100
AcDbMText
 10
0.0
 20
8.1855801476
 30
0.0
 40
6.35
 41
0.0
 71
     1
 72
     1
  1
LT181
  7
SLDTEXTSTYLE0
 73
     1
 44
1.0
  0
MTEXT
  5
D3
330
CF
100
AcDbEntity
  8
SLD-0
 62
     0
100
AcDbMText
 10
-3.7276865914
 20
-0.2810864168
 30
0.0
 40
6.35
 41
0.0
 71
     1
 72
     1
  1
0GU160
  7
SLDTEXTSTYLE0
 73
     1
 44
1.0
  0
MTEXT
  5
D4
330
CF
100
AcDbEntity
  8
SLD-0
 62
     0
100
AcDbMText
 10
-7.6964357868
 20
-8.7477529811
 30
0.0
 40
6.35
 41
0.0
 71
     1
 72
     1
  1
APR 2009
  7
SLDTEXTSTYLE0
 73
     1
 44
1.0
  0
ENDBLK
  5
D1
330
CF
100
AcDbEntity
  8
0
100
AcDbBlockEnd
  0
BLOCK
  5
23A
330
239
100
AcDbEntity
  8
0
100
AcDbBlockBegin
  2
*D5
 70
     1
 10
0.0
 20
0.0
 30
0.0
  3
*D5
  1

  0
SOLID
  5
23C
330
239
100
AcDbEntity
  8
G__TOTO
100
AcDbTrace
 10
648.9312945366
 20
576.4911884977
 30
0.0
 11
655.7145343062
 21
579.1229862946
 31
0.0
 12
654.6097978693
 22
581.0401775411
 32
0.0
 13
654.6097978693
 23
581.0401775411
 33
0.0
  0
LINE
  5
23D
330
239
100
AcDbEntity
  8
G__TOTO
100
AcDbLine
 10
690.7726641223
 20
617.8007764092
 30
0.0
 11
690.7726641223
 21
608.4209507352
 31
0.0
  0
LINE
  5
23E
330
239
100
AcDbEntity
  8
G__TOTO
100
AcDbLine
 10
690.7726641223
 20
608.4209507352
 30
0.0
 11
692.4172702352
 21
608.4209507352
 31
0.0
  0
LINE
  5
23F
330
239
100
AcDbEntity
  8
G__TOTO
100
AcDbLine
 10
690.7726641223
 20
617.8007764092
 30
0.0
 11
692.4172702352
 21
617.8007764092
 31
0.0
  0
LINE
  5
240
330
239
100
AcDbEntity
  8
G__TOTO
100
AcDbLine
 10
714.5770660032
 20
617.8007764092
 30
0.0
 11
714.5770660032
 21
608.4209507352
 31
0.0
  0
LINE
  5
241
330
239
100
AcDbEntity
  8
G__TOTO
100
AcDbLine
 10
714.5770660032
 20
608.4209507352
 30
0.0
 11
712.9324598904
 21
608.4209507352
 31
0.0
  0
LINE
  5
242
330
239
100
AcDbEntity
  8
G__TOTO
100
AcDbLine
 10
714.5770660032
 20
617.8007764092
 30
0.0
 11
712.9324598904
 21
617.8007764092
 31
0.0
  0
LINE
  5
243
330
239
100
AcDbEntity
  8
G__TOTO
100
AcDbLine
 10
648.9312945366
 20
576.4911884977
 30
0.0
 11
683.7562130252
 21
596.5582300298
 31
0.0
  0
LINE
  5
244
330
239
100
AcDbEntity
  8
G__TOTO
100
AcDbLine
 10
640.6783896479
 20
571.7356458475
 30
0.0
 11
648.9312945366
 21
576.4911884977
 31
0.0
  0
LINE
  5
245
330
239
100
AcDbEntity
  8
G__TOTO
100
AcDbLine
 10
683.7562130252
 20
596.5582300298
 30
0.0
 11
718.9015393574
 21
596.5582300298
 31
0.0
  0
MTEXT
  5
246
330
239
100
AcDbEntity
  8
G__TOTO
100
AcDbMText
 10
690.8496869123
 20
606.1080735353
 30
0.0
 40
7.4083333333
 41
0.0
 71
     1
 72
     1
  1
%%c
  7
SLDTEXTSTYLE2
 73
     1
 44
1.0
  0
MTEXT
  5
247
330
239
100
AcDbEntity
  8
G__TOTO
100
AcDbMText
 10
700.7812670377
 20
606.1080735353
 30
0.0
 40
7.4083333333
 41
0.0
 71
     1
 72
     1
  1
9.5
  7
SLDTEXTSTYLE2
 73
     1
 44
1.0
  0
MTEXT
  5
248
330
239
100
AcDbEntity
  8
G__TOTO
100
AcDbMText
 10
694.061876348
 20
617.1431625635
 30
0.0
 40
7.4083333333
 41
0.0
 71
     1
 72
     1
  1
3/8"
  7
SLDTEXTSTYLE2
 73
     1
 44
1.0
  0
ENDBLK
  5
23B
330
239
100
AcDbEntity
  8
0
100
AcDbBlockEnd
  0
BLOCK
  5
24A
330
249
100
AcDbEntity
  8
0
100
AcDbBlockBegin
  2
SW_NOTE_2
 70
     0
 10
0.0
 20
0.0
 30
0.0
  3
SW_NOTE_2
  1

  0
MTEXT
  5
24C
330
249
100
AcDbEntity
  8
FORMAT
 62
     0
100
AcDbMText
 10
0.0
 20
8.1855801476
 30
0.0
 40
6.35
 41
0.0
 71
     1
 72
     1
  1
PAPER SIZE:  
  7
SLDTEXTSTYLE2
 73
     1
 44
1.0
  0
MTEXT
  5
24E
330
249
100
AcDbEntity
  8
FORMAT
 62
     0
100
AcDbMText
 10
10.0
 20
-0.2810864168
 30
0.0
 40
6.35
 41
0.0
 71
     1
 72
     1
  1
23" X 35"    25" X 38"   26" X 40"
  7
SLDTEXTSTYLE3
 73
     1
 44
1.0
  0
MTEXT
  5
24F
330
249
100
AcDbEntity
  8
FORMAT
 62
     0
100
AcDbMText
 10
0.0
 20
-8.7477529811
 30
0.0
 40
6.35
 41
0.0
 71
     1
 72
     1
  1
LINE WEIGHT: 1.00mm
  7
SLDTEXTSTYLE2
 73
     1
 44
1.0
  0
MTEXT
  5
250
330
249
100
AcDbEntity
  8
FORMAT
 62
     0
100
AcDbMText
 10
0.0
 20
-17.2144195455
 30
0.0
 40
6.35
 41
0.0
 71
     1
 72
     1
  1
PAPER SPEC:
  7
SLDTEXTSTYLE2
 73
     1
 44
1.0
  0
MTEXT
  5
251
330
249
100
AcDbEntity
  8
FORMAT
 62
     0
100
AcDbMText
 10
10.0
 20
-25.6810861098
 30
0.0
 40
6.35
 41
0.0
 71
     1
 72
     1
  1
70# OFFSET UNCOATED SHEET
  7
SLDTEXTSTYLE2
 73
     1
 44
1.0
  0
MTEXT
  5
252
330
249
100
AcDbEntity
  8
FORMAT
 62
     0
100
AcDbMText
 10
10.0
 20
-34.1477526742
 30
0.0
 40
6.35
 41
0.0
 71
     1
 72
     1
  1
BRIGHTNESS FACTOR- 86% OR HIGHER 
  7
SLDTEXTSTYLE2
 73
     1
 44
1.0
  0
ENDBLK
  5
24B
330
249
100
AcDbEntity
  8
0
100
AcDbBlockEnd
  0
BLOCK
  5
255
330
254
100
AcDbEntity
  8
0
100
AcDbBlockBegin
  2
SW_NOTE_3
 70
     0
 10
0.0
 20
0.0
 30
0.0
  3
SW_NOTE_3
  1

  0
MTEXT
  5
258
330
254
100
AcDbEntity
  8
G__TOTO
 62
     0
100
AcDbMText
 10
0.0
 20
9.5498435055
 30
0.0
 40
7.4083333333
 41
0.0
 71
     1
 72
     1
  1
       DRILL                          DEEP
  7
SLDTEXTSTYLE4
 73
     1
 44
1.0
  0
MTEXT
  5
25A
330
254
100
AcDbEntity
  8
G__TOTO
 62
     0
100
AcDbMText
 10
0.0
 20
-0.3279341529
 30
0.0
 40
7.4083333333
 41
0.0
 71
     1
 72
     1
  1
TALADRO                [5/8"]  PROFUNDAMENTE
  7
SLDTEXTSTYLE5
 73
     1
 44
1.0
  0
MTEXT
  5
25C
330
254
100
AcDbEntity
  8
G__TOTO
 62
     0
100
AcDbMText
 10
0.0
 20
-10.2057118113
 30
0.0
 40
7.4083333333
 41
0.0
 71
     1
 72
     1
  1
    FORET              x   16    PROFONDEMENT
  7
SLDTEXTSTYLE6
 73
     1
 44
1.0
  0
ENDBLK
  5
256
330
254
100
AcDbEntity
  8
0
100
AcDbBlockEnd
  0
BLOCK
  5
25F
330
25E
100
AcDbEntity
  8
0
100
AcDbBlockBegin
  2
SW_NOTE_4
 70
     0
 10
0.0
 20
0.0
 30
0.0
  3
SW_NOTE_4
  1

  0
MTEXT
  5
261
330
25E
100
AcDbEntity
  8
G__TOTO
 62
     0
100
AcDbMText
 10
-101.4681068829
 20
23.3294127456
 30
0.0
 40
7.4083333333
 41
0.0
 71
     1
 72
     1
  1
RIM OF LAVATORY
  7
SLDTEXTSTYLE2
 73
     1
 44
1.0
  0
MTEXT
  5
262
330
25E
100
AcDbEntity
  8
G__TOTO
 62
     0
100
AcDbMText
 10
-101.4681068829
 20
13.4516350872
 30
0.0
 40
7.4083333333
 41
0.0
 71
     1
 72
     1
  1
BORDE DEL LAVABO
  7
SLDTEXTSTYLE2
 73
     1
 44
1.0
  0
MTEXT
  5
263
330
25E
100
AcDbEntity
  8
G__TOTO
 62
     0
100
AcDbMText
 10
-101.4681068829
 20
3.5738574288
 30
0.0
 40
7.4083333333
 41
0.0
 71
     1
 72
     1
  1
REBORD DE LAVABO
  7
SLDTEXTSTYLE2
 73
     1
 44
1.0
  0
ENDBLK
  5
260
330
25E
100
AcDbEntity
  8
0
100
AcDbBlockEnd
  0
BLOCK
  5
268
330
267
100
AcDbEntity
  8
0
100
AcDbBlockBegin
  2
SW_NOTE_5
 70
     0
 10
0.0
 20
0.0
 30
0.0
  3
SW_NOTE_5
  1

  0
MTEXT
  5
26A
330
267
100
AcDbEntity
  8
G__TOTO
 62
     0
100
AcDbMText
 10
-182.1347486109
 20
23.3278181656
 30
0.0
 40
7.4083333333
 41
0.0
 71
     1
 72
     1
  1
MOUNTING HOLE ( 4 PLACES)
  7
SLDTEXTSTYLE2
 73
     1
 44
1.0
  0
MTEXT
  5
26B
330
267
100
AcDbEntity
  8
G__TOTO
 62
     0
100
AcDbMText
 10
-182.1347486109
 20
13.4500405072
 30
0.0
 40
7.4083333333
 41
0.0
 71
     1
 72
     1
  1
AGUJERO DE MONTAJE ( 4 LUGARES)
  7
SLDTEXTSTYLE2
 73
     1
 44
1.0
  0
MTEXT
  5
26C
330
267
100
AcDbEntity
  8
G__TOTO
 62
     0
100
AcDbMText
 10
-182.1347486109
 20
3.5722628488
 30
0.0
 40
7.4083333333
 41
0.0
 71
     1
 72
     1
  1
TROU POUR MONTAGE (4 ENDROITS)
  7
SLDTEXTSTYLE2
 73
     1
 44
1.0
  0
ENDBLK
  5
269
330
267
100
AcDbEntity
  8
0
100
AcDbBlockEnd
  0
BLOCK
  5
270
330
26F
100
AcDbEntity
  8
0
100
AcDbBlockBegin
  2
SW_NOTE_6
 70
     0
 10
0.0
 20
0.0
 30
0.0
  3
SW_NOTE_6
  1

  0
MTEXT
  5
272
330
26F
100
AcDbEntity
  8
G__TOTO
 62
     0
100
AcDbMText
 10
-189.2739266215
 20
23.3246109955
 30
0.0
 40
7.4083333333
 41
0.0
 71
     1
 72
     1
  1
CUT ALONG THIS LINE
  7
SLDTEXTSTYLE2
 73
     1
 44
1.0
  0
MTEXT
  5
273
330
26F
100
AcDbEntity
  8
G__TOTO
 62
     0
100
AcDbMText
 10
-189.2739266215
 20
13.4468333371
 30
0.0
 40
7.4083333333
 41
0.0
 71
     1
 72
     1
  1
CORTE A LO LARGO DE ESTA LINEA
  7
SLDTEXTSTYLE2
 73
     1
 44
1.0
  0
MTEXT
  5
274
330
26F
100
AcDbEntity
  8
G__TOTO
 62
     0
100
AcDbMText
 10
-189.2739266215
 20
3.5690556787
 30
0.0
 40
7.4083333333
 41
0.0
 71
     1
 72
     1
  1
DECOUPER AU LONG DE CETTE LIGNE
  7
SLDTEXTSTYLE2
 73
     1
 44
1.0
  0
ENDBLK
  5
271
330
26F
100
AcDbEntity
  8
0
100
AcDbBlockEnd
  0
BLOCK
  5
278
330
277
100
AcDbEntity
  8
0
100
AcDbBlockBegin
  2
SW_NOTE_7
 70
     0
 10
0.0
 20
0.0
 30
0.0
  3
SW_NOTE_7
  1

  0
MTEXT
  5
27A
330
277
100
AcDbEntity
  8
G__TOTO
 62
     0
100
AcDbMText
 10
0.0
 20
9.5498435055
 30
0.0
 40
7.4083333333
 41
0.0
 71
     1
 72
     1
  1
FOR ANCHOR APPLICATION
  7
SLDTEXTSTYLE2
 73
     1
 44
1.0
  0
MTEXT
  5
27B
330
277
100
AcDbEntity
  8
G__TOTO
 62
     0
100
AcDbMText
 10
-18.3836296201
 20
-0.3279341529
 30
0.0
 40
7.4083333333
 41
0.0
 71
     1
 72
     1
  1
PARA EL APLICACION DE LA ANCLA
  7
SLDTEXTSTYLE2
 73
     1
 44
1.0
  0
MTEXT
  5
27C
330
277
100
AcDbEntity
  8
G__TOTO
 62
     0
100
AcDbMText
 10
9.7611621022
 20
-10.2057118113
 30
0.0
 40
7.4083333333
 41
0.0
 71
     1
 72
     1
  1
POUR TIGE D'ANCRAGE
  7
SLDTEXTSTYLE2
 73
     1
 44
1.0
  0
ENDBLK
  5
279
330
277
100
AcDbEntity
  8
0
100
AcDbBlockEnd
  0
BLOCK
  5
280
330
27F
100
AcDbEntity
  8
0
100
AcDbBlockBegin
  2
SW_CENTERMARKSYMBOL_0
 70
     0
 10
0.0
 20
0.0
 30
0.0
  3
SW_CENTERMARKSYMBOL_0
  1

  0
LINE
  5
282
330
27F
100
AcDbEntity
  8
G__TOTO
 62
     0
100
AcDbLine
 10
0.0
 20
0.0
 30
0.0
 11
0.0
 21
2.5
 31
0.0
  0
LINE
  5
283
330
27F
100
AcDbEntity
  8
G__TOTO
 62
     0
100
AcDbLine
 10
0.0
 20
0.0
 30
0.0
 11
-2.5
 21
0.0
 31
0.0
  0
LINE
  5
284
330
27F
100
AcDbEntity
  8
G__TOTO
 62
     0
100
AcDbLine
 10
0.0
 20
0.0
 30
0.0
 11
0.0
 21
-2.5
 31
0.0
  0
LINE
  5
285
330
27F
100
AcDbEntity
  8
G__TOTO
 62
     0
100
AcDbLine
 10
0.0
 20
0.0
 30
0.0
 11
2.5
 21
0.0
 31
0.0
  0
LINE
  5
286
330
27F
100
AcDbEntity
  8
G__TOTO
 62
     0
100
AcDbLine
 10
0.0
 20
5.0
 30
0.0
 11
0.0
 21
7.2625
 31
0.0
  0
LINE
  5
287
330
27F
100
AcDbEntity
  8
G__TOTO
 62
     0
100
AcDbLine
 10
-5.0
 20
0.0
 30
0.0
 11
-7.2625
 21
0.0
 31
0.0
  0
LINE
  5
288
330
27F
100
AcDbEntity
  8
G__TOTO
 62
     0
100
AcDbLine
 10
0.0
 20
-5.0
 30
0.0
 11
0.0
 21
-7.2625
 31
0.0
  0
LINE
  5
289
330
27F
100
AcDbEntity
  8
G__TOTO
 62
     0
100
AcDbLine
 10
5.0
 20
0.0
 30
0.0
 11
7.2625
 21
0.0
 31
0.0
  0
ENDBLK
  5
281
330
27F
100
AcDbEntity
  8
0
100
AcDbBlockEnd
  0
BLOCK
  5
28C
330
28B
100
AcDbEntity
  8
0
100
AcDbBlockBegin
  2
SW_CENTERMARKSYMBOL_1
 70
     0
 10
0.0
 20
0.0
 30
0.0
  3
SW_CENTERMARKSYMBOL_1
  1

  0
LINE
  5
28E
330
28B
100
AcDbEntity
  8
G__TOTO
 62
     0
100
AcDbLine
 10
0.0
 20
0.0
 30
0.0
 11
0.0
 21
2.5
 31
0.0
  0
LINE
  5
28F
330
28B
100
AcDbEntity
  8
G__TOTO
 62
     0
100
AcDbLine
 10
0.0
 20
0.0
 30
0.0
 11
-2.5
 21
0.0
 31
0.0
  0
LINE
  5
290
330
28B
100
AcDbEntity
  8
G__TOTO
 62
     0
100
AcDbLine
 10
0.0
 20
0.0
 30
0.0
 11
0.0
 21
-2.5
 31
0.0
  0
LINE
  5
291
330
28B
100
AcDbEntity
  8
G__TOTO
 62
     0
100
AcDbLine
 10
0.0
 20
0.0
 30
0.0
 11
2.5
 21
0.0
 31
0.0
  0
LINE
  5
292
330
28B
100
AcDbEntity
  8
G__TOTO
 62
     0
100
AcDbLine
 10
0.0
 20
5.0
 30
0.0
 11
0.0
 21
7.2625
 31
0.0
  0
LINE
  5
293
330
28B
100
AcDbEntity
  8
G__TOTO
 62
     0
100
AcDbLine
 10
-5.0
 20
0.0
 30
0.0
 11
-7.2625
 21
0.0
 31
0.0
  0
LINE
  5
294
330
28B
100
AcDbEntity
  8
G__TOTO
 62
     0
100
AcDbLine
 10
0.0
 20
-5.0
 30
0.0
 11
0.0
 21
-7.2625
 31
0.0
  0
LINE
  5
295
330
28B
100
AcDbEntity
  8
G__TOTO
 62
     0
100
AcDbLine
 10
5.0
 20
0.0
 30
0.0
 11
7.2625
 21
0.0
 31
0.0
  0
ENDBLK
  5
28D
330
28B
100
AcDbEntity
  8
0
100
AcDbBlockEnd
  0
BLOCK
  5
298
330
297
100
AcDbEntity
  8
0
100
AcDbBlockBegin
  2
SW_CENTERMARKSYMBOL_2
 70
     0
 10
0.0
 20
0.0
 30
0.0
  3
SW_CENTERMARKSYMBOL_2
  1

  0
LINE
  5
29A
330
297
100
AcDbEntity
  8
G__TOTO
 62
     0
100
AcDbLine
 10
0.0
 20
0.0
 30
0.0
 11
0.0
 21
2.5
 31
0.0
  0
LINE
  5
29B
330
297
100
AcDbEntity
  8
G__TOTO
 62
     0
100
AcDbLine
 10
0.0
 20
0.0
 30
0.0
 11
-2.5
 21
0.0
 31
0.0
  0
LINE
  5
29C
330
297
100
AcDbEntity
  8
G__TOTO
 62
     0
100
AcDbLine
 10
0.0
 20
0.0
 30
0.0
 11
0.0
 21
-2.5
 31
0.0
  0
LINE
  5
29D
330
297
100
AcDbEntity
  8
G__TOTO
 62
     0
100
AcDbLine
 10
0.0
 20
0.0
 30
0.0
 11
2.5
 21
0.0
 31
0.0
  0
LINE
  5
29E
330
297
100
AcDbEntity
  8
G__TOTO
 62
     0
100
AcDbLine
 10
0.0
 20
5.0
 30
0.0
 11
0.0
 21
7.2625
 31
0.0
  0
LINE
  5
29F
330
297
100
AcDbEntity
  8
G__TOTO
 62
     0
100
AcDbLine
 10
-5.0
 20
0.0
 30
0.0
 11
-7.2625
 21
0.0
 31
0.0
  0
LINE
  5
2A0
330
297
100
AcDbEntity
  8
G__TOTO
 62
     0
100
AcDbLine
 10
0.0
 20
-5.0
 30
0.0
 11
0.0
 21
-7.2625
 31
0.0
  0
LINE
  5
2A1
330
297
100
AcDbEntity
  8
G__TOTO
 62
     0
100
AcDbLine
 10
5.0
 20
0.0
 30
0.0
 11
7.2625
 21
0.0
 31
0.0
  0
ENDBLK
  5
299
330
297
100
AcDbEntity
  8
0
100
AcDbBlockEnd
  0
BLOCK
  5
2A4
330
2A3
100
AcDbEntity
  8
0
100
AcDbBlockBegin
  2
SW_CENTERMARKSYMBOL_3
 70
     0
 10
0.0
 20
0.0
 30
0.0
  3
SW_CENTERMARKSYMBOL_3
  1

  0
LINE
  5
2A6
330
2A3
100
AcDbEntity
  8
G__TOTO
 62
     0
100
AcDbLine
 10
0.0
 20
0.0
 30
0.0
 11
0.0
 21
2.5
 31
0.0
  0
LINE
  5
2A7
330
2A3
100
AcDbEntity
  8
G__TOTO
 62
     0
100
AcDbLine
 10
0.0
 20
0.0
 30
0.0
 11
-2.5
 21
0.0
 31
0.0
  0
LINE
  5
2A8
330
2A3
100
AcDbEntity
  8
G__TOTO
 62
     0
100
AcDbLine
 10
0.0
 20
0.0
 30
0.0
 11
0.0
 21
-2.5
 31
0.0
  0
LINE
  5
2A9
330
2A3
100
AcDbEntity
  8
G__TOTO
 62
     0
100
AcDbLine
 10
0.0
 20
0.0
 30
0.0
 11
2.5
 21
0.0
 31
0.0
  0
LINE
  5
2AA
330
2A3
100
AcDbEntity
  8
G__TOTO
 62
     0
100
AcDbLine
 10
0.0
 20
2.5
 30
0.0
 11
0.0
 21
2.5795590241
 31
0.0
  0
LINE
  5
2AB
330
2A3
100
AcDbEntity
  8
G__TOTO
 62
     0
100
AcDbLine
 10
-2.5
 20
0.0
 30
0.0
 11
-2.55
 21
0.0
 31
0.0
  0
LINE
  5
2AC
330
2A3
100
AcDbEntity
  8
G__TOTO
 62
     0
100
AcDbLine
 10
0.0
 20
-2.5
 30
0.0
 11
0.0
 21
-2.55
 31
0.0
  0
LINE
  5
2AD
330
2A3
100
AcDbEntity
  8
G__TOTO
 62
     0
100
AcDbLine
 10
2.5
 20
0.0
 30
0.0
 11
2.55
 21
0.0
 31
0.0
  0
ENDBLK
  5
2A5
330
2A3
100
AcDbEntity
  8
0
100
AcDbBlockEnd
  0
BLOCK
  5
2B0
330
2AF
100
AcDbEntity
  8
0
100
AcDbBlockBegin
  2
SW_CENTERMARKSYMBOL_4
 70
     0
 10
0.0
 20
0.0
 30
0.0
  3
SW_CENTERMARKSYMBOL_4
  1

  0
LINE
  5
2B2
330
2AF
100
AcDbEntity
  8
G__TOTO
 62
     0
100
AcDbLine
 10
0.0
 20
0.0
 30
0.0
 11
0.0
 21
2.5
 31
0.0
  0
LINE
  5
2B3
330
2AF
100
AcDbEntity
  8
G__TOTO
 62
     0
100
AcDbLine
 10
0.0
 20
0.0
 30
0.0
 11
-2.5
 21
0.0
 31
0.0
  0
LINE
  5
2B4
330
2AF
100
AcDbEntity
  8
G__TOTO
 62
     0
100
AcDbLine
 10
0.0
 20
0.0
 30
0.0
 11
0.0
 21
-2.5
 31
0.0
  0
LINE
  5
2B5
330
2AF
100
AcDbEntity
  8
G__TOTO
 62
     0
100
AcDbLine
 10
0.0
 20
0.0
 30
0.0
 11
2.5
 21
0.0
 31
0.0
  0
LINE
  5
2B6
330
2AF
100
AcDbEntity
  8
G__TOTO
 62
     0
100
AcDbLine
 10
0.0
 20
5.0
 30
0.0
 11
0.0
 21
24.5
 31
0.0
  0
LINE
  5
2B7
330
2AF
100
AcDbEntity
  8
G__TOTO
 62
     0
100
AcDbLine
 10
-5.0
 20
0.0
 30
0.0
 11
-24.5
 21
0.0
 31
0.0
  0
LINE
  5
2B8
330
2AF
100
AcDbEntity
  8
G__TOTO
 62
     0
100
AcDbLine
 10
0.0
 20
-5.0
 30
0.0
 11
0.0
 21
-24.5
 31
0.0
  0
LINE
  5
2B9
330
2AF
100
AcDbEntity
  8
G__TOTO
 62
     0
100
AcDbLine
 10
5.0
 20
0.0
 30
0.0
 11
24.5
 21
0.0
 31
0.0
  0
ENDBLK
  5
2B1
330
2AF
100
AcDbEntity
  8
0
100
AcDbBlockEnd
  0
ENDSEC
  0
SECTION
  2
ENTITIES
  0
INSERT
  5
CE
330
1F
100
AcDbEntity
  8
0
  6
Continuous
 62
     7
100
AcDbBlockReference
  2
Block1
 10
835.2278241291
 20
102.6795728574
 30
0.0
 41
0.1
 42
0.1
 43
0.1
  0
INSERT
  5
D5
330
1F
100
AcDbEntity
  8
SLD-0
 62
   179
100
AcDbBlockReference
  2
SW_NOTE_1
 10
787.0673659316
 20
110.1790110167
 30
0.0
  0
ELLIPSE
  5
D6
330
1F
100
AcDbEntity
  8
0
  6
Continuous
 62
     7
370
    15
100
AcDbEllipse
 10
449.8048420922
 20
379.1134171726
 30
0.0
 11
209.55
 21
-1.705302565824240E-13
 31
0.0
210
0.0
220
0.0
230
1.0
 40
0.8181818182
 41
0.0
 42
6.283185307179586
  0
LINE
  5
D7
330
1F
100
AcDbEntity
  8
0
  6
Continuous
 62
     7
370
    30
100
AcDbLine
 10
9.0842953711
 20
670.9612428187
 30
0.0
 11
898.0842953711
 21
670.9612428187
 31
0.0
  0
LINE
  5
D8
330
1F
100
AcDbEntity
  8
0
  6
Continuous
 62
     7
370
    30
100
AcDbLine
 10
9.0842953711
 20
670.9612428187
 30
0.0
 11
9.0842953711
 21
86.7612428187
 31
0.0
  0
LINE
  5
D9
330
1F
100
AcDbEntity
  8
0
  6
Continuous
 62
     7
370
    30
100
AcDbLine
 10
9.0842953711
 20
86.7612428187
 30
0.0
 11
898.0842953711
 21
86.7612428187
 31
0.0
  0
LINE
  5
DA
330
1F
100
AcDbEntity
  8
0
  6
Continuous
 62
     7
370
    30
100
AcDbLine
 10
898.0842953711
 20
670.9612428187
 30
0.0
 11
898.0842953711
 21
86.7612428187
 31
0.0
  0
LINE
  5
DB
330
1F
100
AcDbEntity
  8
FORMAT
100
AcDbLine
 10
787.0768032209
 20
152.8116630515
 30
0.0
 11
788.8967979314
 21
152.8116630515
 31
0.0
  0
LINE
  5
DC
330
1F
100
AcDbEntity
  8
FORMAT
100
AcDbLine
 10
792.9672355824
 20
148.7403685564
 30
0.0
 11
792.9670048556
 21
147.6441853889
 31
0.0
  0
LINE
  5
DD
330
1F
100
AcDbEntity
  8
FORMAT
100
AcDbLine
 10
792.9670048556
 20
147.6441853889
 30
0.0
 11
795.3788941352
 21
147.6441853889
 31
0.0
  0
LINE
  5
DE
330
1F
100
AcDbEntity
  8
FORMAT
100
AcDbLine
 10
795.3788941352
 20
147.6441853889
 30
0.0
 11
795.3804894555
 21
155.2235522776
 31
0.0
  0
LINE
  5
DF
330
1F
100
AcDbEntity
  8
FORMAT
100
AcDbLine
 10
795.3804894555
 20
155.2235522776
 30
0.0
 11
773.8808450809
 21
155.2235522776
 31
0.0
  0
LINE
  5
E0
330
1F
100
AcDbEntity
  8
FORMAT
100
AcDbLine
 10
773.8808450809
 20
155.2235522776
 30
0.0
 11
773.8806880557
 21
147.6441853889
 31
0.0
  0
LINE
  5
E1
330
1F
100
AcDbEntity
  8
FORMAT
100
AcDbLine
 10
773.8806880557
 20
147.6441853889
 30
0.0
 11
776.2920975933
 21
147.6441853889
 31
0.0
  0
LINE
  5
E2
330
1F
100
AcDbEntity
  8
FORMAT
100
AcDbLine
 10
776.2920975933
 20
147.6441853889
 30
0.0
 11
776.2923286808
 21
148.7420820642
 31
0.0
  0
LINE
  5
E3
330
1F
100
AcDbEntity
  8
FORMAT
100
AcDbLine
 10
780.3627663318
 20
152.8116630515
 30
0.0
 11
782.1845845483
 21
152.8116630515
 31
0.0
  0
LINE
  5
E4
330
1F
100
AcDbEntity
  8
FORMAT
100
AcDbLine
 10
782.1845845483
 20
152.8116630515
 30
0.0
 11
782.1816138612
 21
139.1682726979
 31
0.0
  0
LINE
  5
E5
330
1F
100
AcDbEntity
  8
FORMAT
100
AcDbLine
 10
780.6654407817
 20
137.6524297112
 30
0.0
 11
778.0813717604
 21
137.6524297112
 31
0.0
  0
LINE
  5
E6
330
1F
100
AcDbEntity
  8
FORMAT
100
AcDbLine
 10
778.0813717604
 20
137.6524297112
 30
0.0
 11
778.0808466
 21
135.2405404851
 31
0.0
  0
LINE
  5
E7
330
1F
100
AcDbEntity
  8
FORMAT
100
AcDbLine
 10
778.0808466
 20
135.2405404851
 30
0.0
 11
791.1728893604
 21
135.2405404851
 31
0.0
  0
LINE
  5
E8
330
1F
100
AcDbEntity
  8
FORMAT
100
AcDbLine
 10
791.1728893604
 20
135.2405404851
 30
0.0
 11
791.1734145208
 21
137.6524297112
 31
0.0
  0
LINE
  5
E9
330
1F
100
AcDbEntity
  8
FORMAT
100
AcDbLine
 10
791.1734145208
 20
137.6524297112
 30
0.0
 11
788.5900057571
 21
137.6524297112
 31
0.0
  0
LINE
  5
EA
330
1F
100
AcDbEntity
  8
FORMAT
100
AcDbLine
 10
787.0738326776
 20
139.1689329555
 30
0.0
 11
787.0768032209
 21
152.8116630515
 31
0.0
  0
LINE
  5
EB
330
1F
100
AcDbEntity
  8
FORMAT
100
AcDbLine
 10
838.6272722891
 20
152.8116630515
 30
0.0
 11
840.4472669996
 21
152.8116630515
 31
0.0
  0
LINE
  5
EC
330
1F
100
AcDbEntity
  8
FORMAT
100
AcDbLine
 10
844.5177046506
 20
148.7403685564
 30
0.0
 11
844.5174739238
 21
147.6441853889
 31
0.0
  0
LINE
  5
ED
330
1F
100
AcDbEntity
  8
FORMAT
100
AcDbLine
 10
844.5174739238
 20
147.6441853889
 30
0.0
 11
846.9293632034
 21
147.6441853889
 31
0.0
  0
LINE
  5
EE
330
1F
100
AcDbEntity
  8
FORMAT
100
AcDbLine
 10
846.9293632034
 20
147.6441853889
 30
0.0
 11
846.9309585237
 21
155.2235522776
 31
0.0
  0
LINE
  5
EF
330
1F
100
AcDbEntity
  8
FORMAT
100
AcDbLine
 10
846.9309585237
 20
155.2235522776
 30
0.0
 11
825.4313141491
 21
155.2235522776
 31
0.0
  0
LINE
  5
F0
330
1F
100
AcDbEntity
  8
FORMAT
100
AcDbLine
 10
825.4313141491
 20
155.2235522776
 30
0.0
 11
825.4311571239
 21
147.6441853889
 31
0.0
  0
LINE
  5
F1
330
1F
100
AcDbEntity
  8
FORMAT
100
AcDbLine
 10
825.4311571239
 20
147.6441853889
 30
0.0
 11
827.8425666615
 21
147.6441853889
 31
0.0
  0
LINE
  5
F2
330
1F
100
AcDbEntity
  8
FORMAT
100
AcDbLine
 10
827.8425666615
 20
147.6441853889
 30
0.0
 11
827.842797749
 21
148.7420820642
 31
0.0
  0
LINE
  5
F3
330
1F
100
AcDbEntity
  8
FORMAT
100
AcDbLine
 10
831.9132354
 20
152.8116630515
 30
0.0
 11
833.7350536165
 21
152.8116630515
 31
0.0
  0
LINE
  5
F4
330
1F
100
AcDbEntity
  8
FORMAT
100
AcDbLine
 10
833.7350536165
 20
152.8116630515
 30
0.0
 11
833.7320829294
 21
139.1682726979
 31
0.0
  0
LINE
  5
F5
330
1F
100
AcDbEntity
  8
FORMAT
100
AcDbLine
 10
832.2159098499
 20
137.6524297112
 30
0.0
 11
829.6318408285
 21
137.6524297112
 31
0.0
  0
LINE
  5
F6
330
1F
100
AcDbEntity
  8
FORMAT
100
AcDbLine
 10
829.6318408285
 20
137.6524297112
 30
0.0
 11
829.6313156682
 21
135.2405404851
 31
0.0
  0
LINE
  5
F7
330
1F
100
AcDbEntity
  8
FORMAT
100
AcDbLine
 10
829.6313156682
 20
135.2405404851
 30
0.0
 11
842.7233584286
 21
135.2405404851
 31
0.0
  0
LINE
  5
F8
330
1F
100
AcDbEntity
  8
FORMAT
100
AcDbLine
 10
842.7233584286
 20
135.2405404851
 30
0.0
 11
842.723883589
 21
137.6524297112
 31
0.0
  0
LINE
  5
F9
330
1F
100
AcDbEntity
  8
FORMAT
100
AcDbLine
 10
842.723883589
 20
137.6524297112
 30
0.0
 11
840.1404748253
 21
137.6524297112
 31
0.0
  0
LINE
  5
FA
330
1F
100
AcDbEntity
  8
FORMAT
100
AcDbLine
 10
838.6243017458
 20
139.1689329555
 30
0.0
 11
838.6272722891
 21
152.8116630515
 31
0.0
  0
LINE
  5
FB
330
1F
100
AcDbEntity
  8
FORMAT
100
AcDbLine
 10
876.7728829202
 20
138.3312625998
 30
0.0
 11
876.78904593
 21
138.3310411595
 31
0.0
  0
LINE
  5
FC
330
1F
100
AcDbEntity
  8
FORMAT
100
AcDbLine
 10
876.78904593
 20
138.3310411595
 30
0.0
 11
876.8222584232
 21
138.3299339577
 31
0.0
  0
LINE
  5
FD
330
1F
100
AcDbEntity
  8
FORMAT
100
AcDbLine
 10
876.8222584232
 20
138.3299339577
 30
0.0
 11
876.8543637146
 21
138.3274988258
 31
0.0
  0
LINE
  5
FE
330
1F
100
AcDbEntity
  8
FORMAT
100
AcDbLine
 10
876.8543637146
 20
138.3274988258
 30
0.0
 11
876.8858039729
 21
138.3239557801
 31
0.0
  0
LINE
  5
FF
330
1F
100
AcDbEntity
  8
FORMAT
100
AcDbLine
 10
876.8858039729
 20
138.3239557801
 30
0.0
 11
876.9161377415
 21
138.3190848043
 31
0.0
  0
LINE
  5
100
330
1F
100
AcDbEntity
  8
FORMAT
100
AcDbLine
 10
876.9161377415
 20
138.3190848043
 30
0.0
 11
876.945807901
 21
138.3128851864
 31
0.0
  0
LINE
  5
101
330
1F
100
AcDbEntity
  8
FORMAT
100
AcDbLine
 10
876.945807901
 20
138.3128851864
 30
0.0
 11
876.9745915871
 21
138.3057998071
 31
0.0
  0
LINE
  5
102
330
1F
100
AcDbEntity
  8
FORMAT
100
AcDbLine
 10
876.9745915871
 20
138.3057998071
 30
0.0
 11
877.0022680714
 21
138.2971643452
 31
0.0
  0
LINE
  5
103
330
1F
100
AcDbEntity
  8
FORMAT
100
AcDbLine
 10
877.0022680714
 20
138.2971643452
 30
0.0
 11
877.0292809466
 21
138.2874223936
 31
0.0
  0
LINE
  5
104
330
1F
100
AcDbEntity
  8
FORMAT
100
AcDbLine
 10
877.0292809466
 20
138.2874223936
 30
0.0
 11
877.0554080605
 21
138.2765732403
 31
0.0
  0
LINE
  5
105
330
1F
100
AcDbEntity
  8
FORMAT
100
AcDbLine
 10
877.0554080605
 20
138.2765732403
 30
0.0
 11
877.0806494129
 21
138.2643954448
 31
0.0
  0
LINE
  5
106
330
1F
100
AcDbEntity
  8
FORMAT
100
AcDbLine
 10
877.0806494129
 20
138.2643954448
 30
0.0
 11
877.1050050039
 21
138.2511104475
 31
0.0
  0
LINE
  5
107
330
1F
100
AcDbEntity
  8
FORMAT
100
AcDbLine
 10
877.1050050039
 20
138.2511104475
 30
0.0
 11
877.1282533931
 21
138.2364968081
 31
0.0
  0
LINE
  5
108
330
1F
100
AcDbEntity
  8
FORMAT
100
AcDbLine
 10
877.1282533931
 20
138.2364968081
 30
0.0
 11
877.1508374613
 21
138.2207766789
 31
0.0
  0
LINE
  5
109
330
1F
100
AcDbEntity
  8
FORMAT
100
AcDbLine
 10
877.1508374613
 20
138.2207766789
 30
0.0
 11
877.17253648
 21
138.2037279076
 31
0.0
  0
LINE
  5
10A
330
1F
100
AcDbEntity
  8
FORMAT
100
AcDbLine
 10
877.17253648
 20
138.2037279076
 30
0.0
 11
877.1906924531
 21
138.1873427454
 31
0.0
  0
LINE
  5
10B
330
1F
100
AcDbEntity
  8
FORMAT
100
AcDbLine
 10
877.1906924531
 20
138.1873427454
 30
0.0
 11
877.2108406773
 21
138.1669730808
 31
0.0
  0
LINE
  5
10C
330
1F
100
AcDbEntity
  8
FORMAT
100
AcDbLine
 10
877.2108406773
 20
138.1669730808
 30
0.0
 11
877.2292180907
 21
138.1454955024
 31
0.0
  0
LINE
  5
10D
330
1F
100
AcDbEntity
  8
FORMAT
100
AcDbLine
 10
877.2292180907
 20
138.1454955024
 30
0.0
 11
877.2460461337
 21
138.1231328746
 31
0.0
  0
LINE
  5
10E
330
1F
100
AcDbEntity
  8
FORMAT
100
AcDbLine
 10
877.2460461337
 20
138.1231328746
 30
0.0
 11
877.2613233821
 21
138.099663045
 31
0.0
  0
LINE
  5
10F
330
1F
100
AcDbEntity
  8
FORMAT
100
AcDbLine
 10
877.2613233821
 20
138.099663045
 30
0.0
 11
877.2750512601
 21
138.075307454
 31
0.0
  0
LINE
  5
110
330
1F
100
AcDbEntity
  8
FORMAT
100
AcDbLine
 10
877.2750512601
 20
138.075307454
 30
0.0
 11
877.2870076153
 21
138.0498446613
 31
0.0
  0
LINE
  5
111
330
1F
100
AcDbEntity
  8
FORMAT
100
AcDbLine
 10
877.2870076153
 20
138.0498446613
 30
0.0
 11
877.2974138879
 21
138.0232746667
 31
0.0
  0
LINE
  5
112
330
1F
100
AcDbEntity
  8
FORMAT
100
AcDbLine
 10
877.2974138879
 20
138.0232746667
 30
0.0
 11
877.3062707901
 21
137.9958196228
 31
0.0
  0
LINE
  5
113
330
1F
100
AcDbEntity
  8
FORMAT
100
AcDbLine
 10
877.3062707901
 20
137.9958196228
 30
0.0
 11
877.3133561695
 21
137.9674781054
 31
0.0
  0
LINE
  5
114
330
1F
100
AcDbEntity
  8
FORMAT
100
AcDbLine
 10
877.3133561695
 20
137.9674781054
 30
0.0
 11
877.3191129067
 21
137.9378086579
 31
0.0
  0
LINE
  5
115
330
1F
100
AcDbEntity
  8
FORMAT
100
AcDbLine
 10
877.3191129067
 20
137.9378086579
 30
0.0
 11
877.3230981211
 21
137.9074748893
 31
0.0
  0
LINE
  5
116
330
1F
100
AcDbEntity
  8
FORMAT
100
AcDbLine
 10
877.3230981211
 20
137.9074748893
 30
0.0
 11
877.325533965
 21
137.8758124786
 31
0.0
  0
LINE
  5
117
330
1F
100
AcDbEntity
  8
FORMAT
100
AcDbLine
 10
877.325533965
 20
137.8758124786
 30
0.0
 11
877.326198286
 21
137.8432650185
 31
0.0
  0
LINE
  5
118
330
1F
100
AcDbEntity
  8
FORMAT
100
AcDbLine
 10
877.326198286
 20
137.8432650185
 30
0.0
 11
877.3259768457
 21
137.8195730366
 31
0.0
  0
LINE
  5
119
330
1F
100
AcDbEntity
  8
FORMAT
100
AcDbLine
 10
877.3259768457
 20
137.8195730366
 30
0.0
 11
877.3250910843
 21
137.785475494
 31
0.0
  0
LINE
  5
11A
330
1F
100
AcDbEntity
  8
FORMAT
100
AcDbLine
 10
877.3250910843
 20
137.785475494
 30
0.0
 11
877.3230981211
 21
137.7524844412
 31
0.0
  0
LINE
  5
11B
330
1F
100
AcDbEntity
  8
FORMAT
100
AcDbLine
 10
877.3230981211
 20
137.7524844412
 30
0.0
 11
877.3199986681
 21
137.7206013021
 31
0.0
  0
LINE
  5
11C
330
1F
100
AcDbEntity
  8
FORMAT
100
AcDbLine
 10
877.3199986681
 20
137.7206013021
 30
0.0
 11
877.3162341821
 21
137.6896032125
 31
0.0
  0
LINE
  5
11D
330
1F
100
AcDbEntity
  8
FORMAT
100
AcDbLine
 10
877.3162341821
 20
137.6896032125
 30
0.0
 11
877.3115846466
 21
137.6594908843
 31
0.0
  0
LINE
  5
11E
330
1F
100
AcDbEntity
  8
FORMAT
100
AcDbLine
 10
877.3115846466
 20
137.6594908843
 30
0.0
 11
877.3058279094
 21
137.6307064862
 31
0.0
  0
LINE
  5
11F
330
1F
100
AcDbEntity
  8
FORMAT
100
AcDbLine
 10
877.3058279094
 20
137.6307064862
 30
0.0
 11
877.2994068511
 21
137.6025871212
 31
0.0
  0
LINE
  5
120
330
1F
100
AcDbEntity
  8
FORMAT
100
AcDbLine
 10
877.2994068511
 20
137.6025871212
 30
0.0
 11
877.2918785911
 21
137.5757956863
 31
0.0
  0
LINE
  5
121
330
1F
100
AcDbEntity
  8
FORMAT
100
AcDbLine
 10
877.2918785911
 20
137.5757956863
 30
0.0
 11
877.2834652816
 21
137.5498900128
 31
0.0
  0
LINE
  5
122
330
1F
100
AcDbEntity
  8
FORMAT
100
AcDbLine
 10
877.2834652816
 20
137.5498900128
 30
0.0
 11
877.2741654987
 21
137.5248701007
 31
0.0
  0
LINE
  5
123
330
1F
100
AcDbEntity
  8
FORMAT
100
AcDbLine
 10
877.2741654987
 20
137.5248701007
 30
0.0
 11
877.2639806664
 21
137.5011788308
 31
0.0
  0
LINE
  5
124
330
1F
100
AcDbEntity
  8
FORMAT
100
AcDbLine
 10
877.2639806664
 20
137.5011788308
 30
0.0
 11
877.2529100727
 21
137.478151882
 31
0.0
  0
LINE
  5
125
330
1F
100
AcDbEntity
  8
FORMAT
100
AcDbLine
 10
877.2529100727
 20
137.478151882
 30
0.0
 11
877.2407315652
 21
137.4564535752
 31
0.0
  0
LINE
  5
126
330
1F
100
AcDbEntity
  8
FORMAT
100
AcDbLine
 10
877.2407315652
 20
137.4564535752
 30
0.0
 11
877.2278901606
 21
137.4356403179
 31
0.0
  0
LINE
  5
127
330
1F
100
AcDbEntity
  8
FORMAT
100
AcDbLine
 10
877.2278901606
 20
137.4356403179
 30
0.0
 11
877.2139408423
 21
137.415712822
 31
0.0
  0
LINE
  5
128
330
1F
100
AcDbEntity
  8
FORMAT
100
AcDbLine
 10
877.2139408423
 20
137.415712822
 30
0.0
 11
877.1993272029
 21
137.3968925278
 31
0.0
  0
LINE
  5
129
330
1F
100
AcDbEntity
  8
FORMAT
100
AcDbLine
 10
877.1993272029
 20
137.3968925278
 30
0.0
 11
877.1836070737
 21
137.3791794355
 31
0.0
  0
LINE
  5
12A
330
1F
100
AcDbEntity
  8
FORMAT
100
AcDbLine
 10
877.1836070737
 20
137.3791794355
 30
0.0
 11
877.1670011832
 21
137.3625735449
 31
0.0
  0
LINE
  5
12B
330
1F
100
AcDbEntity
  8
FORMAT
100
AcDbLine
 10
877.1670011832
 20
137.3625735449
 30
0.0
 11
877.1495088191
 21
137.3466319754
 31
0.0
  0
LINE
  5
12C
330
1F
100
AcDbEntity
  8
FORMAT
100
AcDbLine
 10
877.1495088191
 20
137.3466319754
 30
0.0
 11
877.1311314057
 21
137.332018336
 31
0.0
  0
LINE
  5
12D
330
1F
100
AcDbEntity
  8
FORMAT
100
AcDbLine
 10
877.1311314057
 20
137.332018336
 30
0.0
 11
877.1116475025
 21
137.318290458
 31
0.0
  0
LINE
  5
12E
330
1F
100
AcDbEntity
  8
FORMAT
100
AcDbLine
 10
877.1116475025
 20
137.318290458
 30
0.0
 11
877.0914985663
 21
137.3056697818
 31
0.0
  0
LINE
  5
12F
330
1F
100
AcDbEntity
  8
FORMAT
100
AcDbLine
 10
877.0914985663
 20
137.3056697818
 30
0.0
 11
877.0702424282
 21
137.293934867
 31
0.0
  0
LINE
  5
130
330
1F
100
AcDbEntity
  8
FORMAT
100
AcDbLine
 10
877.0702424282
 20
137.293934867
 30
0.0
 11
877.0483226811
 21
137.283307154
 31
0.0
  0
LINE
  5
131
330
1F
100
AcDbEntity
  8
FORMAT
100
AcDbLine
 10
877.0483226811
 20
137.283307154
 30
0.0
 11
877.0252957323
 21
137.2735644904
 31
0.0
  0
LINE
  5
132
330
1F
100
AcDbEntity
  8
FORMAT
100
AcDbLine
 10
877.0252957323
 20
137.2735644904
 30
0.0
 11
877.001383022
 21
137.2649297406
 31
0.0
  0
LINE
  5
133
330
1F
100
AcDbEntity
  8
FORMAT
100
AcDbLine
 10
877.001383022
 20
137.2649297406
 30
0.0
 11
876.9765845503
 21
137.2574014805
 31
0.0
  0
LINE
  5
134
330
1F
100
AcDbEntity
  8
FORMAT
100
AcDbLine
 10
876.9765845503
 20
137.2574014805
 30
0.0
 11
876.9509003172
 21
137.2507589819
 31
0.0
  0
LINE
  5
135
330
1F
100
AcDbEntity
  8
FORMAT
100
AcDbLine
 10
876.9509003172
 20
137.2507589819
 30
0.0
 11
876.9241088823
 21
137.245223685
 31
0.0
  0
LINE
  5
136
330
1F
100
AcDbEntity
  8
FORMAT
100
AcDbLine
 10
876.9241088823
 20
137.245223685
 30
0.0
 11
876.8966538383
 21
137.2405741496
 31
0.0
  0
LINE
  5
137
330
1F
100
AcDbEntity
  8
FORMAT
100
AcDbLine
 10
876.8966538383
 20
137.2405741496
 30
0.0
 11
876.8680908806
 21
137.2370311039
 31
0.0
  0
LINE
  5
138
330
1F
100
AcDbEntity
  8
FORMAT
100
AcDbLine
 10
876.8680908806
 20
137.2370311039
 30
0.0
 11
876.8388643138
 21
137.234595972
 31
0.0
  0
LINE
  5
139
330
1F
100
AcDbEntity
  8
FORMAT
100
AcDbLine
 10
876.8388643138
 20
137.234595972
 30
0.0
 11
876.8085305452
 21
137.2330458895
 31
0.0
  0
LINE
  5
13A
330
1F
100
AcDbEntity
  8
FORMAT
100
AcDbLine
 10
876.8085305452
 20
137.2330458895
 30
0.0
 11
876.7773110153
 21
137.2323815685
 31
0.0
  0
LINE
  5
13B
330
1F
100
AcDbEntity
  8
FORMAT
100
AcDbLine
 10
876.7773110153
 20
137.2323815685
 30
0.0
 11
875.7014576448
 21
137.2323815685
 31
0.0
  0
LINE
  5
13C
330
1F
100
AcDbEntity
  8
FORMAT
100
AcDbLine
 10
875.7014576448
 20
137.2323815685
 30
0.0
 11
875.7014576448
 21
138.3312625998
 31
0.0
  0
LINE
  5
13D
330
1F
100
AcDbEntity
  8
FORMAT
100
AcDbLine
 10
875.7014576448
 20
138.3312625998
 30
0.0
 11
876.7728829202
 21
138.3312625998
 31
0.0
  0
LINE
  5
13E
330
1F
100
AcDbEntity
  8
FORMAT
100
AcDbLine
 10
877.4160923899
 20
137.0067601912
 30
0.0
 11
877.3866443828
 21
137.0286799382
 31
0.0
  0
LINE
  5
13F
330
1F
100
AcDbEntity
  8
FORMAT
100
AcDbLine
 10
877.3866443828
 20
137.0286799382
 30
0.0
 11
877.3552034125
 21
137.0512647184
 31
0.0
  0
LINE
  5
140
330
1F
100
AcDbEntity
  8
FORMAT
100
AcDbLine
 10
877.3552034125
 20
137.0512647184
 30
0.0
 11
877.3219909193
 21
137.0742916673
 31
0.0
  0
LINE
  5
141
330
1F
100
AcDbEntity
  8
FORMAT
100
AcDbLine
 10
877.3219909193
 20
137.0742916673
 30
0.0
 11
877.3414755345
 21
137.088462426
 31
0.0
  0
LINE
  5
142
330
1F
100
AcDbEntity
  8
FORMAT
100
AcDbLine
 10
877.3414755345
 20
137.088462426
 30
0.0
 11
877.3684884098
 21
137.1090535309
 31
0.0
  0
LINE
  5
143
330
1F
100
AcDbEntity
  8
FORMAT
100
AcDbLine
 10
877.3684884098
 20
137.1090535309
 30
0.0
 11
877.3943933712
 21
137.1296453479
 31
0.0
  0
LINE
  5
144
330
1F
100
AcDbEntity
  8
FORMAT
100
AcDbLine
 10
877.3943933712
 20
137.1296453479
 30
0.0
 11
877.4194132833
 21
137.1506800456
 31
0.0
  0
LINE
  5
145
330
1F
100
AcDbEntity
  8
FORMAT
100
AcDbLine
 10
877.4194132833
 20
137.1506800456
 30
0.0
 11
877.4435474339
 21
137.1719354716
 31
0.0
  0
LINE
  5
146
330
1F
100
AcDbEntity
  8
FORMAT
100
AcDbLine
 10
877.4435474339
 20
137.1719354716
 30
0.0
 11
877.4667965352
 21
137.19341305
 31
0.0
  0
LINE
  5
147
330
1F
100
AcDbEntity
  8
FORMAT
100
AcDbLine
 10
877.4667965352
 20
137.19341305
 30
0.0
 11
877.4889377226
 21
137.2151113567
 31
0.0
  0
LINE
  5
148
330
1F
100
AcDbEntity
  8
FORMAT
100
AcDbLine
 10
877.4889377226
 20
137.2151113567
 30
0.0
 11
877.5101938606
 21
137.2372525442
 31
0.0
  0
LINE
  5
149
330
1F
100
AcDbEntity
  8
FORMAT
100
AcDbLine
 10
877.5101938606
 20
137.2372525442
 30
0.0
 11
877.5305635252
 21
137.259615884
 31
0.0
  0
LINE
  5
14A
330
1F
100
AcDbEntity
  8
FORMAT
100
AcDbLine
 10
877.5305635252
 20
137.259615884
 30
0.0
 11
877.5500481404
 21
137.2821999521
 31
0.0
  0
LINE
  5
14B
330
1F
100
AcDbEntity
  8
FORMAT
100
AcDbLine
 10
877.5500481404
 20
137.2821999521
 30
0.0
 11
877.5684255539
 21
137.3050054606
 31
0.0
  0
LINE
  5
14C
330
1F
100
AcDbEntity
  8
FORMAT
100
AcDbLine
 10
877.5684255539
 20
137.3050054606
 30
0.0
 11
877.5859172059
 21
137.3282545619
 31
0.0
  0
LINE
  5
14D
330
1F
100
AcDbEntity
  8
FORMAT
100
AcDbLine
 10
877.5859172059
 20
137.3282545619
 30
0.0
 11
877.6025230964
 21
137.3515029511
 31
0.0
  0
LINE
  5
14E
330
1F
100
AcDbEntity
  8
FORMAT
100
AcDbLine
 10
877.6025230964
 20
137.3515029511
 30
0.0
 11
877.6180224973
 21
137.375194221
 31
0.0
  0
LINE
  5
14F
330
1F
100
AcDbEntity
  8
FORMAT
100
AcDbLine
 10
877.6180224973
 20
137.375194221
 30
0.0
 11
877.6326361367
 21
137.3991069313
 31
0.0
  0
LINE
  5
150
330
1F
100
AcDbEntity
  8
FORMAT
100
AcDbLine
 10
877.6326361367
 20
137.3991069313
 30
0.0
 11
877.6463633026
 21
137.4234625223
 31
0.0
  0
LINE
  5
151
330
1F
100
AcDbEntity
  8
FORMAT
100
AcDbLine
 10
877.6463633026
 20
137.4234625223
 30
0.0
 11
877.6592054192
 21
137.4478181133
 31
0.0
  0
LINE
  5
152
330
1F
100
AcDbEntity
  8
FORMAT
100
AcDbLine
 10
877.6592054192
 20
137.4478181133
 30
0.0
 11
877.670940334
 21
137.472616585
 31
0.0
  0
LINE
  5
153
330
1F
100
AcDbEntity
  8
FORMAT
100
AcDbLine
 10
877.670940334
 20
137.472616585
 30
0.0
 11
877.6817901994
 21
137.4976364971
 31
0.0
  0
LINE
  5
154
330
1F
100
AcDbEntity
  8
FORMAT
100
AcDbLine
 10
877.6817901994
 20
137.4976364971
 30
0.0
 11
877.6917535913
 21
137.5228778495
 31
0.0
  0
LINE
  5
155
330
1F
100
AcDbEntity
  8
FORMAT
100
AcDbLine
 10
877.6917535913
 20
137.5228778495
 30
0.0
 11
877.7008312219
 21
137.5485620826
 31
0.0
  0
LINE
  5
156
330
1F
100
AcDbEntity
  8
FORMAT
100
AcDbLine
 10
877.7008312219
 20
137.5485620826
 30
0.0
 11
877.7088023626
 21
137.5742456037
 31
0.0
  0
LINE
  5
157
330
1F
100
AcDbEntity
  8
FORMAT
100
AcDbLine
 10
877.7088023626
 20
137.5742456037
 30
0.0
 11
877.715887742
 21
137.6003727175
 31
0.0
  0
LINE
  5
158
330
1F
100
AcDbEntity
  8
FORMAT
100
AcDbLine
 10
877.715887742
 20
137.6003727175
 30
0.0
 11
877.7220873599
 21
137.6267212717
 31
0.0
  0
LINE
  5
159
330
1F
100
AcDbEntity
  8
FORMAT
100
AcDbLine
 10
877.7220873599
 20
137.6267212717
 30
0.0
 11
877.727179776
 21
137.6535127066
 31
0.0
  0
LINE
  5
15A
330
1F
100
AcDbEntity
  8
FORMAT
100
AcDbLine
 10
877.727179776
 20
137.6535127066
 30
0.0
 11
877.7316078711
 21
137.6803034295
 31
0.0
  0
LINE
  5
15B
330
1F
100
AcDbEntity
  8
FORMAT
100
AcDbLine
 10
877.7316078711
 20
137.6803034295
 30
0.0
 11
877.7347080361
 21
137.7075377451
 31
0.0
  0
LINE
  5
15C
330
1F
100
AcDbEntity
  8
FORMAT
100
AcDbLine
 10
877.7347080361
 20
137.7075377451
 30
0.0
 11
877.737143168
 21
137.7349927891
 31
0.0
  0
LINE
  5
15D
330
1F
100
AcDbEntity
  8
FORMAT
100
AcDbLine
 10
877.737143168
 20
137.7349927891
 30
0.0
 11
877.7386932505
 21
137.7626699854
 31
0.0
  0
LINE
  5
15E
330
1F
100
AcDbEntity
  8
FORMAT
100
AcDbLine
 10
877.7386932505
 20
137.7626699854
 30
0.0
 11
877.7391361312
 21
137.7905679101
 31
0.0
  0
LINE
  5
15F
330
1F
100
AcDbEntity
  8
FORMAT
100
AcDbLine
 10
877.7391361312
 20
137.7905679101
 30
0.0
 11
877.7389146908
 21
137.8166950239
 31
0.0
  0
LINE
  5
160
330
1F
100
AcDbEntity
  8
FORMAT
100
AcDbLine
 10
877.7389146908
 20
137.8166950239
 30
0.0
 11
877.7380289294
 21
137.8527855297
 31
0.0
  0
LINE
  5
161
330
1F
100
AcDbEntity
  8
FORMAT
100
AcDbLine
 10
877.7380289294
 20
137.8527855297
 30
0.0
 11
877.7364795589
 21
137.8882117144
 31
0.0
  0
LINE
  5
162
330
1F
100
AcDbEntity
  8
FORMAT
100
AcDbLine
 10
877.7364795589
 20
137.8882117144
 30
0.0
 11
877.7342651554
 21
137.9225314094
 31
0.0
  0
LINE
  5
163
330
1F
100
AcDbEntity
  8
FORMAT
100
AcDbLine
 10
877.7342651554
 20
137.9225314094
 30
0.0
 11
877.7313864308
 21
137.9564075116
 31
0.0
  0
LINE
  5
164
330
1F
100
AcDbEntity
  8
FORMAT
100
AcDbLine
 10
877.7313864308
 20
137.9564075116
 30
0.0
 11
877.7276226568
 21
137.9891771241
 31
0.0
  0
LINE
  5
165
330
1F
100
AcDbEntity
  8
FORMAT
100
AcDbLine
 10
877.7276226568
 20
137.9891771241
 30
0.0
 11
877.7231945617
 21
138.0215031438
 31
0.0
  0
LINE
  5
166
330
1F
100
AcDbEntity
  8
FORMAT
100
AcDbLine
 10
877.7231945617
 20
138.0215031438
 30
0.0
 11
877.7181021455
 21
138.0527226738
 31
0.0
  0
LINE
  5
167
330
1F
100
AcDbEntity
  8
FORMAT
100
AcDbLine
 10
877.7181021455
 20
138.0527226738
 30
0.0
 11
877.7123454083
 21
138.0832778827
 31
0.0
  0
LINE
  5
168
330
1F
100
AcDbEntity
  8
FORMAT
100
AcDbLine
 10
877.7123454083
 20
138.0832778827
 30
0.0
 11
877.70592435
 21
138.1129480422
 31
0.0
  0
LINE
  5
169
330
1F
100
AcDbEntity
  8
FORMAT
100
AcDbLine
 10
877.70592435
 20
138.1129480422
 30
0.0
 11
877.6988389707
 21
138.1419531687
 31
0.0
  0
LINE
  5
16A
330
1F
100
AcDbEntity
  8
FORMAT
100
AcDbLine
 10
877.6988389707
 20
138.1419531687
 30
0.0
 11
877.6908678299
 21
138.1700725337
 31
0.0
  0
LINE
  5
16B
330
1F
100
AcDbEntity
  8
FORMAT
100
AcDbLine
 10
877.6908678299
 20
138.1700725337
 30
0.0
 11
877.6822323681
 21
138.1973068493
 31
0.0
  0
LINE
  5
16C
330
1F
100
AcDbEntity
  8
FORMAT
100
AcDbLine
 10
877.6822323681
 20
138.1973068493
 30
0.0
 11
877.6729332972
 21
138.2238761318
 31
0.0
  0
LINE
  5
16D
330
1F
100
AcDbEntity
  8
FORMAT
100
AcDbLine
 10
877.6729332972
 20
138.2238761318
 30
0.0
 11
877.6629699053
 21
138.2497818053
 31
0.0
  0
LINE
  5
16E
330
1F
100
AcDbEntity
  8
FORMAT
100
AcDbLine
 10
877.6629699053
 20
138.2497818053
 30
0.0
 11
877.6523414802
 21
138.274580277
 31
0.0
  0
LINE
  5
16F
330
1F
100
AcDbEntity
  8
FORMAT
100
AcDbLine
 10
877.6523414802
 20
138.274580277
 30
0.0
 11
877.6408280058
 21
138.2987144276
 31
0.0
  0
LINE
  5
170
330
1F
100
AcDbEntity
  8
FORMAT
100
AcDbLine
 10
877.6408280058
 20
138.2987144276
 30
0.0
 11
877.6288716506
 21
138.3221842572
 31
0.0
  0
LINE
  5
171
330
1F
100
AcDbEntity
  8
FORMAT
100
AcDbLine
 10
877.6288716506
 20
138.3221842572
 30
0.0
 11
877.6160295341
 21
138.3447690374
 31
0.0
  0
LINE
  5
172
330
1F
100
AcDbEntity
  8
FORMAT
100
AcDbLine
 10
877.6160295341
 20
138.3447690374
 30
0.0
 11
877.6025230965
 21
138.3664673441
 31
0.0
  0
LINE
  5
173
330
1F
100
AcDbEntity
  8
FORMAT
100
AcDbLine
 10
877.6025230965
 20
138.3664673441
 30
0.0
 11
877.5883530498
 21
138.3875020418
 31
0.0
  0
LINE
  5
174
330
1F
100
AcDbEntity
  8
FORMAT
100
AcDbLine
 10
877.5883530498
 20
138.3875020418
 30
0.0
 11
877.5732965297
 21
138.407650266
 31
0.0
  0
LINE
  5
175
330
1F
100
AcDbEntity
  8
FORMAT
100
AcDbLine
 10
877.5732965297
 20
138.407650266
 30
0.0
 11
877.5577978409
 21
138.4269134409
 31
0.0
  0
LINE
  5
176
330
1F
100
AcDbEntity
  8
FORMAT
100
AcDbLine
 10
877.5577978409
 20
138.4269134409
 30
0.0
 11
877.5414126786
 21
138.4455122947
 31
0.0
  0
LINE
  5
177
330
1F
100
AcDbEntity
  8
FORMAT
100
AcDbLine
 10
877.5414126786
 20
138.4455122947
 30
0.0
 11
877.5267997512
 21
138.4607902551
 31
0.0
  0
LINE
  5
178
330
1F
100
AcDbEntity
  8
FORMAT
100
AcDbLine
 10
877.5267997512
 20
138.4607902551
 30
0.0
 11
877.5095295396
 21
138.4771747054
 31
0.0
  0
LINE
  5
179
330
1F
100
AcDbEntity
  8
FORMAT
100
AcDbLine
 10
877.5095295396
 20
138.4771747054
 30
0.0
 11
877.4915950069
 21
138.4931169869
 31
0.0
  0
LINE
  5
17A
330
1F
100
AcDbEntity
  8
FORMAT
100
AcDbLine
 10
877.4915950069
 20
138.4931169869
 30
0.0
 11
877.4729961531
 21
138.5083942354
 31
0.0
  0
LINE
  5
17B
330
1F
100
AcDbEntity
  8
FORMAT
100
AcDbLine
 10
877.4729961531
 20
138.5083942354
 30
0.0
 11
877.4535115379
 21
138.5230078748
 31
0.0
  0
LINE
  5
17C
330
1F
100
AcDbEntity
  8
FORMAT
100
AcDbLine
 10
877.4535115379
 20
138.5230078748
 30
0.0
 11
877.4331411613
 21
138.5371779214
 31
0.0
  0
LINE
  5
17D
330
1F
100
AcDbEntity
  8
FORMAT
100
AcDbLine
 10
877.4331411613
 20
138.5371779214
 30
0.0
 11
877.4121071756
 21
138.5506843591
 31
0.0
  0
LINE
  5
17E
330
1F
100
AcDbEntity
  8
FORMAT
100
AcDbLine
 10
877.4121071756
 20
138.5506843591
 30
0.0
 11
877.3904081568
 21
138.5635264757
 31
0.0
  0
LINE
  5
17F
330
1F
100
AcDbEntity
  8
FORMAT
100
AcDbLine
 10
877.3904081568
 20
138.5635264757
 30
0.0
 11
877.3678240887
 21
138.5759257115
 31
0.0
  0
LINE
  5
180
330
1F
100
AcDbEntity
  8
FORMAT
100
AcDbLine
 10
877.3678240887
 20
138.5759257115
 30
0.0
 11
877.3445756995
 21
138.5876606263
 31
0.0
  0
LINE
  5
181
330
1F
100
AcDbEntity
  8
FORMAT
100
AcDbLine
 10
877.3445756995
 20
138.5876606263
 30
0.0
 11
877.3204408368
 21
138.59873122
 31
0.0
  0
LINE
  5
182
330
1F
100
AcDbEntity
  8
FORMAT
100
AcDbLine
 10
877.3204408368
 20
138.59873122
 30
0.0
 11
877.2956430771
 21
138.6093596451
 31
0.0
  0
LINE
  5
183
330
1F
100
AcDbEntity
  8
FORMAT
100
AcDbLine
 10
877.2956430771
 20
138.6093596451
 30
0.0
 11
877.269958844
 21
138.6191015966
 31
0.0
  0
LINE
  5
184
330
1F
100
AcDbEntity
  8
FORMAT
100
AcDbLine
 10
877.269958844
 20
138.6191015966
 30
0.0
 11
877.2436102898
 21
138.6284006675
 31
0.0
  0
LINE
  5
185
330
1F
100
AcDbEntity
  8
FORMAT
100
AcDbLine
 10
877.2436102898
 20
138.6284006675
 30
0.0
 11
877.2163759742
 21
138.6372575697
 31
0.0
  0
LINE
  5
186
330
1F
100
AcDbEntity
  8
FORMAT
100
AcDbLine
 10
877.2163759742
 20
138.6372575697
 30
0.0
 11
877.1884780495
 21
138.6452287105
 31
0.0
  0
LINE
  5
187
330
1F
100
AcDbEntity
  8
FORMAT
100
AcDbLine
 10
877.1884780495
 20
138.6452287105
 30
0.0
 11
877.1596943635
 21
138.6527562585
 31
0.0
  0
LINE
  5
188
330
1F
100
AcDbEntity
  8
FORMAT
100
AcDbLine
 10
877.1596943635
 20
138.6527562585
 30
0.0
 11
877.1302463563
 21
138.6596201975
 31
0.0
  0
LINE
  5
189
330
1F
100
AcDbEntity
  8
FORMAT
100
AcDbLine
 10
877.1302463563
 20
138.6596201975
 30
0.0
 11
877.1001333161
 21
138.6660412558
 31
0.0
  0
LINE
  5
18A
330
1F
100
AcDbEntity
  8
FORMAT
100
AcDbLine
 10
877.1001333161
 20
138.6660412558
 30
0.0
 11
877.0689144981
 21
138.6715765526
 31
0.0
  0
LINE
  5
18B
330
1F
100
AcDbEntity
  8
FORMAT
100
AcDbLine
 10
877.0689144981
 20
138.6715765526
 30
0.0
 11
877.0372520874
 21
138.6768911212
 31
0.0
  0
LINE
  5
18C
330
1F
100
AcDbEntity
  8
FORMAT
100
AcDbLine
 10
877.0372520874
 20
138.6768911212
 30
0.0
 11
877.0047039153
 21
138.6813192163
 31
0.0
  0
LINE
  5
18D
330
1F
100
AcDbEntity
  8
FORMAT
100
AcDbLine
 10
877.0047039153
 20
138.6813192163
 30
0.0
 11
876.9714914221
 21
138.6850829903
 31
0.0
  0
LINE
  5
18E
330
1F
100
AcDbEntity
  8
FORMAT
100
AcDbLine
 10
876.9714914221
 20
138.6850829903
 30
0.0
 11
876.9373938795
 21
138.6884045956
 31
0.0
  0
LINE
  5
18F
330
1F
100
AcDbEntity
  8
FORMAT
100
AcDbLine
 10
876.9373938795
 20
138.6884045956
 30
0.0
 11
876.9024105755
 21
138.6912826082
 31
0.0
  0
LINE
  5
190
330
1F
100
AcDbEntity
  8
FORMAT
100
AcDbLine
 10
876.9024105755
 20
138.6912826082
 30
0.0
 11
876.8667629505
 21
138.6932755714
 31
0.0
  0
LINE
  5
191
330
1F
100
AcDbEntity
  8
FORMAT
100
AcDbLine
 10
876.8667629505
 20
138.6932755714
 30
0.0
 11
876.8304502923
 21
138.6948256539
 31
0.0
  0
LINE
  5
192
330
1F
100
AcDbEntity
  8
FORMAT
100
AcDbLine
 10
876.8304502923
 20
138.6948256539
 30
0.0
 11
876.7932525847
 21
138.6957107033
 31
0.0
  0
LINE
  5
193
330
1F
100
AcDbEntity
  8
FORMAT
100
AcDbLine
 10
876.7932525847
 20
138.6957107033
 30
0.0
 11
876.7553912682
 21
138.6959321436
 31
0.0
  0
LINE
  5
194
330
1F
100
AcDbEntity
  8
FORMAT
100
AcDbLine
 10
876.7553912682
 20
138.6959321436
 30
0.0
 11
875.288740528
 21
138.6959321436
 31
0.0
  0
LINE
  5
195
330
1F
100
AcDbEntity
  8
FORMAT
100
AcDbLine
 10
875.288740528
 20
138.6959321436
 30
0.0
 11
875.288740528
 21
135.4920625902
 31
0.0
  0
LINE
  5
196
330
1F
100
AcDbEntity
  8
FORMAT
100
AcDbLine
 10
875.288740528
 20
135.4920625902
 30
0.0
 11
875.7014576448
 21
135.4920625902
 31
0.0
  0
LINE
  5
197
330
1F
100
AcDbEntity
  8
FORMAT
100
AcDbLine
 10
875.7014576448
 20
135.4920625902
 30
0.0
 11
875.7014576448
 21
136.8677120247
 31
0.0
  0
LINE
  5
198
330
1F
100
AcDbEntity
  8
FORMAT
100
AcDbLine
 10
875.7014576448
 20
136.8677120247
 30
0.0
 11
876.7773110152
 21
136.8677120247
 31
0.0
  0
LINE
  5
199
330
1F
100
AcDbEntity
  8
FORMAT
100
AcDbLine
 10
876.7773110152
 20
136.8677120247
 30
0.0
 11
876.8016666062
 21
136.867269144
 31
0.0
  0
LINE
  5
19A
330
1F
100
AcDbEntity
  8
FORMAT
100
AcDbLine
 10
876.8016666062
 20
136.867269144
 30
0.0
 11
876.8304502923
 21
136.8657190615
 31
0.0
  0
LINE
  5
19B
330
1F
100
AcDbEntity
  8
FORMAT
100
AcDbLine
 10
876.8304502923
 20
136.8657190615
 30
0.0
 11
876.8585703694
 21
136.8630617772
 31
0.0
  0
LINE
  5
19C
330
1F
100
AcDbEntity
  8
FORMAT
100
AcDbLine
 10
876.8585703694
 20
136.8630617772
 30
0.0
 11
876.8855825326
 21
136.8592980032
 31
0.0
  0
LINE
  5
19D
330
1F
100
AcDbEntity
  8
FORMAT
100
AcDbLine
 10
876.8855825326
 20
136.8592980032
 30
0.0
 11
876.9117096464
 21
136.8544270274
 31
0.0
  0
LINE
  5
19E
330
1F
100
AcDbEntity
  8
FORMAT
100
AcDbLine
 10
876.9117096464
 20
136.8544270274
 30
0.0
 11
876.9369509988
 21
136.8482274095
 31
0.0
  0
LINE
  5
19F
330
1F
100
AcDbEntity
  8
FORMAT
100
AcDbLine
 10
876.9369509988
 20
136.8482274095
 30
0.0
 11
876.9613065898
 21
136.8411420302
 31
0.0
  0
LINE
  5
1A0
330
1F
100
AcDbEntity
  8
FORMAT
100
AcDbLine
 10
876.9613065898
 20
136.8411420302
 30
0.0
 11
876.9847764194
 21
136.8327280087
 31
0.0
  0
LINE
  5
1A1
330
1F
100
AcDbEntity
  8
FORMAT
100
AcDbLine
 10
876.9847764194
 20
136.8327280087
 30
0.0
 11
877.0073611996
 21
136.8232074975
 31
0.0
  0
LINE
  5
1A2
330
1F
100
AcDbEntity
  8
FORMAT
100
AcDbLine
 10
877.0073611996
 20
136.8232074975
 30
0.0
 11
877.0288380659
 21
136.8123583441
 31
0.0
  0
LINE
  5
1A3
330
1F
100
AcDbEntity
  8
FORMAT
100
AcDbLine
 10
877.0288380659
 20
136.8123583441
 30
0.0
 11
877.0496513233
 21
136.8006234293
 31
0.0
  0
LINE
  5
1A4
330
1F
100
AcDbEntity
  8
FORMAT
100
AcDbLine
 10
877.0496513233
 20
136.8006234293
 30
0.0
 11
877.0693566668
 21
136.7875598724
 31
0.0
  0
LINE
  5
1A5
330
1F
100
AcDbEntity
  8
FORMAT
100
AcDbLine
 10
877.0693566668
 20
136.7875598724
 30
0.0
 11
877.0881769609
 21
136.773610554
 31
0.0
  0
LINE
  5
1A6
330
1F
100
AcDbEntity
  8
FORMAT
100
AcDbLine
 10
877.0881769609
 20
136.773610554
 30
0.0
 11
877.1061114936
 21
136.7583333056
 31
0.0
  0
LINE
  5
1A7
330
1F
100
AcDbEntity
  8
FORMAT
100
AcDbLine
 10
877.1061114936
 20
136.7583333056
 30
0.0
 11
877.123160977
 21
136.7419481433
 31
0.0
  0
LINE
  5
1A8
330
1F
100
AcDbEntity
  8
FORMAT
100
AcDbLine
 10
877.123160977
 20
136.7419481433
 30
0.0
 11
877.1393239868
 21
136.724235051
 31
0.0
  0
LINE
  5
1A9
330
1F
100
AcDbEntity
  8
FORMAT
100
AcDbLine
 10
877.1393239868
 20
136.724235051
 30
0.0
 11
877.1546019473
 21
136.7056361972
 31
0.0
  0
LINE
  5
1AA
330
1F
100
AcDbEntity
  8
FORMAT
100
AcDbLine
 10
877.1546019473
 20
136.7056361972
 30
0.0
 11
877.168771994
 21
136.6857087013
 31
0.0
  0
LINE
  5
1AB
330
1F
100
AcDbEntity
  8
FORMAT
100
AcDbLine
 10
877.168771994
 20
136.6857087013
 30
0.0
 11
877.1822784316
 21
136.6646747156
 31
0.0
  0
LINE
  5
1AC
330
1F
100
AcDbEntity
  8
FORMAT
100
AcDbLine
 10
877.1822784316
 20
136.6646747156
 30
0.0
 11
877.1946776675
 21
136.6425328162
 31
0.0
  0
LINE
  5
1AD
330
1F
100
AcDbEntity
  8
FORMAT
100
AcDbLine
 10
877.1946776675
 20
136.6425328162
 30
0.0
 11
877.2064125822
 21
136.619284427
 31
0.0
  0
LINE
  5
1AE
330
1F
100
AcDbEntity
  8
FORMAT
100
AcDbLine
 10
877.2064125822
 20
136.619284427
 30
0.0
 11
877.2170402952
 21
136.594928836
 31
0.0
  0
LINE
  5
1AF
330
1F
100
AcDbEntity
  8
FORMAT
100
AcDbLine
 10
877.2170402952
 20
136.594928836
 30
0.0
 11
877.2267829589
 21
136.5692446028
 31
0.0
  0
LINE
  5
1B0
330
1F
100
AcDbEntity
  8
FORMAT
100
AcDbLine
 10
877.2267829589
 20
136.5692446028
 30
0.0
 11
877.235639149
 21
136.5426753203
 31
0.0
  0
LINE
  5
1B1
330
1F
100
AcDbEntity
  8
FORMAT
100
AcDbLine
 10
877.235639149
 20
136.5426753203
 30
0.0
 11
877.2436102898
 21
136.5147766836
 31
0.0
  0
LINE
  5
1B2
330
1F
100
AcDbEntity
  8
FORMAT
100
AcDbLine
 10
877.2436102898
 20
136.5147766836
 30
0.0
 11
877.2504742288
 21
136.4857715572
 31
0.0
  0
LINE
  5
1B3
330
1F
100
AcDbEntity
  8
FORMAT
100
AcDbLine
 10
877.2504742288
 20
136.4857715572
 30
0.0
 11
877.2566738467
 21
136.4554377886
 31
0.0
  0
LINE
  5
1B4
330
1F
100
AcDbEntity
  8
FORMAT
100
AcDbLine
 10
877.2566738467
 20
136.4554377886
 30
0.0
 11
877.2617662629
 21
136.4242182587
 31
0.0
  0
LINE
  5
1B5
330
1F
100
AcDbEntity
  8
FORMAT
100
AcDbLine
 10
877.2617662629
 20
136.4242182587
 30
0.0
 11
877.2661943579
 21
136.3916700865
 31
0.0
  0
LINE
  5
1B6
330
1F
100
AcDbEntity
  8
FORMAT
100
AcDbLine
 10
877.2661943579
 20
136.3916700865
 30
0.0
 11
877.2695159633
 21
136.358236865
 31
0.0
  0
LINE
  5
1B7
330
1F
100
AcDbEntity
  8
FORMAT
100
AcDbLine
 10
877.2695159633
 20
136.358236865
 30
0.0
 11
877.2719510952
 21
136.3234750014
 31
0.0
  0
LINE
  5
1B8
330
1F
100
AcDbEntity
  8
FORMAT
100
AcDbLine
 10
877.2719510952
 20
136.3234750014
 30
0.0
 11
877.2735011777
 21
136.2876052239
 31
0.0
  0
LINE
  5
1B9
330
1F
100
AcDbEntity
  8
FORMAT
100
AcDbLine
 10
877.2735011777
 20
136.2876052239
 30
0.0
 11
877.2726154162
 21
136.26767844
 31
0.0
  0
LINE
  5
1BA
330
1F
100
AcDbEntity
  8
FORMAT
100
AcDbLine
 10
877.2726154162
 20
136.26767844
 30
0.0
 11
877.2708446054
 21
136.2298164114
 31
0.0
  0
LINE
  5
1BB
330
1F
100
AcDbEntity
  8
FORMAT
100
AcDbLine
 10
877.2708446054
 20
136.2298164114
 30
0.0
 11
877.2692945229
 21
136.1930615846
 31
0.0
  0
LINE
  5
1BC
330
1F
100
AcDbEntity
  8
FORMAT
100
AcDbLine
 10
877.2692945229
 20
136.1930615846
 30
0.0
 11
877.2681873211
 21
136.1574139595
 31
0.0
  0
LINE
  5
1BD
330
1F
100
AcDbEntity
  8
FORMAT
100
AcDbLine
 10
877.2681873211
 20
136.1574139595
 30
0.0
 11
877.2675230001
 21
136.1228728242
 31
0.0
  0
LINE
  5
1BE
330
1F
100
AcDbEntity
  8
FORMAT
100
AcDbLine
 10
877.2675230001
 20
136.1228728242
 30
0.0
 11
877.2673015597
 21
136.0894396027
 31
0.0
  0
LINE
  5
1BF
330
1F
100
AcDbEntity
  8
FORMAT
100
AcDbLine
 10
877.2673015597
 20
136.0894396027
 30
0.0
 11
877.2673015597
 21
136.0568914306
 31
0.0
  0
LINE
  5
1C0
330
1F
100
AcDbEntity
  8
FORMAT
100
AcDbLine
 10
877.2673015597
 20
136.0568914306
 30
0.0
 11
877.2675230001
 21
136.0254504602
 31
0.0
  0
LINE
  5
1C1
330
1F
100
AcDbEntity
  8
FORMAT
100
AcDbLine
 10
877.2675230001
 20
136.0254504602
 30
0.0
 11
877.2684087615
 21
135.9951166917
 31
0.0
  0
LINE
  5
1C2
330
1F
100
AcDbEntity
  8
FORMAT
100
AcDbLine
 10
877.2684087615
 20
135.9951166917
 30
0.0
 11
877.2692945229
 21
135.9658901249
 31
0.0
  0
LINE
  5
1C3
330
1F
100
AcDbEntity
  8
FORMAT
100
AcDbLine
 10
877.2692945229
 20
135.9658901249
 30
0.0
 11
877.2708446054
 21
135.9377700478
 31
0.0
  0
LINE
  5
1C4
330
1F
100
AcDbEntity
  8
FORMAT
100
AcDbLine
 10
877.2708446054
 20
135.9377700478
 30
0.0
 11
877.2726154162
 21
135.9105364442
 31
0.0
  0
LINE
  5
1C5
330
1F
100
AcDbEntity
  8
FORMAT
100
AcDbLine
 10
877.2726154162
 20
135.9105364442
 30
0.0
 11
877.2746083794
 21
135.8846307708
 31
0.0
  0
LINE
  5
1C6
330
1F
100
AcDbEntity
  8
FORMAT
100
AcDbLine
 10
877.2746083794
 20
135.8846307708
 30
0.0
 11
877.2772656637
 21
135.8596108587
 31
0.0
  0
LINE
  5
1C7
330
1F
100
AcDbEntity
  8
FORMAT
100
AcDbLine
 10
877.2772656637
 20
135.8596108587
 30
0.0
 11
877.2799222359
 21
135.8356981484
 31
0.0
  0
LINE
  5
1C8
330
1F
100
AcDbEntity
  8
FORMAT
100
AcDbLine
 10
877.2799222359
 20
135.8356981484
 30
0.0
 11
877.2832438413
 21
135.8126711996
 31
0.0
  0
LINE
  5
1C9
330
1F
100
AcDbEntity
  8
FORMAT
100
AcDbLine
 10
877.2832438413
 20
135.8126711996
 30
0.0
 11
877.2867861749
 21
135.7909721808
 31
0.0
  0
LINE
  5
1CA
330
1F
100
AcDbEntity
  8
FORMAT
100
AcDbLine
 10
877.2867861749
 20
135.7909721808
 30
0.0
 11
877.2881148171
 21
135.7825588714
 31
0.0
  0
LINE
  5
1CB
330
1F
100
AcDbEntity
  8
FORMAT
100
AcDbLine
 10
877.2881148171
 20
135.7825588714
 30
0.0
 11
877.2936501139
 21
135.7520036624
 31
0.0
  0
LINE
  5
1CC
330
1F
100
AcDbEntity
  8
FORMAT
100
AcDbLine
 10
877.2936501139
 20
135.7520036624
 30
0.0
 11
877.2996282915
 21
135.7218913342
 31
0.0
  0
LINE
  5
1CD
330
1F
100
AcDbEntity
  8
FORMAT
100
AcDbLine
 10
877.2996282915
 20
135.7218913342
 30
0.0
 11
877.3062707901
 21
135.6920004464
 31
0.0
  0
LINE
  5
1CE
330
1F
100
AcDbEntity
  8
FORMAT
100
AcDbLine
 10
877.3062707901
 20
135.6920004464
 30
0.0
 11
877.3131347291
 21
135.6623302868
 31
0.0
  0
LINE
  5
1CF
330
1F
100
AcDbEntity
  8
FORMAT
100
AcDbLine
 10
877.3131347291
 20
135.6623302868
 30
0.0
 11
877.3206622772
 21
135.6331037201
 31
0.0
  0
LINE
  5
1D0
330
1F
100
AcDbEntity
  8
FORMAT
100
AcDbLine
 10
877.3206622772
 20
135.6331037201
 30
0.0
 11
877.3288548583
 21
135.604320034
 31
0.0
  0
LINE
  5
1D1
330
1F
100
AcDbEntity
  8
FORMAT
100
AcDbLine
 10
877.3288548583
 20
135.604320034
 30
0.0
 11
877.3372688798
 21
135.5757577883
 31
0.0
  0
LINE
  5
1D2
330
1F
100
AcDbEntity
  8
FORMAT
100
AcDbLine
 10
877.3372688798
 20
135.5757577883
 30
0.0
 11
877.3463465103
 21
135.5474162709
 31
0.0
  0
LINE
  5
1D3
330
1F
100
AcDbEntity
  8
FORMAT
100
AcDbLine
 10
877.3463465103
 20
135.5474162709
 30
0.0
 11
877.3558677335
 21
135.5195183462
 31
0.0
  0
LINE
  5
1D4
330
1F
100
AcDbEntity
  8
FORMAT
100
AcDbLine
 10
877.3558677335
 20
135.5195183462
 30
0.0
 11
877.3658311255
 21
135.4920625903
 31
0.0
  0
LINE
  5
1D5
330
1F
100
AcDbEntity
  8
FORMAT
100
AcDbLine
 10
877.3658311255
 20
135.4920625903
 30
0.0
 11
877.8620212879
 21
135.4920625903
 31
0.0
  0
LINE
  5
1D6
330
1F
100
AcDbEntity
  8
FORMAT
100
AcDbLine
 10
877.8620212879
 20
135.4920625903
 30
0.0
 11
877.8620212879
 21
135.5974560948
 31
0.0
  0
LINE
  5
1D7
330
1F
100
AcDbEntity
  8
FORMAT
100
AcDbLine
 10
877.8620212879
 20
135.5974560948
 30
0.0
 11
877.8418723516
 21
135.6147263065
 31
0.0
  0
LINE
  5
1D8
330
1F
100
AcDbEntity
  8
FORMAT
100
AcDbLine
 10
877.8418723516
 20
135.6147263065
 30
0.0
 11
877.8201740449
 21
135.6355395638
 31
0.0
  0
LINE
  5
1D9
330
1F
100
AcDbEntity
  8
FORMAT
100
AcDbLine
 10
877.8201740449
 20
135.6355395638
 30
0.0
 11
877.8004679893
 21
135.6574593109
 31
0.0
  0
LINE
  5
1DA
330
1F
100
AcDbEntity
  8
FORMAT
100
AcDbLine
 10
877.8004679893
 20
135.6574593109
 30
0.0
 11
877.782754897
 21
135.6802648194
 31
0.0
  0
LINE
  5
1DB
330
1F
100
AcDbEntity
  8
FORMAT
100
AcDbLine
 10
877.782754897
 20
135.6802648194
 30
0.0
 11
877.7670347678
 21
135.7043996821
 31
0.0
  0
LINE
  5
1DC
330
1F
100
AcDbEntity
  8
FORMAT
100
AcDbLine
 10
877.7670347678
 20
135.7043996821
 30
0.0
 11
877.7530854495
 21
135.7294188821
 31
0.0
  0
LINE
  5
1DD
330
1F
100
AcDbEntity
  8
FORMAT
100
AcDbLine
 10
877.7530854495
 20
135.7294188821
 30
0.0
 11
877.7411290943
 21
135.7553245556
 31
0.0
  0
LINE
  5
1DE
330
1F
100
AcDbEntity
  8
FORMAT
100
AcDbLine
 10
877.7411290943
 20
135.7553245556
 30
0.0
 11
877.7311649904
 21
135.7825588712
 31
0.0
  0
LINE
  5
1DF
330
1F
100
AcDbEntity
  8
FORMAT
100
AcDbLine
 10
877.7311649904
 20
135.7825588712
 30
0.0
 11
877.7229731213
 21
135.8106782362
 31
0.0
  0
LINE
  5
1E0
330
1F
100
AcDbEntity
  8
FORMAT
100
AcDbLine
 10
877.7229731213
 20
135.8106782362
 30
0.0
 11
877.7169949437
 21
135.8396833626
 31
0.0
  0
LINE
  5
1E1
330
1F
100
AcDbEntity
  8
FORMAT
100
AcDbLine
 10
877.7169949437
 20
135.8396833626
 30
0.0
 11
877.7127875769
 21
135.8700171312
 31
0.0
  0
LINE
  5
1E2
330
1F
100
AcDbEntity
  8
FORMAT
100
AcDbLine
 10
877.7127875769
 20
135.8700171312
 30
0.0
 11
877.7123454082
 21
135.8764381895
 31
0.0
  0
LINE
  5
1E3
330
1F
100
AcDbEntity
  8
FORMAT
100
AcDbLine
 10
877.7123454082
 20
135.8764381895
 30
0.0
 11
877.709688124
 21
135.9178432638
 31
0.0
  0
LINE
  5
1E4
330
1F
100
AcDbEntity
  8
FORMAT
100
AcDbLine
 10
877.709688124
 20
135.9178432638
 30
0.0
 11
877.7070308397
 21
135.9581404243
 31
0.0
  0
LINE
  5
1E5
330
1F
100
AcDbEntity
  8
FORMAT
100
AcDbLine
 10
877.7070308397
 20
135.9581404243
 30
0.0
 11
877.7045957078
 21
135.9973310951
 31
0.0
  0
LINE
  5
1E6
330
1F
100
AcDbEntity
  8
FORMAT
100
AcDbLine
 10
877.7045957078
 20
135.9973310951
 30
0.0
 11
877.7021598639
 21
136.035414564
 31
0.0
  0
LINE
  5
1E7
330
1F
100
AcDbEntity
  8
FORMAT
100
AcDbLine
 10
877.7021598639
 20
136.035414564
 30
0.0
 11
877.6999461724
 21
136.0726115596
 31
0.0
  0
LINE
  5
1E8
330
1F
100
AcDbEntity
  8
FORMAT
100
AcDbLine
 10
877.6999461724
 20
136.0726115596
 30
0.0
 11
877.6977317688
 21
136.108481337
 31
0.0
  0
LINE
  5
1E9
330
1F
100
AcDbEntity
  8
FORMAT
100
AcDbLine
 10
877.6977317688
 20
136.108481337
 30
0.0
 11
877.6955173653
 21
136.143464641
 31
0.0
  0
LINE
  5
1EA
330
1F
100
AcDbEntity
  8
FORMAT
100
AcDbLine
 10
877.6955173653
 20
136.143464641
 30
0.0
 11
877.6937465545
 21
136.1773407432
 31
0.0
  0
LINE
  5
1EB
330
1F
100
AcDbEntity
  8
FORMAT
100
AcDbLine
 10
877.6937465545
 20
136.1773407432
 30
0.0
 11
877.6917535913
 21
136.2101103557
 31
0.0
  0
LINE
  5
1EC
330
1F
100
AcDbEntity
  8
FORMAT
100
AcDbLine
 10
877.6917535913
 20
136.2101103557
 30
0.0
 11
877.6899820684
 21
136.2417727664
 31
0.0
  0
LINE
  5
1ED
330
1F
100
AcDbEntity
  8
FORMAT
100
AcDbLine
 10
877.6899820684
 20
136.2417727664
 30
0.0
 11
877.688431986
 21
136.2723279753
 31
0.0
  0
LINE
  5
1EE
330
1F
100
AcDbEntity
  8
FORMAT
100
AcDbLine
 10
877.688431986
 20
136.2723279753
 30
0.0
 11
877.6868826155
 21
136.3017759825
 31
0.0
  0
LINE
  5
1EF
330
1F
100
AcDbEntity
  8
FORMAT
100
AcDbLine
 10
877.6868826155
 20
136.3017759825
 30
0.0
 11
877.6855539733
 21
136.3303382282
 31
0.0
  0
LINE
  5
1F0
330
1F
100
AcDbEntity
  8
FORMAT
100
AcDbLine
 10
877.6855539733
 20
136.3303382282
 30
0.0
 11
877.6842253312
 21
136.3575725438
 31
0.0
  0
LINE
  5
1F1
330
1F
100
AcDbEntity
  8
FORMAT
100
AcDbLine
 10
877.6842253312
 20
136.3575725438
 30
0.0
 11
877.6828966891
 21
136.383921098
 31
0.0
  0
LINE
  5
1F2
330
1F
100
AcDbEntity
  8
FORMAT
100
AcDbLine
 10
877.6828966891
 20
136.383921098
 30
0.0
 11
877.6820109277
 21
136.4091624504
 31
0.0
  0
LINE
  5
1F3
330
1F
100
AcDbEntity
  8
FORMAT
100
AcDbLine
 10
877.6820109277
 20
136.4091624504
 30
0.0
 11
877.6809044379
 21
136.4332966011
 31
0.0
  0
LINE
  5
1F4
330
1F
100
AcDbEntity
  8
FORMAT
100
AcDbLine
 10
877.6809044379
 20
136.4332966011
 30
0.0
 11
877.6800186765
 21
136.4565449903
 31
0.0
  0
LINE
  5
1F5
330
1F
100
AcDbEntity
  8
FORMAT
100
AcDbLine
 10
877.6800186765
 20
136.4565449903
 30
0.0
 11
877.6793543554
 21
136.4784647374
 31
0.0
  0
LINE
  5
1F6
330
1F
100
AcDbEntity
  8
FORMAT
100
AcDbLine
 10
877.6793543554
 20
136.4784647374
 30
0.0
 11
877.6786900344
 21
136.499499435
 31
0.0
  0
LINE
  5
1F7
330
1F
100
AcDbEntity
  8
FORMAT
100
AcDbLine
 10
877.6786900344
 20
136.499499435
 30
0.0
 11
877.6780257133
 21
136.5192054906
 31
0.0
  0
LINE
  5
1F8
330
1F
100
AcDbEntity
  8
FORMAT
100
AcDbLine
 10
877.6780257133
 20
136.5192054906
 30
0.0
 11
877.6775828326
 21
136.5380257847
 31
0.0
  0
LINE
  5
1F9
330
1F
100
AcDbEntity
  8
FORMAT
100
AcDbLine
 10
877.6775828326
 20
136.5380257847
 30
0.0
 11
877.67470482
 21
136.5683595533
 31
0.0
  0
LINE
  5
1FA
330
1F
100
AcDbEntity
  8
FORMAT
100
AcDbLine
 10
877.67470482
 20
136.5683595533
 30
0.0
 11
877.6700545725
 21
136.6057779892
 31
0.0
  0
LINE
  5
1FB
330
1F
100
AcDbEntity
  8
FORMAT
100
AcDbLine
 10
877.6700545725
 20
136.6057779892
 30
0.0
 11
877.664740716
 21
136.6407620052
 31
0.0
  0
LINE
  5
1FC
330
1F
100
AcDbEntity
  8
FORMAT
100
AcDbLine
 10
877.664740716
 20
136.6407620052
 30
0.0
 11
877.6587625385
 21
136.6735309057
 31
0.0
  0
LINE
  5
1FD
330
1F
100
AcDbEntity
  8
FORMAT
100
AcDbLine
 10
877.6587625385
 20
136.6735309057
 30
0.0
 11
877.6521200398
 21
136.7038646742
 31
0.0
  0
LINE
  5
1FE
330
1F
100
AcDbEntity
  8
FORMAT
100
AcDbLine
 10
877.6521200398
 20
136.7038646742
 30
0.0
 11
877.6445924918
 21
136.7317633109
 31
0.0
  0
LINE
  5
1FF
330
1F
100
AcDbEntity
  8
FORMAT
100
AcDbLine
 10
877.6445924918
 20
136.7317633109
 30
0.0
 11
877.6363999107
 21
136.7572261037
 31
0.0
  0
LINE
  5
200
330
1F
100
AcDbEntity
  8
FORMAT
100
AcDbLine
 10
877.6363999107
 20
136.7572261037
 30
0.0
 11
877.6275430085
 21
136.7802530525
 31
0.0
  0
LINE
  5
201
330
1F
100
AcDbEntity
  8
FORMAT
100
AcDbLine
 10
877.6275430085
 20
136.7802530525
 30
0.0
 11
877.6178010569
 21
136.8010663099
 31
0.0
  0
LINE
  5
202
330
1F
100
AcDbEntity
  8
FORMAT
100
AcDbLine
 10
877.6178010569
 20
136.8010663099
 30
0.0
 11
877.6073947842
 21
136.8192222829
 31
0.0
  0
LINE
  5
203
330
1F
100
AcDbEntity
  8
FORMAT
100
AcDbLine
 10
877.6073947842
 20
136.8192222829
 30
0.0
 11
877.5980950013
 21
136.8333923296
 31
0.0
  0
LINE
  5
204
330
1F
100
AcDbEntity
  8
FORMAT
100
AcDbLine
 10
877.5980950013
 20
136.8333923296
 30
0.0
 11
877.5852528848
 21
136.8504418129
 31
0.0
  0
LINE
  5
205
330
1F
100
AcDbEntity
  8
FORMAT
100
AcDbLine
 10
877.5852528848
 20
136.8504418129
 30
0.0
 11
877.5706399574
 21
136.8681549053
 31
0.0
  0
LINE
  5
206
330
1F
100
AcDbEntity
  8
FORMAT
100
AcDbLine
 10
877.5706399574
 20
136.8681549053
 30
0.0
 11
877.5542547951
 21
136.8863108783
 31
0.0
  0
LINE
  5
207
330
1F
100
AcDbEntity
  8
FORMAT
100
AcDbLine
 10
877.5542547951
 20
136.8863108783
 30
0.0
 11
877.5358773817
 21
136.9051311725
 31
0.0
  0
LINE
  5
208
330
1F
100
AcDbEntity
  8
FORMAT
100
AcDbLine
 10
877.5358773817
 20
136.9051311725
 30
0.0
 11
877.5157291575
 21
136.9243936353
 31
0.0
  0
LINE
  5
209
330
1F
100
AcDbEntity
  8
FORMAT
100
AcDbLine
 10
877.5157291575
 20
136.9243936353
 30
0.0
 11
877.493587258
 21
136.9440996908
 31
0.0
  0
LINE
  5
20A
330
1F
100
AcDbEntity
  8
FORMAT
100
AcDbLine
 10
877.493587258
 20
136.9440996908
 30
0.0
 11
877.4696745477
 21
136.9644700675
 31
0.0
  0
LINE
  5
20B
330
1F
100
AcDbEntity
  8
FORMAT
100
AcDbLine
 10
877.4696745477
 20
136.9644700675
 30
0.0
 11
877.4437688742
 21
136.9855040531
 31
0.0
  0
LINE
  5
20C
330
1F
100
AcDbEntity
  8
FORMAT
100
AcDbLine
 10
877.4437688742
 20
136.9855040531
 30
0.0
 11
877.4160923899
 21
137.0067601912
 31
0.0
  0
CIRCLE
  5
20D
330
1F
100
AcDbEntity
  8
G__TOTO
100
AcDbCircle
 10
449.8048420922
 20
379.1134171726
 30
0.0
 40
22.0
  0
CIRCLE
  5
20E
330
1F
100
AcDbEntity
  8
G__TOTO
100
AcDbCircle
 10
254.8048420922
 20
574.1134171726
 30
0.0
 40
0.0500000000000184
  0
ARC
  5
20F
330
1F
100
AcDbEntity
  8
FORMAT
100
AcDbCircle
 10
788.8967979314
 20
148.7412253103
 30
0.0
 40
4.070437741199868
100
AcDbArc
 50
359.9879402697
 51
90.0000000001
  0
ARC
  5
210
330
1F
100
AcDbEntity
  8
FORMAT
100
AcDbCircle
 10
780.3627663318
 20
148.7412253103
 30
0.0
 40
4.070437741203286
100
AcDbArc
 50
90.0
 51
179.9879402696
  0
ARC
  5
211
330
1F
100
AcDbEntity
  8
FORMAT
100
AcDbCircle
 10
780.6654407817
 20
139.1686028267
 30
0.0
 40
1.516173115427733
100
AcDbArc
 50
270.0
 51
359.987524521
  0
ARC
  5
212
330
1F
100
AcDbEntity
  8
FORMAT
100
AcDbCircle
 10
788.5900057571
 20
139.1686028267
 30
0.0
 40
1.51617311543223
100
AcDbArc
 50
179.9875245209
 51
270.0000000001
  0
ARC
  5
213
330
1F
100
AcDbEntity
  8
FORMAT
100
AcDbCircle
 10
840.4472669996
 20
148.7412253103
 30
0.0
 40
4.070437741199186
100
AcDbArc
 50
359.9879402697
 51
90.0000000001
  0
ARC
  5
214
330
1F
100
AcDbEntity
  8
FORMAT
100
AcDbCircle
 10
831.9132354
 20
148.7412253103
 30
0.0
 40
4.070437741203286
100
AcDbArc
 50
90.0
 51
179.9879402696
  0
ARC
  5
215
330
1F
100
AcDbEntity
  8
FORMAT
100
AcDbCircle
 10
832.2159098499
 20
139.1686028267
 30
0.0
 40
1.516173115425971
100
AcDbArc
 50
270.0
 51
359.9875245211
  0
ARC
  5
216
330
1F
100
AcDbEntity
  8
FORMAT
100
AcDbCircle
 10
840.1404748253
 20
139.1686028267
 30
0.0
 40
1.516173115432196
100
AcDbArc
 50
179.9875245209
 51
270.0000000001
  0
ARC
  5
217
330
1F
100
AcDbEntity
  8
FORMAT
100
AcDbCircle
 10
810.4040238288
 20
142.5401599675
 30
0.0
 40
5.576627171136879
100
AcDbArc
 50
199.120265
 51
340.867675
  0
ARC
  5
218
330
1F
100
AcDbEntity
  8
FORMAT
100
AcDbCircle
 10
802.6528835381
 20
145.2291309075
 30
0.0
 40
13.78093948365422
100
AcDbArc
 50
340.8676765204
 51
19.193527
  0
ARC
  5
219
330
1F
100
AcDbEntity
  8
FORMAT
100
AcDbCircle
 10
810.4045904528
 20
147.9275788733
 30
0.0
 40
5.572981058109139
100
AcDbArc
 50
19.1935277085
 51
160.7944202524
  0
ARC
  5
21A
330
1F
100
AcDbEntity
  8
FORMAT
100
AcDbCircle
 10
818.1557291331
 20
145.2275003895
 30
0.0
 40
13.78093906600768
100
AcDbArc
 50
160.7944202524
 51
199.1202687174
  0
ARC
  5
21B
330
1F
100
AcDbEntity
  8
FORMAT
100
AcDbCircle
 10
809.1296287288
 20
145.2284494978
 30
0.0
 40
10.33595430364065
100
AcDbArc
 50
142.997119
 51
216.437586
  0
ARC
  5
21C
330
1F
100
AcDbEntity
  8
FORMAT
100
AcDbCircle
 10
810.4046341722
 20
146.9547887821
 30
0.0
 40
12.40314521073151
100
AcDbArc
 50
219.3563212715
 51
320.61032
  0
ARC
  5
21D
330
1F
100
AcDbEntity
  8
FORMAT
100
AcDbCircle
 10
811.6789843699
 20
145.2281810855
 30
0.0
 40
10.33595433327283
100
AcDbArc
 50
323.5257904376
 51
36.9655204161
  0
ARC
  5
21E
330
1F
100
AcDbEntity
  8
FORMAT
100
AcDbCircle
 10
810.4039804368
 20
143.509303896
 30
0.0
 40
12.40314518251895
100
AcDbArc
 50
39.769147454
 51
140.1968750971
  0
ARC
  5
21F
330
1F
100
AcDbEntity
  8
FORMAT
100
AcDbCircle
 10
860.679139204
 20
145.2284494978
 30
0.0
 40
10.33595430364062
100
AcDbArc
 50
142.997119
 51
216.437586
  0
ARC
  5
220
330
1F
100
AcDbEntity
  8
FORMAT
100
AcDbCircle
 10
861.9541446474
 20
146.9547887821
 30
0.0
 40
12.40314521073014
100
AcDbArc
 50
219.3563212715
 51
320.61032
  0
ARC
  5
221
330
1F
100
AcDbEntity
  8
FORMAT
100
AcDbCircle
 10
863.228494845
 20
145.2281810855
 30
0.0
 40
10.3359543332727
100
AcDbArc
 50
323.5257904376
 51
36.9655204161
  0
ARC
  5
222
330
1F
100
AcDbEntity
  8
FORMAT
100
AcDbCircle
 10
861.953490912
 20
143.509303896
 30
0.0
 40
12.40314518252098
100
AcDbArc
 50
39.769147454
 51
140.1968750971
  0
ARC
  5
223
330
1F
100
AcDbEntity
  8
FORMAT
100
AcDbCircle
 10
861.9535343039
 20
142.5401599675
 30
0.0
 40
5.576627171138172
100
AcDbArc
 50
199.120265
 51
340.867675
  0
ARC
  5
224
330
1F
100
AcDbEntity
  8
FORMAT
100
AcDbCircle
 10
854.2023940133
 20
145.2291309075
 30
0.0
 40
13.78093948365391
100
AcDbArc
 50
340.8676765204
 51
19.193527
  0
ARC
  5
225
330
1F
100
AcDbEntity
  8
FORMAT
100
AcDbCircle
 10
861.954100928
 20
147.9275788733
 30
0.0
 40
5.572981058110461
100
AcDbArc
 50
19.1935277085
 51
160.7944202524
  0
ARC
  5
226
330
1F
100
AcDbEntity
  8
FORMAT
100
AcDbCircle
 10
869.7052396082
 20
145.2275003895
 30
0.0
 40
13.78093906600636
100
AcDbArc
 50
160.7944202524
 51
199.1202687174
  0
CIRCLE
  5
227
330
1F
100
AcDbEntity
  8
G__TOTO
370
     0
100
AcDbCircle
 10
254.8048420922
 20
574.1134171726
 30
0.0
 40
4.762500000000002
  0
CIRCLE
  5
228
330
1F
100
AcDbEntity
  8
G__TOTO
370
     0
100
AcDbCircle
 10
644.8048420922
 20
574.1134171726
 30
0.0
 40
4.80952134406487
  0
CIRCLE
  5
229
330
1F
100
AcDbEntity
  8
G__TOTO
370
     0
100
AcDbCircle
 10
644.8048420922
 20
184.1134171726
 30
0.0
 40
4.767423921045831
  0
CIRCLE
  5
22A
330
1F
100
AcDbEntity
  8
G__TOTO
370
     0
100
AcDbCircle
 10
254.8048420922
 20
184.1134171726
 30
0.0
 40
4.737695095185012
  0
CIRCLE
  5
22B
330
1F
100
AcDbEntity
  8
FORMAT
100
AcDbCircle
 10
876.3418603047
 20
136.9439708141
 30
0.0
 40
2.492094032515114
  0
CIRCLE
  5
22C
330
1F
100
AcDbEntity
  8
FORMAT
100
AcDbCircle
 10
876.3418603047
 20
136.9439708141
 30
0.0
 40
2.848107465732379
  0
ELLIPSE
  5
22D
330
1F
100
AcDbEntity
  8
G__TOTO
100
AcDbEllipse
 10
731.3627825232
 20
56.8487410512
 30
0.0
 11
28.52798961791381
 21
-0.216942886828221
 31
0.0
210
0.0
220
0.0
230
1.0
 40
0.1742830165
 41
0.0
 42
6.283185307179586
  0
ELLIPSE
  5
22E
330
1F
100
AcDbEntity
  8
G__TOTO
  6
CENTERX2
370
     0
100
AcDbEllipse
 10
449.8048420922
 20
379.1134171726
 30
0.0
 11
279.0497937501573
 21
1.023181539494544E-12
 31
0.0
210
0.0
220
0.0
230
1.0
 40
0.8631009509
 41
0.0
 42
6.283185307179586
  0
ELLIPSE
  5
22F
330
1F
100
AcDbEntity
  8
G__TOTO
370
    30
100
AcDbEllipse
 10
449.8048420922
 20
379.1134171726
 30
0.0
 11
209.55
 21
1.136868377216160E-13
 31
0.0
210
0.0
220
0.0
230
1.0
 40
0.8181818182
 41
0.0
 42
6.283185307179586
  0
INSERT
  5
230
330
1F
100
AcDbEntity
  8
G__TOTO
100
AcDbBlockReference
  2
template line scale
 10
-279.8131605379
 20
277.0497901792
 30
0.0
  0
HATCH
  5
231
330
1F
100
AcDbEntity
  8
G__TOTO
100
AcDbHatch
 10
0.0
 20
0.0
 30
0.0
210
0.0
220
0.0
230
1.0
  2
SOLID
 70
     1
 71
     0
 91
        1
 92
        0
 93
       20
 72
     1
 10
791.1734145208314
 20
137.6524297112383
 11
788.5900057570658
 21
137.6524297112383
 72
     2
 10
788.5900057570623
 20
139.1686028266704
 40
1.516173115432237
 50
89.99999999986683
 51
180.0124754791144
 73
     0
 72
     1
 10
787.0738326775707
 20
139.1689329554521
 11
787.0768032209252
 21
152.811663051521
 72
     1
 10
787.0768032209252
 20
152.811663051521
 11
788.8967979313887
 21
152.811663051521
 72
     2
 10
788.8967979313945
 20
148.7412253103211
 40
4.070437741199798
 50
269.9999999999192
 51
360.0120597303048
 73
     0
 72
     1
 10
792.9672355824288
 20
148.7403685564479
 11
792.9670048555992
 21
147.6441853889
 72
     1
 10
792.9670048555992
 20
147.6441853889
 11
795.3788941351578
 21
147.6441853889
 72
     1
 10
795.3788941351578
 20
147.6441853889
 11
795.3804894554871
 21
155.2235522776422
 72
     1
 10
795.3804894554871
 20
155.2235522776422
 11
773.8808450809045
 21
155.2235522776423
 72
     1
 10
773.8808450809045
 20
155.2235522776423
 11
773.8806880556743
 21
147.6441853889
 72
     1
 10
773.8806880556743
 20
147.6441853889
 11
776.292097593323
 21
147.6441853889
 72
     1
 10
776.292097593323
 20
147.6441853889
 11
776.2923286808045
 21
148.7420820641847
 72
     2
 10
780.3627663318422
 20
148.7412253103081
 40
4.070437741202961
 50
180.0120597303528
 51
270.0000000000008
 73
     0
 72
     1
 10
780.3627663318422
 20
152.8116630515107
 11
782.1845845483024
 21
152.8116630515107
 72
     1
 10
782.1845845483024
 20
152.8116630515107
 11
782.1816138611892
 21
139.1682726978816
 72
     2
 10
780.6654407817024
 20
139.1686028266593
 40
1.516173115427684
 50
0.0124754789664526
 51
90.0
 73
     0
 72
     1
 10
780.6654407817024
 20
137.6524297112316
 11
778.0813717603568
 21
137.6524297112316
 72
     1
 10
778.0813717603568
 20
137.6524297112316
 11
778.080846599967
 21
135.2405404851078
 72
     1
 10
778.080846599967
 20
135.2405404851078
 11
791.172889360429
 21
135.2405404851078
 72
     1
 10
791.172889360429
 20
135.2405404851078
 11
791.1734145208314
 21
137.6524297112383
 97
        0
 75
     0
 76
     1
 98
        1
 10
0.0
 20
0.0
  0
HATCH
  5
232
330
1F
100
AcDbEntity
  8
G__TOTO
100
AcDbHatch
 10
0.0
 20
0.0
 30
0.0
210
0.0
220
0.0
230
1.0
  2
SOLID
 70
     1
 71
     0
 91
        2
 92
        0
 93
        4
 72
     2
 10
811.6789843698888
 20
145.2281810855057
 40
10.33595433327278
 50
323.5257904376361
 51
396.9655204161044
 73
     1
 72
     2
 10
810.4039804368219
 20
143.5093038959879
 40
12.40314518251893
 50
39.76914745396029
 51
140.1968750970757
 73
     1
 72
     2
 10
809.1296287288219
 20
145.2284494977892
 40
10.33595430364062
 50
142.9971189999965
 51
216.4375859999901
 73
     1
 72
     2
 10
810.4046341722167
 20
146.9547887821007
 40
12.40314521073148
 50
219.3563212714841
 51
320.6103199999974
 73
     1
 97
        0
 92
        0
 93
        4
 72
     2
 10
818.1557291330938
 20
145.227500389456
 40
13.78093906600759
 50
160.8797312826042
 51
199.2055797476044
 73
     0
 72
     2
 10
810.4045904528311
 20
147.9275788732727
 40
5.57298105810874
 50
199.205579747604
 51
340.8064722915093
 73
     0
 72
     2
 10
802.6528835381259
 20
145.2291309074992
 40
13.7809394836542
 50
340.8064730000008
 51
379.1323234795637
 73
     0
 72
     2
 10
810.404023828775
 20
142.5401599675299
 40
5.576627171136797
 50
19.1323249999821
 51
160.8797349999763
 73
     0
 97
        0
 75
     0
 76
     1
 98
        1
 10
0.0
 20
0.0
  0
HATCH
  5
233
330
1F
100
AcDbEntity
  8
G__TOTO
100
AcDbHatch
 10
0.0
 20
0.0
 30
0.0
210
0.0
220
0.0
230
1.0
  2
SOLID
 70
     1
 71
     0
 91
        1
 92
        0
 93
       20
 72
     1
 10
842.7238835890264
 20
137.6524297112367
 11
840.1404748252608
 21
137.6524297112366
 72
     2
 10
840.1404748252572
 20
139.1686028266688
 40
1.516173115432126
 50
89.99999999986683
 51
180.012475479109
 73
     0
 72
     1
 10
838.6243017457659
 20
139.1689329554503
 11
838.6272722891204
 21
152.8116630515192
 72
     1
 10
838.6272722891204
 20
152.8116630515192
 11
840.4472669995844
 21
152.8116630515192
 72
     2
 10
840.4472669995935
 20
148.74122531032
 40
4.070437741197355
 50
269.9999999998728
 51
360.0120597303048
 73
     0
 72
     1
 10
844.5177046506234
 20
148.7403685564468
 11
844.5174739237938
 21
147.6441853889
 72
     1
 10
844.5174739237938
 20
147.6441853889
 11
846.9293632033543
 21
147.6441853889
 72
     1
 10
846.9293632033543
 20
147.6441853889
 11
846.9309585236817
 21
155.2235522776422
 72
     1
 10
846.9309585236817
 20
155.2235522776422
 11
825.4313141490992
 21
155.2235522776423
 72
     1
 10
825.4313141490992
 20
155.2235522776423
 11
825.4311571238834
 21
147.6441853889
 72
     1
 10
825.4311571238834
 20
147.6441853889
 11
827.8425666615177
 21
147.6441853889
 72
     1
 10
827.8425666615177
 20
147.6441853889
 11
827.8427977489993
 21
148.7420820641848
 72
     2
 10
831.9132354000369
 20
148.7412253103081
 40
4.070437741202961
 50
180.0120597303543
 51
270.0000000000008
 73
     0
 72
     1
 10
831.9132354000369
 20
152.8116630515107
 11
833.7350536164996
 21
152.8116630515107
 72
     1
 10
833.7350536164996
 20
152.8116630515107
 11
833.7320829293828
 21
139.1682726978809
 72
     2
 10
832.2159098498978
 20
139.1686028266569
 40
1.516173115425907
 50
0.0124754788998766
 51
90.0
 73
     0
 72
     1
 10
832.2159098498978
 20
137.6524297112309
 11
829.6318408285499
 21
137.6524297112309
 72
     1
 10
829.6318408285499
 20
137.6524297112309
 11
829.6313156681637
 21
135.240540485106
 72
     1
 10
829.6313156681637
 20
135.240540485106
 11
842.7233584286258
 21
135.2405404851062
 72
     1
 10
842.7233584286258
 20
135.2405404851062
 11
842.7238835890264
 21
137.6524297112367
 97
        0
 75
     0
 76
     1
 98
        1
 10
0.0
 20
0.0
  0
HATCH
  5
234
330
1F
100
AcDbEntity
  8
G__TOTO
100
AcDbHatch
 10
0.0
 20
0.0
 30
0.0
210
0.0
220
0.0
230
1.0
  2
SOLID
 70
     1
 71
     0
 91
        2
 92
        0
 93
        4
 72
     2
 10
863.2284948450368
 20
145.2281810855102
 40
10.33595433327266
 50
323.525790437605
 51
396.9655204161118
 73
     1
 72
     2
 10
861.9534909119717
 20
143.509303895987
 40
12.40314518252089
 50
39.76914745399041
 51
140.1968750970779
 73
     1
 72
     2
 10
860.6791392039698
 20
145.2284494977892
 40
10.3359543036406
 50
142.9971189999965
 51
216.4375859999964
 73
     1
 72
     2
 10
861.9541446473629
 20
146.9547887821007
 40
12.40314521073015
 50
219.3563212714943
 51
320.6103199999926
 73
     1
 97
        0
 92
        0
 93
        4
 72
     2
 10
869.7052396082388
 20
145.2275003894564
 40
13.7809390660063
 50
160.8797312826042
 51
199.2055797476084
 73
     0
 72
     2
 10
861.9541009279792
 20
147.9275788732727
 40
5.572981058110393
 50
199.2055797476078
 51
340.8064722915094
 73
     0
 72
     2
 10
854.2023940132757
 20
145.2291309074992
 40
13.78093948365391
 50
340.8064729999985
 51
379.1323234795685
 73
     0
 72
     2
 10
861.9535343039231
 20
142.5401599675299
 40
5.576627171138178
 50
19.13232499998831
 51
160.879734999991
 73
     0
 97
        0
 75
     0
 76
     1
 98
        1
 10
0.0
 20
0.0
  0
POINT
  5
235
330
1F
100
AcDbEntity
  8
G__TOTO
370
    30
100
AcDbPoint
 10
281.0969460733
 20
277.4188203411
 30
0.0
  0
POINT
  5
236
330
1F
100
AcDbEntity
  8
G__TOTO
100
AcDbPoint
 10
254.8048420922
 20
574.1134171726
 30
0.0
  0
DIMENSION
  5
237
330
1F
100
AcDbEntity
  8
G__TOTO
100
AcDbDimension
  2
*D5
 10
640.6783896479
 20
571.7356458475
 30
0.0
 11
702.1226261913
 21
607.5933190581
 31
0.0
 70
   163
  1
<>
 71
     1
 42
-1.0
  3
SLDDIMSTYLE0
100
AcDbDiametricDimension
 15
648.9312945366
 25
576.4911884977
 35
0.0
 40
0.0
  0
INSERT
  5
253
330
1F
100
AcDbEntity
  8
FORMAT
100
AcDbBlockReference
  2
SW_NOTE_2
 10
702.9598937548
 20
60.1061961086
 30
0.0
  0
INSERT
  5
25D
330
1F
100
AcDbEntity
  8
G__TOTO
100
AcDbBlockReference
  2
SW_NOTE_3
 10
637.8400930498
 20
617.092928633
 30
0.0
  0
INSERT
  5
264
330
1F
100
AcDbEntity
  8
G__TOTO
100
AcDbBlockReference
  2
SW_NOTE_4
 10
125.7744334013
 20
277.1610294671
 30
0.0
  0
LEADER
  5
266
330
1F
100
AcDbEntity
  8
G__TOTO
100
AcDbLeader
  3
SLDDIMSTYLE1
 76
     2
 10
175.8349963562
 20
333.3665343831
 30
0.0
 10
125.7744334013
 20
277.1610294671
 30
0.0
  0
INSERT
  5
26D
330
1F
100
AcDbEntity
  8
G__TOTO
100
AcDbBlockReference
  2
SW_NOTE_5
 10
216.1672171003
 20
539.9976670846
 30
0.0
  0
LEADER
  5
26E
330
1F
100
AcDbEntity
  8
G__TOTO
100
AcDbLeader
  3
SLDDIMSTYLE1
 76
     2
 10
250.7471240002
 20
571.6201602392
 30
0.0
 10
216.1672171003
 20
539.9976670846
 30
0.0
  0
INSERT
  5
275
330
1F
100
AcDbEntity
  8
G__TOTO
100
AcDbBlockReference
  2
SW_NOTE_6
 10
213.2897619279
 20
196.0691109718
 30
0.0
  0
LEADER
  5
276
330
1F
100
AcDbEntity
  8
G__TOTO
100
AcDbLeader
  3
SLDDIMSTYLE1
 76
     2
 10
281.0969460733
 20
277.4188203411
 30
0.0
 10
213.2897619279
 20
196.0691109718
 30
0.0
  0
INSERT
  5
27D
330
1F
100
AcDbEntity
  8
G__TOTO
100
AcDbBlockReference
  2
SW_NOTE_7
 10
688.6145494276
 20
580.7068501753
 30
0.0
  0
MTEXT
  5
27E
330
1F
100
AcDbEntity
  8
G__TOTO
100
AcDbMText
 10
360.3946244239
 20
30.6396445754
 30
0.0
 40
7.4083333333
 41
0.0
 71
     1
 72
     1
  1
PART NUMBER VISIBLE AFTER FINAL FOLD
  7
SLDTEXTSTYLE2
 73
     1
 44
1.0
  0
INSERT
  5
28A
330
1F
100
AcDbEntity
  8
G__TOTO
100
AcDbBlockReference
  2
SW_CENTERMARKSYMBOL_0
 10
644.8048420922
 20
574.1134171726
 30
0.0
  0
INSERT
  5
296
330
1F
100
AcDbEntity
  8
G__TOTO
100
AcDbBlockReference
  2
SW_CENTERMARKSYMBOL_1
 10
644.8048420922
 20
184.1134171726
 30
0.0
  0
INSERT
  5
2A2
330
1F
100
AcDbEntity
  8
G__TOTO
100
AcDbBlockReference
  2
SW_CENTERMARKSYMBOL_2
 10
254.8048420922
 20
184.1134171726
 30
0.0
  0
INSERT
  5
2AE
330
1F
100
AcDbEntity
  8
G__TOTO
100
AcDbBlockReference
  2
SW_CENTERMARKSYMBOL_3
 10
254.8048420922
 20
574.1134171726
 30
0.0
  0
INSERT
  5
2BA
330
1F
100
AcDbEntity
  8
G__TOTO
100
AcDbBlockReference
  2
SW_CENTERMARKSYMBOL_4
 10
449.8048420922
 20
379.1134171726
 30
0.0
  0
ENDSEC
  0
SECTION
  2
OBJECTS
  0
DICTIONARY
  5
C
330
0
100
AcDbDictionary
281
     1
  3
ACAD_GROUP
350
D
  3
ACAD_LAYOUT
350
1A
  3
ACAD_MLEADERSTYLE
350
2BE
  3
ACAD_MLINESTYLE
350
17
  3
ACAD_PLOTSETTINGS
350
19
  3
ACAD_PLOTSTYLENAME
350
E
  3
ACAD_SCALELIST
350
3B
  3
ACAD_TABLESTYLE
350
2BD
  3
ACAD_VISUALSTYLE
350
2A
  3
AcDbVariableDictionary
350
2BB
  0
DICTIONARY
  5
D
102
{ACAD_REACTORS
330
C
102
}
330
C
100
AcDbDictionary
281
     1
  0
DICTIONARY
  5
1A
102
{ACAD_REACTORS
330
C
102
}
330
C
100
AcDbDictionary
281
     1
  3
Layout1
350
1E
  3
Layout2
350
26
  3
Model
350
22
  0
DICTIONARY
  5
2BE
102
{ACAD_REACTORS
330
C
102
}
330
C
100
AcDbDictionary
281
     1
  0
DICTIONARY
  5
17
102
{ACAD_REACTORS
330
C
102
}
330
C
100
AcDbDictionary
281
     1
  3
Standard
350
18
  0
DICTIONARY
  5
19
102
{ACAD_REACTORS
330
C
102
}
330
C
100
AcDbDictionary
281
     1
  0
ACDBDICTIONARYWDFLT
  5
E
102
{ACAD_REACTORS
330
C
102
}
330
C
100
AcDbDictionary
281
     1
  3
Normal
350
F
100
AcDbDictionaryWithDefault
340
F
  0
DICTIONARY
  5
3B
102
{ACAD_REACTORS
330
C
102
}
330
C
100
AcDbDictionary
281
     1
  3
A0
350
3C
  3
A1
350
3D
  3
A2
350
3E
  3
A3
350
3F
  3
A4
350
40
  3
A5
350
41
  3
A6
350
42
  3
A7
350
43
  3
A8
350
44
  3
A9
350
45
  3
B0
350
46
  3
B1
350
47
  3
B2
350
48
  3
B3
350
49
  3
B4
350
4A
  3
B5
350
4B
  3
B6
350
4C
  3
B7
350
4D
  3
B8
350
4E
  3
B9
350
4F
  3
C0
350
50
  3
C1
350
51
  3
C2
350
52
  3
C3
350
53
  3
C4
350
54
  3
C5
350
55
  3
C6
350
56
  3
C7
350
57
  3
C8
350
58
  3
C9
350
59
  3
D0
350
5A
  3
D1
350
5B
  3
D2
350
5C
  0
DICTIONARY
  5
2BD
102
{ACAD_REACTORS
330
C
102
}
330
C
100
AcDbDictionary
281
     1
  0
DICTIONARY
  5
2A
102
{ACAD_REACTORS
330
C
102
}
330
C
100
AcDbDictionary
281
     1
  3
2dWireframe
350
2F
  3
3D Hidden
350
31
  3
3dWireframe
350
30
  3
Basic
350
32
  3
Brighten
350
36
  3
ColorChange
350
3A
  3
Conceptual
350
34
  3
Dim
350
35
  3
Facepattern
350
39
  3
Flat
350
2B
  3
FlatWithEdges
350
2C
  3
Gouraud
350
2D
  3
GouraudWithEdges
350
2E
  3
Linepattern
350
38
  3
Realistic
350
33
  3
Thicken
350
37
  0
DICTIONARY
  5
2BB
102
{ACAD_REACTORS
330
C
102
}
330
C
100
AcDbDictionary
281
     1
  3
CANNOSCALE
350
2BC
  3
PSOLHEIGHT
350
2C0
  3
PSOLWIDTH
350
2BF
  0
LAYOUT
  5
1E
102
{ACAD_REACTORS
330
1A
102
}
330
1A
100
AcDbPlotSettings
  1

  2
none_device
  4

  6

 40
0.0
 41
0.0
 42
0.0
 43
0.0
 44
0.0
 45
0.0
 46
0.0
 47
0.0
 48
0.0
 49
0.0
140
0.0
141
0.0
142
1.0
143
1.0
 70
   688
 72
     0
 73
     0
 74
     5
  7

 75
    16
147
1.0
148
0.0
149
0.0
100
AcDbLayout
  1
Layout1
 70
     1
 71
     1
 10
0.0
 20
0.0
 11
420.0
 21
297.0
 12
0.0
 22
0.0
 32
0.0
 14
1.0000000000E+20
 24
1.0000000000E+20
 34
1.0000000000E+20
 15
-1.0000000000E+20
 25
-1.0000000000E+20
 35
-1.0000000000E+20
146
0.0
 13
0.0
 23
0.0
 33
0.0
 16
1.0
 26
0.0
 36
0.0
 17
0.0
 27
1.0
 37
0.0
 76
     0
330
1B
  0
LAYOUT
  5
26
102
{ACAD_REACTORS
330
1A
102
}
330
1A
100
AcDbPlotSettings
  1

  2
none_device
  4

  6

 40
0.0
 41
0.0
 42
0.0
 43
0.0
 44
0.0
 45
0.0
 46
0.0
 47
0.0
 48
0.0
 49
0.0
140
0.0
141
0.0
142
1.0
143
1.0
 70
   688
 72
     0
 73
     0
 74
     5
  7

 75
    16
147
1.0
148
0.0
149
0.0
100
AcDbLayout
  1
Layout2
 70
     1
 71
     2
 10
0.0
 20
0.0
 11
0.0
 21
0.0
 12
0.0
 22
0.0
 32
0.0
 14
0.0
 24
0.0
 34
0.0
 15
0.0
 25
0.0
 35
0.0
146
0.0
 13
0.0
 23
0.0
 33
0.0
 16
1.0
 26
0.0
 36
0.0
 17
0.0
 27
1.0
 37
0.0
 76
     0
330
23
  0
LAYOUT
  5
22
102
{ACAD_REACTORS
330
1A
102
}
330
1A
100
AcDbPlotSettings
  1

  2
none_device
  4

  6

 40
0.0
 41
0.0
 42
0.0
 43
0.0
 44
0.0
 45
0.0
 46
0.0
 47
0.0
 48
0.0
 49
0.0
140
0.0
141
0.0
142
1.0
143
1.0
 70
  1712
 72
     0
 73
     0
 74
     0
  7

 75
     0
147
1.0
148
0.0
149
0.0
100
AcDbLayout
  1
Model
 70
     1
 71
     0
 10
0.0
 20
0.0
 11
909.0
 21
680.0
 12
0.0
 22
0.0
 32
0.0
 14
0.0
 24
0.0
 34
0.0
 15
909.0
 25
680.0
 35
0.0
146
0.0
 13
0.0
 23
0.0
 33
0.0
 16
1.0
 26
0.0
 36
0.0
 17
0.0
 27
1.0
 37
0.0
 76
     0
330
1F
331
29
  0
MLINESTYLE
  5
18
102
{ACAD_REACTORS
330
17
102
}
330
17
100
AcDbMlineStyle
  2
Standard
 70
     0
  3

 62
   256
 51
90.0
 52
90.0
 71
     2
 49
0.5
 62
   256
  6
BYLAYER
 49
-0.5
 62
   256
  6
BYLAYER
  0
ACDBPLACEHOLDER
  5
F
102
{ACAD_REACTORS
330
E
102
}
330
E
  0
SCALE
  5
3C
102
{ACAD_REACTORS
330
3B
102
}
330
3B
100
AcDbScale
 70
     0
300
1:1
140
1.0
141
1.0
290
     1
  0
SCALE
  5
3D
102
{ACAD_REACTORS
330
3B
102
}
330
3B
100
AcDbScale
 70
     0
300
1:2
140
1.0
141
2.0
290
     0
  0
SCALE
  5
3E
102
{ACAD_REACTORS
330
3B
102
}
330
3B
100
AcDbScale
 70
     0
300
1:4
140
1.0
141
4.0
290
     0
  0
SCALE
  5
3F
102
{ACAD_REACTORS
330
3B
102
}
330
3B
100
AcDbScale
 70
     0
300
1:5
140
1.0
141
5.0
290
     0
  0
SCALE
  5
40
102
{ACAD_REACTORS
330
3B
102
}
330
3B
100
AcDbScale
 70
     0
300
1:8
140
1.0
141
8.0
290
     0
  0
SCALE
  5
41
102
{ACAD_REACTORS
330
3B
102
}
330
3B
100
AcDbScale
 70
     0
300
1:10
140
1.0
141
10.0
290
     0
  0
SCALE
  5
42
102
{ACAD_REACTORS
330
3B
102
}
330
3B
100
AcDbScale
 70
     0
300
1:16
140
1.0
141
16.0
290
     0
  0
SCALE
  5
43
102
{ACAD_REACTORS
330
3B
102
}
330
3B
100
AcDbScale
 70
     0
300
1:20
140
1.0
141
20.0
290
     0
  0
SCALE
  5
44
102
{ACAD_REACTORS
330
3B
102
}
330
3B
100
AcDbScale
 70
     0
300
1:30
140
1.0
141
30.0
290
     0
  0
SCALE
  5
45
102
{ACAD_REACTORS
330
3B
102
}
330
3B
100
AcDbScale
 70
     0
300
1:40
140
1.0
141
40.0
290
     0
  0
SCALE
  5
46
102
{ACAD_REACTORS
330
3B
102
}
330
3B
100
AcDbScale
 70
     0
300
1:50
140
1.0
141
50.0
290
     0
  0
SCALE
  5
47
102
{ACAD_REACTORS
330
3B
102
}
330
3B
100
AcDbScale
 70
     0
300
1:100
140
1.0
141
100.0
290
     0
  0
SCALE
  5
48
102
{ACAD_REACTORS
330
3B
102
}
330
3B
100
AcDbScale
 70
     0
300
2:1
140
2.0
141
1.0
290
     0
  0
SCALE
  5
49
102
{ACAD_REACTORS
330
3B
102
}
330
3B
100
AcDbScale
 70
     0
300
4:1
140
4.0
141
1.0
290
     0
  0
SCALE
  5
4A
102
{ACAD_REACTORS
330
3B
102
}
330
3B
100
AcDbScale
 70
     0
300
8:1
140
8.0
141
1.0
290
     0
  0
SCALE
  5
4B
102
{ACAD_REACTORS
330
3B
102
}
330
3B
100
AcDbScale
 70
     0
300
10:1
140
10.0
141
1.0
290
     0
  0
SCALE
  5
4C
102
{ACAD_REACTORS
330
3B
102
}
330
3B
100
AcDbScale
 70
     0
300
100:1
140
100.0
141
1.0
290
     0
  0
SCALE
  5
4D
102
{ACAD_REACTORS
330
3B
102
}
330
3B
100
AcDbScale
 70
     0
300
1/128" = 1'-0"
140
0.0078125
141
12.0
290
     0
  0
SCALE
  5
4E
102
{ACAD_REACTORS
330
3B
102
}
330
3B
100
AcDbScale
 70
     0
300
1/64" = 1'-0"
140
0.015625
141
12.0
290
     0
  0
SCALE
  5
4F
102
{ACAD_REACTORS
330
3B
102
}
330
3B
100
AcDbScale
 70
     0
300
1/32" = 1'-0"
140
0.03125
141
12.0
290
     0
  0
SCALE
  5
50
102
{ACAD_REACTORS
330
3B
102
}
330
3B
100
AcDbScale
 70
     0
300
1/16" = 1'-0"
140
0.0625
141
12.0
290
     0
  0
SCALE
  5
51
102
{ACAD_REACTORS
330
3B
102
}
330
3B
100
AcDbScale
 70
     0
300
3/32" = 1'-0"
140
0.09375
141
12.0
290
     0
  0
SCALE
  5
52
102
{ACAD_REACTORS
330
3B
102
}
330
3B
100
AcDbScale
 70
     0
300
1/8" = 1'-0"
140
0.125
141
12.0
290
     0
  0
SCALE
  5
53
102
{ACAD_REACTORS
330
3B
102
}
330
3B
100
AcDbScale
 70
     0
300
3/16" = 1'-0"
140
0.1875
141
12.0
290
     0
  0
SCALE
  5
54
102
{ACAD_REACTORS
330
3B
102
}
330
3B
100
AcDbScale
 70
     0
300
1/4" = 1'-0"
140
0.25
141
12.0
290
     0
  0
SCALE
  5
55
102
{ACAD_REACTORS
330
3B
102
}
330
3B
100
AcDbScale
 70
     0
300
3/8" = 1'-0"
140
0.375
141
12.0
290
     0
  0
SCALE
  5
56
102
{ACAD_REACTORS
330
3B
102
}
330
3B
100
AcDbScale
 70
     0
300
1/2" = 1'-0"
140
0.5
141
12.0
290
     0
  0
SCALE
  5
57
102
{ACAD_REACTORS
330
3B
102
}
330
3B
100
AcDbScale
 70
     0
300
3/4" = 1'-0"
140
0.75
141
12.0
290
     0
  0
SCALE
  5
58
102
{ACAD_REACTORS
330
3B
102
}
330
3B
100
AcDbScale
 70
     0
300
1" = 1'-0"
140
1.0
141
12.0
290
     0
  0
SCALE
  5
59
102
{ACAD_REACTORS
330
3B
102
}
330
3B
100
AcDbScale
 70
     0
300
1-1/2" = 1'-0"
140
1.5
141
12.0
290
     0
  0
SCALE
  5
5A
102
{ACAD_REACTORS
330
3B
102
}
330
3B
100
AcDbScale
 70
     0
300
3" = 1'-0"
140
3.0
141
12.0
290
     0
  0
SCALE
  5
5B
102
{ACAD_REACTORS
330
3B
102
}
330
3B
100
AcDbScale
 70
     0
300
6" = 1'-0"
140
6.0
141
12.0
290
     0
  0
SCALE
  5
5C
102
{ACAD_REACTORS
330
3B
102
}
330
3B
100
AcDbScale
 70
     0
300
1'-0" = 1'-0"
140
12.0
141
12.0
290
     0
  0
VISUALSTYLE
  5
2F
102
{ACAD_REACTORS
330
2A
102
}
330
2A
100
AcDbVisualStyle
  2
2dWireframe
 70
     4
 71
     0
 72
     2
 73
     0
 90
        0
 40
-0.6
 41
-30.0
 62
     5
 63
     7
 74
     1
 91
        4
 64
     7
 65
   257
 75
     1
175
     1
 42
1.0
 92
        0
 66
   257
 43
1.0
 76
     1
 77
     6
 78
     2
 67
     7
 79
     5
170
     0
171
     0
290
     0
174
     0
 93
        1
 44
0.0
173
     0
291
     0
 45
0.0
1001
ACAD
1000
AcDbSavedByObjectVersion
1070
     0
  0
VISUALSTYLE
  5
31
102
{ACAD_REACTORS
330
2A
102
}
330
2A
100
AcDbVisualStyle
  2
3D Hidden
 70
     6
 71
     1
 72
     2
 73
     2
 90
        0
 40
-0.6
 41
-30.0
 62
     5
 63
     7
 74
     2
 91
        2
 64
     7
 65
   257
 75
     2
175
     1
 42
40.0
 92
        0
 66
   257
 43
1.0
 76
     1
 77
     6
 78
     2
 67
     7
 79
     3
170
     0
171
     0
290
     0
174
     0
 93
        1
 44
0.0
173
     0
291
     0
 45
0.0
1001
ACAD
1000
AcDbSavedByObjectVersion
1070
     0
  0
VISUALSTYLE
  5
30
102
{ACAD_REACTORS
330
2A
102
}
330
2A
100
AcDbVisualStyle
  2
3dWireframe
 70
     5
 71
     0
 72
     2
 73
     0
 90
        0
 40
-0.6
 41
-30.0
 62
     5
 63
     7
 74
     1
 91
        4
 64
     7
 65
   257
 75
     1
175
     1
 42
1.0
 92
        0
 66
   257
 43
1.0
 76
     1
 77
     6
 78
     2
 67
     7
 79
     5
170
     0
171
     0
290
     0
174
     0
 93
        1
 44
0.0
173
     0
291
     0
 45
0.0
1001
ACAD
1000
AcDbSavedByObjectVersion
1070
     0
  0
VISUALSTYLE
  5
32
102
{ACAD_REACTORS
330
2A
102
}
330
2A
100
AcDbVisualStyle
  2
Basic
 70
     7
 71
     1
 72
     0
 73
     1
 90
        0
 40
-0.6
 41
-30.0
 62
     5
 63
     7
 74
     0
 91
        4
 64
     7
 65
   257
 75
     1
175
     1
 42
1.0
 92
        8
 66
     7
 43
1.0
 76
     1
 77
     6
 78
     2
 67
     7
 79
     5
170
     0
171
     0
290
     0
174
     0
 93
        1
 44
0.0
173
     0
291
     1
 45
0.0
1001
ACAD
1000
AcDbSavedByObjectVersion
1070
     0
  0
VISUALSTYLE
  5
36
102
{ACAD_REACTORS
330
2A
102
}
330
2A
100
AcDbVisualStyle
  2
Brighten
 70
    12
 71
     2
 72
     2
 73
     0
 90
        0
 40
-0.6
 41
-30.0
 62
     5
 63
     7
 74
     1
 91
        4
 64
     7
 65
   257
 75
     1
175
     1
 42
1.0
 92
        8
 66
     7
 43
1.0
 76
     1
 77
     6
 78
     2
 67
     7
 79
     5
170
     0
171
     0
290
     0
174
     0
 93
        1
 44
50.0
173
     0
291
     1
 45
0.0
1001
ACAD
1000
AcDbSavedByObjectVersion
1070
     0
  0
VISUALSTYLE
  5
3A
102
{ACAD_REACTORS
330
2A
102
}
330
2A
100
AcDbVisualStyle
  2
ColorChange
 70
    16
 71
     2
 72
     2
 73
     3
 90
        0
 40
-0.6
 41
-30.0
 62
     5
 63
     8
 74
     1
 91
        4
 64
     7
 65
   257
 75
     1
175
     1
 42
1.0
 92
        8
 66
     8
 43
1.0
 76
     1
 77
     6
 78
     2
 67
     7
 79
     5
170
     0
171
     0
290
     0
174
     0
 93
        1
 44
0.0
173
     0
291
     1
 45
0.0
1001
ACAD
1000
AcDbSavedByObjectVersion
1070
     0
  0
VISUALSTYLE
  5
34
102
{ACAD_REACTORS
330
2A
102
}
330
2A
100
AcDbVisualStyle
  2
Conceptual
 70
     9
 71
     3
 72
     2
 73
     0
 90
        0
 40
-0.6
 41
-30.0
 62
     5
 63
     7
 74
     2
 91
        2
 64
     7
 65
   257
 75
     1
175
     1
 42
40.0
 92
        8
 66
     7
 43
1.0
 76
     1
 77
     6
 78
     2
 67
     7
 79
     3
170
     0
171
     0
290
     0
174
     0
 93
        1
 44
0.0
173
     0
291
     0
 45
0.0
1001
ACAD
1000
AcDbSavedByObjectVersion
1070
     0
  0
VISUALSTYLE
  5
35
102
{ACAD_REACTORS
330
2A
102
}
330
2A
100
AcDbVisualStyle
  2
Dim
 70
    11
 71
     2
 72
     2
 73
     0
 90
        0
 40
-0.6
 41
-30.0
 62
     5
 63
     7
 74
     1
 91
        4
 64
     7
 65
   257
 75
     1
175
     1
 42
1.0
 92
        8
 66
     7
 43
1.0
 76
     1
 77
     6
 78
     2
 67
     7
 79
     5
170
     0
171
     0
290
     0
174
     0
 93
        1
 44
-50.0
173
     0
291
     1
 45
0.0
1001
ACAD
1000
AcDbSavedByObjectVersion
1070
     0
  0
VISUALSTYLE
  5
39
102
{ACAD_REACTORS
330
2A
102
}
330
2A
100
AcDbVisualStyle
  2
Facepattern
 70
    15
 71
     2
 72
     2
 73
     0
 90
        0
 40
-0.6
 41
-30.0
 62
     5
 63
     7
 74
     1
 91
        4
 64
     7
 65
   257
 75
     1
175
     1
 42
1.0
 92
        8
 66
     7
 43
1.0
 76
     1
 77
     6
 78
     2
 67
     7
 79
     5
170
     0
171
     0
290
     0
174
     0
 93
        1
 44
0.0
173
     0
291
     1
 45
0.0
1001
ACAD
1000
AcDbSavedByObjectVersion
1070
     0
  0
VISUALSTYLE
  5
2B
102
{ACAD_REACTORS
330
2A
102
}
330
2A
100
AcDbVisualStyle
  2
Flat
 70
     0
 71
     2
 72
     1
 73
     1
 90
        2
 40
-0.6
 41
30.0
 62
     5
 63
     7
 74
     0
 91
        4
 64
     7
 65
   257
 75
     1
175
     1
 42
1.0
 92
        8
 66
     7
 43
1.0
 76
     1
 77
     6
 78
     2
 67
     7
 79
     5
170
     0
171
     0
290
     0
174
     0
 93
       13
 44
0.0
173
     0
291
     1
 45
0.0
1001
ACAD
1000
AcDbSavedByObjectVersion
1070
     0
  0
VISUALSTYLE
  5
2C
102
{ACAD_REACTORS
330
2A
102
}
330
2A
100
AcDbVisualStyle
  2
FlatWithEdges
 70
     1
 71
     2
 72
     1
 73
     1
 90
        2
 40
-0.6
 41
30.0
 62
     5
 63
     7
 74
     1
 91
        4
 64
     7
 65
   257
 75
     1
175
     1
 42
1.0
 92
        0
 66
   257
 43
1.0
 76
     1
 77
     6
 78
     2
 67
     7
 79
     5
170
     0
171
     0
290
     0
174
     0
 93
       13
 44
0.0
173
     0
291
     1
 45
0.0
1001
ACAD
1000
AcDbSavedByObjectVersion
1070
     0
  0
VISUALSTYLE
  5
2D
102
{ACAD_REACTORS
330
2A
102
}
330
2A
100
AcDbVisualStyle
  2
Gouraud
 70
     2
 71
     2
 72
     2
 73
     1
 90
        2
 40
-0.6
 41
30.0
 62
     5
 63
     7
 74
     0
 91
        4
 64
     7
 65
   257
 75
     1
175
     1
 42
1.0
 92
        0
 66
     7
 43
1.0
 76
     1
 77
     6
 78
     2
 67
     7
 79
     5
170
     0
171
     0
290
     0
174
     0
 93
       13
 44
0.0
173
     0
291
     1
 45
0.0
1001
ACAD
1000
AcDbSavedByObjectVersion
1070
     0
  0
VISUALSTYLE
  5
2E
102
{ACAD_REACTORS
330
2A
102
}
330
2A
100
AcDbVisualStyle
  2
GouraudWithEdges
 70
     3
 71
     2
 72
     2
 73
     1
 90
        2
 40
-0.6
 41
30.0
 62
     5
 63
     7
 74
     1
 91
        4
 64
     7
 65
   257
 75
     1
175
     1
 42
1.0
 92
        0
 66
   257
 43
1.0
 76
     1
 77
     6
 78
     2
 67
     7
 79
     5
170
     0
171
     0
290
     0
174
     0
 93
       13
 44
0.0
173
     0
291
     1
 45
0.0
1001
ACAD
1000
AcDbSavedByObjectVersion
1070
     0
  0
VISUALSTYLE
  5
38
102
{ACAD_REACTORS
330
2A
102
}
330
2A
100
AcDbVisualStyle
  2
Linepattern
 70
    14
 71
     2
 72
     2
 73
     0
 90
        0
 40
-0.6
 41
-30.0
 62
     5
 63
     7
 74
     1
 91
        4
 64
     7
 65
   257
 75
     7
175
     7
 42
1.0
 92
        8
 66
     7
 43
1.0
 76
     1
 77
     6
 78
     2
 67
     7
 79
     5
170
     0
171
     0
290
     0
174
     0
 93
        1
 44
0.0
173
     0
291
     1
 45
0.0
1001
ACAD
1000
AcDbSavedByObjectVersion
1070
     0
  0
VISUALSTYLE
  5
33
102
{ACAD_REACTORS
330
2A
102
}
330
2A
100
AcDbVisualStyle
  2
Realistic
 70
     8
 71
     2
 72
     2
 73
     0
 90
        0
 40
-0.6
 41
-30.0
 62
     5
 63
     7
 74
     1
 91
        0
 64
     7
 65
   257
 75
     1
175
     1
 42
1.0
 92
        8
 66
     8
 43
1.0
 76
     1
 77
     6
 78
     2
 67
     7
 79
     5
170
     0
171
     0
290
     0
174
     0
 93
       13
 44
0.0
173
     0
291
     0
 45
0.0
1001
ACAD
1000
AcDbSavedByObjectVersion
1070
     0
  0
VISUALSTYLE
  5
37
102
{ACAD_REACTORS
330
2A
102
}
330
2A
100
AcDbVisualStyle
  2
Thicken
 70
    13
 71
     2
 72
     2
 73
     0
 90
        0
 40
-0.6
 41
-30.0
 62
     5
 63
     7
 74
     1
 91
        4
 64
     7
 65
   257
 75
     1
175
     1
 42
1.0
 92
       12
 66
     7
 43
1.0
 76
     1
 77
     6
 78
     2
 67
     7
 79
     5
170
     0
171
     0
290
     0
174
     0
 93
        1
 44
0.0
173
     0
291
     1
 45
0.0
1001
ACAD
1000
AcDbSavedByObjectVersion
1070
     0
  0
DICTIONARYVAR
  5
2BC
102
{ACAD_REACTORS
330
2BB
102
}
330
2BB
100
DictionaryVariables
280
     0
  1
1:1
  0
DICTIONARYVAR
  5
2C0
102
{ACAD_REACTORS
330
2BB
102
}
330
2BB
100
DictionaryVariables
280
     0
  1
80.000000
  0
DICTIONARYVAR
  5
2BF
102
{ACAD_REACTORS
330
2BB
102
}
330
2BB
100
DictionaryVariables
280
     0
  1
5.000000
  0
ENDSEC
  0
EOF
