  0
SECTION
  2
HEADER
  9
$ACADVER
  1
AC1015
  9
$ACADMAINTVER
 70
     6
  9
$DWGCODEPAGE
  3
ANSI_1252
  9
$INSBASE
 10
0.0
 20
0.0
 30
0.0
  9
$EXTMIN
 10
0.0
 20
0.0
 30
0.0
  9
$EXTMAX
 10
909.0
 20
680.0
 30
0.0
  9
$LIMMIN
 10
0.0
 20
0.0
  9
$LIMMAX
 10
909.0
 20
680.0
  9
$ORTHOMODE
 70
     0
  9
$REGENMODE
 70
     1
  9
$FILLMODE
 70
     1
  9
$QTEXTMODE
 70
     0
  9
$MIRRTEXT
 70
     1
  9
$LTSCALE
 40
1.0
  9
$ATTMODE
 70
     1
  9
$TEXTSIZE
 40
4.9388888889
  9
$TRACEWID
 40
1.0
  9
$TEXTSTYLE
  7
Standard
  9
$CLAYER
  8
0
  9
$CELTYPE
  6
ByLayer
  9
$CECOLOR
 62
   256
  9
$CELTSCALE
 40
1.0
  9
$DISPSILH
 70
     0
  9
$DIMSCALE
 40
1.0
  9
$DIMASZ
 40
3.5956461589
  9
$DIMEXO
 40
1.0
  9
$DIMDLI
 40
3.75
  9
$DIMRND
 40
0.0
  9
$DIMDLE
 40
0.0
  9
$DIMEXE
 40
1.0
  9
$DIMTP
 40
0.0
  9
$DIMTM
 40
0.0
  9
$DIMTXT
 40
4.9388888889
  9
$DIMCEN
 40
2.5
  9
$DIMTSZ
 40
0.0
  9
$DIMTOL
 70
     0
  9
$DIMLIM
 70
     0
  9
$DIMTIH
 70
     1
  9
$DIMTOH
 70
     1
  9
$DIMSE1
 70
     0
  9
$DIMSE2
 70
     0
  9
$DIMTAD
 70
     1
  9
$DIMZIN
 70
     0
  9
$DIMBLK
  1

  9
$DIMASO
 70
     1
  9
$DIMSHO
 70
     1
  9
$DIMPOST
  1

  9
$DIMAPOST
  1

  9
$DIMALT
 70
     0
  9
$DIMALTD
 70
     3
  9
$DIMALTF
 40
0.0393700787
  9
$DIMLFAC
 40
10.0
  9
$DIMTOFL
 70
     1
  9
$DIMTVP
 40
0.0
  9
$DIMTIX
 70
     0
  9
$DIMSOXD
 70
     0
  9
$DIMSAH
 70
     0
  9
$DIMBLK1
  1

  9
$DIMBLK2
  1

  9
$DIMSTYLE
  2
ISO-25
  9
$DIMCLRD
 70
     0
  9
$DIMCLRE
 70
     0
  9
$DIMCLRT
 70
     0
  9
$DIMTFAC
 40
1.0
  9
$DIMGAP
 40
1.524
  9
$DIMJUST
 70
     0
  9
$DIMSD1
 70
     0
  9
$DIMSD2
 70
     0
  9
$DIMTOLJ
 70
     0
  9
$DIMTZIN
 70
     0
  9
$DIMALTZ
 70
     0
  9
$DIMALTTZ
 70
     0
  9
$DIMUPT
 70
     0
  9
$DIMDEC
 70
     2
  9
$DIMTDEC
 70
     2
  9
$DIMALTU
 70
     2
  9
$DIMALTTD
 70
     3
  9
$DIMTXSTY
  7
Standard
  9
$DIMAUNIT
 70
     0
  9
$DIMADEC
 70
     0
  9
$DIMALTRND
 40
0.0
  9
$DIMAZIN
 70
     0
  9
$DIMDSEP
 70
    44
  9
$DIMATFIT
 70
     3
  9
$DIMFRAC
 70
     0
  9
$DIMLDRBLK
  1

  9
$DIMLUNIT
 70
     2
  9
$DIMLWD
 70
    -2
  9
$DIMLWE
 70
    -2
  9
$DIMTMOVE
 70
     0
  9
$LUNITS
 70
     2
  9
$LUPREC
 70
     2
  9
$SKETCHINC
 40
1.0
  9
$FILLETRAD
 40
10.0
  9
$AUNITS
 70
     0
  9
$AUPREC
 70
     0
  9
$MENU
  1
.
  9
$ELEVATION
 40
0.0
  9
$PELEVATION
 40
0.0
  9
$THICKNESS
 40
0.0
  9
$LIMCHECK
 70
     0
  9
$CHAMFERA
 40
10.0
  9
$CHAMFERB
 40
10.0
  9
$CHAMFERC
 40
20.0
  9
$CHAMFERD
 40
0.0
  9
$SKPOLY
 70
     0
  9
$TDCREATE
 40
2454929.645264977
  9
$TDUCREATE
 40
2454929.811931644
  9
$TDUPDATE
 40
2454929.645264988
  9
$TDUUPDATE
 40
2454929.811931655
  9
$TDINDWG
 40
0.0000000116
  9
$TDUSRTIMER
 40
0.0000000116
  9
$USRTIMER
 70
     1
  9
$ANGBASE
 50
0.0
  9
$ANGDIR
 70
     0
  9
$PDMODE
 70
     0
  9
$PDSIZE
 40
-1.0
  9
$PLINEWID
 40
0.0
  9
$SPLFRAME
 70
     0
  9
$SPLINETYPE
 70
     6
  9
$SPLINESEGS
 70
     8
  9
$HANDSEED
  5
2C9
  9
$SURFTAB1
 70
     6
  9
$SURFTAB2
 70
     6
  9
$SURFTYPE
 70
     6
  9
$SURFU
 70
     6
  9
$SURFV
 70
     6
  9
$UCSBASE
  2

  9
$UCSNAME
  2

  9
$UCSORG
 10
0.0
 20
0.0
 30
0.0
  9
$UCSXDIR
 10
1.0
 20
0.0
 30
0.0
  9
$UCSYDIR
 10
0.0
 20
1.0
 30
0.0
  9
$UCSORTHOREF
  2

  9
$UCSORTHOVIEW
 70
     0
  9
$UCSORGTOP
 10
0.0
 20
0.0
 30
0.0
  9
$UCSORGBOTTOM
 10
0.0
 20
0.0
 30
0.0
  9
$UCSORGLEFT
 10
0.0
 20
0.0
 30
0.0
  9
$UCSORGRIGHT
 10
0.0
 20
0.0
 30
0.0
  9
$UCSORGFRONT
 10
0.0
 20
0.0
 30
0.0
  9
$UCSORGBACK
 10
0.0
 20
0.0
 30
0.0
  9
$PUCSBASE
  2

  9
$PUCSNAME
  2

  9
$PUCSORG
 10
0.0
 20
0.0
 30
0.0
  9
$PUCSXDIR
 10
1.0
 20
0.0
 30
0.0
  9
$PUCSYDIR
 10
0.0
 20
1.0
 30
0.0
  9
$PUCSORTHOREF
  2

  9
$PUCSORTHOVIEW
 70
     0
  9
$PUCSORGTOP
 10
0.0
 20
0.0
 30
0.0
  9
$PUCSORGBOTTOM
 10
0.0
 20
0.0
 30
0.0
  9
$PUCSORGLEFT
 10
0.0
 20
0.0
 30
0.0
  9
$PUCSORGRIGHT
 10
0.0
 20
0.0
 30
0.0
  9
$PUCSORGFRONT
 10
0.0
 20
0.0
 30
0.0
  9
$PUCSORGBACK
 10
0.0
 20
0.0
 30
0.0
  9
$USERI1
 70
     0
  9
$USERI2
 70
     0
  9
$USERI3
 70
     0
  9
$USERI4
 70
     0
  9
$USERI5
 70
     0
  9
$USERR1
 40
0.0
  9
$USERR2
 40
0.0
  9
$USERR3
 40
0.0
  9
$USERR4
 40
0.0
  9
$USERR5
 40
0.0
  9
$WORLDVIEW
 70
     1
  9
$SHADEDGE
 70
     3
  9
$SHADEDIF
 70
    70
  9
$TILEMODE
 70
     1
  9
$MAXACTVP
 70
    64
  9
$PINSBASE
 10
0.0
 20
0.0
 30
0.0
  9
$PLIMCHECK
 70
     0
  9
$PEXTMIN
 10
1.0000000000E+20
 20
1.0000000000E+20
 30
1.0000000000E+20
  9
$PEXTMAX
 10
-1.0000000000E+20
 20
-1.0000000000E+20
 30
-1.0000000000E+20
  9
$PLIMMIN
 10
0.0
 20
0.0
  9
$PLIMMAX
 10
420.0
 20
297.0
  9
$UNITMODE
 70
     0
  9
$VISRETAIN
 70
     1
  9
$PLINEGEN
 70
     0
  9
$PSLTSCALE
 70
     1
  9
$TREEDEPTH
 70
  3020
  9
$CMLSTYLE
  2
Standard
  9
$CMLJUST
 70
     0
  9
$CMLSCALE
 40
20.0
  9
$PROXYGRAPHICS
 70
     1
  9
$MEASUREMENT
 70
     1
  9
$CELWEIGHT
370
    -1
  9
$ENDCAPS
280
     0
  9
$JOINSTYLE
280
     0
  9
$LWDISPLAY
290
     1
  9
$INSUNITS
 70
     4
  9
$HYPERLINKBASE
  1

  9
$STYLESHEET
  1

  9
$XEDIT
290
     1
  9
$CEPSNTYPE
380
     0
  9
$PSTYLEMODE
290
     1
  9
$FINGERPRINTGUID
  2
{92F424E4-99EE-41FA-A5A4-3B5442CE6187}
  9
$VERSIONGUID
  2
{FAEB1C32-E019-11D5-929B-00C0DF256EC4}
  9
$EXTNAMES
290
     1
  9
$PSVPSCALE
 40
0.0
  9
$OLESTARTUP
290
     0
  0
ENDSEC
  0
SECTION
  2
CLASSES
  0
CLASS
  1
ACDBDICTIONARYWDFLT
  2
AcDbDictionaryWithDefault
  3
ObjectDBX Classes
 90
        0
280
     0
281
     0
  0
CLASS
  1
VISUALSTYLE
  2
AcDbVisualStyle
  3
ObjectDBX Classes
 90
     4095
280
     0
281
     0
  0
CLASS
  1
SCALE
  2
AcDbScale
  3
ObjectDBX Classes
 90
     1153
280
     0
281
     0
  0
CLASS
  1
DICTIONARYVAR
  2
AcDbDictionaryVar
  3
ObjectDBX Classes
 90
        0
280
     0
281
     0
  0
CLASS
  1
ACDBPLACEHOLDER
  2
AcDbPlaceHolder
  3
ObjectDBX Classes
 90
        0
280
     0
281
     0
  0
CLASS
  1
LAYOUT
  2
AcDbLayout
  3
ObjectDBX Classes
 90
        0
280
     0
281
     0
  0
ENDSEC
  0
SECTION
  2
TABLES
  0
TABLE
  2
VPORT
  5
8
330
0
100
AcDbSymbolTable
 70
     1
  0
VPORT
  5
29
330
8
100
AcDbSymbolTableRecord
100
AcDbViewportTableRecord
  2
*Active
 70
     0
 10
0.0
 20
0.0
 11
1.0
 21
1.0
 12
454.5
 22
340.0
 13
0.0
 23
0.0
 14
10.0
 24
10.0
 15
10.0
 25
10.0
 16
0.0
 26
0.0
 36
1.0
 17
0.0
 27
0.0
 37
0.0
 40
680.0
 41
1.3367647059
 42
50.0
 43
0.0
 44
0.0
 50
0.0
 51
0.0
 71
     0
 72
  2000
 73
     1
 74
     3
 75
     0
 76
     0
 77
     0
 78
     0
281
     0
 65
     1
110
0.0
120
0.0
130
0.0
111
1.0
121
0.0
131
0.0
112
0.0
122
1.0
132
0.0
 79
     0
146
0.0
  0
ENDTAB
  0
TABLE
  2
LTYPE
  5
5
330
0
100
AcDbSymbolTable
 70
     6
  0
LTYPE
  5
14
330
5
100
AcDbSymbolTableRecord
100
AcDbLinetypeTableRecord
  2
ByBlock
 70
     0
  3

 72
    65
 73
     0
 40
0.0
  0
LTYPE
  5
15
330
5
100
AcDbSymbolTableRecord
100
AcDbLinetypeTableRecord
  2
ByLayer
 70
     0
  3

 72
    65
 73
     0
 40
0.0
  0
LTYPE
  5
16
330
5
100
AcDbSymbolTableRecord
100
AcDbLinetypeTableRecord
  2
Continuous
 70
     0
  3
Solid line
 72
    65
 73
     0
 40
0.0
  0
LTYPE
  5
5D
330
5
100
AcDbSymbolTableRecord
100
AcDbLinetypeTableRecord
  2
HIDDEN
 70
     0
  3
Hidden __ __ __ __ __ __ __ __ __ __ __ __ __ __
 72
    65
 73
     2
 40
1.905
 49
1.27
 74
     0
 49
-0.635
 74
     0
  0
LTYPE
  5
5E
330
5
100
AcDbSymbolTableRecord
100
AcDbLinetypeTableRecord
  2
PHANTOM
 70
     0
  3
Phantom ______  __  __  ______  __  __  ______
 72
    65
 73
     6
 40
12.7
 49
6.35
 74
     0
 49
-1.27
 74
     0
 49
1.27
 74
     0
 49
-1.27
 74
     0
 49
1.27
 74
     0
 49
-1.27
 74
     0
  0
LTYPE
  5
5F
330
5
100
AcDbSymbolTableRecord
100
AcDbLinetypeTableRecord
  2
CENTER
 70
     0
  3
Center ____ _ ____ _ ____ _ ____ _ ____ _ ____
 72
    65
 73
     4
 40
10.16
 49
6.35
 74
     0
 49
-1.27
 74
     0
 49
1.27
 74
     0
 49
-1.27
 74
     0
  0
LTYPE
  5
60
330
5
100
AcDbSymbolTableRecord
100
AcDbLinetypeTableRecord
  2
CENTERX2
 70
     0
  3
Center (2x) ________  __  ________  __  _____
 72
    65
 73
     4
 40
20.32
 49
12.7
 74
     0
 49
-2.54
 74
     0
 49
2.54
 74
     0
 49
-2.54
 74
     0
  0
LTYPE
  5
61
330
5
100
AcDbSymbolTableRecord
100
AcDbLinetypeTableRecord
  2
DOT2
 70
     0
  3
Dot (.5x) ........................................
 72
    65
 73
     2
 40
0.635
 49
0.0
 74
     0
 49
-0.635
 74
     0
  0
ENDTAB
  0
TABLE
  2
LAYER
  5
2
330
0
100
AcDbSymbolTable
 70
     5
  0
LAYER
  5
10
330
2
100
AcDbSymbolTableRecord
100
AcDbLayerTableRecord
  2
0
 70
     0
 62
     7
  6
Continuous
370
    -3
390
F
  0
LAYER
  5
62
330
2
100
AcDbSymbolTableRecord
100
AcDbLayerTableRecord
  2
FORMAT
 70
     0
 62
     7
  6
Continuous
370
    -3
390
F
  0
LAYER
  5
63
330
2
100
AcDbSymbolTableRecord
100
AcDbLayerTableRecord
  2
SLD-0
 70
     0
 62
     4
  6
Continuous
370
    -3
390
F
  0
LAYER
  5
64
330
2
100
AcDbSymbolTableRecord
100
AcDbLayerTableRecord
  2
GRS_GAMBAR
 70
     0
 62
     4
  6
Continuous
370
    -3
390
F
  0
LAYER
  5
65
330
2
100
AcDbSymbolTableRecord
100
AcDbLayerTableRecord
  2
G__TOTO
 70
     0
 62
   179
  6
Continuous
370
    -3
390
F
  0
ENDTAB
  0
TABLE
  2
STYLE
  5
3
330
0
100
AcDbSymbolTable
 70
     9
  0
STYLE
  5
11
330
3
100
AcDbSymbolTableRecord
100
AcDbTextStyleTableRecord
  2
Standard
 70
     0
 40
0.0
 41
1.0
 50
0.0
 71
     0
 42
2.5
  3
txt
  4

  0
STYLE
  5
BA
330
3
100
AcDbSymbolTableRecord
100
AcDbTextStyleTableRecord
  2
SLDTEXTSTYLE0
 70
     0
 40
0.0
 41
0.638185654
 50
0.0
 71
     0
 42
0.2
  3
TXT
  4

  0
STYLE
  5
C9
330
3
100
AcDbSymbolTableRecord
100
AcDbTextStyleTableRecord
  2
SLDTEXTSTYLE1
 70
     0
 40
0.0
 41
0.5168
 50
0.0
 71
     0
 42
0.2
  3
TXT
  4

  0
STYLE
  5
CB
330
3
100
AcDbSymbolTableRecord
100
AcDbTextStyleTableRecord
  2
SLDTEXTSTYLE2
 70
     0
 40
0.0
 41
0.605
 50
0.0
 71
     0
 42
0.2
  3
TXT
  4

  0
STYLE
  5
254
330
3
100
AcDbSymbolTableRecord
100
AcDbTextStyleTableRecord
  2
SLDTEXTSTYLE3
 70
     0
 40
0.0
 41
0.5648529412
 50
0.0
 71
     0
 42
0.2
  3
TXT
  4

  0
STYLE
  5
26F
330
3
100
AcDbSymbolTableRecord
100
AcDbTextStyleTableRecord
  2
SLDTEXTSTYLE4
 70
     0
 40
0.0
 41
0.5381818182
 50
0.0
 71
     0
 42
0.2
  3
TXT
  4

  0
STYLE
  5
271
330
3
100
AcDbSymbolTableRecord
100
AcDbTextStyleTableRecord
  2
SLDTEXTSTYLE5
 70
     0
 40
0.0
 41
0.5593478261
 50
0.0
 71
     0
 42
0.2
  3
TXT
  4

  0
STYLE
  5
273
330
3
100
AcDbSymbolTableRecord
100
AcDbTextStyleTableRecord
  2
SLDTEXTSTYLE6
 70
     0
 40
0.0
 41
0.5558510638
 50
0.0
 71
     0
 42
0.2
  3
TXT
  4

  0
STYLE
  5
285
330
3
100
AcDbSymbolTableRecord
100
AcDbTextStyleTableRecord
  2
SLDTEXTSTYLE7
 70
     0
 40
0.0
 41
0.75
 50
0.0
 71
     0
 42
0.2
  3
TXT
  4

  0
ENDTAB
  0
TABLE
  2
VIEW
  5
6
330
0
100
AcDbSymbolTable
 70
     0
  0
ENDTAB
  0
TABLE
  2
UCS
  5
7
330
0
100
AcDbSymbolTable
 70
     0
  0
ENDTAB
  0
TABLE
  2
APPID
  5
9
330
0
100
AcDbSymbolTable
 70
     1
  0
APPID
  5
12
330
9
100
AcDbSymbolTableRecord
100
AcDbRegAppTableRecord
  2
ACAD
 70
     0
  0
ENDTAB
  0
TABLE
  2
DIMSTYLE
  5
A
330
0
100
AcDbSymbolTable
 70
     3
100
AcDbDimStyleTable
  0
DIMSTYLE
105
27
330
A
100
AcDbSymbolTableRecord
100
AcDbDimStyleTableRecord
  2
ISO-25
 70
     0
 41
2.5
 42
0.625
 43
3.75
 44
1.25
 73
     0
 74
     0
 77
     1
 78
     8
140
2.5
141
2.5
143
0.0393700787
147
0.625
171
     3
172
     1
271
     2
272
     2
274
     3
278
    44
283
     0
284
     8
340
11
  0
DIMSTYLE
105
23F
102
{ACAD_REACTORS
330
23E
102
}
330
A
100
AcDbSymbolTableRecord
100
AcDbDimStyleTableRecord
  2
SLDDIMSTYLE0
 70
     0
 41
3.5956461589
 44
0.0
 45
0.000000001
 78
    12
140
7.1912923177
143
0.0393700787
147
1.7978230794
148
0.000000001
170
     1
172
     1
173
     1
271
     1
272
     1
284
    12
340
CB
  0
DIMSTYLE
105
262
330
A
100
AcDbSymbolTableRecord
100
AcDbDimStyleTableRecord
  2
SLDDIMSTYLE1
 70
     0
 41
3.5956461589
 44
0.0
 45
0.000000001
140
3.5956461589
147
0.8989115397
173
     1
271
     0
272
     0
340
11
  0
ENDTAB
  0
TABLE
  2
BLOCK_RECORD
  5
1
330
0
100
AcDbSymbolTable
 70
    17
  0
BLOCK_RECORD
  5
1F
330
1
100
AcDbSymbolTableRecord
100
AcDbBlockTableRecord
  2
*Model_Space
340
22
  0
BLOCK_RECORD
  5
1B
330
1
100
AcDbSymbolTableRecord
100
AcDbBlockTableRecord
  2
*Paper_Space
340
1E
  0
BLOCK_RECORD
  5
23
330
1
100
AcDbSymbolTableRecord
100
AcDbBlockTableRecord
  2
*Paper_Space0
340
26
  0
BLOCK_RECORD
  5
66
330
1
100
AcDbSymbolTableRecord
100
AcDbBlockTableRecord
  2
Block1
340
0
102
{BLKREFS
331
CE
102
}
  0
BLOCK_RECORD
  5
BC
330
1
100
AcDbSymbolTableRecord
100
AcDbBlockTableRecord
  2
template line scale
340
0
102
{BLKREFS
331
238
102
}
  0
BLOCK_RECORD
  5
C6
330
1
100
AcDbSymbolTableRecord
100
AcDbBlockTableRecord
  2
SW_NOTE_0
340
0
102
{BLKREFS
331
CD
102
}
  0
BLOCK_RECORD
  5
CF
330
1
100
AcDbSymbolTableRecord
100
AcDbBlockTableRecord
  2
SW_NOTE_1
340
0
102
{BLKREFS
331
D5
102
}
  0
BLOCK_RECORD
  5
240
330
1
100
AcDbSymbolTableRecord
100
AcDbBlockTableRecord
  2
*D5
340
0
  0
BLOCK_RECORD
  5
250
330
1
100
AcDbSymbolTableRecord
100
AcDbBlockTableRecord
  2
SW_NOTE_2
340
0
102
{BLKREFS
331
25A
102
}
  0
BLOCK_RECORD
  5
25B
330
1
100
AcDbSymbolTableRecord
100
AcDbBlockTableRecord
  2
SW_NOTE_3
340
0
102
{BLKREFS
331
261
102
}
  0
BLOCK_RECORD
  5
264
330
1
100
AcDbSymbolTableRecord
100
AcDbBlockTableRecord
  2
SW_NOTE_4
340
0
102
{BLKREFS
331
26A
102
}
  0
BLOCK_RECORD
  5
26C
330
1
100
AcDbSymbolTableRecord
100
AcDbBlockTableRecord
  2
SW_NOTE_5
340
0
102
{BLKREFS
331
275
102
}
  0
BLOCK_RECORD
  5
276
330
1
100
AcDbSymbolTableRecord
100
AcDbBlockTableRecord
  2
SW_NOTE_6
340
0
102
{BLKREFS
331
27C
102
}
  0
BLOCK_RECORD
  5
27D
330
1
100
AcDbSymbolTableRecord
100
AcDbBlockTableRecord
  2
SW_NOTE_7
340
0
102
{BLKREFS
331
283
102
}
  0
BLOCK_RECORD
  5
287
330
1
100
AcDbSymbolTableRecord
100
AcDbBlockTableRecord
  2
SW_CENTERMARKSYMBOL_0
340
0
102
{BLKREFS
331
292
102
}
  0
BLOCK_RECORD
  5
293
330
1
100
AcDbSymbolTableRecord
100
AcDbBlockTableRecord
  2
SW_CENTERMARKSYMBOL_1
340
0
102
{BLKREFS
331
29E
102
}
  0
BLOCK_RECORD
  5
29F
330
1
100
AcDbSymbolTableRecord
100
AcDbBlockTableRecord
  2
SW_CENTERMARKSYMBOL_2
340
0
102
{BLKREFS
331
2AA
102
}
  0
BLOCK_RECORD
  5
2AB
330
1
100
AcDbSymbolTableRecord
100
AcDbBlockTableRecord
  2
SW_CENTERMARKSYMBOL_3
340
0
102
{BLKREFS
331
2B6
102
}
  0
BLOCK_RECORD
  5
2B7
330
1
100
AcDbSymbolTableRecord
100
AcDbBlockTableRecord
  2
SW_CENTERMARKSYMBOL_4
340
0
102
{BLKREFS
331
2C2
102
}
  0
ENDTAB
  0
ENDSEC
  0
SECTION
  2
BLOCKS
  0
BLOCK
  5
20
330
1F
100
AcDbEntity
  8
0
100
AcDbBlockBegin
  2
*Model_Space
 70
     0
 10
0.0
 20
0.0
 30
0.0
  3
*Model_Space
  1

  0
ENDBLK
  5
21
330
1F
100
AcDbEntity
  8
0
100
AcDbBlockEnd
  0
BLOCK
  5
1C
330
1B
100
AcDbEntity
 67
     1
  8
0
100
AcDbBlockBegin
  2
*Paper_Space
 70
     0
 10
0.0
 20
0.0
 30
0.0
  3
*Paper_Space
  1

  0
ENDBLK
  5
1D
330
1B
100
AcDbEntity
 67
     1
  8
0
100
AcDbBlockEnd
  0
BLOCK
  5
24
330
23
100
AcDbEntity
  8
0
100
AcDbBlockBegin
  2
*Paper_Space0
 70
     0
 10
0.0
 20
0.0
 30
0.0
  3
*Paper_Space0
  1

  0
ENDBLK
  5
25
330
23
100
AcDbEntity
  8
0
100
AcDbBlockEnd
  0
BLOCK
  5
67
330
66
100
AcDbEntity
  8
0
100
AcDbBlockBegin
  2
Block1
 70
     0
 10
0.0
 20
0.0
 30
0.0
  3
Block1
  1

  0
ARC
  5
69
330
66
100
AcDbEntity
  8
GRS_GAMBAR
100
AcDbCircle
 10
50.5596373054
 20
89.8512807409
 30
0.0
 40
12.70000000005831
100
AcDbArc
 50
77.678118321
 51
90.0
  0
ARC
  5
6A
330
66
100
AcDbEntity
  8
GRS_GAMBAR
100
AcDbCircle
 10
40.7895241947
 20
89.8512807404
 30
0.0
 40
12.70000000055211
100
AcDbArc
 50
89.999999997
 51
140.1728016809
  0
ARC
  5
6B
330
66
100
AcDbEntity
  8
GRS_GAMBAR
100
AcDbCircle
 10
12.6999999999
 20
44.4801911215
 30
0.0
 40
12.69999999987897
100
AcDbArc
 50
197.678118321
 51
210.0000000016
  0
ARC
  5
6C
330
66
100
AcDbEntity
  8
GRS_GAMBAR
100
AcDbCircle
 10
17.5850565553
 20
36.0190249697
 30
0.0
 40
12.6999999998536
100
AcDbArc
 50
210.0000000007
 51
260.1728016814
  0
ARC
  5
6D
330
66
100
AcDbEntity
  8
GRS_GAMBAR
100
AcDbCircle
 10
70.92233486
 20
34.3783282473
 30
0.0
 40
12.70000000079826
100
AcDbArc
 50
317.67811832
 51
329.9999999985
  0
ARC
  5
6E
330
66
100
AcDbEntity
  8
GRS_GAMBAR
100
AcDbCircle
 10
75.8073914162
 20
42.8394943984
 30
0.0
 40
12.69999999977296
100
AcDbArc
 50
329.9999999983
 51
20.1728016817
  0
ARC
  5
6F
330
66
100
AcDbEntity
  8
GRS_GAMBAR
100
AcDbCircle
 10
50.5596373054
 20
89.8512807409
 30
0.0
 40
12.7000000000583
100
AcDbArc
 50
33.4734623705
 51
77.678118321
  0
ARC
  5
70
330
66
100
AcDbEntity
  8
GRS_GAMBAR
100
AcDbCircle
 10
12.6999999999
 20
44.4801911215
 30
0.0
 40
12.69999999987897
100
AcDbArc
 50
153.4734623698
 51
197.678118321
  0
ARC
  5
71
330
66
100
AcDbEntity
  8
GRS_GAMBAR
100
AcDbCircle
 10
70.92233486
 20
34.3783282473
 30
0.0
 40
12.70000000079826
100
AcDbArc
 50
273.4734623732
 51
317.67811832
  0
ARC
  5
72
330
66
100
AcDbEntity
  8
GRS_GAMBAR
  6
Continuous
 62
   179
100
AcDbCircle
 10
40.7895241947
 20
89.8512807404
 30
0.0
 40
12.70000000055211
100
AcDbArc
 50
89.999999997
 51
140.1728016809
  0
ARC
  5
73
330
66
100
AcDbEntity
  8
GRS_GAMBAR
  6
Continuous
 62
   179
100
AcDbCircle
 10
50.5596373054
 20
89.8512807409
 30
0.0
 40
12.70000000005831
100
AcDbArc
 50
33.4734623705
 51
90.0
  0
ARC
  5
74
330
66
100
AcDbEntity
  8
GRS_GAMBAR
  6
Continuous
 62
   179
100
AcDbCircle
 10
17.5850565553
 20
36.0190249697
 30
0.0
 40
12.6999999998536
100
AcDbArc
 50
210.0000000007
 51
260.1728016814
  0
ARC
  5
75
330
66
100
AcDbEntity
  8
GRS_GAMBAR
  6
Continuous
 62
   179
100
AcDbCircle
 10
12.6999999999
 20
44.4801911215
 30
0.0
 40
12.69999999987897
100
AcDbArc
 50
153.4734623698
 51
210.0000000016
  0
ARC
  5
76
330
66
100
AcDbEntity
  8
GRS_GAMBAR
  6
Continuous
 62
   179
100
AcDbCircle
 10
75.8073914162
 20
42.8394943984
 30
0.0
 40
12.69999999977296
100
AcDbArc
 50
329.9999999983
 51
20.1728016817
  0
ARC
  5
77
330
66
100
AcDbEntity
  8
GRS_GAMBAR
  6
Continuous
 62
   179
100
AcDbCircle
 10
70.92233486
 20
34.3783282473
 30
0.0
 40
12.70000000079806
100
AcDbArc
 50
273.4734623732
 51
329.9999999985
  0
LINE
  5
78
330
66
100
AcDbEntity
  8
GRS_GAMBAR
100
AcDbLine
 10
50.5596373054
 20
102.551280741
 30
0.0
 11
40.7895241953
 21
102.551280741
 31
0.0
  0
LINE
  5
79
330
66
100
AcDbEntity
  8
GRS_GAMBAR
100
AcDbLine
 10
31.0361835686
 20
97.9853047535
 30
0.0
 11
18.4601962959
 21
78.0611782485
 31
0.0
  0
LINE
  5
7A
330
66
100
AcDbEntity
  8
GRS_GAMBAR
100
AcDbLine
 10
18.4601962959
 20
78.0611782485
 30
0.0
 11
32.530085145
 21
70.0624494887
 31
0.0
  0
LINE
  5
7B
330
66
100
AcDbEntity
  8
GRS_GAMBAR
100
AcDbLine
 10
32.530085145
 20
70.0624494887
 30
0.0
 11
53.2698619029
 21
102.2587253865
 31
0.0
  0
LINE
  5
7C
330
66
100
AcDbEntity
  8
GRS_GAMBAR
100
AcDbLine
 10
1.7014773721
 20
38.1301911212
 30
0.0
 11
6.5865339274
 21
29.6690249696
 31
0.0
  0
LINE
  5
7D
330
66
100
AcDbEntity
  8
GRS_GAMBAR
100
AcDbLine
 10
15.4174554383
 20
23.5053722098
 30
0.0
 11
38.9602487761
 21
22.5763110067
 31
0.0
  0
LINE
  5
7E
330
66
100
AcDbEntity
  8
GRS_GAMBAR
100
AcDbLine
 10
38.9602487761
 20
22.5763110067
 30
0.0
 11
38.8524066559
 21
38.760556558
 31
0.0
  0
LINE
  5
7F
330
66
100
AcDbEntity
  8
GRS_GAMBAR
100
AcDbLine
 10
38.8524066559
 20
38.760556558
 30
0.0
 11
0.5997254422
 21
40.6235921501
 31
0.0
  0
LINE
  5
80
330
66
100
AcDbEntity
  8
GRS_GAMBAR
100
AcDbLine
 10
81.9208574885
 20
28.0283282466
 30
0.0
 11
86.8059140438
 21
36.4894943982
 31
0.0
  0
LINE
  5
81
330
66
100
AcDbEntity
  8
GRS_GAMBAR
100
AcDbLine
 10
87.7283331587
 20
47.2191231458
 30
0.0
 11
76.7615270935
 21
68.0723108539
 31
0.0
  0
LINE
  5
82
330
66
100
AcDbEntity
  8
GRS_GAMBAR
100
AcDbLine
 10
76.7615270935
 20
68.0723108539
 30
0.0
 11
62.7994803649
 21
59.8867940624
 31
0.0
  0
LINE
  5
83
330
66
100
AcDbEntity
  8
GRS_GAMBAR
100
AcDbLine
 10
62.7994803649
 20
59.8867940624
 30
0.0
 11
80.3123848207
 21
25.8274825725
 31
0.0
  0
LINE
  5
84
330
66
100
AcDbEntity
  8
GRS_GAMBAR
100
AcDbLine
 10
53.2698619029
 20
102.2587253865
 30
0.0
 11
45.3678063337
 21
89.9916328218
 31
0.0
  0
LINE
  5
85
330
66
100
AcDbEntity
  8
GRS_GAMBAR
100
AcDbLine
 10
45.3678063337
 20
89.9916328218
 30
0.0
 11
57.680146021
 21
77.9774401014
 31
0.0
  0
LINE
  5
86
330
66
100
AcDbEntity
  8
GRS_GAMBAR
100
AcDbLine
 10
57.680146021
 20
77.9774401014
 30
0.0
 11
52.1174939067
 21
74.4668795831
 31
0.0
  0
LINE
  5
87
330
66
100
AcDbEntity
  8
GRS_GAMBAR
100
AcDbLine
 10
52.1174939067
 20
74.4668795831
 30
0.0
 11
68.8005549205
 21
74.5270047811
 31
0.0
  0
LINE
  5
88
330
66
100
AcDbEntity
  8
GRS_GAMBAR
100
AcDbLine
 10
68.8005549205
 20
74.5270047811
 30
0.0
 11
73.782472283
 21
89.9718154402
 31
0.0
  0
LINE
  5
89
330
66
100
AcDbEntity
  8
GRS_GAMBAR
100
AcDbLine
 10
73.782472283
 20
89.9718154402
 30
0.0
 11
69.4181110421
 21
86.9876719853
 31
0.0
  0
LINE
  5
8A
330
66
100
AcDbEntity
  8
GRS_GAMBAR
100
AcDbLine
 10
69.4181110421
 20
86.9876719853
 30
0.0
 11
61.153232739
 21
96.8559745808
 31
0.0
  0
LINE
  5
8B
330
66
100
AcDbEntity
  8
GRS_GAMBAR
100
AcDbLine
 10
19.4227932766
 20
56.5836528762
 30
0.0
 11
25.244353924
 21
53.5215350928
 31
0.0
  0
LINE
  5
8C
330
66
100
AcDbEntity
  8
GRS_GAMBAR
100
AcDbLine
 10
25.244353924
 20
53.5215350928
 30
0.0
 11
16.8507534682
 21
67.9394271442
 31
0.0
  0
LINE
  5
8D
330
66
100
AcDbEntity
  8
GRS_GAMBAR
100
AcDbLine
 10
16.8507534682
 20
67.9394271442
 30
0.0
 11
0.9841963998
 21
64.5314888101
 31
0.0
  0
LINE
  5
8E
330
66
100
AcDbEntity
  8
GRS_GAMBAR
100
AcDbLine
 10
0.9841963998
 20
64.5314888101
 30
0.0
 11
5.7507210602
 21
62.2439128323
 31
0.0
  0
LINE
  5
8F
330
66
100
AcDbEntity
  8
GRS_GAMBAR
100
AcDbLine
 10
5.7507210602
 20
62.2439128323
 30
0.0
 11
1.3369594722
 21
50.1521669645
 31
0.0
  0
LINE
  5
90
330
66
100
AcDbEntity
  8
GRS_GAMBAR
100
AcDbLine
 10
0.5997254422
 20
40.6235921501
 30
0.0
 11
15.1743670181
 21
39.9137575676
 31
0.0
  0
LINE
  5
91
330
66
100
AcDbEntity
  8
GRS_GAMBAR
100
AcDbLine
 10
15.1743670181
 20
39.9137575676
 30
0.0
 11
19.4227932766
 21
56.5836528762
 31
0.0
  0
LINE
  5
92
330
66
100
AcDbEntity
  8
GRS_GAMBAR
100
AcDbLine
 10
80.3123848207
 20
25.8274825725
 30
0.0
 11
73.6397988137
 21
38.8044097196
 31
0.0
  0
LINE
  5
93
330
66
100
AcDbEntity
  8
GRS_GAMBAR
100
AcDbLine
 10
73.6397988137
 20
38.8044097196
 30
0.0
 11
57.0790328685
 21
34.1487071314
 31
0.0
  0
LINE
  5
94
330
66
100
AcDbEntity
  8
GRS_GAMBAR
100
AcDbLine
 10
57.0790328685
 20
34.1487071314
 30
0.0
 11
56.8201243354
 21
40.7213854332
 31
0.0
  0
LINE
  5
95
330
66
100
AcDbEntity
  8
GRS_GAMBAR
100
AcDbLine
 10
56.8201243354
 20
40.7213854332
 30
0.0
 11
48.5306637774
 21
26.2433681838
 31
0.0
  0
LINE
  5
96
330
66
100
AcDbEntity
  8
GRS_GAMBAR
100
AcDbLine
 10
48.5306637774
 20
26.2433681838
 30
0.0
 11
59.4153034836
 21
14.2064958587
 31
0.0
  0
LINE
  5
97
330
66
100
AcDbEntity
  8
GRS_GAMBAR
100
AcDbLine
 10
59.4153034836
 20
14.2064958587
 30
0.0
 11
59.013140063
 21
19.4782152915
 31
0.0
  0
LINE
  5
98
330
66
100
AcDbEntity
  8
GRS_GAMBAR
100
AcDbLine
 10
59.013140063
 20
19.4782152915
 30
0.0
 11
71.6917799549
 21
21.7016585637
 31
0.0
  0
LINE
  5
99
330
66
100
AcDbEntity
  8
GRS_GAMBAR
  6
Continuous
 62
   179
100
AcDbLine
 10
18.4601962959
 20
78.0611782485
 30
0.0
 11
31.0361835686
 21
97.9853047535
 31
0.0
  0
LINE
  5
9A
330
66
100
AcDbEntity
  8
GRS_GAMBAR
  6
Continuous
 62
   179
100
AcDbLine
 10
40.7895241953
 20
102.551280741
 30
0.0
 11
50.5596373054
 21
102.551280741
 31
0.0
  0
LINE
  5
9B
330
66
100
AcDbEntity
  8
GRS_GAMBAR
  6
Continuous
 62
   179
100
AcDbLine
 10
61.153232739
 20
96.8559745808
 30
0.0
 11
69.4181110421
 21
86.9876719853
 31
0.0
  0
LINE
  5
9C
330
66
100
AcDbEntity
  8
GRS_GAMBAR
  6
Continuous
 62
   179
100
AcDbLine
 10
69.4181110421
 20
86.9876719853
 30
0.0
 11
73.782472283
 21
89.9718154402
 31
0.0
  0
LINE
  5
9D
330
66
100
AcDbEntity
  8
GRS_GAMBAR
  6
Continuous
 62
   179
100
AcDbLine
 10
73.782472283
 20
89.9718154402
 30
0.0
 11
68.8005549205
 21
74.5270047811
 31
0.0
  0
LINE
  5
9E
330
66
100
AcDbEntity
  8
GRS_GAMBAR
  6
Continuous
 62
   179
100
AcDbLine
 10
68.8005549205
 20
74.5270047811
 30
0.0
 11
52.1174939067
 21
74.4668795831
 31
0.0
  0
LINE
  5
9F
330
66
100
AcDbEntity
  8
GRS_GAMBAR
  6
Continuous
 62
   179
100
AcDbLine
 10
52.1174939067
 20
74.4668795831
 30
0.0
 11
57.680146021
 21
77.9774401014
 31
0.0
  0
LINE
  5
A0
330
66
100
AcDbEntity
  8
GRS_GAMBAR
  6
Continuous
 62
   179
100
AcDbLine
 10
57.680146021
 20
77.9774401014
 30
0.0
 11
45.3678063337
 21
89.9916328218
 31
0.0
  0
LINE
  5
A1
330
66
100
AcDbEntity
  8
GRS_GAMBAR
  6
Continuous
 62
   179
370
    30
100
AcDbLine
 10
53.2698619029
 20
102.2587253865
 30
0.0
 11
32.530085145
 21
70.0624494887
 31
0.0
  0
LINE
  5
A2
330
66
100
AcDbEntity
  8
GRS_GAMBAR
  6
Continuous
 62
   179
100
AcDbLine
 10
32.530085145
 20
70.0624494887
 30
0.0
 11
18.4601962959
 21
78.0611782485
 31
0.0
  0
LINE
  5
A3
330
66
100
AcDbEntity
  8
GRS_GAMBAR
  6
Continuous
 62
   179
100
AcDbLine
 10
38.9602487761
 20
22.5763110067
 30
0.0
 11
15.4174554383
 21
23.5053722098
 31
0.0
  0
LINE
  5
A4
330
66
100
AcDbEntity
  8
GRS_GAMBAR
  6
Continuous
 62
   179
100
AcDbLine
 10
6.5865339274
 20
29.6690249696
 30
0.0
 11
1.7014773721
 21
38.1301911212
 31
0.0
  0
LINE
  5
A5
330
66
100
AcDbEntity
  8
GRS_GAMBAR
  6
Continuous
 62
   179
100
AcDbLine
 10
1.3369594722
 20
50.1521669645
 30
0.0
 11
5.7507210602
 21
62.2439128323
 31
0.0
  0
LINE
  5
A6
330
66
100
AcDbEntity
  8
GRS_GAMBAR
  6
Continuous
 62
   179
100
AcDbLine
 10
5.7507210602
 20
62.2439128323
 30
0.0
 11
0.9841963998
 21
64.5314888101
 31
0.0
  0
LINE
  5
A7
330
66
100
AcDbEntity
  8
GRS_GAMBAR
  6
Continuous
 62
   179
100
AcDbLine
 10
0.9841963998
 20
64.5314888101
 30
0.0
 11
16.8507534682
 21
67.9394271442
 31
0.0
  0
LINE
  5
A8
330
66
100
AcDbEntity
  8
GRS_GAMBAR
  6
Continuous
 62
   179
100
AcDbLine
 10
16.8507534682
 20
67.9394271442
 30
0.0
 11
25.244353924
 21
53.5215350928
 31
0.0
  0
LINE
  5
A9
330
66
100
AcDbEntity
  8
GRS_GAMBAR
  6
Continuous
 62
   179
100
AcDbLine
 10
25.244353924
 20
53.5215350928
 30
0.0
 11
19.4227932766
 21
56.5836528762
 31
0.0
  0
LINE
  5
AA
330
66
100
AcDbEntity
  8
GRS_GAMBAR
  6
Continuous
 62
   179
100
AcDbLine
 10
19.4227932766
 20
56.5836528762
 30
0.0
 11
15.1743670181
 21
39.9137575676
 31
0.0
  0
LINE
  5
AB
330
66
100
AcDbEntity
  8
GRS_GAMBAR
  6
Continuous
 62
   179
370
    30
100
AcDbLine
 10
0.5997254422
 20
40.6235921501
 30
0.0
 11
38.8524066559
 21
38.760556558
 31
0.0
  0
LINE
  5
AC
330
66
100
AcDbEntity
  8
GRS_GAMBAR
  6
Continuous
 62
   179
100
AcDbLine
 10
38.8524066559
 20
38.760556558
 30
0.0
 11
38.9602487761
 21
22.5763110067
 31
0.0
  0
LINE
  5
AD
330
66
100
AcDbEntity
  8
GRS_GAMBAR
  6
Continuous
 62
   179
100
AcDbLine
 10
76.7615270935
 20
68.0723108539
 30
0.0
 11
87.7283331587
 21
47.2191231458
 31
0.0
  0
LINE
  5
AE
330
66
100
AcDbEntity
  8
GRS_GAMBAR
  6
Continuous
 62
   179
100
AcDbLine
 10
86.8059140438
 20
36.4894943982
 30
0.0
 11
81.9208574885
 21
28.0283282466
 31
0.0
  0
LINE
  5
AF
330
66
100
AcDbEntity
  8
GRS_GAMBAR
  6
Continuous
 62
   179
100
AcDbLine
 10
71.6917799549
 20
21.7016585637
 30
0.0
 11
59.013140063
 21
19.4782152915
 31
0.0
  0
LINE
  5
B0
330
66
100
AcDbEntity
  8
GRS_GAMBAR
  6
Continuous
 62
   179
100
AcDbLine
 10
59.013140063
 20
19.4782152915
 30
0.0
 11
59.4153034836
 21
14.2064958587
 31
0.0
  0
LINE
  5
B1
330
66
100
AcDbEntity
  8
GRS_GAMBAR
  6
Continuous
 62
   179
100
AcDbLine
 10
59.4153034836
 20
14.2064958587
 30
0.0
 11
48.5306637774
 21
26.2433681838
 31
0.0
  0
LINE
  5
B2
330
66
100
AcDbEntity
  8
GRS_GAMBAR
  6
Continuous
 62
   179
100
AcDbLine
 10
48.5306637774
 20
26.2433681838
 30
0.0
 11
56.8201243354
 21
40.7213854332
 31
0.0
  0
LINE
  5
B3
330
66
100
AcDbEntity
  8
GRS_GAMBAR
  6
Continuous
 62
   179
100
AcDbLine
 10
56.8201243354
 20
40.7213854332
 30
0.0
 11
57.0790328685
 21
34.1487071314
 31
0.0
  0
LINE
  5
B4
330
66
100
AcDbEntity
  8
GRS_GAMBAR
  6
Continuous
 62
   179
100
AcDbLine
 10
57.0790328685
 20
34.1487071314
 30
0.0
 11
73.6397988137
 21
38.8044097196
 31
0.0
  0
LINE
  5
B5
330
66
100
AcDbEntity
  8
GRS_GAMBAR
  6
Continuous
 62
   179
370
    30
100
AcDbLine
 10
80.3123848207
 20
25.8274825725
 30
0.0
 11
62.7994803649
 21
59.8867940624
 31
0.0
  0
LINE
  5
B6
330
66
100
AcDbEntity
  8
GRS_GAMBAR
  6
Continuous
 62
   179
100
AcDbLine
 10
62.7994803649
 20
59.8867940624
 30
0.0
 11
76.7615270935
 21
68.0723108539
 31
0.0
  0
HATCH
  5
B7
330
66
100
AcDbEntity
  8
GRS_GAMBAR
 62
   179
100
AcDbHatch
 10
0.0
 20
0.0
 30
0.0
210
0.0
220
0.0
230
1.0
  2
SOLID
 70
     1
 71
     0
 91
        1
 92
        0
 93
        6
 72
     1
 10
81.92085748854794
 20
28.02832824659674
 11
86.80591404383442
 21
36.48949439819749
 72
     2
 10
75.80739141615211
 20
42.83949439840096
 40
12.69999999977226
 50
329.9999999983485
 51
380.1728016816779
 73
     1
 72
     1
 10
87.72833315870798
 20
47.2191231457717
 11
76.76152709348116
 21
68.07231085394116
 72
     1
 10
76.76152709348116
 20
68.07231085394116
 11
62.79948036490168
 21
59.88679406240527
 72
     1
 10
62.79948036490168
 20
59.88679406240527
 11
80.31238482072922
 21
25.82748257246781
 72
     2
 10
70.92233485996502
 20
34.37832824729004
 40
12.70000000079782
 50
317.678118319967
 51
329.9999999984663
 73
     1
 97
        0
 75
     0
 76
     1
 98
        1
 10
0.0
 20
0.0
  0
HATCH
  5
B8
330
66
100
AcDbEntity
  8
GRS_GAMBAR
 62
   179
100
AcDbHatch
 10
0.0
 20
0.0
 30
0.0
210
0.0
220
0.0
230
1.0
  2
SOLID
 70
     1
 71
     0
 91
        1
 92
        0
 93
        6
 72
     1
 10
1.701477372096249
 20
38.13019112124682
 11
6.586533927391613
 21
29.66902496963009
 72
     2
 10
17.58505655525155
 20
36.0190249696879
 40
12.69999999985368
 50
210.0000000006833
 51
260.1728016813727
 73
     1
 72
     1
 10
15.41745543826067
 20
23.50537220984572
 11
38.9602487760925
 21
22.57631100665058
 72
     1
 10
38.9602487760925
 20
22.57631100665058
 11
38.85240665591994
 21
38.76055655804001
 72
     1
 10
38.85240665591994
 20
38.76055655804001
 11
0.5997254422069886
 21
40.62359215012768
 72
     2
 10
12.69999999987803
 20
44.48019112149226
 40
12.69999999987985
 50
197.678118321045
 51
210.0000000015927
 73
     1
 97
        0
 75
     0
 76
     1
 98
        1
 10
0.0
 20
0.0
  0
HATCH
  5
B9
330
66
100
AcDbEntity
  8
GRS_GAMBAR
 62
   179
100
AcDbHatch
 10
0.0
 20
0.0
 30
0.0
210
0.0
220
0.0
230
1.0
  2
SOLID
 70
     1
 71
     0
 91
        1
 92
        0
 93
        6
 72
     1
 10
50.55963730542246
 20
102.5512807409807
 11
40.78952419534332
 21
102.5512807409807
 72
     2
 10
40.78952419468607
 20
89.8512807404288
 40
12.70000000055234
 50
89.99999999703482
 51
140.1728016808893
 73
     1
 72
     1
 10
31.03618356855264
 20
97.98530475346534
 11
18.46019629594764
 21
78.06117824848124
 72
     1
 10
18.46019629594764
 20
78.06117824848124
 11
32.53008514500522
 21
70.0624494886548
 72
     1
 10
32.53008514500522
 20
70.0624494886548
 11
53.26986190289063
 21
102.2587253864873
 72
     2
 10
50.55963730542246
 20
89.85128074092263
 40
12.70000000005804
 50
77.6781183210196
 51
90.0
 73
     1
 97
        0
 75
     0
 76
     1
 98
        1
 10
0.0
 20
0.0
  0
MTEXT
  5
BB
330
66
100
AcDbEntity
  8
GRS_GAMBAR
100
AcDbMText
 10
8.1315783618
 20
3.5176739225
 30
0.0
 40
15.875
 41
0.0
 71
     1
 72
     1
  1
Recycled
  7
SLDTEXTSTYLE0
 73
     1
 44
1.0
  0
ENDBLK
  5
68
330
66
100
AcDbEntity
  8
0
100
AcDbBlockEnd
  0
BLOCK
  5
BD
330
BC
100
AcDbEntity
  8
0
100
AcDbBlockBegin
  2
template line scale
 70
     0
 10
0.0
 20
0.0
 30
0.0
  3
template line scale
  1

  0
LINE
  5
BF
330
BC
100
AcDbEntity
  8
FORMAT
370
     0
100
AcDbLine
 10
308.8291516468
 20
-142.8002221194
 30
0.0
 11
334.2291516468
 21
-142.8002221194
 31
0.0
  0
LINE
  5
C0
330
BC
100
AcDbEntity
  8
FORMAT
370
    15
100
AcDbLine
 10
308.8291516468
 20
-140.5853455549
 30
0.0
 11
308.8291516468
 21
-145.8397463772
 31
0.0
  0
LINE
  5
C1
330
BC
100
AcDbEntity
  8
FORMAT
370
     0
100
AcDbLine
 10
334.2291516468
 20
-142.8002221194
 30
0.0
 11
359.6291516468
 21
-142.8002221194
 31
0.0
  0
LINE
  5
C2
330
BC
100
AcDbEntity
  8
FORMAT
370
     0
100
AcDbLine
 10
359.6291516468
 20
-142.8002221194
 30
0.0
 11
385.0291516468
 21
-142.8002221194
 31
0.0
  0
LINE
  5
C3
330
BC
100
AcDbEntity
  8
FORMAT
370
    15
100
AcDbLine
 10
334.2291516468
 20
-140.5853455549
 30
0.0
 11
334.2291516468
 21
-145.8397463772
 31
0.0
  0
LINE
  5
C4
330
BC
100
AcDbEntity
  8
FORMAT
370
    15
100
AcDbLine
 10
359.6291516468
 20
-145.8397463772
 30
0.0
 11
359.6291516468
 21
-140.5853455549
 31
0.0
  0
LINE
  5
C5
330
BC
100
AcDbEntity
  8
FORMAT
370
    15
100
AcDbLine
 10
385.0291516468
 20
-140.5853455549
 30
0.0
 11
385.0291516468
 21
-145.8397463772
 31
0.0
  0
INSERT
  5
CD
330
BC
100
AcDbEntity
  8
FORMAT
 62
     7
100
AcDbBlockReference
  2
SW_NOTE_0
 10
306.9904107435
 20
-163.4539217701
 30
0.0
  0
ENDBLK
  5
BE
330
BC
100
AcDbEntity
  8
0
100
AcDbBlockEnd
  0
BLOCK
  5
C7
330
C6
100
AcDbEntity
  8
0
100
AcDbBlockBegin
  2
SW_NOTE_0
 70
     0
 10
0.0
 20
0.0
 30
0.0
  3
SW_NOTE_0
  1

  0
MTEXT
  5
CA
330
C6
100
AcDbEntity
  8
FORMAT
 62
     0
100
AcDbMText
 10
0.0
 20
9.5498435055
 30
0.0
 40
7.4083333333
 41
0.0
 71
     1
 72
     1
  1
0       1       2       3
  7
SLDTEXTSTYLE1
 73
     1
 44
1.0
  0
MTEXT
  5
CC
330
C6
100
AcDbEntity
  8
FORMAT
 62
     0
100
AcDbMText
 10
6.2284767628
 20
-10.2057118113
 30
0.0
 40
7.4083333333
 41
0.0
 71
     1
 72
     1
  1
SCALE: 1" = 1"
  7
SLDTEXTSTYLE2
 73
     1
 44
1.0
  0
ENDBLK
  5
C8
330
C6
100
AcDbEntity
  8
0
100
AcDbBlockEnd
  0
BLOCK
  5
D0
330
CF
100
AcDbEntity
  8
0
100
AcDbBlockBegin
  2
SW_NOTE_1
 70
     0
 10
0.0
 20
0.0
 30
0.0
  3
SW_NOTE_1
  1

  0
MTEXT
  5
D2
330
CF
100
AcDbEntity
  8
SLD-0
 62
     0
100
AcDbMText
 10
0.0
 20
8.1855801476
 30
0.0
 40
6.35
 41
0.0
 71
     1
 72
     1
  1
LT183
  7
SLDTEXTSTYLE0
 73
     1
 44
1.0
  0
MTEXT
  5
D3
330
CF
100
AcDbEntity
  8
SLD-0
 62
     0
100
AcDbMText
 10
-3.7276865914
 20
-0.2810864168
 30
0.0
 40
6.35
 41
0.0
 71
     1
 72
     1
  1
0GU161
  7
SLDTEXTSTYLE0
 73
     1
 44
1.0
  0
MTEXT
  5
D4
330
CF
100
AcDbEntity
  8
SLD-0
 62
     0
100
AcDbMText
 10
-7.6964357868
 20
-8.7477529811
 30
0.0
 40
6.35
 41
0.0
 71
     1
 72
     1
  1
APR 2009
  7
SLDTEXTSTYLE0
 73
     1
 44
1.0
  0
ENDBLK
  5
D1
330
CF
100
AcDbEntity
  8
0
100
AcDbBlockEnd
  0
BLOCK
  5
241
330
240
100
AcDbEntity
  8
0
100
AcDbBlockBegin
  2
*D5
 70
     1
 10
0.0
 20
0.0
 30
0.0
  3
*D5
  1

  0
SOLID
  5
243
330
240
100
AcDbEntity
  8
G__TOTO
100
AcDbTrace
 10
640.4475927598
 20
560.9304729579
 30
0.0
 11
647.2253775377
 21
563.5762875622
 31
0.0
 12
646.1166802103
 22
565.491190982
 32
0.0
 13
646.1166802103
 23
565.491190982
 33
0.0
  0
LINE
  5
244
330
240
100
AcDbEntity
  8
G__TOTO
100
AcDbLine
 10
699.5962705594
 20
612.3588325055
 30
0.0
 11
699.5962705594
 21
602.9770280987
 31
0.0
  0
LINE
  5
245
330
240
100
AcDbEntity
  8
G__TOTO
100
AcDbLine
 10
699.5962705594
 20
602.9770280987
 30
0.0
 11
701.2417146272
 21
602.9770280987
 31
0.0
  0
LINE
  5
246
330
240
100
AcDbEntity
  8
G__TOTO
100
AcDbLine
 10
699.5962705594
 20
612.3588325055
 30
0.0
 11
701.2417146272
 21
612.3588325055
 31
0.0
  0
LINE
  5
247
330
240
100
AcDbEntity
  8
G__TOTO
100
AcDbLine
 10
723.4089892035
 20
612.3588325055
 30
0.0
 11
723.4089892035
 21
602.9770280987
 31
0.0
  0
LINE
  5
248
330
240
100
AcDbEntity
  8
G__TOTO
100
AcDbLine
 10
723.4089892035
 20
602.9770280987
 30
0.0
 11
721.7635451357
 21
602.9770280987
 31
0.0
  0
LINE
  5
249
330
240
100
AcDbEntity
  8
G__TOTO
100
AcDbLine
 10
723.4089892035
 20
612.3588325055
 30
0.0
 11
721.7635451357
 21
612.3588325055
 31
0.0
  0
LINE
  5
24A
330
240
100
AcDbEntity
  8
G__TOTO
100
AcDbLine
 10
640.4475927598
 20
560.9304729579
 30
0.0
 11
692.575738356
 21
591.1118048784
 31
0.0
  0
LINE
  5
24B
330
240
100
AcDbEntity
  8
G__TOTO
100
AcDbLine
 10
632.2045362452
 20
556.1578799209
 30
0.0
 11
640.4475927598
 21
560.9304729579
 31
0.0
  0
LINE
  5
24C
330
240
100
AcDbEntity
  8
G__TOTO
100
AcDbLine
 10
692.575738356
 20
591.1118048784
 30
0.0
 11
727.7327332713
 21
591.1118048784
 31
0.0
  0
MTEXT
  5
24D
330
240
100
AcDbEntity
  8
G__TOTO
100
AcDbMText
 10
699.6766939493
 20
600.6616483838
 30
0.0
 40
7.4083333333
 41
0.0
 71
     1
 72
     1
  1
%%c
  7
SLDTEXTSTYLE2
 73
     1
 44
1.0
  0
MTEXT
  5
24E
330
240
100
AcDbEntity
  8
G__TOTO
100
AcDbMText
 10
709.6103692035
 20
600.6616483838
 30
0.0
 40
7.4083333333
 41
0.0
 71
     1
 72
     1
  1
9.5
  7
SLDTEXTSTYLE2
 73
     1
 44
1.0
  0
MTEXT
  5
24F
330
240
100
AcDbEntity
  8
G__TOTO
100
AcDbMText
 10
702.887158695
 20
611.699065333
 30
0.0
 40
7.4083333333
 41
0.0
 71
     1
 72
     1
  1
3/8"
  7
SLDTEXTSTYLE2
 73
     1
 44
1.0
  0
ENDBLK
  5
242
330
240
100
AcDbEntity
  8
0
100
AcDbBlockEnd
  0
BLOCK
  5
251
330
250
100
AcDbEntity
  8
0
100
AcDbBlockBegin
  2
SW_NOTE_2
 70
     0
 10
0.0
 20
0.0
 30
0.0
  3
SW_NOTE_2
  1

  0
MTEXT
  5
253
330
250
100
AcDbEntity
  8
FORMAT
 62
     0
100
AcDbMText
 10
0.0
 20
8.1855801476
 30
0.0
 40
6.35
 41
0.0
 71
     1
 72
     1
  1
PAPER SIZE:  
  7
SLDTEXTSTYLE2
 73
     1
 44
1.0
  0
MTEXT
  5
255
330
250
100
AcDbEntity
  8
FORMAT
 62
     0
100
AcDbMText
 10
10.0
 20
-0.2810864168
 30
0.0
 40
6.35
 41
0.0
 71
     1
 72
     1
  1
23" X 35"    25" X 38"   26" X 40"
  7
SLDTEXTSTYLE3
 73
     1
 44
1.0
  0
MTEXT
  5
256
330
250
100
AcDbEntity
  8
FORMAT
 62
     0
100
AcDbMText
 10
0.0
 20
-8.7477529811
 30
0.0
 40
6.35
 41
0.0
 71
     1
 72
     1
  1
LINE WEIGHT: 1.00mm
  7
SLDTEXTSTYLE2
 73
     1
 44
1.0
  0
MTEXT
  5
257
330
250
100
AcDbEntity
  8
FORMAT
 62
     0
100
AcDbMText
 10
0.0
 20
-17.2144195455
 30
0.0
 40
6.35
 41
0.0
 71
     1
 72
     1
  1
PAPER SPEC:
  7
SLDTEXTSTYLE2
 73
     1
 44
1.0
  0
MTEXT
  5
258
330
250
100
AcDbEntity
  8
FORMAT
 62
     0
100
AcDbMText
 10
10.0
 20
-25.6810861098
 30
0.0
 40
6.35
 41
0.0
 71
     1
 72
     1
  1
70# OFFSET UNCOATED SHEET
  7
SLDTEXTSTYLE2
 73
     1
 44
1.0
  0
MTEXT
  5
259
330
250
100
AcDbEntity
  8
FORMAT
 62
     0
100
AcDbMText
 10
10.0
 20
-34.1477526742
 30
0.0
 40
6.35
 41
0.0
 71
     1
 72
     1
  1
BRIGHTNESS FACTOR- 86% OR HIGHER 
  7
SLDTEXTSTYLE2
 73
     1
 44
1.0
  0
ENDBLK
  5
252
330
250
100
AcDbEntity
  8
0
100
AcDbBlockEnd
  0
BLOCK
  5
25C
330
25B
100
AcDbEntity
  8
0
100
AcDbBlockBegin
  2
SW_NOTE_3
 70
     0
 10
0.0
 20
0.0
 30
0.0
  3
SW_NOTE_3
  1

  0
MTEXT
  5
25E
330
25B
100
AcDbEntity
  8
G__TOTO
 62
     0
100
AcDbMText
 10
-187.3780110077
 20
23.4015420413
 30
0.0
 40
7.4083333333
 41
0.0
 71
     1
 72
     1
  1
MOUNTING HOLE ( 4 PLACES)
  7
SLDTEXTSTYLE2
 73
     1
 44
1.0
  0
MTEXT
  5
25F
330
25B
100
AcDbEntity
  8
G__TOTO
 62
     0
100
AcDbMText
 10
-187.3780110077
 20
13.5237643829
 30
0.0
 40
7.4083333333
 41
0.0
 71
     1
 72
     1
  1
AGUJERO DE MONTAJE ( 4 LUGARES)
  7
SLDTEXTSTYLE2
 73
     1
 44
1.0
  0
MTEXT
  5
260
330
25B
100
AcDbEntity
  8
G__TOTO
 62
     0
100
AcDbMText
 10
-187.3780110077
 20
3.6459867245
 30
0.0
 40
7.4083333333
 41
0.0
 71
     1
 72
     1
  1
TROU POUR MONTAGE (4 ENDROITS)
  7
SLDTEXTSTYLE2
 73
     1
 44
1.0
  0
ENDBLK
  5
25D
330
25B
100
AcDbEntity
  8
0
100
AcDbBlockEnd
  0
BLOCK
  5
265
330
264
100
AcDbEntity
  8
0
100
AcDbBlockBegin
  2
SW_NOTE_4
 70
     0
 10
0.0
 20
0.0
 30
0.0
  3
SW_NOTE_4
  1

  0
MTEXT
  5
267
330
264
100
AcDbEntity
  8
G__TOTO
 62
     0
100
AcDbMText
 10
-191.1958110077
 20
23.8311053994
 30
0.0
 40
7.4083333333
 41
0.0
 71
     1
 72
     1
  1
CUT ALONG THIS LINE
  7
SLDTEXTSTYLE2
 73
     1
 44
1.0
  0
MTEXT
  5
268
330
264
100
AcDbEntity
  8
G__TOTO
 62
     0
100
AcDbMText
 10
-191.1958110077
 20
13.953327741
 30
0.0
 40
7.4083333333
 41
0.0
 71
     1
 72
     1
  1
CORTE A LO LARGO DE ESTA LINEA
  7
SLDTEXTSTYLE2
 73
     1
 44
1.0
  0
MTEXT
  5
269
330
264
100
AcDbEntity
  8
G__TOTO
 62
     0
100
AcDbMText
 10
-191.1958110077
 20
4.0755500826
 30
0.0
 40
7.4083333333
 41
0.0
 71
     1
 72
     1
  1
DECOUPER AU LONG DE CETTE LIGNE
  7
SLDTEXTSTYLE2
 73
     1
 44
1.0
  0
ENDBLK
  5
266
330
264
100
AcDbEntity
  8
0
100
AcDbBlockEnd
  0
BLOCK
  5
26D
330
26C
100
AcDbEntity
  8
0
100
AcDbBlockBegin
  2
SW_NOTE_5
 70
     0
 10
0.0
 20
0.0
 30
0.0
  3
SW_NOTE_5
  1

  0
MTEXT
  5
270
330
26C
100
AcDbEntity
  8
G__TOTO
 62
     0
100
AcDbMText
 10
0.0
 20
9.5498435055
 30
0.0
 40
7.4083333333
 41
0.0
 71
     1
 72
     1
  1
       DRILL                            DEEP
  7
SLDTEXTSTYLE4
 73
     1
 44
1.0
  0
MTEXT
  5
272
330
26C
100
AcDbEntity
  8
G__TOTO
 62
     0
100
AcDbMText
 10
0.0
 20
-0.3279341529
 30
0.0
 40
7.4083333333
 41
0.0
 71
     1
 72
     1
  1
TALADRO                 [5/8"]   PROFUNDAMENTE
  7
SLDTEXTSTYLE5
 73
     1
 44
1.0
  0
MTEXT
  5
274
330
26C
100
AcDbEntity
  8
G__TOTO
 62
     0
100
AcDbMText
 10
0.0
 20
-10.2057118113
 30
0.0
 40
7.4083333333
 41
0.0
 71
     1
 72
     1
  1
     FORET              x  16      PROFONDEMENT
  7
SLDTEXTSTYLE6
 73
     1
 44
1.0
  0
ENDBLK
  5
26E
330
26C
100
AcDbEntity
  8
0
100
AcDbBlockEnd
  0
BLOCK
  5
277
330
276
100
AcDbEntity
  8
0
100
AcDbBlockBegin
  2
SW_NOTE_6
 70
     0
 10
0.0
 20
0.0
 30
0.0
  3
SW_NOTE_6
  1

  0
MTEXT
  5
279
330
276
100
AcDbEntity
  8
G__TOTO
 62
     0
100
AcDbMText
 10
0.0
 20
9.5498435055
 30
0.0
 40
7.4083333333
 41
0.0
 71
     1
 72
     1
  1
FOR ANCHOR APPLICATION
  7
SLDTEXTSTYLE2
 73
     1
 44
1.0
  0
MTEXT
  5
27A
330
276
100
AcDbEntity
  8
G__TOTO
 62
     0
100
AcDbMText
 10
-18.3836296201
 20
-0.3279341529
 30
0.0
 40
7.4083333333
 41
0.0
 71
     1
 72
     1
  1
PARA EL APLICACION DE LA ANCLA
  7
SLDTEXTSTYLE2
 73
     1
 44
1.0
  0
MTEXT
  5
27B
330
276
100
AcDbEntity
  8
G__TOTO
 62
     0
100
AcDbMText
 10
9.7611621022
 20
-10.2057118113
 30
0.0
 40
7.4083333333
 41
0.0
 71
     1
 72
     1
  1
POUR TIGE D'ANCRAGE
  7
SLDTEXTSTYLE2
 73
     1
 44
1.0
  0
ENDBLK
  5
278
330
276
100
AcDbEntity
  8
0
100
AcDbBlockEnd
  0
BLOCK
  5
27E
330
27D
100
AcDbEntity
  8
0
100
AcDbBlockBegin
  2
SW_NOTE_7
 70
     0
 10
0.0
 20
0.0
 30
0.0
  3
SW_NOTE_7
  1

  0
MTEXT
  5
280
330
27D
100
AcDbEntity
  8
G__TOTO
 62
     0
100
AcDbMText
 10
-101.463644906
 20
23.3278822585
 30
0.0
 40
7.4083333333
 41
0.0
 71
     1
 72
     1
  1
RIM OF LAVATORY
  7
SLDTEXTSTYLE2
 73
     1
 44
1.0
  0
MTEXT
  5
281
330
27D
100
AcDbEntity
  8
G__TOTO
 62
     0
100
AcDbMText
 10
-101.463644906
 20
13.4501046001
 30
0.0
 40
7.4083333333
 41
0.0
 71
     1
 72
     1
  1
BORDE DEL LAVABO
  7
SLDTEXTSTYLE2
 73
     1
 44
1.0
  0
MTEXT
  5
282
330
27D
100
AcDbEntity
  8
G__TOTO
 62
     0
100
AcDbMText
 10
-101.463644906
 20
3.5723269417
 30
0.0
 40
7.4083333333
 41
0.0
 71
     1
 72
     1
  1
REBORD DE LAVABO
  7
SLDTEXTSTYLE2
 73
     1
 44
1.0
  0
ENDBLK
  5
27F
330
27D
100
AcDbEntity
  8
0
100
AcDbBlockEnd
  0
BLOCK
  5
288
330
287
100
AcDbEntity
  8
0
100
AcDbBlockBegin
  2
SW_CENTERMARKSYMBOL_0
 70
     0
 10
0.0
 20
0.0
 30
0.0
  3
SW_CENTERMARKSYMBOL_0
  1

  0
LINE
  5
28A
330
287
100
AcDbEntity
  8
0
  6
Continuous
 62
     0
370
     0
100
AcDbLine
 10
0.0
 20
0.0
 30
0.0
 11
0.0
 21
2.5
 31
0.0
  0
LINE
  5
28B
330
287
100
AcDbEntity
  8
0
  6
Continuous
 62
     0
370
     0
100
AcDbLine
 10
0.0
 20
0.0
 30
0.0
 11
-2.5
 21
0.0
 31
0.0
  0
LINE
  5
28C
330
287
100
AcDbEntity
  8
0
  6
Continuous
 62
     0
370
     0
100
AcDbLine
 10
0.0
 20
0.0
 30
0.0
 11
0.0
 21
-2.5
 31
0.0
  0
LINE
  5
28D
330
287
100
AcDbEntity
  8
0
  6
Continuous
 62
     0
370
     0
100
AcDbLine
 10
0.0
 20
0.0
 30
0.0
 11
2.5
 21
0.0
 31
0.0
  0
LINE
  5
28E
330
287
100
AcDbEntity
  8
0
  6
Continuous
 62
     0
370
     0
100
AcDbLine
 10
0.0
 20
5.0
 30
0.0
 11
0.0
 21
24.471
 31
0.0
  0
LINE
  5
28F
330
287
100
AcDbEntity
  8
0
  6
Continuous
 62
     0
370
     0
100
AcDbLine
 10
-5.0
 20
0.0
 30
0.0
 11
-24.471
 21
0.0
 31
0.0
  0
LINE
  5
290
330
287
100
AcDbEntity
  8
0
  6
Continuous
 62
     0
370
     0
100
AcDbLine
 10
0.0
 20
-5.0
 30
0.0
 11
0.0
 21
-24.471
 31
0.0
  0
LINE
  5
291
330
287
100
AcDbEntity
  8
0
  6
Continuous
 62
     0
370
     0
100
AcDbLine
 10
5.0
 20
0.0
 30
0.0
 11
24.471
 21
0.0
 31
0.0
  0
ENDBLK
  5
289
330
287
100
AcDbEntity
  8
0
100
AcDbBlockEnd
  0
BLOCK
  5
294
330
293
100
AcDbEntity
  8
0
100
AcDbBlockBegin
  2
SW_CENTERMARKSYMBOL_1
 70
     0
 10
0.0
 20
0.0
 30
0.0
  3
SW_CENTERMARKSYMBOL_1
  1

  0
LINE
  5
296
330
293
100
AcDbEntity
  8
G__TOTO
 62
     0
100
AcDbLine
 10
0.0
 20
0.0
 30
0.0
 11
0.0
 21
2.5
 31
0.0
  0
LINE
  5
297
330
293
100
AcDbEntity
  8
G__TOTO
 62
     0
100
AcDbLine
 10
0.0
 20
0.0
 30
0.0
 11
-2.5
 21
0.0
 31
0.0
  0
LINE
  5
298
330
293
100
AcDbEntity
  8
G__TOTO
 62
     0
100
AcDbLine
 10
0.0
 20
0.0
 30
0.0
 11
0.0
 21
-2.5
 31
0.0
  0
LINE
  5
299
330
293
100
AcDbEntity
  8
G__TOTO
 62
     0
100
AcDbLine
 10
0.0
 20
0.0
 30
0.0
 11
2.5
 21
0.0
 31
0.0
  0
LINE
  5
29A
330
293
100
AcDbEntity
  8
G__TOTO
 62
     0
100
AcDbLine
 10
0.0
 20
5.0
 30
0.0
 11
0.0
 21
7.2625
 31
0.0
  0
LINE
  5
29B
330
293
100
AcDbEntity
  8
G__TOTO
 62
     0
100
AcDbLine
 10
-5.0
 20
0.0
 30
0.0
 11
-7.2625
 21
0.0
 31
0.0
  0
LINE
  5
29C
330
293
100
AcDbEntity
  8
G__TOTO
 62
     0
100
AcDbLine
 10
0.0
 20
-5.0
 30
0.0
 11
0.0
 21
-7.2625
 31
0.0
  0
LINE
  5
29D
330
293
100
AcDbEntity
  8
G__TOTO
 62
     0
100
AcDbLine
 10
5.0
 20
0.0
 30
0.0
 11
7.2625
 21
0.0
 31
0.0
  0
ENDBLK
  5
295
330
293
100
AcDbEntity
  8
0
100
AcDbBlockEnd
  0
BLOCK
  5
2A0
330
29F
100
AcDbEntity
  8
0
100
AcDbBlockBegin
  2
SW_CENTERMARKSYMBOL_2
 70
     0
 10
0.0
 20
0.0
 30
0.0
  3
SW_CENTERMARKSYMBOL_2
  1

  0
LINE
  5
2A2
330
29F
100
AcDbEntity
  8
G__TOTO
 62
     0
100
AcDbLine
 10
0.0
 20
0.0
 30
0.0
 11
0.0
 21
2.5
 31
0.0
  0
LINE
  5
2A3
330
29F
100
AcDbEntity
  8
G__TOTO
 62
     0
100
AcDbLine
 10
0.0
 20
0.0
 30
0.0
 11
-2.5
 21
0.0
 31
0.0
  0
LINE
  5
2A4
330
29F
100
AcDbEntity
  8
G__TOTO
 62
     0
100
AcDbLine
 10
0.0
 20
0.0
 30
0.0
 11
0.0
 21
-2.5
 31
0.0
  0
LINE
  5
2A5
330
29F
100
AcDbEntity
  8
G__TOTO
 62
     0
100
AcDbLine
 10
0.0
 20
0.0
 30
0.0
 11
2.5
 21
0.0
 31
0.0
  0
LINE
  5
2A6
330
29F
100
AcDbEntity
  8
G__TOTO
 62
     0
100
AcDbLine
 10
0.0
 20
5.0
 30
0.0
 11
0.0
 21
7.2625
 31
0.0
  0
LINE
  5
2A7
330
29F
100
AcDbEntity
  8
G__TOTO
 62
     0
100
AcDbLine
 10
-5.0
 20
0.0
 30
0.0
 11
-7.2625
 21
0.0
 31
0.0
  0
LINE
  5
2A8
330
29F
100
AcDbEntity
  8
G__TOTO
 62
     0
100
AcDbLine
 10
0.0
 20
-5.0
 30
0.0
 11
0.0
 21
-7.2625
 31
0.0
  0
LINE
  5
2A9
330
29F
100
AcDbEntity
  8
G__TOTO
 62
     0
100
AcDbLine
 10
5.0
 20
0.0
 30
0.0
 11
7.2625
 21
0.0
 31
0.0
  0
ENDBLK
  5
2A1
330
29F
100
AcDbEntity
  8
0
100
AcDbBlockEnd
  0
BLOCK
  5
2AC
330
2AB
100
AcDbEntity
  8
0
100
AcDbBlockBegin
  2
SW_CENTERMARKSYMBOL_3
 70
     0
 10
0.0
 20
0.0
 30
0.0
  3
SW_CENTERMARKSYMBOL_3
  1

  0
LINE
  5
2AE
330
2AB
100
AcDbEntity
  8
G__TOTO
 62
     0
100
AcDbLine
 10
0.0
 20
0.0
 30
0.0
 11
0.0
 21
2.5
 31
0.0
  0
LINE
  5
2AF
330
2AB
100
AcDbEntity
  8
G__TOTO
 62
     0
100
AcDbLine
 10
0.0
 20
0.0
 30
0.0
 11
-2.5
 21
0.0
 31
0.0
  0
LINE
  5
2B0
330
2AB
100
AcDbEntity
  8
G__TOTO
 62
     0
100
AcDbLine
 10
0.0
 20
0.0
 30
0.0
 11
0.0
 21
-2.5
 31
0.0
  0
LINE
  5
2B1
330
2AB
100
AcDbEntity
  8
G__TOTO
 62
     0
100
AcDbLine
 10
0.0
 20
0.0
 30
0.0
 11
2.5
 21
0.0
 31
0.0
  0
LINE
  5
2B2
330
2AB
100
AcDbEntity
  8
G__TOTO
 62
     0
100
AcDbLine
 10
0.0
 20
5.0
 30
0.0
 11
0.0
 21
7.2625
 31
0.0
  0
LINE
  5
2B3
330
2AB
100
AcDbEntity
  8
G__TOTO
 62
     0
100
AcDbLine
 10
-5.0
 20
0.0
 30
0.0
 11
-7.2625
 21
0.0
 31
0.0
  0
LINE
  5
2B4
330
2AB
100
AcDbEntity
  8
G__TOTO
 62
     0
100
AcDbLine
 10
0.0
 20
-5.0
 30
0.0
 11
0.0
 21
-7.2625
 31
0.0
  0
LINE
  5
2B5
330
2AB
100
AcDbEntity
  8
G__TOTO
 62
     0
100
AcDbLine
 10
5.0
 20
0.0
 30
0.0
 11
7.2625
 21
0.0
 31
0.0
  0
ENDBLK
  5
2AD
330
2AB
100
AcDbEntity
  8
0
100
AcDbBlockEnd
  0
BLOCK
  5
2B8
330
2B7
100
AcDbEntity
  8
0
100
AcDbBlockBegin
  2
SW_CENTERMARKSYMBOL_4
 70
     0
 10
0.0
 20
0.0
 30
0.0
  3
SW_CENTERMARKSYMBOL_4
  1

  0
LINE
  5
2BA
330
2B7
100
AcDbEntity
  8
G__TOTO
 62
     0
100
AcDbLine
 10
0.0
 20
0.0
 30
0.0
 11
0.0
 21
2.5
 31
0.0
  0
LINE
  5
2BB
330
2B7
100
AcDbEntity
  8
G__TOTO
 62
     0
100
AcDbLine
 10
0.0
 20
0.0
 30
0.0
 11
-2.5
 21
0.0
 31
0.0
  0
LINE
  5
2BC
330
2B7
100
AcDbEntity
  8
G__TOTO
 62
     0
100
AcDbLine
 10
0.0
 20
0.0
 30
0.0
 11
0.0
 21
-2.5
 31
0.0
  0
LINE
  5
2BD
330
2B7
100
AcDbEntity
  8
G__TOTO
 62
     0
100
AcDbLine
 10
0.0
 20
0.0
 30
0.0
 11
2.5
 21
0.0
 31
0.0
  0
LINE
  5
2BE
330
2B7
100
AcDbEntity
  8
G__TOTO
 62
     0
100
AcDbLine
 10
0.0
 20
2.5
 30
0.0
 11
0.0
 21
2.55
 31
0.0
  0
LINE
  5
2BF
330
2B7
100
AcDbEntity
  8
G__TOTO
 62
     0
100
AcDbLine
 10
-2.5
 20
0.0
 30
0.0
 11
-2.55
 21
0.0
 31
0.0
  0
LINE
  5
2C0
330
2B7
100
AcDbEntity
  8
G__TOTO
 62
     0
100
AcDbLine
 10
0.0
 20
-2.5
 30
0.0
 11
0.0
 21
-2.55
 31
0.0
  0
LINE
  5
2C1
330
2B7
100
AcDbEntity
  8
G__TOTO
 62
     0
100
AcDbLine
 10
2.5
 20
0.0
 30
0.0
 11
2.55
 21
0.0
 31
0.0
  0
ENDBLK
  5
2B9
330
2B7
100
AcDbEntity
  8
0
100
AcDbBlockEnd
  0
ENDSEC
  0
SECTION
  2
ENTITIES
  0
INSERT
  5
CE
330
1F
100
AcDbEntity
  8
0
  6
Continuous
 62
     7
100
AcDbBlockReference
  2
Block1
 10
831.6841220757
 20
113.010257074
 30
0.0
 41
0.1
 42
0.1
 43
0.1
  0
INSERT
  5
D5
330
1F
100
AcDbEntity
  8
SLD-0
 62
   179
100
AcDbBlockReference
  2
SW_NOTE_1
 10
775.1089629997
 20
119.9359539248
 30
0.0
  0
CIRCLE
  5
D6
330
1F
100
AcDbEntity
  8
0
  6
Continuous
 62
     7
370
    15
100
AcDbCircle
 10
452.2308140206
 20
374.4489259575
 30
0.0
 40
171.4499999999999
  0
CIRCLE
  5
D7
330
1F
100
AcDbEntity
  8
0
  6
HIDDEN
 62
     7
370
     0
100
AcDbCircle
 10
268.1355635386
 20
190.3536754755
 30
0.0
 40
4.762500000000017
  0
CIRCLE
  5
D8
330
1F
100
AcDbEntity
  8
0
  6
HIDDEN
 62
     7
370
     0
100
AcDbCircle
 10
268.1355635386
 20
558.5441764394
 30
0.0
 40
4.762500000000045
  0
CIRCLE
  5
D9
330
1F
100
AcDbEntity
  8
0
  6
HIDDEN
 62
     7
370
     0
100
AcDbCircle
 10
636.3260645025
 20
558.5441764394
 30
0.0
 40
4.762500000000045
  0
CIRCLE
  5
DA
330
1F
100
AcDbEntity
  8
0
  6
HIDDEN
 62
     7
370
     0
100
AcDbCircle
 10
636.3260645025
 20
190.3536754755
 30
0.0
 40
4.762500000000017
  0
CIRCLE
  5
DB
330
1F
100
AcDbEntity
  8
0
  6
HIDDEN
 62
     7
370
     0
100
AcDbCircle
 10
636.3260645025
 20
190.3536754755
 30
0.0
 40
4.762500000000017
  0
CIRCLE
  5
DC
330
1F
100
AcDbEntity
  8
0
  6
HIDDEN
 62
     7
370
     0
100
AcDbCircle
 10
636.3260645025
 20
558.5441764394
 30
0.0
 40
4.762500000000045
  0
CIRCLE
  5
DD
330
1F
100
AcDbEntity
  8
0
  6
HIDDEN
 62
     7
370
     0
100
AcDbCircle
 10
268.1355635386
 20
558.5441764394
 30
0.0
 40
4.762500000000045
  0
CIRCLE
  5
DE
330
1F
100
AcDbEntity
  8
0
  6
HIDDEN
 62
     7
370
     0
100
AcDbCircle
 10
268.1355635386
 20
190.3536754755
 30
0.0
 40
4.762500000000017
  0
LINE
  5
DF
330
1F
100
AcDbEntity
  8
0
  6
Continuous
 62
     7
370
    30
100
AcDbLine
 10
7.7308140206
 20
671.4374970253
 30
0.0
 11
896.7308140206
 21
671.4374970253
 31
0.0
  0
LINE
  5
E0
330
1F
100
AcDbEntity
  8
0
  6
Continuous
 62
     7
370
    30
100
AcDbLine
 10
7.7308140206
 20
671.4374970253
 30
0.0
 11
7.7308140206
 21
87.2374970253
 31
0.0
  0
LINE
  5
E1
330
1F
100
AcDbEntity
  8
0
  6
Continuous
 62
     7
370
    30
100
AcDbLine
 10
7.7308140206
 20
87.2374970253
 30
0.0
 11
896.7308140206
 21
87.2374970253
 31
0.0
  0
LINE
  5
E2
330
1F
100
AcDbEntity
  8
0
  6
Continuous
 62
     7
370
    30
100
AcDbLine
 10
896.7308140206
 20
671.4374970253
 30
0.0
 11
896.7308140206
 21
87.2374970253
 31
0.0
  0
LINE
  5
E3
330
1F
100
AcDbEntity
  8
FORMAT
100
AcDbLine
 10
777.8368560955
 20
165.3344193115
 30
0.0
 11
779.656850806
 21
165.3344193115
 31
0.0
  0
LINE
  5
E4
330
1F
100
AcDbEntity
  8
FORMAT
100
AcDbLine
 10
783.727288457
 20
161.2631248164
 30
0.0
 11
783.7270577302
 21
160.1669416489
 31
0.0
  0
LINE
  5
E5
330
1F
100
AcDbEntity
  8
FORMAT
100
AcDbLine
 10
783.7270577302
 20
160.1669416489
 30
0.0
 11
786.1389470097
 21
160.1669416489
 31
0.0
  0
LINE
  5
E6
330
1F
100
AcDbEntity
  8
FORMAT
100
AcDbLine
 10
786.1389470097
 20
160.1669416489
 30
0.0
 11
786.1405423301
 21
167.7463085376
 31
0.0
  0
LINE
  5
E7
330
1F
100
AcDbEntity
  8
FORMAT
100
AcDbLine
 10
786.1405423301
 20
167.7463085376
 30
0.0
 11
764.6408979555
 21
167.7463085376
 31
0.0
  0
LINE
  5
E8
330
1F
100
AcDbEntity
  8
FORMAT
100
AcDbLine
 10
764.6408979555
 20
167.7463085376
 30
0.0
 11
764.6407409303
 21
160.1669416489
 31
0.0
  0
LINE
  5
E9
330
1F
100
AcDbEntity
  8
FORMAT
100
AcDbLine
 10
764.6407409303
 20
160.1669416489
 30
0.0
 11
767.0521504679
 21
160.1669416489
 31
0.0
  0
LINE
  5
EA
330
1F
100
AcDbEntity
  8
FORMAT
100
AcDbLine
 10
767.0521504679
 20
160.1669416489
 30
0.0
 11
767.0523815554
 21
161.2648383242
 31
0.0
  0
LINE
  5
EB
330
1F
100
AcDbEntity
  8
FORMAT
100
AcDbLine
 10
771.1228192064
 20
165.3344193115
 30
0.0
 11
772.9446374229
 21
165.3344193115
 31
0.0
  0
LINE
  5
EC
330
1F
100
AcDbEntity
  8
FORMAT
100
AcDbLine
 10
772.9446374229
 20
165.3344193115
 30
0.0
 11
772.9416667358
 21
151.6910289579
 31
0.0
  0
LINE
  5
ED
330
1F
100
AcDbEntity
  8
FORMAT
100
AcDbLine
 10
771.4254936563
 20
150.1751859712
 30
0.0
 11
768.8414246349
 21
150.1751859712
 31
0.0
  0
LINE
  5
EE
330
1F
100
AcDbEntity
  8
FORMAT
100
AcDbLine
 10
768.8414246349
 20
150.1751859712
 30
0.0
 11
768.8408994746
 21
147.7632967451
 31
0.0
  0
LINE
  5
EF
330
1F
100
AcDbEntity
  8
FORMAT
100
AcDbLine
 10
768.8408994746
 20
147.7632967451
 30
0.0
 11
781.932942235
 21
147.7632967451
 31
0.0
  0
LINE
  5
F0
330
1F
100
AcDbEntity
  8
FORMAT
100
AcDbLine
 10
781.932942235
 20
147.7632967451
 30
0.0
 11
781.9334673954
 21
150.1751859712
 31
0.0
  0
LINE
  5
F1
330
1F
100
AcDbEntity
  8
FORMAT
100
AcDbLine
 10
781.9334673954
 20
150.1751859712
 30
0.0
 11
779.3500586316
 21
150.1751859712
 31
0.0
  0
LINE
  5
F2
330
1F
100
AcDbEntity
  8
FORMAT
100
AcDbLine
 10
777.8338855522
 20
151.6916892154
 30
0.0
 11
777.8368560955
 21
165.3344193115
 31
0.0
  0
LINE
  5
F3
330
1F
100
AcDbEntity
  8
FORMAT
100
AcDbLine
 10
829.3873251637
 20
165.3344193115
 30
0.0
 11
831.2073198742
 21
165.3344193115
 31
0.0
  0
LINE
  5
F4
330
1F
100
AcDbEntity
  8
FORMAT
100
AcDbLine
 10
835.2777575252
 20
161.2631248164
 30
0.0
 11
835.2775267984
 21
160.1669416489
 31
0.0
  0
LINE
  5
F5
330
1F
100
AcDbEntity
  8
FORMAT
100
AcDbLine
 10
835.2775267984
 20
160.1669416489
 30
0.0
 11
837.6894160779
 21
160.1669416489
 31
0.0
  0
LINE
  5
F6
330
1F
100
AcDbEntity
  8
FORMAT
100
AcDbLine
 10
837.6894160779
 20
160.1669416489
 30
0.0
 11
837.6910113983
 21
167.7463085376
 31
0.0
  0
LINE
  5
F7
330
1F
100
AcDbEntity
  8
FORMAT
100
AcDbLine
 10
837.6910113983
 20
167.7463085376
 30
0.0
 11
816.1913670237
 21
167.7463085376
 31
0.0
  0
LINE
  5
F8
330
1F
100
AcDbEntity
  8
FORMAT
100
AcDbLine
 10
816.1913670237
 20
167.7463085376
 30
0.0
 11
816.1912099985
 21
160.1669416489
 31
0.0
  0
LINE
  5
F9
330
1F
100
AcDbEntity
  8
FORMAT
100
AcDbLine
 10
816.1912099985
 20
160.1669416489
 30
0.0
 11
818.6026195361
 21
160.1669416489
 31
0.0
  0
LINE
  5
FA
330
1F
100
AcDbEntity
  8
FORMAT
100
AcDbLine
 10
818.6026195361
 20
160.1669416489
 30
0.0
 11
818.6028506236
 21
161.2648383242
 31
0.0
  0
LINE
  5
FB
330
1F
100
AcDbEntity
  8
FORMAT
100
AcDbLine
 10
822.6732882746
 20
165.3344193115
 30
0.0
 11
824.4951064911
 21
165.3344193115
 31
0.0
  0
LINE
  5
FC
330
1F
100
AcDbEntity
  8
FORMAT
100
AcDbLine
 10
824.4951064911
 20
165.3344193115
 30
0.0
 11
824.492135804
 21
151.6910289579
 31
0.0
  0
LINE
  5
FD
330
1F
100
AcDbEntity
  8
FORMAT
100
AcDbLine
 10
822.9759627245
 20
150.1751859712
 30
0.0
 11
820.3918937031
 21
150.1751859712
 31
0.0
  0
LINE
  5
FE
330
1F
100
AcDbEntity
  8
FORMAT
100
AcDbLine
 10
820.3918937031
 20
150.1751859712
 30
0.0
 11
820.3913685427
 21
147.7632967451
 31
0.0
  0
LINE
  5
FF
330
1F
100
AcDbEntity
  8
FORMAT
100
AcDbLine
 10
820.3913685427
 20
147.7632967451
 30
0.0
 11
833.4834113032
 21
147.7632967451
 31
0.0
  0
LINE
  5
100
330
1F
100
AcDbEntity
  8
FORMAT
100
AcDbLine
 10
833.4834113032
 20
147.7632967451
 30
0.0
 11
833.4839364636
 21
150.1751859712
 31
0.0
  0
LINE
  5
101
330
1F
100
AcDbEntity
  8
FORMAT
100
AcDbLine
 10
833.4839364636
 20
150.1751859712
 30
0.0
 11
830.9005276998
 21
150.1751859712
 31
0.0
  0
LINE
  5
102
330
1F
100
AcDbEntity
  8
FORMAT
100
AcDbLine
 10
829.3843546203
 20
151.6916892154
 30
0.0
 11
829.3873251637
 21
165.3344193115
 31
0.0
  0
LINE
  5
103
330
1F
100
AcDbEntity
  8
FORMAT
100
AcDbLine
 10
867.5329357947
 20
150.8540188598
 30
0.0
 11
867.5490988046
 21
150.8537974195
 31
0.0
  0
LINE
  5
104
330
1F
100
AcDbEntity
  8
FORMAT
100
AcDbLine
 10
867.5490988046
 20
150.8537974195
 30
0.0
 11
867.5823112978
 21
150.8526902177
 31
0.0
  0
LINE
  5
105
330
1F
100
AcDbEntity
  8
FORMAT
100
AcDbLine
 10
867.5823112978
 20
150.8526902177
 30
0.0
 11
867.6144165892
 21
150.8502550858
 31
0.0
  0
LINE
  5
106
330
1F
100
AcDbEntity
  8
FORMAT
100
AcDbLine
 10
867.6144165892
 20
150.8502550858
 30
0.0
 11
867.6458568475
 21
150.8467120401
 31
0.0
  0
LINE
  5
107
330
1F
100
AcDbEntity
  8
FORMAT
100
AcDbLine
 10
867.6458568475
 20
150.8467120401
 30
0.0
 11
867.6761906161
 21
150.8418410643
 31
0.0
  0
LINE
  5
108
330
1F
100
AcDbEntity
  8
FORMAT
100
AcDbLine
 10
867.6761906161
 20
150.8418410643
 30
0.0
 11
867.7058607756
 21
150.8356414464
 31
0.0
  0
LINE
  5
109
330
1F
100
AcDbEntity
  8
FORMAT
100
AcDbLine
 10
867.7058607756
 20
150.8356414464
 30
0.0
 11
867.7346444617
 21
150.8285560671
 31
0.0
  0
LINE
  5
10A
330
1F
100
AcDbEntity
  8
FORMAT
100
AcDbLine
 10
867.7346444617
 20
150.8285560671
 30
0.0
 11
867.762320946
 21
150.8199206052
 31
0.0
  0
LINE
  5
10B
330
1F
100
AcDbEntity
  8
FORMAT
100
AcDbLine
 10
867.762320946
 20
150.8199206052
 30
0.0
 11
867.7893338212
 21
150.8101786536
 31
0.0
  0
LINE
  5
10C
330
1F
100
AcDbEntity
  8
FORMAT
100
AcDbLine
 10
867.7893338212
 20
150.8101786536
 30
0.0
 11
867.8154609351
 21
150.7993295003
 31
0.0
  0
LINE
  5
10D
330
1F
100
AcDbEntity
  8
FORMAT
100
AcDbLine
 10
867.8154609351
 20
150.7993295003
 30
0.0
 11
867.8407022875
 21
150.7871517048
 31
0.0
  0
LINE
  5
10E
330
1F
100
AcDbEntity
  8
FORMAT
100
AcDbLine
 10
867.8407022875
 20
150.7871517048
 30
0.0
 11
867.8650578785
 21
150.7738667075
 31
0.0
  0
LINE
  5
10F
330
1F
100
AcDbEntity
  8
FORMAT
100
AcDbLine
 10
867.8650578785
 20
150.7738667075
 30
0.0
 11
867.8883062677
 21
150.7592530681
 31
0.0
  0
LINE
  5
110
330
1F
100
AcDbEntity
  8
FORMAT
100
AcDbLine
 10
867.8883062677
 20
150.7592530681
 30
0.0
 11
867.9108903358
 21
150.7435329389
 31
0.0
  0
LINE
  5
111
330
1F
100
AcDbEntity
  8
FORMAT
100
AcDbLine
 10
867.9108903358
 20
150.7435329389
 30
0.0
 11
867.9325893546
 21
150.7264841676
 31
0.0
  0
LINE
  5
112
330
1F
100
AcDbEntity
  8
FORMAT
100
AcDbLine
 10
867.9325893546
 20
150.7264841676
 30
0.0
 11
867.9507453277
 21
150.7100990054
 31
0.0
  0
LINE
  5
113
330
1F
100
AcDbEntity
  8
FORMAT
100
AcDbLine
 10
867.9507453277
 20
150.7100990054
 30
0.0
 11
867.9708935519
 21
150.6897293408
 31
0.0
  0
LINE
  5
114
330
1F
100
AcDbEntity
  8
FORMAT
100
AcDbLine
 10
867.9708935519
 20
150.6897293408
 30
0.0
 11
867.9892709653
 21
150.6682517624
 31
0.0
  0
LINE
  5
115
330
1F
100
AcDbEntity
  8
FORMAT
100
AcDbLine
 10
867.9892709653
 20
150.6682517624
 30
0.0
 11
868.0060990083
 21
150.6458891346
 31
0.0
  0
LINE
  5
116
330
1F
100
AcDbEntity
  8
FORMAT
100
AcDbLine
 10
868.0060990083
 20
150.6458891346
 30
0.0
 11
868.0213762567
 21
150.622419305
 31
0.0
  0
LINE
  5
117
330
1F
100
AcDbEntity
  8
FORMAT
100
AcDbLine
 10
868.0213762567
 20
150.622419305
 30
0.0
 11
868.0351041347
 21
150.598063714
 31
0.0
  0
LINE
  5
118
330
1F
100
AcDbEntity
  8
FORMAT
100
AcDbLine
 10
868.0351041347
 20
150.598063714
 30
0.0
 11
868.0470604899
 21
150.5726009213
 31
0.0
  0
LINE
  5
119
330
1F
100
AcDbEntity
  8
FORMAT
100
AcDbLine
 10
868.0470604899
 20
150.5726009213
 30
0.0
 11
868.0574667625
 21
150.5460309267
 31
0.0
  0
LINE
  5
11A
330
1F
100
AcDbEntity
  8
FORMAT
100
AcDbLine
 10
868.0574667625
 20
150.5460309267
 30
0.0
 11
868.0663236647
 21
150.5185758828
 31
0.0
  0
LINE
  5
11B
330
1F
100
AcDbEntity
  8
FORMAT
100
AcDbLine
 10
868.0663236647
 20
150.5185758828
 30
0.0
 11
868.0734090441
 21
150.4902343654
 31
0.0
  0
LINE
  5
11C
330
1F
100
AcDbEntity
  8
FORMAT
100
AcDbLine
 10
868.0734090441
 20
150.4902343654
 30
0.0
 11
868.0791657813
 21
150.4605649179
 31
0.0
  0
LINE
  5
11D
330
1F
100
AcDbEntity
  8
FORMAT
100
AcDbLine
 10
868.0791657813
 20
150.4605649179
 30
0.0
 11
868.0831509956
 21
150.4302311493
 31
0.0
  0
LINE
  5
11E
330
1F
100
AcDbEntity
  8
FORMAT
100
AcDbLine
 10
868.0831509956
 20
150.4302311493
 30
0.0
 11
868.0855868396
 21
150.3985687386
 31
0.0
  0
LINE
  5
11F
330
1F
100
AcDbEntity
  8
FORMAT
100
AcDbLine
 10
868.0855868396
 20
150.3985687386
 30
0.0
 11
868.0862511606
 21
150.3660212785
 31
0.0
  0
LINE
  5
120
330
1F
100
AcDbEntity
  8
FORMAT
100
AcDbLine
 10
868.0862511606
 20
150.3660212785
 30
0.0
 11
868.0860297203
 21
150.3423292966
 31
0.0
  0
LINE
  5
121
330
1F
100
AcDbEntity
  8
FORMAT
100
AcDbLine
 10
868.0860297203
 20
150.3423292966
 30
0.0
 11
868.0851439588
 21
150.308231754
 31
0.0
  0
LINE
  5
122
330
1F
100
AcDbEntity
  8
FORMAT
100
AcDbLine
 10
868.0851439588
 20
150.308231754
 30
0.0
 11
868.0831509956
 21
150.2752407011
 31
0.0
  0
LINE
  5
123
330
1F
100
AcDbEntity
  8
FORMAT
100
AcDbLine
 10
868.0831509956
 20
150.2752407011
 30
0.0
 11
868.0800515427
 21
150.2433575621
 31
0.0
  0
LINE
  5
124
330
1F
100
AcDbEntity
  8
FORMAT
100
AcDbLine
 10
868.0800515427
 20
150.2433575621
 30
0.0
 11
868.0762870566
 21
150.2123594725
 31
0.0
  0
LINE
  5
125
330
1F
100
AcDbEntity
  8
FORMAT
100
AcDbLine
 10
868.0762870566
 20
150.2123594725
 30
0.0
 11
868.0716375212
 21
150.1822471443
 31
0.0
  0
LINE
  5
126
330
1F
100
AcDbEntity
  8
FORMAT
100
AcDbLine
 10
868.0716375212
 20
150.1822471443
 30
0.0
 11
868.065880784
 21
150.1534627462
 31
0.0
  0
LINE
  5
127
330
1F
100
AcDbEntity
  8
FORMAT
100
AcDbLine
 10
868.065880784
 20
150.1534627462
 30
0.0
 11
868.0594597257
 21
150.1253433812
 31
0.0
  0
LINE
  5
128
330
1F
100
AcDbEntity
  8
FORMAT
100
AcDbLine
 10
868.0594597257
 20
150.1253433812
 30
0.0
 11
868.0519314657
 21
150.0985519463
 31
0.0
  0
LINE
  5
129
330
1F
100
AcDbEntity
  8
FORMAT
100
AcDbLine
 10
868.0519314657
 20
150.0985519463
 30
0.0
 11
868.0435181562
 21
150.0726462728
 31
0.0
  0
LINE
  5
12A
330
1F
100
AcDbEntity
  8
FORMAT
100
AcDbLine
 10
868.0435181562
 20
150.0726462728
 30
0.0
 11
868.0342183733
 21
150.0476263607
 31
0.0
  0
LINE
  5
12B
330
1F
100
AcDbEntity
  8
FORMAT
100
AcDbLine
 10
868.0342183733
 20
150.0476263607
 30
0.0
 11
868.024033541
 21
150.0239350908
 31
0.0
  0
LINE
  5
12C
330
1F
100
AcDbEntity
  8
FORMAT
100
AcDbLine
 10
868.024033541
 20
150.0239350908
 30
0.0
 11
868.0129629473
 21
150.0009081419
 31
0.0
  0
LINE
  5
12D
330
1F
100
AcDbEntity
  8
FORMAT
100
AcDbLine
 10
868.0129629473
 20
150.0009081419
 30
0.0
 11
868.0007844398
 21
149.9792098352
 31
0.0
  0
LINE
  5
12E
330
1F
100
AcDbEntity
  8
FORMAT
100
AcDbLine
 10
868.0007844398
 20
149.9792098352
 30
0.0
 11
867.9879430352
 21
149.9583965779
 31
0.0
  0
LINE
  5
12F
330
1F
100
AcDbEntity
  8
FORMAT
100
AcDbLine
 10
867.9879430352
 20
149.9583965779
 30
0.0
 11
867.9739937169
 21
149.938469082
 31
0.0
  0
LINE
  5
130
330
1F
100
AcDbEntity
  8
FORMAT
100
AcDbLine
 10
867.9739937169
 20
149.938469082
 30
0.0
 11
867.9593800775
 21
149.9196487878
 31
0.0
  0
LINE
  5
131
330
1F
100
AcDbEntity
  8
FORMAT
100
AcDbLine
 10
867.9593800775
 20
149.9196487878
 30
0.0
 11
867.9436599483
 21
149.9019356955
 31
0.0
  0
LINE
  5
132
330
1F
100
AcDbEntity
  8
FORMAT
100
AcDbLine
 10
867.9436599483
 20
149.9019356955
 30
0.0
 11
867.9270540578
 21
149.8853298049
 31
0.0
  0
LINE
  5
133
330
1F
100
AcDbEntity
  8
FORMAT
100
AcDbLine
 10
867.9270540578
 20
149.8853298049
 30
0.0
 11
867.9095616937
 21
149.8693882354
 31
0.0
  0
LINE
  5
134
330
1F
100
AcDbEntity
  8
FORMAT
100
AcDbLine
 10
867.9095616937
 20
149.8693882354
 30
0.0
 11
867.8911842803
 21
149.854774596
 31
0.0
  0
LINE
  5
135
330
1F
100
AcDbEntity
  8
FORMAT
100
AcDbLine
 10
867.8911842803
 20
149.854774596
 30
0.0
 11
867.8717003771
 21
149.841046718
 31
0.0
  0
LINE
  5
136
330
1F
100
AcDbEntity
  8
FORMAT
100
AcDbLine
 10
867.8717003771
 20
149.841046718
 30
0.0
 11
867.8515514409
 21
149.8284260418
 31
0.0
  0
LINE
  5
137
330
1F
100
AcDbEntity
  8
FORMAT
100
AcDbLine
 10
867.8515514409
 20
149.8284260418
 30
0.0
 11
867.8302953028
 21
149.816691127
 31
0.0
  0
LINE
  5
138
330
1F
100
AcDbEntity
  8
FORMAT
100
AcDbLine
 10
867.8302953028
 20
149.816691127
 30
0.0
 11
867.8083755557
 21
149.806063414
 31
0.0
  0
LINE
  5
139
330
1F
100
AcDbEntity
  8
FORMAT
100
AcDbLine
 10
867.8083755557
 20
149.806063414
 30
0.0
 11
867.7853486069
 21
149.7963207504
 31
0.0
  0
LINE
  5
13A
330
1F
100
AcDbEntity
  8
FORMAT
100
AcDbLine
 10
867.7853486069
 20
149.7963207504
 30
0.0
 11
867.7614358966
 21
149.7876860006
 31
0.0
  0
LINE
  5
13B
330
1F
100
AcDbEntity
  8
FORMAT
100
AcDbLine
 10
867.7614358966
 20
149.7876860006
 30
0.0
 11
867.7366374249
 21
149.7801577405
 31
0.0
  0
LINE
  5
13C
330
1F
100
AcDbEntity
  8
FORMAT
100
AcDbLine
 10
867.7366374249
 20
149.7801577405
 30
0.0
 11
867.7109531918
 21
149.7735152419
 31
0.0
  0
LINE
  5
13D
330
1F
100
AcDbEntity
  8
FORMAT
100
AcDbLine
 10
867.7109531918
 20
149.7735152419
 30
0.0
 11
867.6841617569
 21
149.767979945
 31
0.0
  0
LINE
  5
13E
330
1F
100
AcDbEntity
  8
FORMAT
100
AcDbLine
 10
867.6841617569
 20
149.767979945
 30
0.0
 11
867.6567067129
 21
149.7633304096
 31
0.0
  0
LINE
  5
13F
330
1F
100
AcDbEntity
  8
FORMAT
100
AcDbLine
 10
867.6567067129
 20
149.7633304096
 30
0.0
 11
867.6281437552
 21
149.7597873639
 31
0.0
  0
LINE
  5
140
330
1F
100
AcDbEntity
  8
FORMAT
100
AcDbLine
 10
867.6281437552
 20
149.7597873639
 30
0.0
 11
867.5989171884
 21
149.757352232
 31
0.0
  0
LINE
  5
141
330
1F
100
AcDbEntity
  8
FORMAT
100
AcDbLine
 10
867.5989171884
 20
149.757352232
 30
0.0
 11
867.5685834198
 21
149.7558021495
 31
0.0
  0
LINE
  5
142
330
1F
100
AcDbEntity
  8
FORMAT
100
AcDbLine
 10
867.5685834198
 20
149.7558021495
 30
0.0
 11
867.5373638898
 21
149.7551378285
 31
0.0
  0
LINE
  5
143
330
1F
100
AcDbEntity
  8
FORMAT
100
AcDbLine
 10
867.5373638898
 20
149.7551378285
 30
0.0
 11
866.4615105194
 21
149.7551378285
 31
0.0
  0
LINE
  5
144
330
1F
100
AcDbEntity
  8
FORMAT
100
AcDbLine
 10
866.4615105194
 20
149.7551378285
 30
0.0
 11
866.4615105194
 21
150.8540188598
 31
0.0
  0
LINE
  5
145
330
1F
100
AcDbEntity
  8
FORMAT
100
AcDbLine
 10
866.4615105194
 20
150.8540188598
 30
0.0
 11
867.5329357947
 21
150.8540188598
 31
0.0
  0
LINE
  5
146
330
1F
100
AcDbEntity
  8
FORMAT
100
AcDbLine
 10
868.1761452645
 20
149.5295164512
 30
0.0
 11
868.1466972574
 21
149.5514361982
 31
0.0
  0
LINE
  5
147
330
1F
100
AcDbEntity
  8
FORMAT
100
AcDbLine
 10
868.1466972574
 20
149.5514361982
 30
0.0
 11
868.115256287
 21
149.5740209784
 31
0.0
  0
LINE
  5
148
330
1F
100
AcDbEntity
  8
FORMAT
100
AcDbLine
 10
868.115256287
 20
149.5740209784
 30
0.0
 11
868.0820437939
 21
149.5970479273
 31
0.0
  0
LINE
  5
149
330
1F
100
AcDbEntity
  8
FORMAT
100
AcDbLine
 10
868.0820437939
 20
149.5970479273
 30
0.0
 11
868.1015284091
 21
149.611218686
 31
0.0
  0
LINE
  5
14A
330
1F
100
AcDbEntity
  8
FORMAT
100
AcDbLine
 10
868.1015284091
 20
149.611218686
 30
0.0
 11
868.1285412844
 21
149.6318097909
 31
0.0
  0
LINE
  5
14B
330
1F
100
AcDbEntity
  8
FORMAT
100
AcDbLine
 10
868.1285412844
 20
149.6318097909
 30
0.0
 11
868.1544462458
 21
149.6524016079
 31
0.0
  0
LINE
  5
14C
330
1F
100
AcDbEntity
  8
FORMAT
100
AcDbLine
 10
868.1544462458
 20
149.6524016079
 30
0.0
 11
868.1794661579
 21
149.6734363056
 31
0.0
  0
LINE
  5
14D
330
1F
100
AcDbEntity
  8
FORMAT
100
AcDbLine
 10
868.1794661579
 20
149.6734363056
 30
0.0
 11
868.2036003085
 21
149.6946917316
 31
0.0
  0
LINE
  5
14E
330
1F
100
AcDbEntity
  8
FORMAT
100
AcDbLine
 10
868.2036003085
 20
149.6946917316
 30
0.0
 11
868.2268494097
 21
149.71616931
 31
0.0
  0
LINE
  5
14F
330
1F
100
AcDbEntity
  8
FORMAT
100
AcDbLine
 10
868.2268494097
 20
149.71616931
 30
0.0
 11
868.2489905972
 21
149.7378676167
 31
0.0
  0
LINE
  5
150
330
1F
100
AcDbEntity
  8
FORMAT
100
AcDbLine
 10
868.2489905972
 20
149.7378676167
 30
0.0
 11
868.2702467352
 21
149.7600088041
 31
0.0
  0
LINE
  5
151
330
1F
100
AcDbEntity
  8
FORMAT
100
AcDbLine
 10
868.2702467352
 20
149.7600088041
 30
0.0
 11
868.2906163998
 21
149.782372144
 31
0.0
  0
LINE
  5
152
330
1F
100
AcDbEntity
  8
FORMAT
100
AcDbLine
 10
868.2906163998
 20
149.782372144
 30
0.0
 11
868.310101015
 21
149.8049562121
 31
0.0
  0
LINE
  5
153
330
1F
100
AcDbEntity
  8
FORMAT
100
AcDbLine
 10
868.310101015
 20
149.8049562121
 30
0.0
 11
868.3284784285
 21
149.8277617206
 31
0.0
  0
LINE
  5
154
330
1F
100
AcDbEntity
  8
FORMAT
100
AcDbLine
 10
868.3284784285
 20
149.8277617206
 30
0.0
 11
868.3459700804
 21
149.8510108219
 31
0.0
  0
LINE
  5
155
330
1F
100
AcDbEntity
  8
FORMAT
100
AcDbLine
 10
868.3459700804
 20
149.8510108219
 30
0.0
 11
868.362575971
 21
149.8742592111
 31
0.0
  0
LINE
  5
156
330
1F
100
AcDbEntity
  8
FORMAT
100
AcDbLine
 10
868.362575971
 20
149.8742592111
 30
0.0
 11
868.3780753719
 21
149.897950481
 31
0.0
  0
LINE
  5
157
330
1F
100
AcDbEntity
  8
FORMAT
100
AcDbLine
 10
868.3780753719
 20
149.897950481
 30
0.0
 11
868.3926890113
 21
149.9218631913
 31
0.0
  0
LINE
  5
158
330
1F
100
AcDbEntity
  8
FORMAT
100
AcDbLine
 10
868.3926890113
 20
149.9218631913
 30
0.0
 11
868.4064161772
 21
149.9462187823
 31
0.0
  0
LINE
  5
159
330
1F
100
AcDbEntity
  8
FORMAT
100
AcDbLine
 10
868.4064161772
 20
149.9462187823
 30
0.0
 11
868.4192582938
 21
149.9705743733
 31
0.0
  0
LINE
  5
15A
330
1F
100
AcDbEntity
  8
FORMAT
100
AcDbLine
 10
868.4192582938
 20
149.9705743733
 30
0.0
 11
868.4309932086
 21
149.995372845
 31
0.0
  0
LINE
  5
15B
330
1F
100
AcDbEntity
  8
FORMAT
100
AcDbLine
 10
868.4309932086
 20
149.995372845
 30
0.0
 11
868.441843074
 21
150.0203927571
 31
0.0
  0
LINE
  5
15C
330
1F
100
AcDbEntity
  8
FORMAT
100
AcDbLine
 10
868.441843074
 20
150.0203927571
 30
0.0
 11
868.4518064659
 21
150.0456341095
 31
0.0
  0
LINE
  5
15D
330
1F
100
AcDbEntity
  8
FORMAT
100
AcDbLine
 10
868.4518064659
 20
150.0456341095
 30
0.0
 11
868.4608840964
 21
150.0713183426
 31
0.0
  0
LINE
  5
15E
330
1F
100
AcDbEntity
  8
FORMAT
100
AcDbLine
 10
868.4608840964
 20
150.0713183426
 30
0.0
 11
868.4688552372
 21
150.0970018637
 31
0.0
  0
LINE
  5
15F
330
1F
100
AcDbEntity
  8
FORMAT
100
AcDbLine
 10
868.4688552372
 20
150.0970018637
 30
0.0
 11
868.4759406165
 21
150.1231289775
 31
0.0
  0
LINE
  5
160
330
1F
100
AcDbEntity
  8
FORMAT
100
AcDbLine
 10
868.4759406165
 20
150.1231289775
 30
0.0
 11
868.4821402345
 21
150.1494775317
 31
0.0
  0
LINE
  5
161
330
1F
100
AcDbEntity
  8
FORMAT
100
AcDbLine
 10
868.4821402345
 20
150.1494775317
 30
0.0
 11
868.4872326506
 21
150.1762689666
 31
0.0
  0
LINE
  5
162
330
1F
100
AcDbEntity
  8
FORMAT
100
AcDbLine
 10
868.4872326506
 20
150.1762689666
 30
0.0
 11
868.4916607457
 21
150.2030596895
 31
0.0
  0
LINE
  5
163
330
1F
100
AcDbEntity
  8
FORMAT
100
AcDbLine
 10
868.4916607457
 20
150.2030596895
 30
0.0
 11
868.4947609107
 21
150.2302940051
 31
0.0
  0
LINE
  5
164
330
1F
100
AcDbEntity
  8
FORMAT
100
AcDbLine
 10
868.4947609107
 20
150.2302940051
 30
0.0
 11
868.4971960426
 21
150.2577490491
 31
0.0
  0
LINE
  5
165
330
1F
100
AcDbEntity
  8
FORMAT
100
AcDbLine
 10
868.4971960426
 20
150.2577490491
 30
0.0
 11
868.4987461251
 21
150.2854262454
 31
0.0
  0
LINE
  5
166
330
1F
100
AcDbEntity
  8
FORMAT
100
AcDbLine
 10
868.4987461251
 20
150.2854262454
 30
0.0
 11
868.4991890058
 21
150.3133241701
 31
0.0
  0
LINE
  5
167
330
1F
100
AcDbEntity
  8
FORMAT
100
AcDbLine
 10
868.4991890058
 20
150.3133241701
 30
0.0
 11
868.4989675654
 21
150.3394512839
 31
0.0
  0
LINE
  5
168
330
1F
100
AcDbEntity
  8
FORMAT
100
AcDbLine
 10
868.4989675654
 20
150.3394512839
 30
0.0
 11
868.498081804
 21
150.3755417897
 31
0.0
  0
LINE
  5
169
330
1F
100
AcDbEntity
  8
FORMAT
100
AcDbLine
 10
868.498081804
 20
150.3755417897
 30
0.0
 11
868.4965324335
 21
150.4109679744
 31
0.0
  0
LINE
  5
16A
330
1F
100
AcDbEntity
  8
FORMAT
100
AcDbLine
 10
868.4965324335
 20
150.4109679744
 30
0.0
 11
868.49431803
 21
150.4452876693
 31
0.0
  0
LINE
  5
16B
330
1F
100
AcDbEntity
  8
FORMAT
100
AcDbLine
 10
868.49431803
 20
150.4452876693
 30
0.0
 11
868.4914393054
 21
150.4791637716
 31
0.0
  0
LINE
  5
16C
330
1F
100
AcDbEntity
  8
FORMAT
100
AcDbLine
 10
868.4914393054
 20
150.4791637716
 30
0.0
 11
868.4876755313
 21
150.511933384
 31
0.0
  0
LINE
  5
16D
330
1F
100
AcDbEntity
  8
FORMAT
100
AcDbLine
 10
868.4876755313
 20
150.511933384
 30
0.0
 11
868.4832474363
 21
150.5442594038
 31
0.0
  0
LINE
  5
16E
330
1F
100
AcDbEntity
  8
FORMAT
100
AcDbLine
 10
868.4832474363
 20
150.5442594038
 30
0.0
 11
868.4781550201
 21
150.5754789338
 31
0.0
  0
LINE
  5
16F
330
1F
100
AcDbEntity
  8
FORMAT
100
AcDbLine
 10
868.4781550201
 20
150.5754789338
 30
0.0
 11
868.4723982829
 21
150.6060341427
 31
0.0
  0
LINE
  5
170
330
1F
100
AcDbEntity
  8
FORMAT
100
AcDbLine
 10
868.4723982829
 20
150.6060341427
 30
0.0
 11
868.4659772246
 21
150.6357043022
 31
0.0
  0
LINE
  5
171
330
1F
100
AcDbEntity
  8
FORMAT
100
AcDbLine
 10
868.4659772246
 20
150.6357043022
 30
0.0
 11
868.4588918453
 21
150.6647094286
 31
0.0
  0
LINE
  5
172
330
1F
100
AcDbEntity
  8
FORMAT
100
AcDbLine
 10
868.4588918453
 20
150.6647094286
 30
0.0
 11
868.4509207045
 21
150.6928287937
 31
0.0
  0
LINE
  5
173
330
1F
100
AcDbEntity
  8
FORMAT
100
AcDbLine
 10
868.4509207045
 20
150.6928287937
 30
0.0
 11
868.4422852426
 21
150.7200631093
 31
0.0
  0
LINE
  5
174
330
1F
100
AcDbEntity
  8
FORMAT
100
AcDbLine
 10
868.4422852426
 20
150.7200631093
 30
0.0
 11
868.4329861718
 21
150.7466323918
 31
0.0
  0
LINE
  5
175
330
1F
100
AcDbEntity
  8
FORMAT
100
AcDbLine
 10
868.4329861718
 20
150.7466323918
 30
0.0
 11
868.4230227798
 21
150.7725380653
 31
0.0
  0
LINE
  5
176
330
1F
100
AcDbEntity
  8
FORMAT
100
AcDbLine
 10
868.4230227798
 20
150.7725380653
 30
0.0
 11
868.4123943548
 21
150.797336537
 31
0.0
  0
LINE
  5
177
330
1F
100
AcDbEntity
  8
FORMAT
100
AcDbLine
 10
868.4123943548
 20
150.797336537
 30
0.0
 11
868.4008808804
 21
150.8214706876
 31
0.0
  0
LINE
  5
178
330
1F
100
AcDbEntity
  8
FORMAT
100
AcDbLine
 10
868.4008808804
 20
150.8214706876
 30
0.0
 11
868.3889245252
 21
150.8449405172
 31
0.0
  0
LINE
  5
179
330
1F
100
AcDbEntity
  8
FORMAT
100
AcDbLine
 10
868.3889245252
 20
150.8449405172
 30
0.0
 11
868.3760824087
 21
150.8675252974
 31
0.0
  0
LINE
  5
17A
330
1F
100
AcDbEntity
  8
FORMAT
100
AcDbLine
 10
868.3760824087
 20
150.8675252974
 30
0.0
 11
868.362575971
 21
150.8892236041
 31
0.0
  0
LINE
  5
17B
330
1F
100
AcDbEntity
  8
FORMAT
100
AcDbLine
 10
868.362575971
 20
150.8892236041
 30
0.0
 11
868.3484059244
 21
150.9102583018
 31
0.0
  0
LINE
  5
17C
330
1F
100
AcDbEntity
  8
FORMAT
100
AcDbLine
 10
868.3484059244
 20
150.9102583018
 30
0.0
 11
868.3333494042
 21
150.930406526
 31
0.0
  0
LINE
  5
17D
330
1F
100
AcDbEntity
  8
FORMAT
100
AcDbLine
 10
868.3333494042
 20
150.930406526
 30
0.0
 11
868.3178507154
 21
150.9496697009
 31
0.0
  0
LINE
  5
17E
330
1F
100
AcDbEntity
  8
FORMAT
100
AcDbLine
 10
868.3178507154
 20
150.9496697009
 30
0.0
 11
868.3014655532
 21
150.9682685547
 31
0.0
  0
LINE
  5
17F
330
1F
100
AcDbEntity
  8
FORMAT
100
AcDbLine
 10
868.3014655532
 20
150.9682685547
 30
0.0
 11
868.2868526258
 21
150.9835465151
 31
0.0
  0
LINE
  5
180
330
1F
100
AcDbEntity
  8
FORMAT
100
AcDbLine
 10
868.2868526258
 20
150.9835465151
 30
0.0
 11
868.2695824142
 21
150.9999309654
 31
0.0
  0
LINE
  5
181
330
1F
100
AcDbEntity
  8
FORMAT
100
AcDbLine
 10
868.2695824142
 20
150.9999309654
 30
0.0
 11
868.2516478814
 21
151.0158732469
 31
0.0
  0
LINE
  5
182
330
1F
100
AcDbEntity
  8
FORMAT
100
AcDbLine
 10
868.2516478814
 20
151.0158732469
 30
0.0
 11
868.2330490277
 21
151.0311504953
 31
0.0
  0
LINE
  5
183
330
1F
100
AcDbEntity
  8
FORMAT
100
AcDbLine
 10
868.2330490277
 20
151.0311504953
 30
0.0
 11
868.2135644125
 21
151.0457641347
 31
0.0
  0
LINE
  5
184
330
1F
100
AcDbEntity
  8
FORMAT
100
AcDbLine
 10
868.2135644125
 20
151.0457641347
 30
0.0
 11
868.1931940358
 21
151.0599341814
 31
0.0
  0
LINE
  5
185
330
1F
100
AcDbEntity
  8
FORMAT
100
AcDbLine
 10
868.1931940358
 20
151.0599341814
 30
0.0
 11
868.1721600502
 21
151.0734406191
 31
0.0
  0
LINE
  5
186
330
1F
100
AcDbEntity
  8
FORMAT
100
AcDbLine
 10
868.1721600502
 20
151.0734406191
 30
0.0
 11
868.1504610314
 21
151.0862827357
 31
0.0
  0
LINE
  5
187
330
1F
100
AcDbEntity
  8
FORMAT
100
AcDbLine
 10
868.1504610314
 20
151.0862827357
 30
0.0
 11
868.1278769633
 21
151.0986819715
 31
0.0
  0
LINE
  5
188
330
1F
100
AcDbEntity
  8
FORMAT
100
AcDbLine
 10
868.1278769633
 20
151.0986819715
 30
0.0
 11
868.104628574
 21
151.1104168863
 31
0.0
  0
LINE
  5
189
330
1F
100
AcDbEntity
  8
FORMAT
100
AcDbLine
 10
868.104628574
 20
151.1104168863
 30
0.0
 11
868.0804937114
 21
151.12148748
 31
0.0
  0
LINE
  5
18A
330
1F
100
AcDbEntity
  8
FORMAT
100
AcDbLine
 10
868.0804937114
 20
151.12148748
 30
0.0
 11
868.0556959517
 21
151.132115905
 31
0.0
  0
LINE
  5
18B
330
1F
100
AcDbEntity
  8
FORMAT
100
AcDbLine
 10
868.0556959517
 20
151.132115905
 30
0.0
 11
868.0300117186
 21
151.1418578566
 31
0.0
  0
LINE
  5
18C
330
1F
100
AcDbEntity
  8
FORMAT
100
AcDbLine
 10
868.0300117186
 20
151.1418578566
 30
0.0
 11
868.0036631644
 21
151.1511569275
 31
0.0
  0
LINE
  5
18D
330
1F
100
AcDbEntity
  8
FORMAT
100
AcDbLine
 10
868.0036631644
 20
151.1511569275
 30
0.0
 11
867.9764288488
 21
151.1600138297
 31
0.0
  0
LINE
  5
18E
330
1F
100
AcDbEntity
  8
FORMAT
100
AcDbLine
 10
867.9764288488
 20
151.1600138297
 30
0.0
 11
867.9485309241
 21
151.1679849705
 31
0.0
  0
LINE
  5
18F
330
1F
100
AcDbEntity
  8
FORMAT
100
AcDbLine
 10
867.9485309241
 20
151.1679849705
 30
0.0
 11
867.919747238
 21
151.1755125185
 31
0.0
  0
LINE
  5
190
330
1F
100
AcDbEntity
  8
FORMAT
100
AcDbLine
 10
867.919747238
 20
151.1755125185
 30
0.0
 11
867.8902992309
 21
151.1823764575
 31
0.0
  0
LINE
  5
191
330
1F
100
AcDbEntity
  8
FORMAT
100
AcDbLine
 10
867.8902992309
 20
151.1823764575
 30
0.0
 11
867.8601861907
 21
151.1887975158
 31
0.0
  0
LINE
  5
192
330
1F
100
AcDbEntity
  8
FORMAT
100
AcDbLine
 10
867.8601861907
 20
151.1887975158
 30
0.0
 11
867.8289673727
 21
151.1943328126
 31
0.0
  0
LINE
  5
193
330
1F
100
AcDbEntity
  8
FORMAT
100
AcDbLine
 10
867.8289673727
 20
151.1943328126
 30
0.0
 11
867.797304962
 21
151.1996473812
 31
0.0
  0
LINE
  5
194
330
1F
100
AcDbEntity
  8
FORMAT
100
AcDbLine
 10
867.797304962
 20
151.1996473812
 30
0.0
 11
867.7647567899
 21
151.2040754763
 31
0.0
  0
LINE
  5
195
330
1F
100
AcDbEntity
  8
FORMAT
100
AcDbLine
 10
867.7647567899
 20
151.2040754763
 30
0.0
 11
867.7315442967
 21
151.2078392503
 31
0.0
  0
LINE
  5
196
330
1F
100
AcDbEntity
  8
FORMAT
100
AcDbLine
 10
867.7315442967
 20
151.2078392503
 30
0.0
 11
867.6974467541
 21
151.2111608556
 31
0.0
  0
LINE
  5
197
330
1F
100
AcDbEntity
  8
FORMAT
100
AcDbLine
 10
867.6974467541
 20
151.2111608556
 30
0.0
 11
867.6624634501
 21
151.2140388682
 31
0.0
  0
LINE
  5
198
330
1F
100
AcDbEntity
  8
FORMAT
100
AcDbLine
 10
867.6624634501
 20
151.2140388682
 30
0.0
 11
867.6268158251
 21
151.2160318314
 31
0.0
  0
LINE
  5
199
330
1F
100
AcDbEntity
  8
FORMAT
100
AcDbLine
 10
867.6268158251
 20
151.2160318314
 30
0.0
 11
867.5905031669
 21
151.2175819139
 31
0.0
  0
LINE
  5
19A
330
1F
100
AcDbEntity
  8
FORMAT
100
AcDbLine
 10
867.5905031669
 20
151.2175819139
 30
0.0
 11
867.5533054593
 21
151.2184669633
 31
0.0
  0
LINE
  5
19B
330
1F
100
AcDbEntity
  8
FORMAT
100
AcDbLine
 10
867.5533054593
 20
151.2184669633
 30
0.0
 11
867.5154441427
 21
151.2186884036
 31
0.0
  0
LINE
  5
19C
330
1F
100
AcDbEntity
  8
FORMAT
100
AcDbLine
 10
867.5154441427
 20
151.2186884036
 30
0.0
 11
866.0487934026
 21
151.2186884036
 31
0.0
  0
LINE
  5
19D
330
1F
100
AcDbEntity
  8
FORMAT
100
AcDbLine
 10
866.0487934026
 20
151.2186884036
 30
0.0
 11
866.0487934026
 21
148.0148188502
 31
0.0
  0
LINE
  5
19E
330
1F
100
AcDbEntity
  8
FORMAT
100
AcDbLine
 10
866.0487934026
 20
148.0148188502
 30
0.0
 11
866.4615105194
 21
148.0148188502
 31
0.0
  0
LINE
  5
19F
330
1F
100
AcDbEntity
  8
FORMAT
100
AcDbLine
 10
866.4615105194
 20
148.0148188502
 30
0.0
 11
866.4615105194
 21
149.3904682847
 31
0.0
  0
LINE
  5
1A0
330
1F
100
AcDbEntity
  8
FORMAT
100
AcDbLine
 10
866.4615105194
 20
149.3904682847
 30
0.0
 11
867.5373638898
 21
149.3904682847
 31
0.0
  0
LINE
  5
1A1
330
1F
100
AcDbEntity
  8
FORMAT
100
AcDbLine
 10
867.5373638898
 20
149.3904682847
 30
0.0
 11
867.5617194808
 21
149.390025404
 31
0.0
  0
LINE
  5
1A2
330
1F
100
AcDbEntity
  8
FORMAT
100
AcDbLine
 10
867.5617194808
 20
149.390025404
 30
0.0
 11
867.5905031669
 21
149.3884753215
 31
0.0
  0
LINE
  5
1A3
330
1F
100
AcDbEntity
  8
FORMAT
100
AcDbLine
 10
867.5905031669
 20
149.3884753215
 30
0.0
 11
867.6186232439
 21
149.3858180372
 31
0.0
  0
LINE
  5
1A4
330
1F
100
AcDbEntity
  8
FORMAT
100
AcDbLine
 10
867.6186232439
 20
149.3858180372
 30
0.0
 11
867.6456354072
 21
149.3820542632
 31
0.0
  0
LINE
  5
1A5
330
1F
100
AcDbEntity
  8
FORMAT
100
AcDbLine
 10
867.6456354072
 20
149.3820542632
 30
0.0
 11
867.671762521
 21
149.3771832874
 31
0.0
  0
LINE
  5
1A6
330
1F
100
AcDbEntity
  8
FORMAT
100
AcDbLine
 10
867.671762521
 20
149.3771832874
 30
0.0
 11
867.6970038734
 21
149.3709836695
 31
0.0
  0
LINE
  5
1A7
330
1F
100
AcDbEntity
  8
FORMAT
100
AcDbLine
 10
867.6970038734
 20
149.3709836695
 30
0.0
 11
867.7213594644
 21
149.3638982902
 31
0.0
  0
LINE
  5
1A8
330
1F
100
AcDbEntity
  8
FORMAT
100
AcDbLine
 10
867.7213594644
 20
149.3638982902
 30
0.0
 11
867.744829294
 21
149.3554842687
 31
0.0
  0
LINE
  5
1A9
330
1F
100
AcDbEntity
  8
FORMAT
100
AcDbLine
 10
867.744829294
 20
149.3554842687
 30
0.0
 11
867.7674140742
 21
149.3459637574
 31
0.0
  0
LINE
  5
1AA
330
1F
100
AcDbEntity
  8
FORMAT
100
AcDbLine
 10
867.7674140742
 20
149.3459637574
 30
0.0
 11
867.7888909405
 21
149.3351146041
 31
0.0
  0
LINE
  5
1AB
330
1F
100
AcDbEntity
  8
FORMAT
100
AcDbLine
 10
867.7888909405
 20
149.3351146041
 30
0.0
 11
867.8097041979
 21
149.3233796893
 31
0.0
  0
LINE
  5
1AC
330
1F
100
AcDbEntity
  8
FORMAT
100
AcDbLine
 10
867.8097041979
 20
149.3233796893
 30
0.0
 11
867.8294095414
 21
149.3103161324
 31
0.0
  0
LINE
  5
1AD
330
1F
100
AcDbEntity
  8
FORMAT
100
AcDbLine
 10
867.8294095414
 20
149.3103161324
 30
0.0
 11
867.8482298355
 21
149.296366814
 31
0.0
  0
LINE
  5
1AE
330
1F
100
AcDbEntity
  8
FORMAT
100
AcDbLine
 10
867.8482298355
 20
149.296366814
 30
0.0
 11
867.8661643682
 21
149.2810895656
 31
0.0
  0
LINE
  5
1AF
330
1F
100
AcDbEntity
  8
FORMAT
100
AcDbLine
 10
867.8661643682
 20
149.2810895656
 30
0.0
 11
867.8832138516
 21
149.2647044033
 31
0.0
  0
LINE
  5
1B0
330
1F
100
AcDbEntity
  8
FORMAT
100
AcDbLine
 10
867.8832138516
 20
149.2647044033
 30
0.0
 11
867.8993768614
 21
149.246991311
 31
0.0
  0
LINE
  5
1B1
330
1F
100
AcDbEntity
  8
FORMAT
100
AcDbLine
 10
867.8993768614
 20
149.246991311
 30
0.0
 11
867.9146548219
 21
149.2283924572
 31
0.0
  0
LINE
  5
1B2
330
1F
100
AcDbEntity
  8
FORMAT
100
AcDbLine
 10
867.9146548219
 20
149.2283924572
 30
0.0
 11
867.9288248686
 21
149.2084649613
 31
0.0
  0
LINE
  5
1B3
330
1F
100
AcDbEntity
  8
FORMAT
100
AcDbLine
 10
867.9288248686
 20
149.2084649613
 30
0.0
 11
867.9423313062
 21
149.1874309756
 31
0.0
  0
LINE
  5
1B4
330
1F
100
AcDbEntity
  8
FORMAT
100
AcDbLine
 10
867.9423313062
 20
149.1874309756
 30
0.0
 11
867.954730542
 21
149.1652890762
 31
0.0
  0
LINE
  5
1B5
330
1F
100
AcDbEntity
  8
FORMAT
100
AcDbLine
 10
867.954730542
 20
149.1652890762
 30
0.0
 11
867.9664654568
 21
149.1420406869
 31
0.0
  0
LINE
  5
1B6
330
1F
100
AcDbEntity
  8
FORMAT
100
AcDbLine
 10
867.9664654568
 20
149.1420406869
 30
0.0
 11
867.9770931698
 21
149.117685096
 31
0.0
  0
LINE
  5
1B7
330
1F
100
AcDbEntity
  8
FORMAT
100
AcDbLine
 10
867.9770931698
 20
149.117685096
 30
0.0
 11
867.9868358334
 21
149.0920008628
 31
0.0
  0
LINE
  5
1B8
330
1F
100
AcDbEntity
  8
FORMAT
100
AcDbLine
 10
867.9868358334
 20
149.0920008628
 30
0.0
 11
867.9956920236
 21
149.0654315803
 31
0.0
  0
LINE
  5
1B9
330
1F
100
AcDbEntity
  8
FORMAT
100
AcDbLine
 10
867.9956920236
 20
149.0654315803
 30
0.0
 11
868.0036631644
 21
149.0375329436
 31
0.0
  0
LINE
  5
1BA
330
1F
100
AcDbEntity
  8
FORMAT
100
AcDbLine
 10
868.0036631644
 20
149.0375329436
 30
0.0
 11
868.0105271034
 21
149.0085278172
 31
0.0
  0
LINE
  5
1BB
330
1F
100
AcDbEntity
  8
FORMAT
100
AcDbLine
 10
868.0105271034
 20
149.0085278172
 30
0.0
 11
868.0167267213
 21
148.9781940486
 31
0.0
  0
LINE
  5
1BC
330
1F
100
AcDbEntity
  8
FORMAT
100
AcDbLine
 10
868.0167267213
 20
148.9781940486
 30
0.0
 11
868.0218191374
 21
148.9469745186
 31
0.0
  0
LINE
  5
1BD
330
1F
100
AcDbEntity
  8
FORMAT
100
AcDbLine
 10
868.0218191374
 20
148.9469745186
 30
0.0
 11
868.0262472325
 21
148.9144263465
 31
0.0
  0
LINE
  5
1BE
330
1F
100
AcDbEntity
  8
FORMAT
100
AcDbLine
 10
868.0262472325
 20
148.9144263465
 30
0.0
 11
868.0295688379
 21
148.880993125
 31
0.0
  0
LINE
  5
1BF
330
1F
100
AcDbEntity
  8
FORMAT
100
AcDbLine
 10
868.0295688379
 20
148.880993125
 30
0.0
 11
868.0320039698
 21
148.8462312614
 31
0.0
  0
LINE
  5
1C0
330
1F
100
AcDbEntity
  8
FORMAT
100
AcDbLine
 10
868.0320039698
 20
148.8462312614
 30
0.0
 11
868.0335540522
 21
148.8103614839
 31
0.0
  0
LINE
  5
1C1
330
1F
100
AcDbEntity
  8
FORMAT
100
AcDbLine
 10
868.0335540522
 20
148.8103614839
 30
0.0
 11
868.0326682908
 21
148.7904347
 31
0.0
  0
LINE
  5
1C2
330
1F
100
AcDbEntity
  8
FORMAT
100
AcDbLine
 10
868.0326682908
 20
148.7904347
 30
0.0
 11
868.03089748
 21
148.7525726714
 31
0.0
  0
LINE
  5
1C3
330
1F
100
AcDbEntity
  8
FORMAT
100
AcDbLine
 10
868.03089748
 20
148.7525726714
 30
0.0
 11
868.0293473975
 21
148.7158178446
 31
0.0
  0
LINE
  5
1C4
330
1F
100
AcDbEntity
  8
FORMAT
100
AcDbLine
 10
868.0293473975
 20
148.7158178446
 30
0.0
 11
868.0282401957
 21
148.6801702195
 31
0.0
  0
LINE
  5
1C5
330
1F
100
AcDbEntity
  8
FORMAT
100
AcDbLine
 10
868.0282401957
 20
148.6801702195
 30
0.0
 11
868.0275758747
 21
148.6456290842
 31
0.0
  0
LINE
  5
1C6
330
1F
100
AcDbEntity
  8
FORMAT
100
AcDbLine
 10
868.0275758747
 20
148.6456290842
 30
0.0
 11
868.0273544343
 21
148.6121958627
 31
0.0
  0
LINE
  5
1C7
330
1F
100
AcDbEntity
  8
FORMAT
100
AcDbLine
 10
868.0273544343
 20
148.6121958627
 30
0.0
 11
868.0273544343
 21
148.5796476906
 31
0.0
  0
LINE
  5
1C8
330
1F
100
AcDbEntity
  8
FORMAT
100
AcDbLine
 10
868.0273544343
 20
148.5796476906
 30
0.0
 11
868.0275758747
 21
148.5482067202
 31
0.0
  0
LINE
  5
1C9
330
1F
100
AcDbEntity
  8
FORMAT
100
AcDbLine
 10
868.0275758747
 20
148.5482067202
 30
0.0
 11
868.0284616361
 21
148.5178729516
 31
0.0
  0
LINE
  5
1CA
330
1F
100
AcDbEntity
  8
FORMAT
100
AcDbLine
 10
868.0284616361
 20
148.5178729516
 30
0.0
 11
868.0293473975
 21
148.4886463849
 31
0.0
  0
LINE
  5
1CB
330
1F
100
AcDbEntity
  8
FORMAT
100
AcDbLine
 10
868.0293473975
 20
148.4886463849
 30
0.0
 11
868.03089748
 21
148.4605263078
 31
0.0
  0
LINE
  5
1CC
330
1F
100
AcDbEntity
  8
FORMAT
100
AcDbLine
 10
868.03089748
 20
148.4605263078
 30
0.0
 11
868.0326682908
 21
148.4332927042
 31
0.0
  0
LINE
  5
1CD
330
1F
100
AcDbEntity
  8
FORMAT
100
AcDbLine
 10
868.0326682908
 20
148.4332927042
 30
0.0
 11
868.034661254
 21
148.4073870308
 31
0.0
  0
LINE
  5
1CE
330
1F
100
AcDbEntity
  8
FORMAT
100
AcDbLine
 10
868.034661254
 20
148.4073870308
 30
0.0
 11
868.0373185383
 21
148.3823671187
 31
0.0
  0
LINE
  5
1CF
330
1F
100
AcDbEntity
  8
FORMAT
100
AcDbLine
 10
868.0373185383
 20
148.3823671187
 30
0.0
 11
868.0399751105
 21
148.3584544084
 31
0.0
  0
LINE
  5
1D0
330
1F
100
AcDbEntity
  8
FORMAT
100
AcDbLine
 10
868.0399751105
 20
148.3584544084
 30
0.0
 11
868.0432967159
 21
148.3354274596
 31
0.0
  0
LINE
  5
1D1
330
1F
100
AcDbEntity
  8
FORMAT
100
AcDbLine
 10
868.0432967159
 20
148.3354274596
 30
0.0
 11
868.0468390495
 21
148.3137284408
 31
0.0
  0
LINE
  5
1D2
330
1F
100
AcDbEntity
  8
FORMAT
100
AcDbLine
 10
868.0468390495
 20
148.3137284408
 30
0.0
 11
868.0481676916
 21
148.3053151313
 31
0.0
  0
LINE
  5
1D3
330
1F
100
AcDbEntity
  8
FORMAT
100
AcDbLine
 10
868.0481676916
 20
148.3053151313
 30
0.0
 11
868.0537029885
 21
148.2747599224
 31
0.0
  0
LINE
  5
1D4
330
1F
100
AcDbEntity
  8
FORMAT
100
AcDbLine
 10
868.0537029885
 20
148.2747599224
 30
0.0
 11
868.0596811661
 21
148.2446475942
 31
0.0
  0
LINE
  5
1D5
330
1F
100
AcDbEntity
  8
FORMAT
100
AcDbLine
 10
868.0596811661
 20
148.2446475942
 30
0.0
 11
868.0663236647
 21
148.2147567064
 31
0.0
  0
LINE
  5
1D6
330
1F
100
AcDbEntity
  8
FORMAT
100
AcDbLine
 10
868.0663236647
 20
148.2147567064
 30
0.0
 11
868.0731876037
 21
148.1850865468
 31
0.0
  0
LINE
  5
1D7
330
1F
100
AcDbEntity
  8
FORMAT
100
AcDbLine
 10
868.0731876037
 20
148.1850865468
 30
0.0
 11
868.0807151517
 21
148.1558599801
 31
0.0
  0
LINE
  5
1D8
330
1F
100
AcDbEntity
  8
FORMAT
100
AcDbLine
 10
868.0807151517
 20
148.1558599801
 30
0.0
 11
868.0889077329
 21
148.127076294
 31
0.0
  0
LINE
  5
1D9
330
1F
100
AcDbEntity
  8
FORMAT
100
AcDbLine
 10
868.0889077329
 20
148.127076294
 30
0.0
 11
868.0973217543
 21
148.0985140483
 31
0.0
  0
LINE
  5
1DA
330
1F
100
AcDbEntity
  8
FORMAT
100
AcDbLine
 10
868.0973217543
 20
148.0985140483
 30
0.0
 11
868.1063993849
 21
148.0701725309
 31
0.0
  0
LINE
  5
1DB
330
1F
100
AcDbEntity
  8
FORMAT
100
AcDbLine
 10
868.1063993849
 20
148.0701725309
 30
0.0
 11
868.1159206081
 21
148.0422746062
 31
0.0
  0
LINE
  5
1DC
330
1F
100
AcDbEntity
  8
FORMAT
100
AcDbLine
 10
868.1159206081
 20
148.0422746062
 30
0.0
 11
868.1258840001
 21
148.0148188502
 31
0.0
  0
LINE
  5
1DD
330
1F
100
AcDbEntity
  8
FORMAT
100
AcDbLine
 10
868.1258840001
 20
148.0148188502
 30
0.0
 11
868.6220741625
 21
148.0148188502
 31
0.0
  0
LINE
  5
1DE
330
1F
100
AcDbEntity
  8
FORMAT
100
AcDbLine
 10
868.6220741625
 20
148.0148188502
 30
0.0
 11
868.6220741625
 21
148.1202123548
 31
0.0
  0
LINE
  5
1DF
330
1F
100
AcDbEntity
  8
FORMAT
100
AcDbLine
 10
868.6220741625
 20
148.1202123548
 30
0.0
 11
868.6019252262
 21
148.1374825665
 31
0.0
  0
LINE
  5
1E0
330
1F
100
AcDbEntity
  8
FORMAT
100
AcDbLine
 10
868.6019252262
 20
148.1374825665
 30
0.0
 11
868.5802269195
 21
148.1582958238
 31
0.0
  0
LINE
  5
1E1
330
1F
100
AcDbEntity
  8
FORMAT
100
AcDbLine
 10
868.5802269195
 20
148.1582958238
 30
0.0
 11
868.5605208639
 21
148.1802155709
 31
0.0
  0
LINE
  5
1E2
330
1F
100
AcDbEntity
  8
FORMAT
100
AcDbLine
 10
868.5605208639
 20
148.1802155709
 30
0.0
 11
868.5428077716
 21
148.2030210794
 31
0.0
  0
LINE
  5
1E3
330
1F
100
AcDbEntity
  8
FORMAT
100
AcDbLine
 10
868.5428077716
 20
148.2030210794
 30
0.0
 11
868.5270876424
 21
148.2271559421
 31
0.0
  0
LINE
  5
1E4
330
1F
100
AcDbEntity
  8
FORMAT
100
AcDbLine
 10
868.5270876424
 20
148.2271559421
 30
0.0
 11
868.5131383241
 21
148.2521751421
 31
0.0
  0
LINE
  5
1E5
330
1F
100
AcDbEntity
  8
FORMAT
100
AcDbLine
 10
868.5131383241
 20
148.2521751421
 30
0.0
 11
868.5011819689
 21
148.2780808156
 31
0.0
  0
LINE
  5
1E6
330
1F
100
AcDbEntity
  8
FORMAT
100
AcDbLine
 10
868.5011819689
 20
148.2780808156
 30
0.0
 11
868.4912178649
 21
148.3053151312
 31
0.0
  0
LINE
  5
1E7
330
1F
100
AcDbEntity
  8
FORMAT
100
AcDbLine
 10
868.4912178649
 20
148.3053151312
 30
0.0
 11
868.4830259959
 21
148.3334344962
 31
0.0
  0
LINE
  5
1E8
330
1F
100
AcDbEntity
  8
FORMAT
100
AcDbLine
 10
868.4830259959
 20
148.3334344962
 30
0.0
 11
868.4770478183
 21
148.3624396226
 31
0.0
  0
LINE
  5
1E9
330
1F
100
AcDbEntity
  8
FORMAT
100
AcDbLine
 10
868.4770478183
 20
148.3624396226
 30
0.0
 11
868.4728404515
 21
148.3927733912
 31
0.0
  0
LINE
  5
1EA
330
1F
100
AcDbEntity
  8
FORMAT
100
AcDbLine
 10
868.4728404515
 20
148.3927733912
 30
0.0
 11
868.4723982828
 21
148.3991944495
 31
0.0
  0
LINE
  5
1EB
330
1F
100
AcDbEntity
  8
FORMAT
100
AcDbLine
 10
868.4723982828
 20
148.3991944495
 30
0.0
 11
868.4697409986
 21
148.4405995238
 31
0.0
  0
LINE
  5
1EC
330
1F
100
AcDbEntity
  8
FORMAT
100
AcDbLine
 10
868.4697409986
 20
148.4405995238
 30
0.0
 11
868.4670837143
 21
148.4808966843
 31
0.0
  0
LINE
  5
1ED
330
1F
100
AcDbEntity
  8
FORMAT
100
AcDbLine
 10
868.4670837143
 20
148.4808966843
 30
0.0
 11
868.4646485824
 21
148.5200873551
 31
0.0
  0
LINE
  5
1EE
330
1F
100
AcDbEntity
  8
FORMAT
100
AcDbLine
 10
868.4646485824
 20
148.5200873551
 30
0.0
 11
868.4622127385
 21
148.558170824
 31
0.0
  0
LINE
  5
1EF
330
1F
100
AcDbEntity
  8
FORMAT
100
AcDbLine
 10
868.4622127385
 20
148.558170824
 30
0.0
 11
868.459999047
 21
148.5953678196
 31
0.0
  0
LINE
  5
1F0
330
1F
100
AcDbEntity
  8
FORMAT
100
AcDbLine
 10
868.459999047
 20
148.5953678196
 30
0.0
 11
868.4577846434
 21
148.631237597
 31
0.0
  0
LINE
  5
1F1
330
1F
100
AcDbEntity
  8
FORMAT
100
AcDbLine
 10
868.4577846434
 20
148.631237597
 30
0.0
 11
868.4555702399
 21
148.666220901
 31
0.0
  0
LINE
  5
1F2
330
1F
100
AcDbEntity
  8
FORMAT
100
AcDbLine
 10
868.4555702399
 20
148.666220901
 30
0.0
 11
868.4537994291
 21
148.7000970032
 31
0.0
  0
LINE
  5
1F3
330
1F
100
AcDbEntity
  8
FORMAT
100
AcDbLine
 10
868.4537994291
 20
148.7000970032
 30
0.0
 11
868.4518064659
 21
148.7328666157
 31
0.0
  0
LINE
  5
1F4
330
1F
100
AcDbEntity
  8
FORMAT
100
AcDbLine
 10
868.4518064659
 20
148.7328666157
 30
0.0
 11
868.450034943
 21
148.7645290264
 31
0.0
  0
LINE
  5
1F5
330
1F
100
AcDbEntity
  8
FORMAT
100
AcDbLine
 10
868.450034943
 20
148.7645290264
 30
0.0
 11
868.4484848605
 21
148.7950842353
 31
0.0
  0
LINE
  5
1F6
330
1F
100
AcDbEntity
  8
FORMAT
100
AcDbLine
 10
868.4484848605
 20
148.7950842353
 30
0.0
 11
868.4469354901
 21
148.8245322425
 31
0.0
  0
LINE
  5
1F7
330
1F
100
AcDbEntity
  8
FORMAT
100
AcDbLine
 10
868.4469354901
 20
148.8245322425
 30
0.0
 11
868.4456068479
 21
148.8530944882
 31
0.0
  0
LINE
  5
1F8
330
1F
100
AcDbEntity
  8
FORMAT
100
AcDbLine
 10
868.4456068479
 20
148.8530944882
 30
0.0
 11
868.4442782058
 21
148.8803288038
 31
0.0
  0
LINE
  5
1F9
330
1F
100
AcDbEntity
  8
FORMAT
100
AcDbLine
 10
868.4442782058
 20
148.8803288038
 30
0.0
 11
868.4429495637
 21
148.906677358
 31
0.0
  0
LINE
  5
1FA
330
1F
100
AcDbEntity
  8
FORMAT
100
AcDbLine
 10
868.4429495637
 20
148.906677358
 30
0.0
 11
868.4420638022
 21
148.9319187104
 31
0.0
  0
LINE
  5
1FB
330
1F
100
AcDbEntity
  8
FORMAT
100
AcDbLine
 10
868.4420638022
 20
148.9319187104
 30
0.0
 11
868.4409573125
 21
148.956052861
 31
0.0
  0
LINE
  5
1FC
330
1F
100
AcDbEntity
  8
FORMAT
100
AcDbLine
 10
868.4409573125
 20
148.956052861
 30
0.0
 11
868.4400715511
 21
148.9793012503
 31
0.0
  0
LINE
  5
1FD
330
1F
100
AcDbEntity
  8
FORMAT
100
AcDbLine
 10
868.4400715511
 20
148.9793012503
 30
0.0
 11
868.43940723
 21
149.0012209973
 31
0.0
  0
LINE
  5
1FE
330
1F
100
AcDbEntity
  8
FORMAT
100
AcDbLine
 10
868.43940723
 20
149.0012209973
 30
0.0
 11
868.4387429089
 21
149.022255695
 31
0.0
  0
LINE
  5
1FF
330
1F
100
AcDbEntity
  8
FORMAT
100
AcDbLine
 10
868.4387429089
 20
149.022255695
 30
0.0
 11
868.4380785879
 21
149.0419617506
 31
0.0
  0
LINE
  5
200
330
1F
100
AcDbEntity
  8
FORMAT
100
AcDbLine
 10
868.4380785879
 20
149.0419617506
 30
0.0
 11
868.4376357072
 21
149.0607820447
 31
0.0
  0
LINE
  5
201
330
1F
100
AcDbEntity
  8
FORMAT
100
AcDbLine
 10
868.4376357072
 20
149.0607820447
 30
0.0
 11
868.4347576946
 21
149.0911158133
 31
0.0
  0
LINE
  5
202
330
1F
100
AcDbEntity
  8
FORMAT
100
AcDbLine
 10
868.4347576946
 20
149.0911158133
 30
0.0
 11
868.4301074471
 21
149.1285342492
 31
0.0
  0
LINE
  5
203
330
1F
100
AcDbEntity
  8
FORMAT
100
AcDbLine
 10
868.4301074471
 20
149.1285342492
 30
0.0
 11
868.4247935906
 21
149.1635182652
 31
0.0
  0
LINE
  5
204
330
1F
100
AcDbEntity
  8
FORMAT
100
AcDbLine
 10
868.4247935906
 20
149.1635182652
 30
0.0
 11
868.418815413
 21
149.1962871656
 31
0.0
  0
LINE
  5
205
330
1F
100
AcDbEntity
  8
FORMAT
100
AcDbLine
 10
868.418815413
 20
149.1962871656
 30
0.0
 11
868.4121729144
 21
149.2266209342
 31
0.0
  0
LINE
  5
206
330
1F
100
AcDbEntity
  8
FORMAT
100
AcDbLine
 10
868.4121729144
 20
149.2266209342
 30
0.0
 11
868.4046453664
 21
149.2545195709
 31
0.0
  0
LINE
  5
207
330
1F
100
AcDbEntity
  8
FORMAT
100
AcDbLine
 10
868.4046453664
 20
149.2545195709
 30
0.0
 11
868.3964527852
 21
149.2799823637
 31
0.0
  0
LINE
  5
208
330
1F
100
AcDbEntity
  8
FORMAT
100
AcDbLine
 10
868.3964527852
 20
149.2799823637
 30
0.0
 11
868.387595883
 21
149.3030093125
 31
0.0
  0
LINE
  5
209
330
1F
100
AcDbEntity
  8
FORMAT
100
AcDbLine
 10
868.387595883
 20
149.3030093125
 30
0.0
 11
868.3778539315
 21
149.3238225698
 31
0.0
  0
LINE
  5
20A
330
1F
100
AcDbEntity
  8
FORMAT
100
AcDbLine
 10
868.3778539315
 20
149.3238225698
 30
0.0
 11
868.3674476588
 21
149.3419785429
 31
0.0
  0
LINE
  5
20B
330
1F
100
AcDbEntity
  8
FORMAT
100
AcDbLine
 10
868.3674476588
 20
149.3419785429
 30
0.0
 11
868.3581478759
 21
149.3561485896
 31
0.0
  0
LINE
  5
20C
330
1F
100
AcDbEntity
  8
FORMAT
100
AcDbLine
 10
868.3581478759
 20
149.3561485896
 30
0.0
 11
868.3453057593
 21
149.3731980729
 31
0.0
  0
LINE
  5
20D
330
1F
100
AcDbEntity
  8
FORMAT
100
AcDbLine
 10
868.3453057593
 20
149.3731980729
 30
0.0
 11
868.330692832
 21
149.3909111653
 31
0.0
  0
LINE
  5
20E
330
1F
100
AcDbEntity
  8
FORMAT
100
AcDbLine
 10
868.330692832
 20
149.3909111653
 30
0.0
 11
868.3143076697
 21
149.4090671383
 31
0.0
  0
LINE
  5
20F
330
1F
100
AcDbEntity
  8
FORMAT
100
AcDbLine
 10
868.3143076697
 20
149.4090671383
 30
0.0
 11
868.2959302563
 21
149.4278874325
 31
0.0
  0
LINE
  5
210
330
1F
100
AcDbEntity
  8
FORMAT
100
AcDbLine
 10
868.2959302563
 20
149.4278874325
 30
0.0
 11
868.2757820321
 21
149.4471498953
 31
0.0
  0
LINE
  5
211
330
1F
100
AcDbEntity
  8
FORMAT
100
AcDbLine
 10
868.2757820321
 20
149.4471498953
 30
0.0
 11
868.2536401326
 21
149.4668559508
 31
0.0
  0
LINE
  5
212
330
1F
100
AcDbEntity
  8
FORMAT
100
AcDbLine
 10
868.2536401326
 20
149.4668559508
 30
0.0
 11
868.2297274223
 21
149.4872263275
 31
0.0
  0
LINE
  5
213
330
1F
100
AcDbEntity
  8
FORMAT
100
AcDbLine
 10
868.2297274223
 20
149.4872263275
 30
0.0
 11
868.2038217488
 21
149.5082603131
 31
0.0
  0
LINE
  5
214
330
1F
100
AcDbEntity
  8
FORMAT
100
AcDbLine
 10
868.2038217488
 20
149.5082603131
 30
0.0
 11
868.1761452645
 21
149.5295164512
 31
0.0
  0
CIRCLE
  5
215
330
1F
100
AcDbEntity
  8
G__TOTO
100
AcDbCircle
 10
452.2308140206
 20
374.4489259575
 30
0.0
 40
21.99999999999999
  0
CIRCLE
  5
216
330
1F
100
AcDbEntity
  8
G__TOTO
100
AcDbCircle
 10
636.3260645025
 20
558.5441764394
 30
0.0
 40
0.0499999999998614
  0
ARC
  5
217
330
1F
100
AcDbEntity
  8
FORMAT
100
AcDbCircle
 10
779.656850806
 20
161.2639815703
 30
0.0
 40
4.070437741199875
100
AcDbArc
 50
359.9879402697
 51
90.0000000001
  0
ARC
  5
218
330
1F
100
AcDbEntity
  8
FORMAT
100
AcDbCircle
 10
771.1228192064
 20
161.2639815703
 30
0.0
 40
4.070437741203286
100
AcDbArc
 50
90.0
 51
179.9879402696
  0
ARC
  5
219
330
1F
100
AcDbEntity
  8
FORMAT
100
AcDbCircle
 10
771.4254936563
 20
151.6913590867
 30
0.0
 40
1.516173115427796
100
AcDbArc
 50
270.0
 51
359.987524521
  0
ARC
  5
21A
330
1F
100
AcDbEntity
  8
FORMAT
100
AcDbCircle
 10
779.3500586316
 20
151.6913590867
 30
0.0
 40
1.51617311543223
100
AcDbArc
 50
179.9875245209
 51
270.0000000001
  0
ARC
  5
21B
330
1F
100
AcDbEntity
  8
FORMAT
100
AcDbCircle
 10
831.2073198742
 20
161.2639815703
 30
0.0
 40
4.070437741199214
100
AcDbArc
 50
359.9879402697
 51
90.0000000001
  0
ARC
  5
21C
330
1F
100
AcDbEntity
  8
FORMAT
100
AcDbCircle
 10
822.6732882746
 20
161.2639815703
 30
0.0
 40
4.070437741203286
100
AcDbArc
 50
90.0
 51
179.9879402696
  0
ARC
  5
21D
330
1F
100
AcDbEntity
  8
FORMAT
100
AcDbCircle
 10
822.9759627245
 20
151.6913590866
 30
0.0
 40
1.516173115425976
100
AcDbArc
 50
270.0
 51
359.9875245211
  0
ARC
  5
21E
330
1F
100
AcDbEntity
  8
FORMAT
100
AcDbCircle
 10
830.9005276998
 20
151.6913590867
 30
0.0
 40
1.51617311543223
100
AcDbArc
 50
179.9875245209
 51
270.0000000001
  0
ARC
  5
21F
330
1F
100
AcDbEntity
  8
FORMAT
100
AcDbCircle
 10
801.1640767034
 20
155.0629162275
 30
0.0
 40
5.576627171136781
100
AcDbArc
 50
199.120265
 51
340.867675
  0
ARC
  5
220
330
1F
100
AcDbEntity
  8
FORMAT
100
AcDbCircle
 10
793.4129364127
 20
157.7518871675
 30
0.0
 40
13.78093948365412
100
AcDbArc
 50
340.8676765204
 51
19.193527
  0
ARC
  5
221
330
1F
100
AcDbEntity
  8
FORMAT
100
AcDbCircle
 10
801.1646433274
 20
160.4503351333
 30
0.0
 40
5.572981058109032
100
AcDbArc
 50
19.1935277085
 51
160.7944202524
  0
ARC
  5
222
330
1F
100
AcDbEntity
  8
FORMAT
100
AcDbCircle
 10
808.9157820077
 20
157.7502566494
 30
0.0
 40
13.78093906600769
100
AcDbArc
 50
160.7944202524
 51
199.1202687174
  0
ARC
  5
223
330
1F
100
AcDbEntity
  8
FORMAT
100
AcDbCircle
 10
799.8896816034
 20
157.7512057578
 30
0.0
 40
10.33595430364067
100
AcDbArc
 50
142.997119
 51
216.437586
  0
ARC
  5
224
330
1F
100
AcDbEntity
  8
FORMAT
100
AcDbCircle
 10
801.1646870468
 20
159.4775450421
 30
0.0
 40
12.40314521073146
100
AcDbArc
 50
219.3563212715
 51
320.61032
  0
ARC
  5
225
330
1F
100
AcDbEntity
  8
FORMAT
100
AcDbCircle
 10
802.4390372445
 20
157.7509373455
 30
0.0
 40
10.33595433327285
100
AcDbArc
 50
323.5257904376
 51
36.9655204161
  0
ARC
  5
226
330
1F
100
AcDbEntity
  8
FORMAT
100
AcDbCircle
 10
801.1640333114
 20
156.032060156
 30
0.0
 40
12.40314518251897
100
AcDbArc
 50
39.769147454
 51
140.1968750971
  0
ARC
  5
227
330
1F
100
AcDbEntity
  8
FORMAT
100
AcDbCircle
 10
851.4391920786
 20
157.7512057578
 30
0.0
 40
10.33595430364062
100
AcDbArc
 50
142.997119
 51
216.437586
  0
ARC
  5
228
330
1F
100
AcDbEntity
  8
FORMAT
100
AcDbCircle
 10
852.7141975219
 20
159.4775450421
 30
0.0
 40
12.40314521073014
100
AcDbArc
 50
219.3563212715
 51
320.61032
  0
ARC
  5
229
330
1F
100
AcDbEntity
  8
FORMAT
100
AcDbCircle
 10
853.9885477196
 20
157.7509373455
 30
0.0
 40
10.33595433327261
100
AcDbArc
 50
323.5257904376
 51
36.9655204161
  0
ARC
  5
22A
330
1F
100
AcDbEntity
  8
FORMAT
100
AcDbCircle
 10
852.7135437866
 20
156.032060156
 30
0.0
 40
12.40314518252091
100
AcDbArc
 50
39.769147454
 51
140.1968750971
  0
ARC
  5
22B
330
1F
100
AcDbEntity
  8
FORMAT
100
AcDbCircle
 10
852.7135871785
 20
155.0629162275
 30
0.0
 40
5.576627171138181
100
AcDbArc
 50
199.120265
 51
340.867675
  0
ARC
  5
22C
330
1F
100
AcDbEntity
  8
FORMAT
100
AcDbCircle
 10
844.9624468879
 20
157.7518871675
 30
0.0
 40
13.7809394836538
100
AcDbArc
 50
340.8676765204
 51
19.193527
  0
ARC
  5
22D
330
1F
100
AcDbEntity
  8
FORMAT
100
AcDbCircle
 10
852.7141538026
 20
160.4503351333
 30
0.0
 40
5.572981058110363
100
AcDbArc
 50
19.1935277085
 51
160.7944202524
  0
ARC
  5
22E
330
1F
100
AcDbEntity
  8
FORMAT
100
AcDbCircle
 10
860.4652924828
 20
157.7502566494
 30
0.0
 40
13.78093906600636
100
AcDbArc
 50
160.7944202524
 51
199.1202687174
  0
CIRCLE
  5
22F
330
1F
100
AcDbEntity
  8
G__TOTO
370
    30
100
AcDbCircle
 10
268.1355635386
 20
190.3536754755
 30
0.0
 40
4.762499999999937
  0
CIRCLE
  5
230
330
1F
100
AcDbEntity
  8
G__TOTO
370
    30
100
AcDbCircle
 10
636.3260645025
 20
190.3536754755
 30
0.0
 40
4.762499999999882
  0
CIRCLE
  5
231
330
1F
100
AcDbEntity
  8
G__TOTO
370
    30
100
AcDbCircle
 10
636.3260645025
 20
558.5441764394
 30
0.0
 40
4.762499999999899
  0
CIRCLE
  5
232
330
1F
100
AcDbEntity
  8
G__TOTO
370
    30
100
AcDbCircle
 10
268.1355635386
 20
558.5441764394
 30
0.0
 40
4.762500000000007
  0
CIRCLE
  5
233
330
1F
100
AcDbEntity
  8
G__TOTO
  6
CENTERX2
370
     0
100
AcDbCircle
 10
452.2308140206
 20
374.4489259575
 30
0.0
 40
241.3
  0
CIRCLE
  5
234
330
1F
100
AcDbEntity
  8
G__TOTO
100
AcDbCircle
 10
452.2308140206
 20
374.4489259575
 30
0.0
 40
171.45
  0
CIRCLE
  5
235
330
1F
100
AcDbEntity
  8
FORMAT
100
AcDbCircle
 10
867.1019131793
 20
149.466727074
 30
0.0
 40
2.492094032515214
  0
CIRCLE
  5
236
330
1F
100
AcDbEntity
  8
FORMAT
100
AcDbCircle
 10
867.1019131793
 20
149.466727074
 30
0.0
 40
2.848107465732487
  0
ELLIPSE
  5
237
330
1F
100
AcDbEntity
  8
G__TOTO
100
AcDbEllipse
 10
717.2483295628
 20
57.6169020414
 30
0.0
 11
21.04653699473238
 21
-0.1024924111325802
 31
0.0
210
0.0
220
0.0
230
1.0
 40
0.2823556228
 41
0.0
 42
6.283185307179586
  0
INSERT
  5
238
330
1F
100
AcDbEntity
  8
G__TOTO
100
AcDbBlockReference
  2
template line scale
 10
-279.3687771107
 20
279.8530621283
 30
0.0
  0
HATCH
  5
239
330
1F
100
AcDbEntity
  8
G__TOTO
100
AcDbHatch
 10
0.0
 20
0.0
 30
0.0
210
0.0
220
0.0
230
1.0
  2
SOLID
 70
     1
 71
     0
 91
        1
 92
        0
 93
       20
 72
     1
 10
781.9334673954147
 20
150.1751859712303
 11
779.3500586316491
 21
150.1751859712303
 72
     2
 10
779.3500586316457
 20
151.6913590866625
 40
1.516173115432181
 50
89.99999999987112
 51
180.0124754791154
 73
     0
 72
     1
 10
777.8338855521542
 20
151.6916892154442
 11
777.8368560955087
 21
165.3344193115129
 72
     1
 10
777.8368560955087
 20
165.3344193115129
 11
779.6568508059722
 21
165.3344193115129
 72
     2
 10
779.6568508059779
 20
161.2639815703131
 40
4.070437741199853
 50
269.9999999999208
 51
360.0120597303052
 73
     0
 72
     1
 10
783.7272884570122
 20
161.2631248164399
 11
783.7270577301824
 21
160.1669416488921
 72
     1
 10
783.7270577301824
 20
160.1669416488921
 11
786.1389470097413
 21
160.166941648892
 72
     1
 10
786.1389470097413
 20
160.166941648892
 11
786.1405423300705
 21
167.7463085376343
 72
     1
 10
786.1405423300705
 20
167.7463085376343
 11
764.640897955488
 21
167.7463085376343
 72
     1
 10
764.640897955488
 20
167.7463085376343
 11
764.6407409302578
 21
160.1669416488921
 72
     1
 10
764.6407409302578
 20
160.1669416488921
 11
767.0521504679065
 21
160.166941648892
 72
     1
 10
767.0521504679065
 20
160.166941648892
 11
767.052381555388
 21
161.2648383241767
 72
     2
 10
771.1228192064257
 20
161.2639815703001
 40
4.070437741202961
 50
180.0120597303524
 51
270.0000000000008
 73
     0
 72
     1
 10
771.1228192064257
 20
165.3344193115027
 11
772.9446374228859
 21
165.3344193115027
 72
     1
 10
772.9446374228859
 20
165.3344193115027
 11
772.9416667357727
 21
151.6910289578737
 72
     2
 10
771.4254936562858
 20
151.6913590866514
 40
1.51617311542774
 50
0.0124754789643036
 51
89.99999999999571
 73
     0
 72
     1
 10
771.4254936562859
 20
150.1751859712237
 11
768.84142463494
 21
150.1751859712237
 72
     1
 10
768.84142463494
 20
150.1751859712237
 11
768.8408994745503
 21
147.7632967450999
 72
     1
 10
768.8408994745503
 20
147.7632967450999
 11
781.9329422350125
 21
147.7632967450999
 72
     1
 10
781.9329422350125
 20
147.7632967450999
 11
781.9334673954147
 21
150.1751859712303
 97
        0
 75
     0
 76
     1
 98
        1
 10
0.0
 20
0.0
  0
HATCH
  5
23A
330
1F
100
AcDbEntity
  8
G__TOTO
100
AcDbHatch
 10
0.0
 20
0.0
 30
0.0
210
0.0
220
0.0
230
1.0
  2
SOLID
 70
     1
 71
     0
 91
        2
 92
        0
 93
        4
 72
     2
 10
802.4390372444723
 20
157.7509373454978
 40
10.33595433327275
 50
323.5257904376356
 51
396.9655204161043
 73
     1
 72
     2
 10
801.1640333114054
 20
156.03206015598
 40
12.40314518251895
 50
39.76914745396018
 51
140.1968750970757
 73
     1
 72
     2
 10
799.8896816034054
 20
157.7512057577813
 40
10.33595430364062
 50
142.9971189999965
 51
216.4375859999902
 73
     1
 72
     2
 10
801.1646870468
 20
159.4775450420927
 40
12.40314521073143
 50
219.3563212714843
 51
320.6103199999974
 73
     1
 97
        0
 92
        0
 93
        4
 72
     2
 10
808.9157820076773
 20
157.750256649448
 40
13.78093906600765
 50
160.8797312826041
 51
199.2055797476044
 73
     0
 72
     2
 10
801.1646433274146
 20
160.4503351332647
 40
5.57298105810875
 50
199.2055797476043
 51
340.8064722915089
 73
     0
 72
     2
 10
793.4129364127094
 20
157.7518871674913
 40
13.78093948365409
 50
340.8064730000007
 51
379.1323234795638
 73
     0
 72
     2
 10
801.1640767033585
 20
155.062916227522
 40
5.576627171136743
 50
19.13232499998276
 51
160.879734999976
 73
     0
 97
        0
 75
     0
 76
     1
 98
        1
 10
0.0
 20
0.0
  0
HATCH
  5
23B
330
1F
100
AcDbEntity
  8
G__TOTO
100
AcDbHatch
 10
0.0
 20
0.0
 30
0.0
210
0.0
220
0.0
230
1.0
  2
SOLID
 70
     1
 71
     0
 91
        1
 92
        0
 93
       20
 72
     1
 10
833.4839364636098
 20
150.1751859712288
 11
830.9005276998442
 21
150.1751859712286
 72
     2
 10
830.9005276998407
 20
151.6913590866608
 40
1.516173115432181
 50
89.99999999986683
 51
180.0124754791122
 73
     0
 72
     1
 10
829.3843546203493
 20
151.6916892154424
 11
829.3873251637036
 21
165.3344193115112
 72
     1
 10
829.3873251637036
 20
165.3344193115112
 11
831.2073198741679
 21
165.3344193115112
 72
     2
 10
831.207319874177
 20
161.263981570312
 40
4.070437741197355
 50
269.9999999998728
 51
360.0120597303036
 73
     0
 72
     1
 10
835.277757525207
 20
161.2631248164389
 11
835.2775267983773
 21
160.1669416488921
 72
     1
 10
835.2775267983773
 20
160.1669416488921
 11
837.6894160779378
 21
160.166941648892
 72
     1
 10
837.6894160779378
 20
160.166941648892
 11
837.6910113982653
 21
167.7463085376343
 72
     1
 10
837.6910113982653
 20
167.7463085376343
 11
816.1913670236827
 21
167.7463085376343
 72
     1
 10
816.1913670236827
 20
167.7463085376343
 11
816.1912099984668
 21
160.1669416488921
 72
     1
 10
816.1912099984668
 20
160.1669416488921
 11
818.6026195361011
 21
160.166941648892
 72
     1
 10
818.6026195361011
 20
160.166941648892
 11
818.6028506235828
 21
161.2648383241768
 72
     2
 10
822.6732882746204
 20
161.2639815703001
 40
4.070437741202961
 50
180.012059730354
 51
270.0000000000008
 73
     0
 72
     1
 10
822.6732882746204
 20
165.3344193115027
 11
824.495106491083
 21
165.3344193115027
 72
     1
 10
824.495106491083
 20
165.3344193115027
 11
824.4921358039663
 21
151.691028957873
 72
     2
 10
822.9759627244812
 20
151.6913590866489
 40
1.516173115425963
 50
0.0124754788966535
 51
89.99999999999571
 73
     0
 72
     1
 10
822.9759627244813
 20
150.175185971223
 11
820.3918937031334
 21
150.175185971223
 72
     1
 10
820.3918937031334
 20
150.175185971223
 11
820.391368542747
 21
147.7632967450981
 72
     1
 10
820.391368542747
 20
147.7632967450981
 11
833.4834113032092
 21
147.7632967450981
 72
     1
 10
833.4834113032092
 20
147.7632967450981
 11
833.4839364636098
 21
150.1751859712288
 97
        0
 75
     0
 76
     1
 98
        1
 10
0.0
 20
0.0
  0
HATCH
  5
23C
330
1F
100
AcDbEntity
  8
G__TOTO
100
AcDbHatch
 10
0.0
 20
0.0
 30
0.0
210
0.0
220
0.0
230
1.0
  2
SOLID
 70
     1
 71
     0
 91
        2
 92
        0
 93
        4
 72
     2
 10
853.9885477196203
 20
157.7509373455022
 40
10.33595433327262
 50
323.5257904376043
 51
396.9655204161117
 73
     1
 72
     2
 10
852.7135437865552
 20
156.0320601559791
 40
12.40314518252089
 50
39.76914745399044
 51
140.1968750970778
 73
     1
 72
     2
 10
851.4391920785533
 20
157.7512057577813
 40
10.3359543036406
 50
142.9971189999965
 51
216.4375859999961
 73
     1
 72
     2
 10
852.7141975219463
 20
159.4775450420927
 40
12.40314521073011
 50
219.3563212714943
 51
320.6103199999924
 73
     1
 97
        0
 92
        0
 93
        4
 72
     2
 10
860.4652924828222
 20
157.7502566494485
 40
13.7809390660063
 50
160.8797312826041
 51
199.2055797476089
 73
     0
 72
     2
 10
852.7141538025627
 20
160.4503351332647
 40
5.57298105811035
 50
199.2055797476093
 51
340.8064722915087
 73
     0
 72
     2
 10
844.9624468878592
 20
157.7518871674913
 40
13.78093948365381
 50
340.8064729999982
 51
379.1323234795686
 73
     0
 72
     2
 10
852.7135871785065
 20
155.062916227522
 40
5.576627171138125
 50
19.13232499998859
 51
160.879734999991
 73
     0
 97
        0
 75
     0
 76
     1
 98
        1
 10
0.0
 20
0.0
  0
POINT
  5
23D
330
1F
100
AcDbEntity
  8
G__TOTO
100
AcDbPoint
 10
636.3260645025
 20
558.5441764394
 30
0.0
  0
DIMENSION
  5
23E
330
1F
100
AcDbEntity
  8
G__TOTO
100
AcDbDimension
  2
*D5
 10
632.2045362452
 20
556.1578799208
 30
0.0
 11
710.9479858137
 21
602.1492218275
 31
0.0
 70
   163
  1
<>
 71
     1
 42
-1.0
  3
SLDDIMSTYLE0
100
AcDbDiametricDimension
 15
640.4475927598
 25
560.9304729579
 35
0.0
 40
0.0
  0
INSERT
  5
25A
330
1F
100
AcDbEntity
  8
FORMAT
100
AcDbBlockReference
  2
SW_NOTE_2
 10
689.0037479119
 20
61.477197345
 30
0.0
  0
INSERT
  5
261
330
1F
100
AcDbEntity
  8
G__TOTO
100
AcDbBlockReference
  2
SW_NOTE_3
 10
223.6264071436
 20
522.3115050847
 30
0.0
  0
LEADER
  5
263
330
1F
100
AcDbEntity
  8
G__TOTO
100
AcDbLeader
  3
SLDDIMSTYLE1
 76
     2
 10
264.765116532
 20
555.1794337709
 30
0.0
 10
223.6264071436
 20
522.3115050847
 30
0.0
  0
INSERT
  5
26A
330
1F
100
AcDbEntity
  8
G__TOTO
100
AcDbBlockReference
  2
SW_NOTE_4
 10
227.4442071436
 20
223.330620339
 30
0.0
  0
LEADER
  5
26B
330
1F
100
AcDbEntity
  8
G__TOTO
100
AcDbLeader
  3
SLDDIMSTYLE1
 76
     2
 10
304.6507486937
 20
287.1836589944
 30
0.0
 10
227.4442071436
 20
223.330620339
 30
0.0
  0
INSERT
  5
275
330
1F
100
AcDbEntity
  8
G__TOTO
100
AcDbBlockReference
  2
SW_NOTE_5
 10
641.4634124783
 20
611.1463012257
 30
0.0
  0
INSERT
  5
27C
330
1F
100
AcDbEntity
  8
G__TOTO
100
AcDbBlockReference
  2
SW_NOTE_6
 10
703.42361664
 20
570.3208179719
 30
0.0
  0
INSERT
  5
283
330
1F
100
AcDbEntity
  8
G__TOTO
100
AcDbBlockReference
  2
SW_NOTE_7
 10
137.7120410419
 20
320.6891423729
 30
0.0
  0
LEADER
  5
284
330
1F
100
AcDbEntity
  8
G__TOTO
100
AcDbLeader
  3
SLDDIMSTYLE1
 76
     2
 10
211.1289009547
 20
364.6735734828
 30
0.0
 10
137.7120410419
 20
320.6891423729
 30
0.0
  0
MTEXT
  5
286
330
1F
100
AcDbEntity
  8
G__TOTO
100
AcDbMText
 10
369.2421501513
 20
28.3115321268
 30
0.0
 40
7.4083333333
 41
0.0
 71
     1
 72
     1
  1
PART NUMBER VISIBLE AFTER FINAL FOLD
  7
SLDTEXTSTYLE7
 73
     1
 44
1.0
  0
INSERT
  5
292
330
1F
100
AcDbEntity
  8
0
  6
Continuous
 62
     7
370
     0
100
AcDbBlockReference
  2
SW_CENTERMARKSYMBOL_0
 10
452.2308140206
 20
374.4489259575
 30
0.0
  0
INSERT
  5
29E
330
1F
100
AcDbEntity
  8
G__TOTO
100
AcDbBlockReference
  2
SW_CENTERMARKSYMBOL_1
 10
268.1355635386
 20
558.5441764394
 30
0.0
  0
INSERT
  5
2AA
330
1F
100
AcDbEntity
  8
G__TOTO
100
AcDbBlockReference
  2
SW_CENTERMARKSYMBOL_2
 10
268.1355635386
 20
190.3536754755
 30
0.0
  0
INSERT
  5
2B6
330
1F
100
AcDbEntity
  8
G__TOTO
100
AcDbBlockReference
  2
SW_CENTERMARKSYMBOL_3
 10
636.3260645025
 20
190.3536754755
 30
0.0
  0
INSERT
  5
2C2
330
1F
100
AcDbEntity
  8
G__TOTO
100
AcDbBlockReference
  2
SW_CENTERMARKSYMBOL_4
 10
636.3260645025
 20
558.5441764394
 30
0.0
  0
ENDSEC
  0
SECTION
  2
OBJECTS
  0
DICTIONARY
  5
C
330
0
100
AcDbDictionary
281
     1
  3
ACAD_GROUP
350
D
  3
ACAD_LAYOUT
350
1A
  3
ACAD_MLEADERSTYLE
350
2C6
  3
ACAD_MLINESTYLE
350
17
  3
ACAD_PLOTSETTINGS
350
19
  3
ACAD_PLOTSTYLENAME
350
E
  3
ACAD_SCALELIST
350
3B
  3
ACAD_TABLESTYLE
350
2C5
  3
ACAD_VISUALSTYLE
350
2A
  3
AcDbVariableDictionary
350
2C3
  0
DICTIONARY
  5
D
102
{ACAD_REACTORS
330
C
102
}
330
C
100
AcDbDictionary
281
     1
  0
DICTIONARY
  5
1A
102
{ACAD_REACTORS
330
C
102
}
330
C
100
AcDbDictionary
281
     1
  3
Layout1
350
1E
  3
Layout2
350
26
  3
Model
350
22
  0
DICTIONARY
  5
2C6
102
{ACAD_REACTORS
330
C
102
}
330
C
100
AcDbDictionary
281
     1
  0
DICTIONARY
  5
17
102
{ACAD_REACTORS
330
C
102
}
330
C
100
AcDbDictionary
281
     1
  3
Standard
350
18
  0
DICTIONARY
  5
19
102
{ACAD_REACTORS
330
C
102
}
330
C
100
AcDbDictionary
281
     1
  0
ACDBDICTIONARYWDFLT
  5
E
102
{ACAD_REACTORS
330
C
102
}
330
C
100
AcDbDictionary
281
     1
  3
Normal
350
F
100
AcDbDictionaryWithDefault
340
F
  0
DICTIONARY
  5
3B
102
{ACAD_REACTORS
330
C
102
}
330
C
100
AcDbDictionary
281
     1
  3
A0
350
3C
  3
A1
350
3D
  3
A2
350
3E
  3
A3
350
3F
  3
A4
350
40
  3
A5
350
41
  3
A6
350
42
  3
A7
350
43
  3
A8
350
44
  3
A9
350
45
  3
B0
350
46
  3
B1
350
47
  3
B2
350
48
  3
B3
350
49
  3
B4
350
4A
  3
B5
350
4B
  3
B6
350
4C
  3
B7
350
4D
  3
B8
350
4E
  3
B9
350
4F
  3
C0
350
50
  3
C1
350
51
  3
C2
350
52
  3
C3
350
53
  3
C4
350
54
  3
C5
350
55
  3
C6
350
56
  3
C7
350
57
  3
C8
350
58
  3
C9
350
59
  3
D0
350
5A
  3
D1
350
5B
  3
D2
350
5C
  0
DICTIONARY
  5
2C5
102
{ACAD_REACTORS
330
C
102
}
330
C
100
AcDbDictionary
281
     1
  0
DICTIONARY
  5
2A
102
{ACAD_REACTORS
330
C
102
}
330
C
100
AcDbDictionary
281
     1
  3
2dWireframe
350
2F
  3
3D Hidden
350
31
  3
3dWireframe
350
30
  3
Basic
350
32
  3
Brighten
350
36
  3
ColorChange
350
3A
  3
Conceptual
350
34
  3
Dim
350
35
  3
Facepattern
350
39
  3
Flat
350
2B
  3
FlatWithEdges
350
2C
  3
Gouraud
350
2D
  3
GouraudWithEdges
350
2E
  3
Linepattern
350
38
  3
Realistic
350
33
  3
Thicken
350
37
  0
DICTIONARY
  5
2C3
102
{ACAD_REACTORS
330
C
102
}
330
C
100
AcDbDictionary
281
     1
  3
CANNOSCALE
350
2C4
  3
PSOLHEIGHT
350
2C8
  3
PSOLWIDTH
350
2C7
  0
LAYOUT
  5
1E
102
{ACAD_REACTORS
330
1A
102
}
330
1A
100
AcDbPlotSettings
  1

  2
none_device
  4

  6

 40
0.0
 41
0.0
 42
0.0
 43
0.0
 44
0.0
 45
0.0
 46
0.0
 47
0.0
 48
0.0
 49
0.0
140
0.0
141
0.0
142
1.0
143
1.0
 70
   688
 72
     0
 73
     0
 74
     5
  7

 75
    16
147
1.0
148
0.0
149
0.0
100
AcDbLayout
  1
Layout1
 70
     1
 71
     1
 10
0.0
 20
0.0
 11
420.0
 21
297.0
 12
0.0
 22
0.0
 32
0.0
 14
1.0000000000E+20
 24
1.0000000000E+20
 34
1.0000000000E+20
 15
-1.0000000000E+20
 25
-1.0000000000E+20
 35
-1.0000000000E+20
146
0.0
 13
0.0
 23
0.0
 33
0.0
 16
1.0
 26
0.0
 36
0.0
 17
0.0
 27
1.0
 37
0.0
 76
     0
330
1B
  0
LAYOUT
  5
26
102
{ACAD_REACTORS
330
1A
102
}
330
1A
100
AcDbPlotSettings
  1

  2
none_device
  4

  6

 40
0.0
 41
0.0
 42
0.0
 43
0.0
 44
0.0
 45
0.0
 46
0.0
 47
0.0
 48
0.0
 49
0.0
140
0.0
141
0.0
142
1.0
143
1.0
 70
   688
 72
     0
 73
     0
 74
     5
  7

 75
    16
147
1.0
148
0.0
149
0.0
100
AcDbLayout
  1
Layout2
 70
     1
 71
     2
 10
0.0
 20
0.0
 11
0.0
 21
0.0
 12
0.0
 22
0.0
 32
0.0
 14
0.0
 24
0.0
 34
0.0
 15
0.0
 25
0.0
 35
0.0
146
0.0
 13
0.0
 23
0.0
 33
0.0
 16
1.0
 26
0.0
 36
0.0
 17
0.0
 27
1.0
 37
0.0
 76
     0
330
23
  0
LAYOUT
  5
22
102
{ACAD_REACTORS
330
1A
102
}
330
1A
100
AcDbPlotSettings
  1

  2
none_device
  4

  6

 40
0.0
 41
0.0
 42
0.0
 43
0.0
 44
0.0
 45
0.0
 46
0.0
 47
0.0
 48
0.0
 49
0.0
140
0.0
141
0.0
142
1.0
143
1.0
 70
  1712
 72
     0
 73
     0
 74
     0
  7

 75
     0
147
1.0
148
0.0
149
0.0
100
AcDbLayout
  1
Model
 70
     1
 71
     0
 10
0.0
 20
0.0
 11
909.0
 21
680.0
 12
0.0
 22
0.0
 32
0.0
 14
0.0
 24
0.0
 34
0.0
 15
909.0
 25
680.0
 35
0.0
146
0.0
 13
0.0
 23
0.0
 33
0.0
 16
1.0
 26
0.0
 36
0.0
 17
0.0
 27
1.0
 37
0.0
 76
     0
330
1F
331
29
  0
MLINESTYLE
  5
18
102
{ACAD_REACTORS
330
17
102
}
330
17
100
AcDbMlineStyle
  2
Standard
 70
     0
  3

 62
   256
 51
90.0
 52
90.0
 71
     2
 49
0.5
 62
   256
  6
BYLAYER
 49
-0.5
 62
   256
  6
BYLAYER
  0
ACDBPLACEHOLDER
  5
F
102
{ACAD_REACTORS
330
E
102
}
330
E
  0
SCALE
  5
3C
102
{ACAD_REACTORS
330
3B
102
}
330
3B
100
AcDbScale
 70
     0
300
1:1
140
1.0
141
1.0
290
     1
  0
SCALE
  5
3D
102
{ACAD_REACTORS
330
3B
102
}
330
3B
100
AcDbScale
 70
     0
300
1:2
140
1.0
141
2.0
290
     0
  0
SCALE
  5
3E
102
{ACAD_REACTORS
330
3B
102
}
330
3B
100
AcDbScale
 70
     0
300
1:4
140
1.0
141
4.0
290
     0
  0
SCALE
  5
3F
102
{ACAD_REACTORS
330
3B
102
}
330
3B
100
AcDbScale
 70
     0
300
1:5
140
1.0
141
5.0
290
     0
  0
SCALE
  5
40
102
{ACAD_REACTORS
330
3B
102
}
330
3B
100
AcDbScale
 70
     0
300
1:8
140
1.0
141
8.0
290
     0
  0
SCALE
  5
41
102
{ACAD_REACTORS
330
3B
102
}
330
3B
100
AcDbScale
 70
     0
300
1:10
140
1.0
141
10.0
290
     0
  0
SCALE
  5
42
102
{ACAD_REACTORS
330
3B
102
}
330
3B
100
AcDbScale
 70
     0
300
1:16
140
1.0
141
16.0
290
     0
  0
SCALE
  5
43
102
{ACAD_REACTORS
330
3B
102
}
330
3B
100
AcDbScale
 70
     0
300
1:20
140
1.0
141
20.0
290
     0
  0
SCALE
  5
44
102
{ACAD_REACTORS
330
3B
102
}
330
3B
100
AcDbScale
 70
     0
300
1:30
140
1.0
141
30.0
290
     0
  0
SCALE
  5
45
102
{ACAD_REACTORS
330
3B
102
}
330
3B
100
AcDbScale
 70
     0
300
1:40
140
1.0
141
40.0
290
     0
  0
SCALE
  5
46
102
{ACAD_REACTORS
330
3B
102
}
330
3B
100
AcDbScale
 70
     0
300
1:50
140
1.0
141
50.0
290
     0
  0
SCALE
  5
47
102
{ACAD_REACTORS
330
3B
102
}
330
3B
100
AcDbScale
 70
     0
300
1:100
140
1.0
141
100.0
290
     0
  0
SCALE
  5
48
102
{ACAD_REACTORS
330
3B
102
}
330
3B
100
AcDbScale
 70
     0
300
2:1
140
2.0
141
1.0
290
     0
  0
SCALE
  5
49
102
{ACAD_REACTORS
330
3B
102
}
330
3B
100
AcDbScale
 70
     0
300
4:1
140
4.0
141
1.0
290
     0
  0
SCALE
  5
4A
102
{ACAD_REACTORS
330
3B
102
}
330
3B
100
AcDbScale
 70
     0
300
8:1
140
8.0
141
1.0
290
     0
  0
SCALE
  5
4B
102
{ACAD_REACTORS
330
3B
102
}
330
3B
100
AcDbScale
 70
     0
300
10:1
140
10.0
141
1.0
290
     0
  0
SCALE
  5
4C
102
{ACAD_REACTORS
330
3B
102
}
330
3B
100
AcDbScale
 70
     0
300
100:1
140
100.0
141
1.0
290
     0
  0
SCALE
  5
4D
102
{ACAD_REACTORS
330
3B
102
}
330
3B
100
AcDbScale
 70
     0
300
1/128" = 1'-0"
140
0.0078125
141
12.0
290
     0
  0
SCALE
  5
4E
102
{ACAD_REACTORS
330
3B
102
}
330
3B
100
AcDbScale
 70
     0
300
1/64" = 1'-0"
140
0.015625
141
12.0
290
     0
  0
SCALE
  5
4F
102
{ACAD_REACTORS
330
3B
102
}
330
3B
100
AcDbScale
 70
     0
300
1/32" = 1'-0"
140
0.03125
141
12.0
290
     0
  0
SCALE
  5
50
102
{ACAD_REACTORS
330
3B
102
}
330
3B
100
AcDbScale
 70
     0
300
1/16" = 1'-0"
140
0.0625
141
12.0
290
     0
  0
SCALE
  5
51
102
{ACAD_REACTORS
330
3B
102
}
330
3B
100
AcDbScale
 70
     0
300
3/32" = 1'-0"
140
0.09375
141
12.0
290
     0
  0
SCALE
  5
52
102
{ACAD_REACTORS
330
3B
102
}
330
3B
100
AcDbScale
 70
     0
300
1/8" = 1'-0"
140
0.125
141
12.0
290
     0
  0
SCALE
  5
53
102
{ACAD_REACTORS
330
3B
102
}
330
3B
100
AcDbScale
 70
     0
300
3/16" = 1'-0"
140
0.1875
141
12.0
290
     0
  0
SCALE
  5
54
102
{ACAD_REACTORS
330
3B
102
}
330
3B
100
AcDbScale
 70
     0
300
1/4" = 1'-0"
140
0.25
141
12.0
290
     0
  0
SCALE
  5
55
102
{ACAD_REACTORS
330
3B
102
}
330
3B
100
AcDbScale
 70
     0
300
3/8" = 1'-0"
140
0.375
141
12.0
290
     0
  0
SCALE
  5
56
102
{ACAD_REACTORS
330
3B
102
}
330
3B
100
AcDbScale
 70
     0
300
1/2" = 1'-0"
140
0.5
141
12.0
290
     0
  0
SCALE
  5
57
102
{ACAD_REACTORS
330
3B
102
}
330
3B
100
AcDbScale
 70
     0
300
3/4" = 1'-0"
140
0.75
141
12.0
290
     0
  0
SCALE
  5
58
102
{ACAD_REACTORS
330
3B
102
}
330
3B
100
AcDbScale
 70
     0
300
1" = 1'-0"
140
1.0
141
12.0
290
     0
  0
SCALE
  5
59
102
{ACAD_REACTORS
330
3B
102
}
330
3B
100
AcDbScale
 70
     0
300
1-1/2" = 1'-0"
140
1.5
141
12.0
290
     0
  0
SCALE
  5
5A
102
{ACAD_REACTORS
330
3B
102
}
330
3B
100
AcDbScale
 70
     0
300
3" = 1'-0"
140
3.0
141
12.0
290
     0
  0
SCALE
  5
5B
102
{ACAD_REACTORS
330
3B
102
}
330
3B
100
AcDbScale
 70
     0
300
6" = 1'-0"
140
6.0
141
12.0
290
     0
  0
SCALE
  5
5C
102
{ACAD_REACTORS
330
3B
102
}
330
3B
100
AcDbScale
 70
     0
300
1'-0" = 1'-0"
140
12.0
141
12.0
290
     0
  0
VISUALSTYLE
  5
2F
102
{ACAD_REACTORS
330
2A
102
}
330
2A
100
AcDbVisualStyle
  2
2dWireframe
 70
     4
 71
     0
 72
     2
 73
     0
 90
        0
 40
-0.6
 41
-30.0
 62
     5
 63
     7
 74
     1
 91
        4
 64
     7
 65
   257
 75
     1
175
     1
 42
1.0
 92
        0
 66
   257
 43
1.0
 76
     1
 77
     6
 78
     2
 67
     7
 79
     5
170
     0
171
     0
290
     0
174
     0
 93
        1
 44
0.0
173
     0
291
     0
 45
0.0
1001
ACAD
1000
AcDbSavedByObjectVersion
1070
     0
  0
VISUALSTYLE
  5
31
102
{ACAD_REACTORS
330
2A
102
}
330
2A
100
AcDbVisualStyle
  2
3D Hidden
 70
     6
 71
     1
 72
     2
 73
     2
 90
        0
 40
-0.6
 41
-30.0
 62
     5
 63
     7
 74
     2
 91
        2
 64
     7
 65
   257
 75
     2
175
     1
 42
40.0
 92
        0
 66
   257
 43
1.0
 76
     1
 77
     6
 78
     2
 67
     7
 79
     3
170
     0
171
     0
290
     0
174
     0
 93
        1
 44
0.0
173
     0
291
     0
 45
0.0
1001
ACAD
1000
AcDbSavedByObjectVersion
1070
     0
  0
VISUALSTYLE
  5
30
102
{ACAD_REACTORS
330
2A
102
}
330
2A
100
AcDbVisualStyle
  2
3dWireframe
 70
     5
 71
     0
 72
     2
 73
     0
 90
        0
 40
-0.6
 41
-30.0
 62
     5
 63
     7
 74
     1
 91
        4
 64
     7
 65
   257
 75
     1
175
     1
 42
1.0
 92
        0
 66
   257
 43
1.0
 76
     1
 77
     6
 78
     2
 67
     7
 79
     5
170
     0
171
     0
290
     0
174
     0
 93
        1
 44
0.0
173
     0
291
     0
 45
0.0
1001
ACAD
1000
AcDbSavedByObjectVersion
1070
     0
  0
VISUALSTYLE
  5
32
102
{ACAD_REACTORS
330
2A
102
}
330
2A
100
AcDbVisualStyle
  2
Basic
 70
     7
 71
     1
 72
     0
 73
     1
 90
        0
 40
-0.6
 41
-30.0
 62
     5
 63
     7
 74
     0
 91
        4
 64
     7
 65
   257
 75
     1
175
     1
 42
1.0
 92
        8
 66
     7
 43
1.0
 76
     1
 77
     6
 78
     2
 67
     7
 79
     5
170
     0
171
     0
290
     0
174
     0
 93
        1
 44
0.0
173
     0
291
     1
 45
0.0
1001
ACAD
1000
AcDbSavedByObjectVersion
1070
     0
  0
VISUALSTYLE
  5
36
102
{ACAD_REACTORS
330
2A
102
}
330
2A
100
AcDbVisualStyle
  2
Brighten
 70
    12
 71
     2
 72
     2
 73
     0
 90
        0
 40
-0.6
 41
-30.0
 62
     5
 63
     7
 74
     1
 91
        4
 64
     7
 65
   257
 75
     1
175
     1
 42
1.0
 92
        8
 66
     7
 43
1.0
 76
     1
 77
     6
 78
     2
 67
     7
 79
     5
170
     0
171
     0
290
     0
174
     0
 93
        1
 44
50.0
173
     0
291
     1
 45
0.0
1001
ACAD
1000
AcDbSavedByObjectVersion
1070
     0
  0
VISUALSTYLE
  5
3A
102
{ACAD_REACTORS
330
2A
102
}
330
2A
100
AcDbVisualStyle
  2
ColorChange
 70
    16
 71
     2
 72
     2
 73
     3
 90
        0
 40
-0.6
 41
-30.0
 62
     5
 63
     8
 74
     1
 91
        4
 64
     7
 65
   257
 75
     1
175
     1
 42
1.0
 92
        8
 66
     8
 43
1.0
 76
     1
 77
     6
 78
     2
 67
     7
 79
     5
170
     0
171
     0
290
     0
174
     0
 93
        1
 44
0.0
173
     0
291
     1
 45
0.0
1001
ACAD
1000
AcDbSavedByObjectVersion
1070
     0
  0
VISUALSTYLE
  5
34
102
{ACAD_REACTORS
330
2A
102
}
330
2A
100
AcDbVisualStyle
  2
Conceptual
 70
     9
 71
     3
 72
     2
 73
     0
 90
        0
 40
-0.6
 41
-30.0
 62
     5
 63
     7
 74
     2
 91
        2
 64
     7
 65
   257
 75
     1
175
     1
 42
40.0
 92
        8
 66
     7
 43
1.0
 76
     1
 77
     6
 78
     2
 67
     7
 79
     3
170
     0
171
     0
290
     0
174
     0
 93
        1
 44
0.0
173
     0
291
     0
 45
0.0
1001
ACAD
1000
AcDbSavedByObjectVersion
1070
     0
  0
VISUALSTYLE
  5
35
102
{ACAD_REACTORS
330
2A
102
}
330
2A
100
AcDbVisualStyle
  2
Dim
 70
    11
 71
     2
 72
     2
 73
     0
 90
        0
 40
-0.6
 41
-30.0
 62
     5
 63
     7
 74
     1
 91
        4
 64
     7
 65
   257
 75
     1
175
     1
 42
1.0
 92
        8
 66
     7
 43
1.0
 76
     1
 77
     6
 78
     2
 67
     7
 79
     5
170
     0
171
     0
290
     0
174
     0
 93
        1
 44
-50.0
173
     0
291
     1
 45
0.0
1001
ACAD
1000
AcDbSavedByObjectVersion
1070
     0
  0
VISUALSTYLE
  5
39
102
{ACAD_REACTORS
330
2A
102
}
330
2A
100
AcDbVisualStyle
  2
Facepattern
 70
    15
 71
     2
 72
     2
 73
     0
 90
        0
 40
-0.6
 41
-30.0
 62
     5
 63
     7
 74
     1
 91
        4
 64
     7
 65
   257
 75
     1
175
     1
 42
1.0
 92
        8
 66
     7
 43
1.0
 76
     1
 77
     6
 78
     2
 67
     7
 79
     5
170
     0
171
     0
290
     0
174
     0
 93
        1
 44
0.0
173
     0
291
     1
 45
0.0
1001
ACAD
1000
AcDbSavedByObjectVersion
1070
     0
  0
VISUALSTYLE
  5
2B
102
{ACAD_REACTORS
330
2A
102
}
330
2A
100
AcDbVisualStyle
  2
Flat
 70
     0
 71
     2
 72
     1
 73
     1
 90
        2
 40
-0.6
 41
30.0
 62
     5
 63
     7
 74
     0
 91
        4
 64
     7
 65
   257
 75
     1
175
     1
 42
1.0
 92
        8
 66
     7
 43
1.0
 76
     1
 77
     6
 78
     2
 67
     7
 79
     5
170
     0
171
     0
290
     0
174
     0
 93
       13
 44
0.0
173
     0
291
     1
 45
0.0
1001
ACAD
1000
AcDbSavedByObjectVersion
1070
     0
  0
VISUALSTYLE
  5
2C
102
{ACAD_REACTORS
330
2A
102
}
330
2A
100
AcDbVisualStyle
  2
FlatWithEdges
 70
     1
 71
     2
 72
     1
 73
     1
 90
        2
 40
-0.6
 41
30.0
 62
     5
 63
     7
 74
     1
 91
        4
 64
     7
 65
   257
 75
     1
175
     1
 42
1.0
 92
        0
 66
   257
 43
1.0
 76
     1
 77
     6
 78
     2
 67
     7
 79
     5
170
     0
171
     0
290
     0
174
     0
 93
       13
 44
0.0
173
     0
291
     1
 45
0.0
1001
ACAD
1000
AcDbSavedByObjectVersion
1070
     0
  0
VISUALSTYLE
  5
2D
102
{ACAD_REACTORS
330
2A
102
}
330
2A
100
AcDbVisualStyle
  2
Gouraud
 70
     2
 71
     2
 72
     2
 73
     1
 90
        2
 40
-0.6
 41
30.0
 62
     5
 63
     7
 74
     0
 91
        4
 64
     7
 65
   257
 75
     1
175
     1
 42
1.0
 92
        0
 66
     7
 43
1.0
 76
     1
 77
     6
 78
     2
 67
     7
 79
     5
170
     0
171
     0
290
     0
174
     0
 93
       13
 44
0.0
173
     0
291
     1
 45
0.0
1001
ACAD
1000
AcDbSavedByObjectVersion
1070
     0
  0
VISUALSTYLE
  5
2E
102
{ACAD_REACTORS
330
2A
102
}
330
2A
100
AcDbVisualStyle
  2
GouraudWithEdges
 70
     3
 71
     2
 72
     2
 73
     1
 90
        2
 40
-0.6
 41
30.0
 62
     5
 63
     7
 74
     1
 91
        4
 64
     7
 65
   257
 75
     1
175
     1
 42
1.0
 92
        0
 66
   257
 43
1.0
 76
     1
 77
     6
 78
     2
 67
     7
 79
     5
170
     0
171
     0
290
     0
174
     0
 93
       13
 44
0.0
173
     0
291
     1
 45
0.0
1001
ACAD
1000
AcDbSavedByObjectVersion
1070
     0
  0
VISUALSTYLE
  5
38
102
{ACAD_REACTORS
330
2A
102
}
330
2A
100
AcDbVisualStyle
  2
Linepattern
 70
    14
 71
     2
 72
     2
 73
     0
 90
        0
 40
-0.6
 41
-30.0
 62
     5
 63
     7
 74
     1
 91
        4
 64
     7
 65
   257
 75
     7
175
     7
 42
1.0
 92
        8
 66
     7
 43
1.0
 76
     1
 77
     6
 78
     2
 67
     7
 79
     5
170
     0
171
     0
290
     0
174
     0
 93
        1
 44
0.0
173
     0
291
     1
 45
0.0
1001
ACAD
1000
AcDbSavedByObjectVersion
1070
     0
  0
VISUALSTYLE
  5
33
102
{ACAD_REACTORS
330
2A
102
}
330
2A
100
AcDbVisualStyle
  2
Realistic
 70
     8
 71
     2
 72
     2
 73
     0
 90
        0
 40
-0.6
 41
-30.0
 62
     5
 63
     7
 74
     1
 91
        0
 64
     7
 65
   257
 75
     1
175
     1
 42
1.0
 92
        8
 66
     8
 43
1.0
 76
     1
 77
     6
 78
     2
 67
     7
 79
     5
170
     0
171
     0
290
     0
174
     0
 93
       13
 44
0.0
173
     0
291
     0
 45
0.0
1001
ACAD
1000
AcDbSavedByObjectVersion
1070
     0
  0
VISUALSTYLE
  5
37
102
{ACAD_REACTORS
330
2A
102
}
330
2A
100
AcDbVisualStyle
  2
Thicken
 70
    13
 71
     2
 72
     2
 73
     0
 90
        0
 40
-0.6
 41
-30.0
 62
     5
 63
     7
 74
     1
 91
        4
 64
     7
 65
   257
 75
     1
175
     1
 42
1.0
 92
       12
 66
     7
 43
1.0
 76
     1
 77
     6
 78
     2
 67
     7
 79
     5
170
     0
171
     0
290
     0
174
     0
 93
        1
 44
0.0
173
     0
291
     1
 45
0.0
1001
ACAD
1000
AcDbSavedByObjectVersion
1070
     0
  0
DICTIONARYVAR
  5
2C4
102
{ACAD_REACTORS
330
2C3
102
}
330
2C3
100
DictionaryVariables
280
     0
  1
1:1
  0
DICTIONARYVAR
  5
2C8
102
{ACAD_REACTORS
330
2C3
102
}
330
2C3
100
DictionaryVariables
280
     0
  1
80.000000
  0
DICTIONARYVAR
  5
2C7
102
{ACAD_REACTORS
330
2C3
102
}
330
2C3
100
DictionaryVariables
280
     0
  1
5.000000
  0
ENDSEC
  0
EOF
