  0
SECTION
  2
HEADER
  9
$ACADVER
  1
AC1018
  9
$ACADMAINTVER
 70
     0
  9
$DWGCODEPAGE
  3
ANSI_1252
  9
$INSBASE
 10
0.0
 20
0.0
 30
0.0
  9
$EXTMIN
 10
0.0
 20
0.0
 30
0.0
  9
$EXTMAX
 10
909.0
 20
680.0
 30
0.0
  9
$LIMMIN
 10
0.0
 20
0.0
  9
$LIMMAX
 10
909.0
 20
680.0
  9
$ORTHOMODE
 70
     0
  9
$REGENMODE
 70
     1
  9
$FILLMODE
 70
     1
  9
$QTEXTMODE
 70
     0
  9
$MIRRTEXT
 70
     1
  9
$LTSCALE
 40
1.0
  9
$ATTMODE
 70
     1
  9
$TEXTSIZE
 40
3.5
  9
$TRACEWID
 40
1.0
  9
$TEXTSTYLE
  7
Standard
  9
$CLAYER
  8
0
  9
$CELTYPE
  6
ByLayer
  9
$CECOLOR
 62
   256
  9
$CELTSCALE
 40
1.0
  9
$DISPSILH
 70
     0
  9
$DIMSCALE
 40
1.0
  9
$DIMASZ
 40
4.2333333333
  9
$DIMEXO
 40
1.0
  9
$DIMDLI
 40
3.75
  9
$DIMRND
 40
0.0
  9
$DIMDLE
 40
0.0
  9
$DIMEXE
 40
1.0
  9
$DIMTP
 40
0.0
  9
$DIMTM
 40
0.0
  9
$DIMTXT
 40
5.6444444444
  9
$DIMCEN
 40
2.5
  9
$DIMTSZ
 40
0.0
  9
$DIMTOL
 70
     0
  9
$DIMLIM
 70
     0
  9
$DIMTIH
 70
     1
  9
$DIMTOH
 70
     1
  9
$DIMSE1
 70
     0
  9
$DIMSE2
 70
     0
  9
$DIMTAD
 70
     1
  9
$DIMZIN
 70
     0
  9
$DIMBLK
  1

  9
$DIMASO
 70
     1
  9
$DIMSHO
 70
     1
  9
$DIMPOST
  1

  9
$DIMAPOST
  1

  9
$DIMALT
 70
     0
  9
$DIMALTD
 70
     3
  9
$DIMALTF
 40
0.0393700787
  9
$DIMLFAC
 40
10.0
  9
$DIMTOFL
 70
     1
  9
$DIMTVP
 40
0.0
  9
$DIMTIX
 70
     0
  9
$DIMSOXD
 70
     0
  9
$DIMSAH
 70
     0
  9
$DIMBLK1
  1

  9
$DIMBLK2
  1

  9
$DIMSTYLE
  2
ISO-25
  9
$DIMCLRD
 70
     0
  9
$DIMCLRE
 70
     0
  9
$DIMCLRT
 70
     0
  9
$DIMTFAC
 40
1.0
  9
$DIMGAP
 40
1.524
  9
$DIMJUST
 70
     0
  9
$DIMSD1
 70
     0
  9
$DIMSD2
 70
     0
  9
$DIMTOLJ
 70
     0
  9
$DIMTZIN
 70
     0
  9
$DIMALTZ
 70
     0
  9
$DIMALTTZ
 70
     0
  9
$DIMUPT
 70
     0
  9
$DIMDEC
 70
     2
  9
$DIMTDEC
 70
     2
  9
$DIMALTU
 70
     2
  9
$DIMALTTD
 70
     3
  9
$DIMTXSTY
  7
Standard
  9
$DIMAUNIT
 70
     0
  9
$DIMADEC
 70
     0
  9
$DIMALTRND
 40
0.0
  9
$DIMAZIN
 70
     0
  9
$DIMDSEP
 70
    44
  9
$DIMATFIT
 70
     3
  9
$DIMFRAC
 70
     0
  9
$DIMLDRBLK
  1

  9
$DIMLUNIT
 70
     2
  9
$DIMLWD
 70
    -2
  9
$DIMLWE
 70
    -2
  9
$DIMTMOVE
 70
     0
  9
$LUNITS
 70
     2
  9
$LUPREC
 70
     2
  9
$SKETCHINC
 40
1.0
  9
$FILLETRAD
 40
10.0
  9
$AUNITS
 70
     0
  9
$AUPREC
 70
     0
  9
$MENU
  1
.
  9
$ELEVATION
 40
0.0
  9
$PELEVATION
 40
0.0
  9
$THICKNESS
 40
0.0
  9
$LIMCHECK
 70
     0
  9
$CHAMFERA
 40
10.0
  9
$CHAMFERB
 40
10.0
  9
$CHAMFERC
 40
20.0
  9
$CHAMFERD
 40
0.0
  9
$SKPOLY
 70
     0
  9
$TDCREATE
 40
2454846.536476771
  9
$TDUCREATE
 40
2454846.744810104
  9
$TDUPDATE
 40
2454846.536476783
  9
$TDUUPDATE
 40
2454846.744810116
  9
$TDINDWG
 40
0.0000000116
  9
$TDUSRTIMER
 40
0.0000000116
  9
$USRTIMER
 70
     1
  9
$ANGBASE
 50
0.0
  9
$ANGDIR
 70
     0
  9
$PDMODE
 70
     0
  9
$PDSIZE
 40
-1.0
  9
$PLINEWID
 40
0.0
  9
$SPLFRAME
 70
     0
  9
$SPLINETYPE
 70
     6
  9
$SPLINESEGS
 70
     8
  9
$HANDSEED
  5
2DA
  9
$SURFTAB1
 70
     6
  9
$SURFTAB2
 70
     6
  9
$SURFTYPE
 70
     6
  9
$SURFU
 70
     6
  9
$SURFV
 70
     6
  9
$UCSBASE
  2

  9
$UCSNAME
  2

  9
$UCSORG
 10
0.0
 20
0.0
 30
0.0
  9
$UCSXDIR
 10
1.0
 20
0.0
 30
0.0
  9
$UCSYDIR
 10
0.0
 20
1.0
 30
0.0
  9
$UCSORTHOREF
  2

  9
$UCSORTHOVIEW
 70
     0
  9
$UCSORGTOP
 10
0.0
 20
0.0
 30
0.0
  9
$UCSORGBOTTOM
 10
0.0
 20
0.0
 30
0.0
  9
$UCSORGLEFT
 10
0.0
 20
0.0
 30
0.0
  9
$UCSORGRIGHT
 10
0.0
 20
0.0
 30
0.0
  9
$UCSORGFRONT
 10
0.0
 20
0.0
 30
0.0
  9
$UCSORGBACK
 10
0.0
 20
0.0
 30
0.0
  9
$PUCSBASE
  2

  9
$PUCSNAME
  2

  9
$PUCSORG
 10
0.0
 20
0.0
 30
0.0
  9
$PUCSXDIR
 10
1.0
 20
0.0
 30
0.0
  9
$PUCSYDIR
 10
0.0
 20
1.0
 30
0.0
  9
$PUCSORTHOREF
  2

  9
$PUCSORTHOVIEW
 70
     0
  9
$PUCSORGTOP
 10
0.0
 20
0.0
 30
0.0
  9
$PUCSORGBOTTOM
 10
0.0
 20
0.0
 30
0.0
  9
$PUCSORGLEFT
 10
0.0
 20
0.0
 30
0.0
  9
$PUCSORGRIGHT
 10
0.0
 20
0.0
 30
0.0
  9
$PUCSORGFRONT
 10
0.0
 20
0.0
 30
0.0
  9
$PUCSORGBACK
 10
0.0
 20
0.0
 30
0.0
  9
$USERI1
 70
     0
  9
$USERI2
 70
     0
  9
$USERI3
 70
     0
  9
$USERI4
 70
     0
  9
$USERI5
 70
     0
  9
$USERR1
 40
0.0
  9
$USERR2
 40
0.0
  9
$USERR3
 40
0.0
  9
$USERR4
 40
0.0
  9
$USERR5
 40
0.0
  9
$WORLDVIEW
 70
     1
  9
$SHADEDGE
 70
     3
  9
$SHADEDIF
 70
    70
  9
$TILEMODE
 70
     1
  9
$MAXACTVP
 70
    64
  9
$PINSBASE
 10
0.0
 20
0.0
 30
0.0
  9
$PLIMCHECK
 70
     0
  9
$PEXTMIN
 10
1.0000000000E+20
 20
1.0000000000E+20
 30
1.0000000000E+20
  9
$PEXTMAX
 10
-1.0000000000E+20
 20
-1.0000000000E+20
 30
-1.0000000000E+20
  9
$PLIMMIN
 10
0.0
 20
0.0
  9
$PLIMMAX
 10
420.0
 20
297.0
  9
$UNITMODE
 70
     0
  9
$VISRETAIN
 70
     1
  9
$PLINEGEN
 70
     0
  9
$PSLTSCALE
 70
     1
  9
$TREEDEPTH
 70
  3020
  9
$CMLSTYLE
  2
Standard
  9
$CMLJUST
 70
     0
  9
$CMLSCALE
 40
20.0
  9
$PROXYGRAPHICS
 70
     1
  9
$MEASUREMENT
 70
     1
  9
$CELWEIGHT
370
    -1
  9
$ENDCAPS
280
     0
  9
$JOINSTYLE
280
     0
  9
$LWDISPLAY
290
     1
  9
$INSUNITS
 70
     4
  9
$HYPERLINKBASE
  1

  9
$STYLESHEET
  1

  9
$XEDIT
290
     1
  9
$CEPSNTYPE
380
     0
  9
$PSTYLEMODE
290
     1
  9
$FINGERPRINTGUID
  2
{D9B77C87-C532-41EE-9722-C34BCF91444E}
  9
$VERSIONGUID
  2
{FAEB1C32-E019-11D5-929B-00C0DF256EC4}
  9
$EXTNAMES
290
     1
  9
$PSVPSCALE
 40
0.0
  9
$OLESTARTUP
290
     0
  9
$SORTENTS
280
   127
  9
$INDEXCTL
280
     0
  9
$HIDETEXT
280
     1
  9
$XCLIPFRAME
290
     0
  9
$HALOGAP
280
     0
  9
$OBSCOLOR
 70
   257
  9
$OBSLTYPE
280
     0
  9
$INTERSECTIONDISPLAY
280
     0
  9
$INTERSECTIONCOLOR
 70
   257
  9
$DIMASSOC
280
     2
  9
$PROJECTNAME
  1

  0
ENDSEC
  0
SECTION
  2
CLASSES
  0
CLASS
  1
ACDBDICTIONARYWDFLT
  2
AcDbDictionaryWithDefault
  3
ObjectDBX Classes
 90
        0
 91
        3
280
     0
281
     0
  0
CLASS
  1
VISUALSTYLE
  2
AcDbVisualStyle
  3
ObjectDBX Classes
 90
     4095
 91
        3
280
     0
281
     0
  0
CLASS
  1
SCALE
  2
AcDbScale
  3
ObjectDBX Classes
 90
     1153
 91
        3
280
     0
281
     0
  0
ENDSEC
  0
SECTION
  2
TABLES
  0
TABLE
  2
VPORT
  5
8
330
0
100
AcDbSymbolTable
 70
     1
  0
VPORT
  5
29
330
8
100
AcDbSymbolTableRecord
100
AcDbViewportTableRecord
  2
*Active
 70
     0
 10
0.0
 20
0.0
 11
1.0
 21
1.0
 12
454.5
 22
340.0
 13
0.0
 23
0.0
 14
10.0
 24
10.0
 15
10.0
 25
10.0
 16
0.0
 26
0.0
 36
1.0
 17
0.0
 27
0.0
 37
0.0
 40
680.0
 41
1.3367647059
 42
50.0
 43
0.0
 44
0.0
 50
0.0
 51
0.0
 71
     0
 72
  2000
 73
     1
 74
     3
 75
     0
 76
     0
 77
     0
 78
     0
281
     0
 65
     1
110
0.0
120
0.0
130
0.0
111
1.0
121
0.0
131
0.0
112
0.0
122
1.0
132
0.0
 79
     0
146
0.0
  0
ENDTAB
  0
TABLE
  2
LTYPE
  5
5
330
0
100
AcDbSymbolTable
 70
     8
  0
LTYPE
  5
14
330
5
100
AcDbSymbolTableRecord
100
AcDbLinetypeTableRecord
  2
ByBlock
 70
     0
  3

 72
    65
 73
     0
 40
0.0
  0
LTYPE
  5
15
330
5
100
AcDbSymbolTableRecord
100
AcDbLinetypeTableRecord
  2
ByLayer
 70
     0
  3

 72
    65
 73
     0
 40
0.0
  0
LTYPE
  5
16
330
5
100
AcDbSymbolTableRecord
100
AcDbLinetypeTableRecord
  2
Continuous
 70
     0
  3
Solid line
 72
    65
 73
     0
 40
0.0
  0
LTYPE
  5
5D
330
5
100
AcDbSymbolTableRecord
100
AcDbLinetypeTableRecord
  2
SLD-Solid
 70
     0
  3
SolidWorks Line Style
 72
    65
 73
     0
 40
0.0
  0
LTYPE
  5
5E
330
5
100
AcDbSymbolTableRecord
100
AcDbLinetypeTableRecord
  2
SLD-Dashed
 70
     0
  3
SolidWorks Line Style
 72
    65
 73
     2
 40
1.905
 49
1.27
 74
     0
 49
-0.635
 74
     0
  0
LTYPE
  5
5F
330
5
100
AcDbSymbolTableRecord
100
AcDbLinetypeTableRecord
  2
SLD-Phantom
 70
     0
  3
SolidWorks Line Style
 72
    65
 73
     6
 40
12.7
 49
6.35
 74
     0
 49
-1.27
 74
     0
 49
1.27
 74
     0
 49
-1.27
 74
     0
 49
1.27
 74
     0
 49
-1.27
 74
     0
  0
LTYPE
  5
60
330
5
100
AcDbSymbolTableRecord
100
AcDbLinetypeTableRecord
  2
SLD-Chain
 70
     0
  3
SolidWorks Line Style
 72
    65
 73
     4
 40
10.16
 49
6.35
 74
     0
 49
-1.27
 74
     0
 49
1.27
 74
     0
 49
-1.27
 74
     0
  0
LTYPE
  5
61
330
5
100
AcDbSymbolTableRecord
100
AcDbLinetypeTableRecord
  2
SLD-Center
 70
     0
  3
SolidWorks Line Style
 72
    65
 73
     4
 40
19.05
 49
15.24
 74
     0
 49
-1.27
 74
     0
 49
1.27
 74
     0
 49
-1.27
 74
     0
  0
LTYPE
  5
62
330
5
100
AcDbSymbolTableRecord
100
AcDbLinetypeTableRecord
  2
SLD-Stitch
 70
     0
  3
SolidWorks Line Style
 72
    65
 73
     2
 40
0.635
 49
0.0
 74
     0
 49
-0.635
 74
     0
  0
LTYPE
  5
63
330
5
100
AcDbSymbolTableRecord
100
AcDbLinetypeTableRecord
  2
SLD-Thin-Thick-Chain
 70
     0
  3
SolidWorks Line Style
 72
    65
 73
     4
 40
10.16
 49
6.35
 74
     0
 49
-1.27
 74
     0
 49
1.27
 74
     0
 49
-1.27
 74
     0
  0
ENDTAB
  0
TABLE
  2
LAYER
  5
2
330
0
100
AcDbSymbolTable
 70
     5
  0
LAYER
  5
10
330
2
100
AcDbSymbolTableRecord
100
AcDbLayerTableRecord
  2
0
 70
     0
 62
     7
  6
Continuous
370
    -3
390
F
  0
LAYER
  5
64
330
2
100
AcDbSymbolTableRecord
100
AcDbLayerTableRecord
  2
FORMAT
 70
     0
 62
     7
  6
SLD-Solid
370
    -3
390
F
  0
LAYER
  5
65
330
2
100
AcDbSymbolTableRecord
100
AcDbLayerTableRecord
  2
SLD-0
 70
     0
 62
     4
  6
SLD-Solid
370
    -3
390
F
  0
LAYER
  5
66
330
2
100
AcDbSymbolTableRecord
100
AcDbLayerTableRecord
  2
GRS_GAMBAR
 70
     0
 62
     4
  6
SLD-Solid
370
    -3
390
F
  0
LAYER
  5
67
330
2
100
AcDbSymbolTableRecord
100
AcDbLayerTableRecord
  2
G__TOTO
 70
     0
 62
   179
  6
SLD-Solid
370
    -3
390
F
  0
ENDTAB
  0
TABLE
  2
STYLE
  5
3
330
0
100
AcDbSymbolTable
 70
     4
  0
STYLE
  5
11
330
3
100
AcDbSymbolTableRecord
100
AcDbTextStyleTableRecord
  2
Standard
 70
     0
 40
0.0
 41
1.0
 50
0.0
 71
     0
 42
2.5
  3
txt
  4

  0
STYLE
  5
BC
330
3
100
AcDbSymbolTableRecord
100
AcDbTextStyleTableRecord
  2
SLDTEXTSTYLE0
 70
     0
 40
0.0
 41
0.638185654
 50
0.0
 71
     0
 42
0.2
  3
TXT
  4

  0
STYLE
  5
225
330
3
100
AcDbSymbolTableRecord
100
AcDbTextStyleTableRecord
  2
SLDTEXTSTYLE1
 70
     0
 40
0.0
 41
0.605
 50
0.0
 71
     0
 42
0.2
  3
TXT
  4

  0
STYLE
  5
271
330
3
100
AcDbSymbolTableRecord
100
AcDbTextStyleTableRecord
  2
SLDTEXTSTYLE2
 70
     0
 40
0.0
 41
0.5648529412
 50
0.0
 71
     0
 42
0.2
  3
TXT
  4

  0
ENDTAB
  0
TABLE
  2
VIEW
  5
6
330
0
100
AcDbSymbolTable
 70
     0
  0
ENDTAB
  0
TABLE
  2
UCS
  5
7
330
0
100
AcDbSymbolTable
 70
     0
  0
ENDTAB
  0
TABLE
  2
APPID
  5
9
330
0
100
AcDbSymbolTable
 70
     1
  0
APPID
  5
12
330
9
100
AcDbSymbolTableRecord
100
AcDbRegAppTableRecord
  2
ACAD
 70
     0
  0
ENDTAB
  0
TABLE
  2
DIMSTYLE
  5
A
330
0
100
AcDbSymbolTable
 70
     4
100
AcDbDimStyleTable
  0
DIMSTYLE
105
27
330
A
100
AcDbSymbolTableRecord
100
AcDbDimStyleTableRecord
  2
ISO-25
 70
     0
 41
2.5
 42
0.625
 43
3.75
 44
1.25
 73
     0
 74
     0
 77
     1
 78
     8
140
2.5
141
2.5
143
0.0393700787
147
0.625
171
     3
172
     1
271
     2
272
     2
274
     3
278
    44
283
     0
284
     8
340
11
  0
DIMSTYLE
105
226
102
{ACAD_REACTORS
330
224
330
237
102
}
330
A
100
AcDbSymbolTableRecord
100
AcDbDimStyleTableRecord
  2
SLDDIMSTYLE0
 70
     0
 41
4.2333333333
 44
0.0
 45
0.000000001
 78
    12
140
7.1912923177
143
0.0393700787
147
1.7978230794
148
0.000000001
170
     1
173
     1
271
     1
272
     1
284
    12
340
225
  0
DIMSTYLE
105
24A
102
{ACAD_REACTORS
330
249
102
}
330
A
100
AcDbSymbolTableRecord
100
AcDbDimStyleTableRecord
  2
SLDDIMSTYLE1
 70
     0
 41
4.2333333333
 44
0.0
 45
0.000000001
 78
    12
140
7.1912923177
143
0.0393700787
147
1.7978230794
148
0.000000001
170
     1
173
     1
271
     2
272
     2
284
    12
340
225
  0
DIMSTYLE
105
263
330
A
100
AcDbSymbolTableRecord
100
AcDbDimStyleTableRecord
  2
SLDDIMSTYLE2
 70
     0
 41
4.2333333333
 44
0.0
 45
0.000000001
140
4.2333333333
147
1.0583333333
173
     1
271
     0
272
     0
340
11
  0
ENDTAB
  0
TABLE
  2
BLOCK_RECORD
  5
1
330
0
100
AcDbSymbolTable
 70
    18
  0
BLOCK_RECORD
  5
1F
330
1
100
AcDbSymbolTableRecord
100
AcDbBlockTableRecord
  2
*Model_Space
340
22
  0
BLOCK_RECORD
  5
1B
330
1
100
AcDbSymbolTableRecord
100
AcDbBlockTableRecord
  2
*Paper_Space
340
1E
  0
BLOCK_RECORD
  5
23
330
1
100
AcDbSymbolTableRecord
100
AcDbBlockTableRecord
  2
*Paper_Space0
340
26
  0
BLOCK_RECORD
  5
68
330
1
100
AcDbSymbolTableRecord
100
AcDbBlockTableRecord
  2
Block1
340
0
102
{BLKREFS
331
BE
102
}
  0
BLOCK_RECORD
  5
BF
330
1
100
AcDbSymbolTableRecord
100
AcDbBlockTableRecord
  2
SW_NOTE_0
340
0
102
{BLKREFS
331
C5
102
}
  0
BLOCK_RECORD
  5
227
330
1
100
AcDbSymbolTableRecord
100
AcDbBlockTableRecord
  2
*D3
340
0
  0
BLOCK_RECORD
  5
238
330
1
100
AcDbSymbolTableRecord
100
AcDbBlockTableRecord
  2
*D4
340
0
  0
BLOCK_RECORD
  5
24B
330
1
100
AcDbSymbolTableRecord
100
AcDbBlockTableRecord
  2
*D5
340
0
  0
BLOCK_RECORD
  5
25C
330
1
100
AcDbSymbolTableRecord
100
AcDbBlockTableRecord
  2
SW_NOTE_1
340
0
102
{BLKREFS
331
262
102
}
  0
BLOCK_RECORD
  5
265
330
1
100
AcDbSymbolTableRecord
100
AcDbBlockTableRecord
  2
SW_NOTE_2
340
0
102
{BLKREFS
331
26B
102
}
  0
BLOCK_RECORD
  5
26D
330
1
100
AcDbSymbolTableRecord
100
AcDbBlockTableRecord
  2
SW_NOTE_3
340
0
102
{BLKREFS
331
277
102
}
  0
BLOCK_RECORD
  5
278
330
1
100
AcDbSymbolTableRecord
100
AcDbBlockTableRecord
  2
SW_NOTE_4
340
0
102
{BLKREFS
331
27E
102
}
  0
BLOCK_RECORD
  5
280
330
1
100
AcDbSymbolTableRecord
100
AcDbBlockTableRecord
  2
SW_NOTE_5
340
0
102
{BLKREFS
331
286
102
}
  0
BLOCK_RECORD
  5
288
330
1
100
AcDbSymbolTableRecord
100
AcDbBlockTableRecord
  2
SW_NOTE_6
340
0
102
{BLKREFS
331
28E
102
}
  0
BLOCK_RECORD
  5
290
330
1
100
AcDbSymbolTableRecord
100
AcDbBlockTableRecord
  2
SW_CENTERMARKSYMBOL_0
340
0
102
{BLKREFS
331
29B
102
}
  0
BLOCK_RECORD
  5
29C
330
1
100
AcDbSymbolTableRecord
100
AcDbBlockTableRecord
  2
SW_CENTERMARKSYMBOL_1
340
0
102
{BLKREFS
331
2A7
102
}
  0
BLOCK_RECORD
  5
2A8
330
1
100
AcDbSymbolTableRecord
100
AcDbBlockTableRecord
  2
SW_CENTERMARKSYMBOL_2
340
0
102
{BLKREFS
331
2B3
102
}
  0
BLOCK_RECORD
  5
2B4
330
1
100
AcDbSymbolTableRecord
100
AcDbBlockTableRecord
  2
SW_CENTERMARKSYMBOL_3
340
0
102
{BLKREFS
331
2BF
102
}
  0
BLOCK_RECORD
  5
2C0
330
1
100
AcDbSymbolTableRecord
100
AcDbBlockTableRecord
  2
SW_CENTERMARKSYMBOL_4
340
0
102
{BLKREFS
331
2CB
102
}
  0
BLOCK_RECORD
  5
2CC
330
1
100
AcDbSymbolTableRecord
100
AcDbBlockTableRecord
  2
SW_CENTERMARKSYMBOL_5
340
0
102
{BLKREFS
331
2D7
102
}
  0
ENDTAB
  0
ENDSEC
  0
SECTION
  2
BLOCKS
  0
BLOCK
  5
20
330
1F
100
AcDbEntity
  8
0
100
AcDbBlockBegin
  2
*Model_Space
 70
     0
 10
0.0
 20
0.0
 30
0.0
  3
*Model_Space
  1

  0
ENDBLK
  5
21
330
1F
100
AcDbEntity
  8
0
100
AcDbBlockEnd
  0
BLOCK
  5
1C
330
1B
100
AcDbEntity
 67
     1
  8
0
100
AcDbBlockBegin
  2
*Paper_Space
 70
     0
 10
0.0
 20
0.0
 30
0.0
  3
*Paper_Space
  1

  0
ENDBLK
  5
1D
330
1B
100
AcDbEntity
 67
     1
  8
0
100
AcDbBlockEnd
  0
BLOCK
  5
24
330
23
100
AcDbEntity
  8
0
100
AcDbBlockBegin
  2
*Paper_Space0
 70
     0
 10
0.0
 20
0.0
 30
0.0
  3
*Paper_Space0
  1

  0
ENDBLK
  5
25
330
23
100
AcDbEntity
  8
0
100
AcDbBlockEnd
  0
BLOCK
  5
69
330
68
100
AcDbEntity
  8
0
100
AcDbBlockBegin
  2
Block1
 70
     0
 10
0.0
 20
0.0
 30
0.0
  3
Block1
  1

  0
ARC
  5
6B
330
68
100
AcDbEntity
  8
GRS_GAMBAR
100
AcDbCircle
 10
50.5596373054
 20
89.8512807409
 30
0.0
 40
12.70000000005831
100
AcDbArc
 50
77.678118321
 51
90.0
  0
ARC
  5
6C
330
68
100
AcDbEntity
  8
GRS_GAMBAR
100
AcDbCircle
 10
40.7895241947
 20
89.8512807404
 30
0.0
 40
12.70000000055211
100
AcDbArc
 50
89.999999997
 51
140.1728016809
  0
ARC
  5
6D
330
68
100
AcDbEntity
  8
GRS_GAMBAR
100
AcDbCircle
 10
12.6999999999
 20
44.4801911215
 30
0.0
 40
12.69999999987897
100
AcDbArc
 50
197.678118321
 51
210.0000000016
  0
ARC
  5
6E
330
68
100
AcDbEntity
  8
GRS_GAMBAR
100
AcDbCircle
 10
17.5850565553
 20
36.0190249697
 30
0.0
 40
12.6999999998536
100
AcDbArc
 50
210.0000000007
 51
260.1728016814
  0
ARC
  5
6F
330
68
100
AcDbEntity
  8
GRS_GAMBAR
100
AcDbCircle
 10
70.92233486
 20
34.3783282473
 30
0.0
 40
12.70000000079826
100
AcDbArc
 50
317.67811832
 51
329.9999999985
  0
ARC
  5
70
330
68
100
AcDbEntity
  8
GRS_GAMBAR
100
AcDbCircle
 10
75.8073914162
 20
42.8394943984
 30
0.0
 40
12.69999999977296
100
AcDbArc
 50
329.9999999983
 51
20.1728016817
  0
ARC
  5
71
330
68
100
AcDbEntity
  8
GRS_GAMBAR
100
AcDbCircle
 10
50.5596373054
 20
89.8512807409
 30
0.0
 40
12.7000000000583
100
AcDbArc
 50
33.4734623705
 51
77.678118321
  0
ARC
  5
72
330
68
100
AcDbEntity
  8
GRS_GAMBAR
100
AcDbCircle
 10
12.6999999999
 20
44.4801911215
 30
0.0
 40
12.69999999987897
100
AcDbArc
 50
153.4734623698
 51
197.678118321
  0
ARC
  5
73
330
68
100
AcDbEntity
  8
GRS_GAMBAR
100
AcDbCircle
 10
70.92233486
 20
34.3783282473
 30
0.0
 40
12.70000000079826
100
AcDbArc
 50
273.4734623732
 51
317.67811832
  0
ARC
  5
74
330
68
100
AcDbEntity
  8
GRS_GAMBAR
  6
SLD-Solid
 62
   250
420
  1644836
100
AcDbCircle
 10
40.7895241947
 20
89.8512807404
 30
0.0
 40
12.70000000055211
100
AcDbArc
 50
89.999999997
 51
140.1728016809
  0
ARC
  5
75
330
68
100
AcDbEntity
  8
GRS_GAMBAR
  6
SLD-Solid
 62
   250
420
  1644836
100
AcDbCircle
 10
50.5596373054
 20
89.8512807409
 30
0.0
 40
12.70000000005831
100
AcDbArc
 50
33.4734623705
 51
90.0
  0
ARC
  5
76
330
68
100
AcDbEntity
  8
GRS_GAMBAR
  6
SLD-Solid
 62
   250
420
  1644836
100
AcDbCircle
 10
17.5850565553
 20
36.0190249697
 30
0.0
 40
12.6999999998536
100
AcDbArc
 50
210.0000000007
 51
260.1728016814
  0
ARC
  5
77
330
68
100
AcDbEntity
  8
GRS_GAMBAR
  6
SLD-Solid
 62
   250
420
  1644836
100
AcDbCircle
 10
12.6999999999
 20
44.4801911215
 30
0.0
 40
12.69999999987897
100
AcDbArc
 50
153.4734623698
 51
210.0000000016
  0
ARC
  5
78
330
68
100
AcDbEntity
  8
GRS_GAMBAR
  6
SLD-Solid
 62
   250
420
  1644836
100
AcDbCircle
 10
75.8073914162
 20
42.8394943984
 30
0.0
 40
12.69999999977296
100
AcDbArc
 50
329.9999999983
 51
20.1728016817
  0
ARC
  5
79
330
68
100
AcDbEntity
  8
GRS_GAMBAR
  6
SLD-Solid
 62
   250
420
  1644836
100
AcDbCircle
 10
70.92233486
 20
34.3783282473
 30
0.0
 40
12.70000000079806
100
AcDbArc
 50
273.4734623732
 51
329.9999999985
  0
LINE
  5
7A
330
68
100
AcDbEntity
  8
GRS_GAMBAR
100
AcDbLine
 10
50.5596373054
 20
102.551280741
 30
0.0
 11
40.7895241953
 21
102.551280741
 31
0.0
  0
LINE
  5
7B
330
68
100
AcDbEntity
  8
GRS_GAMBAR
100
AcDbLine
 10
31.0361835686
 20
97.9853047535
 30
0.0
 11
18.4601962959
 21
78.0611782485
 31
0.0
  0
LINE
  5
7C
330
68
100
AcDbEntity
  8
GRS_GAMBAR
100
AcDbLine
 10
18.4601962959
 20
78.0611782485
 30
0.0
 11
32.530085145
 21
70.0624494887
 31
0.0
  0
LINE
  5
7D
330
68
100
AcDbEntity
  8
GRS_GAMBAR
100
AcDbLine
 10
32.530085145
 20
70.0624494887
 30
0.0
 11
53.2698619029
 21
102.2587253865
 31
0.0
  0
LINE
  5
7E
330
68
100
AcDbEntity
  8
GRS_GAMBAR
100
AcDbLine
 10
1.7014773721
 20
38.1301911212
 30
0.0
 11
6.5865339274
 21
29.6690249696
 31
0.0
  0
LINE
  5
7F
330
68
100
AcDbEntity
  8
GRS_GAMBAR
100
AcDbLine
 10
15.4174554383
 20
23.5053722098
 30
0.0
 11
38.9602487761
 21
22.5763110067
 31
0.0
  0
LINE
  5
80
330
68
100
AcDbEntity
  8
GRS_GAMBAR
100
AcDbLine
 10
38.9602487761
 20
22.5763110067
 30
0.0
 11
38.8524066559
 21
38.760556558
 31
0.0
  0
LINE
  5
81
330
68
100
AcDbEntity
  8
GRS_GAMBAR
100
AcDbLine
 10
38.8524066559
 20
38.760556558
 30
0.0
 11
0.5997254422
 21
40.6235921501
 31
0.0
  0
LINE
  5
82
330
68
100
AcDbEntity
  8
GRS_GAMBAR
100
AcDbLine
 10
81.9208574885
 20
28.0283282466
 30
0.0
 11
86.8059140438
 21
36.4894943982
 31
0.0
  0
LINE
  5
83
330
68
100
AcDbEntity
  8
GRS_GAMBAR
100
AcDbLine
 10
87.7283331587
 20
47.2191231458
 30
0.0
 11
76.7615270935
 21
68.0723108539
 31
0.0
  0
LINE
  5
84
330
68
100
AcDbEntity
  8
GRS_GAMBAR
100
AcDbLine
 10
76.7615270935
 20
68.0723108539
 30
0.0
 11
62.7994803649
 21
59.8867940624
 31
0.0
  0
LINE
  5
85
330
68
100
AcDbEntity
  8
GRS_GAMBAR
100
AcDbLine
 10
62.7994803649
 20
59.8867940624
 30
0.0
 11
80.3123848207
 21
25.8274825725
 31
0.0
  0
LINE
  5
86
330
68
100
AcDbEntity
  8
GRS_GAMBAR
100
AcDbLine
 10
53.2698619029
 20
102.2587253865
 30
0.0
 11
45.3678063337
 21
89.9916328218
 31
0.0
  0
LINE
  5
87
330
68
100
AcDbEntity
  8
GRS_GAMBAR
100
AcDbLine
 10
45.3678063337
 20
89.9916328218
 30
0.0
 11
57.680146021
 21
77.9774401014
 31
0.0
  0
LINE
  5
88
330
68
100
AcDbEntity
  8
GRS_GAMBAR
100
AcDbLine
 10
57.680146021
 20
77.9774401014
 30
0.0
 11
52.1174939067
 21
74.4668795831
 31
0.0
  0
LINE
  5
89
330
68
100
AcDbEntity
  8
GRS_GAMBAR
100
AcDbLine
 10
52.1174939067
 20
74.4668795831
 30
0.0
 11
68.8005549205
 21
74.5270047811
 31
0.0
  0
LINE
  5
8A
330
68
100
AcDbEntity
  8
GRS_GAMBAR
100
AcDbLine
 10
68.8005549205
 20
74.5270047811
 30
0.0
 11
73.782472283
 21
89.9718154402
 31
0.0
  0
LINE
  5
8B
330
68
100
AcDbEntity
  8
GRS_GAMBAR
100
AcDbLine
 10
73.782472283
 20
89.9718154402
 30
0.0
 11
69.4181110421
 21
86.9876719853
 31
0.0
  0
LINE
  5
8C
330
68
100
AcDbEntity
  8
GRS_GAMBAR
100
AcDbLine
 10
69.4181110421
 20
86.9876719853
 30
0.0
 11
61.153232739
 21
96.8559745808
 31
0.0
  0
LINE
  5
8D
330
68
100
AcDbEntity
  8
GRS_GAMBAR
100
AcDbLine
 10
19.4227932766
 20
56.5836528762
 30
0.0
 11
25.244353924
 21
53.5215350928
 31
0.0
  0
LINE
  5
8E
330
68
100
AcDbEntity
  8
GRS_GAMBAR
100
AcDbLine
 10
25.244353924
 20
53.5215350928
 30
0.0
 11
16.8507534682
 21
67.9394271442
 31
0.0
  0
LINE
  5
8F
330
68
100
AcDbEntity
  8
GRS_GAMBAR
100
AcDbLine
 10
16.8507534682
 20
67.9394271442
 30
0.0
 11
0.9841963998
 21
64.5314888101
 31
0.0
  0
LINE
  5
90
330
68
100
AcDbEntity
  8
GRS_GAMBAR
100
AcDbLine
 10
0.9841963998
 20
64.5314888101
 30
0.0
 11
5.7507210602
 21
62.2439128323
 31
0.0
  0
LINE
  5
91
330
68
100
AcDbEntity
  8
GRS_GAMBAR
100
AcDbLine
 10
5.7507210602
 20
62.2439128323
 30
0.0
 11
1.3369594722
 21
50.1521669645
 31
0.0
  0
LINE
  5
92
330
68
100
AcDbEntity
  8
GRS_GAMBAR
100
AcDbLine
 10
0.5997254422
 20
40.6235921501
 30
0.0
 11
15.1743670181
 21
39.9137575676
 31
0.0
  0
LINE
  5
93
330
68
100
AcDbEntity
  8
GRS_GAMBAR
100
AcDbLine
 10
15.1743670181
 20
39.9137575676
 30
0.0
 11
19.4227932766
 21
56.5836528762
 31
0.0
  0
LINE
  5
94
330
68
100
AcDbEntity
  8
GRS_GAMBAR
100
AcDbLine
 10
80.3123848207
 20
25.8274825725
 30
0.0
 11
73.6397988137
 21
38.8044097196
 31
0.0
  0
LINE
  5
95
330
68
100
AcDbEntity
  8
GRS_GAMBAR
100
AcDbLine
 10
73.6397988137
 20
38.8044097196
 30
0.0
 11
57.0790328685
 21
34.1487071314
 31
0.0
  0
LINE
  5
96
330
68
100
AcDbEntity
  8
GRS_GAMBAR
100
AcDbLine
 10
57.0790328685
 20
34.1487071314
 30
0.0
 11
56.8201243354
 21
40.7213854332
 31
0.0
  0
LINE
  5
97
330
68
100
AcDbEntity
  8
GRS_GAMBAR
100
AcDbLine
 10
56.8201243354
 20
40.7213854332
 30
0.0
 11
48.5306637774
 21
26.2433681838
 31
0.0
  0
LINE
  5
98
330
68
100
AcDbEntity
  8
GRS_GAMBAR
100
AcDbLine
 10
48.5306637774
 20
26.2433681838
 30
0.0
 11
59.4153034836
 21
14.2064958587
 31
0.0
  0
LINE
  5
99
330
68
100
AcDbEntity
  8
GRS_GAMBAR
100
AcDbLine
 10
59.4153034836
 20
14.2064958587
 30
0.0
 11
59.013140063
 21
19.4782152915
 31
0.0
  0
LINE
  5
9A
330
68
100
AcDbEntity
  8
GRS_GAMBAR
100
AcDbLine
 10
59.013140063
 20
19.4782152915
 30
0.0
 11
71.6917799549
 21
21.7016585637
 31
0.0
  0
LINE
  5
9B
330
68
100
AcDbEntity
  8
GRS_GAMBAR
  6
SLD-Solid
 62
   250
420
  1644836
100
AcDbLine
 10
18.4601962959
 20
78.0611782485
 30
0.0
 11
31.0361835686
 21
97.9853047535
 31
0.0
  0
LINE
  5
9C
330
68
100
AcDbEntity
  8
GRS_GAMBAR
  6
SLD-Solid
 62
   250
420
  1644836
100
AcDbLine
 10
40.7895241953
 20
102.551280741
 30
0.0
 11
50.5596373054
 21
102.551280741
 31
0.0
  0
LINE
  5
9D
330
68
100
AcDbEntity
  8
GRS_GAMBAR
  6
SLD-Solid
 62
   250
420
  1644836
100
AcDbLine
 10
61.153232739
 20
96.8559745808
 30
0.0
 11
69.4181110421
 21
86.9876719853
 31
0.0
  0
LINE
  5
9E
330
68
100
AcDbEntity
  8
GRS_GAMBAR
  6
SLD-Solid
 62
   250
420
  1644836
100
AcDbLine
 10
69.4181110421
 20
86.9876719853
 30
0.0
 11
73.782472283
 21
89.9718154402
 31
0.0
  0
LINE
  5
9F
330
68
100
AcDbEntity
  8
GRS_GAMBAR
  6
SLD-Solid
 62
   250
420
  1644836
100
AcDbLine
 10
73.782472283
 20
89.9718154402
 30
0.0
 11
68.8005549205
 21
74.5270047811
 31
0.0
  0
LINE
  5
A0
330
68
100
AcDbEntity
  8
GRS_GAMBAR
  6
SLD-Solid
 62
   250
420
  1644836
100
AcDbLine
 10
68.8005549205
 20
74.5270047811
 30
0.0
 11
52.1174939067
 21
74.4668795831
 31
0.0
  0
LINE
  5
A1
330
68
100
AcDbEntity
  8
GRS_GAMBAR
  6
SLD-Solid
 62
   250
420
  1644836
100
AcDbLine
 10
52.1174939067
 20
74.4668795831
 30
0.0
 11
57.680146021
 21
77.9774401014
 31
0.0
  0
LINE
  5
A2
330
68
100
AcDbEntity
  8
GRS_GAMBAR
  6
SLD-Solid
 62
   250
420
  1644836
100
AcDbLine
 10
57.680146021
 20
77.9774401014
 30
0.0
 11
45.3678063337
 21
89.9916328218
 31
0.0
  0
LINE
  5
A3
330
68
100
AcDbEntity
  8
GRS_GAMBAR
  6
SLD-Solid
 62
   250
420
  1644836
370
    30
100
AcDbLine
 10
53.2698619029
 20
102.2587253865
 30
0.0
 11
32.530085145
 21
70.0624494887
 31
0.0
  0
LINE
  5
A4
330
68
100
AcDbEntity
  8
GRS_GAMBAR
  6
SLD-Solid
 62
   250
420
  1644836
100
AcDbLine
 10
32.530085145
 20
70.0624494887
 30
0.0
 11
18.4601962959
 21
78.0611782485
 31
0.0
  0
LINE
  5
A5
330
68
100
AcDbEntity
  8
GRS_GAMBAR
  6
SLD-Solid
 62
   250
420
  1644836
100
AcDbLine
 10
38.9602487761
 20
22.5763110067
 30
0.0
 11
15.4174554383
 21
23.5053722098
 31
0.0
  0
LINE
  5
A6
330
68
100
AcDbEntity
  8
GRS_GAMBAR
  6
SLD-Solid
 62
   250
420
  1644836
100
AcDbLine
 10
6.5865339274
 20
29.6690249696
 30
0.0
 11
1.7014773721
 21
38.1301911212
 31
0.0
  0
LINE
  5
A7
330
68
100
AcDbEntity
  8
GRS_GAMBAR
  6
SLD-Solid
 62
   250
420
  1644836
100
AcDbLine
 10
1.3369594722
 20
50.1521669645
 30
0.0
 11
5.7507210602
 21
62.2439128323
 31
0.0
  0
LINE
  5
A8
330
68
100
AcDbEntity
  8
GRS_GAMBAR
  6
SLD-Solid
 62
   250
420
  1644836
100
AcDbLine
 10
5.7507210602
 20
62.2439128323
 30
0.0
 11
0.9841963998
 21
64.5314888101
 31
0.0
  0
LINE
  5
A9
330
68
100
AcDbEntity
  8
GRS_GAMBAR
  6
SLD-Solid
 62
   250
420
  1644836
100
AcDbLine
 10
0.9841963998
 20
64.5314888101
 30
0.0
 11
16.8507534682
 21
67.9394271442
 31
0.0
  0
LINE
  5
AA
330
68
100
AcDbEntity
  8
GRS_GAMBAR
  6
SLD-Solid
 62
   250
420
  1644836
100
AcDbLine
 10
16.8507534682
 20
67.9394271442
 30
0.0
 11
25.244353924
 21
53.5215350928
 31
0.0
  0
LINE
  5
AB
330
68
100
AcDbEntity
  8
GRS_GAMBAR
  6
SLD-Solid
 62
   250
420
  1644836
100
AcDbLine
 10
25.244353924
 20
53.5215350928
 30
0.0
 11
19.4227932766
 21
56.5836528762
 31
0.0
  0
LINE
  5
AC
330
68
100
AcDbEntity
  8
GRS_GAMBAR
  6
SLD-Solid
 62
   250
420
  1644836
100
AcDbLine
 10
19.4227932766
 20
56.5836528762
 30
0.0
 11
15.1743670181
 21
39.9137575676
 31
0.0
  0
LINE
  5
AD
330
68
100
AcDbEntity
  8
GRS_GAMBAR
  6
SLD-Solid
 62
   250
420
  1644836
370
    30
100
AcDbLine
 10
0.5997254422
 20
40.6235921501
 30
0.0
 11
38.8524066559
 21
38.760556558
 31
0.0
  0
LINE
  5
AE
330
68
100
AcDbEntity
  8
GRS_GAMBAR
  6
SLD-Solid
 62
   250
420
  1644836
100
AcDbLine
 10
38.8524066559
 20
38.760556558
 30
0.0
 11
38.9602487761
 21
22.5763110067
 31
0.0
  0
LINE
  5
AF
330
68
100
AcDbEntity
  8
GRS_GAMBAR
  6
SLD-Solid
 62
   250
420
  1644836
100
AcDbLine
 10
76.7615270935
 20
68.0723108539
 30
0.0
 11
87.7283331587
 21
47.2191231458
 31
0.0
  0
LINE
  5
B0
330
68
100
AcDbEntity
  8
GRS_GAMBAR
  6
SLD-Solid
 62
   250
420
  1644836
100
AcDbLine
 10
86.8059140438
 20
36.4894943982
 30
0.0
 11
81.9208574885
 21
28.0283282466
 31
0.0
  0
LINE
  5
B1
330
68
100
AcDbEntity
  8
GRS_GAMBAR
  6
SLD-Solid
 62
   250
420
  1644836
100
AcDbLine
 10
71.6917799549
 20
21.7016585637
 30
0.0
 11
59.013140063
 21
19.4782152915
 31
0.0
  0
LINE
  5
B2
330
68
100
AcDbEntity
  8
GRS_GAMBAR
  6
SLD-Solid
 62
   250
420
  1644836
100
AcDbLine
 10
59.013140063
 20
19.4782152915
 30
0.0
 11
59.4153034836
 21
14.2064958587
 31
0.0
  0
LINE
  5
B3
330
68
100
AcDbEntity
  8
GRS_GAMBAR
  6
SLD-Solid
 62
   250
420
  1644836
100
AcDbLine
 10
59.4153034836
 20
14.2064958587
 30
0.0
 11
48.5306637774
 21
26.2433681838
 31
0.0
  0
LINE
  5
B4
330
68
100
AcDbEntity
  8
GRS_GAMBAR
  6
SLD-Solid
 62
   250
420
  1644836
100
AcDbLine
 10
48.5306637774
 20
26.2433681838
 30
0.0
 11
56.8201243354
 21
40.7213854332
 31
0.0
  0
LINE
  5
B5
330
68
100
AcDbEntity
  8
GRS_GAMBAR
  6
SLD-Solid
 62
   250
420
  1644836
100
AcDbLine
 10
56.8201243354
 20
40.7213854332
 30
0.0
 11
57.0790328685
 21
34.1487071314
 31
0.0
  0
LINE
  5
B6
330
68
100
AcDbEntity
  8
GRS_GAMBAR
  6
SLD-Solid
 62
   250
420
  1644836
100
AcDbLine
 10
57.0790328685
 20
34.1487071314
 30
0.0
 11
73.6397988137
 21
38.8044097196
 31
0.0
  0
LINE
  5
B7
330
68
100
AcDbEntity
  8
GRS_GAMBAR
  6
SLD-Solid
 62
   250
420
  1644836
370
    30
100
AcDbLine
 10
80.3123848207
 20
25.8274825725
 30
0.0
 11
62.7994803649
 21
59.8867940624
 31
0.0
  0
LINE
  5
B8
330
68
100
AcDbEntity
  8
GRS_GAMBAR
  6
SLD-Solid
 62
   250
420
  1644836
100
AcDbLine
 10
62.7994803649
 20
59.8867940624
 30
0.0
 11
76.7615270935
 21
68.0723108539
 31
0.0
  0
HATCH
  5
B9
330
68
100
AcDbEntity
  8
GRS_GAMBAR
 62
   250
420
  1644836
100
AcDbHatch
 10
0.0
 20
0.0
 30
0.0
210
0.0
220
0.0
230
1.0
  2
SOLID
 70
     1
 71
     0
 91
        1
 92
        0
 93
        6
 72
     1
 10
81.92085748854794
 20
28.02832824659674
 11
86.80591404383442
 21
36.48949439819749
 72
     2
 10
75.80739141615211
 20
42.83949439840096
 40
12.69999999977226
 50
329.9999999983485
 51
380.1728016816779
 73
     1
 72
     1
 10
87.72833315870798
 20
47.2191231457717
 11
76.76152709348116
 21
68.07231085394116
 72
     1
 10
76.76152709348116
 20
68.07231085394116
 11
62.79948036490168
 21
59.88679406240527
 72
     1
 10
62.79948036490168
 20
59.88679406240527
 11
80.31238482072922
 21
25.82748257246781
 72
     2
 10
70.92233485996502
 20
34.37832824729004
 40
12.70000000079782
 50
317.678118319967
 51
329.9999999984663
 73
     1
 97
        0
 75
     0
 76
     1
 98
        1
 10
0.0
 20
0.0
  0
HATCH
  5
BA
330
68
100
AcDbEntity
  8
GRS_GAMBAR
 62
   250
420
  1644836
100
AcDbHatch
 10
0.0
 20
0.0
 30
0.0
210
0.0
220
0.0
230
1.0
  2
SOLID
 70
     1
 71
     0
 91
        1
 92
        0
 93
        6
 72
     1
 10
1.701477372096249
 20
38.13019112124682
 11
6.586533927391613
 21
29.66902496963009
 72
     2
 10
17.58505655525155
 20
36.0190249696879
 40
12.69999999985368
 50
210.0000000006833
 51
260.1728016813727
 73
     1
 72
     1
 10
15.41745543826067
 20
23.50537220984572
 11
38.9602487760925
 21
22.57631100665058
 72
     1
 10
38.9602487760925
 20
22.57631100665058
 11
38.85240665591994
 21
38.76055655804001
 72
     1
 10
38.85240665591994
 20
38.76055655804001
 11
0.5997254422069886
 21
40.62359215012768
 72
     2
 10
12.69999999987803
 20
44.48019112149226
 40
12.69999999987985
 50
197.678118321045
 51
210.0000000015927
 73
     1
 97
        0
 75
     0
 76
     1
 98
        1
 10
0.0
 20
0.0
  0
HATCH
  5
BB
330
68
100
AcDbEntity
  8
GRS_GAMBAR
 62
   250
420
  1644836
100
AcDbHatch
 10
0.0
 20
0.0
 30
0.0
210
0.0
220
0.0
230
1.0
  2
SOLID
 70
     1
 71
     0
 91
        1
 92
        0
 93
        6
 72
     1
 10
50.55963730542246
 20
102.5512807409807
 11
40.78952419534332
 21
102.5512807409807
 72
     2
 10
40.78952419468607
 20
89.8512807404288
 40
12.70000000055234
 50
89.99999999703482
 51
140.1728016808893
 73
     1
 72
     1
 10
31.03618356855264
 20
97.98530475346534
 11
18.46019629594764
 21
78.06117824848124
 72
     1
 10
18.46019629594764
 20
78.06117824848124
 11
32.53008514500522
 21
70.0624494886548
 72
     1
 10
32.53008514500522
 20
70.0624494886548
 11
53.26986190289063
 21
102.2587253864873
 72
     2
 10
50.55963730542246
 20
89.85128074092263
 40
12.70000000005804
 50
77.6781183210196
 51
90.0
 73
     1
 97
        0
 75
     0
 76
     1
 98
        1
 10
0.0
 20
0.0
  0
MTEXT
  5
BD
330
68
100
AcDbEntity
  8
GRS_GAMBAR
100
AcDbMText
 10
8.1315783618
 20
3.5176739225
 30
0.0
 40
15.875
 41
0.0
 71
     1
 72
     1
  1
Recycled
  7
SLDTEXTSTYLE0
 73
     1
 44
1.0
  0
ENDBLK
  5
6A
330
68
100
AcDbEntity
  8
0
100
AcDbBlockEnd
  0
BLOCK
  5
C0
330
BF
100
AcDbEntity
  8
0
100
AcDbBlockBegin
  2
SW_NOTE_0
 70
     0
 10
0.0
 20
0.0
 30
0.0
  3
SW_NOTE_0
  1

  0
MTEXT
  5
C2
330
BF
100
AcDbEntity
  8
SLD-0
 62
     0
100
AcDbMText
 10
0.0
 20
4.0927900738
 30
0.0
 40
3.175
 41
0.0
 71
     1
 72
     1
  1
LT641
  7
SLDTEXTSTYLE0
 73
     1
 44
1.0
  0
MTEXT
  5
C3
330
BF
100
AcDbEntity
  8
SLD-0
 62
     0
100
AcDbMText
 10
0.0
 20
-0.1405432084
 30
0.0
 40
3.175
 41
0.0
 71
     1
 72
     1
  1
0GU163
  7
SLDTEXTSTYLE0
 73
     1
 44
1.0
  0
MTEXT
  5
C4
330
BF
100
AcDbEntity
  8
SLD-0
 62
     0
100
AcDbMText
 10
0.0
 20
-4.3738764906
 30
0.0
 40
3.175
 41
0.0
 71
     1
 72
     1
  1
DEC 2008
  7
SLDTEXTSTYLE0
 73
     1
 44
1.0
  0
ENDBLK
  5
C1
330
BF
100
AcDbEntity
  8
0
100
AcDbBlockEnd
  0
BLOCK
  5
228
330
227
100
AcDbEntity
  8
0
100
AcDbBlockBegin
  2
*D3
 70
     1
 10
0.0
 20
0.0
 30
0.0
  3
*D3
  1

  0
SOLID
  5
22A
330
227
100
AcDbEntity
  8
FORMAT
100
AcDbTrace
 10
119.5175900792
 20
630.6799035085
 30
0.0
 11
118.4112374149
 21
623.4886111908
 31
0.0
 12
120.6239427434
 22
623.4886111908
 32
0.0
 13
120.6239427434
 23
623.4886111908
 33
0.0
  0
SOLID
  5
22B
330
227
100
AcDbEntity
  8
FORMAT
100
AcDbTrace
 10
119.5175900792
 20
579.8799035085
 30
0.0
 11
120.6239427434
 21
587.0711958262
 31
0.0
 12
118.4112374149
 22
587.0711958262
 32
0.0
 13
118.4112374149
 23
587.0711958262
 33
0.0
  0
LINE
  5
22C
330
227
100
AcDbEntity
  8
FORMAT
100
AcDbLine
 10
106.6275191761
 20
614.4183630749
 30
0.0
 11
106.6275191761
 21
605.0317977237
 31
0.0
  0
LINE
  5
22D
330
227
100
AcDbEntity
  8
FORMAT
100
AcDbLine
 10
106.6275191761
 20
605.0317977237
 30
0.0
 11
108.2715272029
 21
605.0317977237
 31
0.0
  0
LINE
  5
22E
330
227
100
AcDbEntity
  8
FORMAT
100
AcDbLine
 10
106.6275191761
 20
614.4183630749
 30
0.0
 11
108.2715272029
 21
614.4183630749
 31
0.0
  0
LINE
  5
22F
330
227
100
AcDbEntity
  8
FORMAT
100
AcDbLine
 10
132.4076609822
 20
614.4183630749
 30
0.0
 11
132.4076609822
 21
605.0317977237
 31
0.0
  0
LINE
  5
230
330
227
100
AcDbEntity
  8
FORMAT
100
AcDbLine
 10
132.4076609822
 20
605.0317977237
 30
0.0
 11
130.7636529554
 21
605.0317977237
 31
0.0
  0
LINE
  5
231
330
227
100
AcDbEntity
  8
FORMAT
100
AcDbLine
 10
132.4076609822
 20
614.4183630749
 30
0.0
 11
130.7636529554
 21
614.4183630749
 31
0.0
  0
LINE
  5
232
330
227
100
AcDbEntity
  8
FORMAT
100
AcDbLine
 10
162.9635999594
 20
579.8799035085
 30
0.0
 11
118.5175900792
 21
579.8799035085
 31
0.0
  0
LINE
  5
233
330
227
100
AcDbEntity
  8
FORMAT
100
AcDbLine
 10
119.5175900792
 20
630.6799035085
 30
0.0
 11
119.5175900792
 21
615.2465894294
 31
0.0
  0
LINE
  5
234
330
227
100
AcDbEntity
  8
FORMAT
100
AcDbLine
 10
119.5175900792
 20
579.8799035085
 30
0.0
 11
119.5175900792
 21
593.160553309
 31
0.0
  0
MTEXT
  5
235
330
227
100
AcDbEntity
  8
FORMAT
100
AcDbMText
 10
109.9155352297
 20
602.7103968144
 30
0.0
 40
7.4083333333
 41
0.0
 71
     1
 72
     1
  1
50.8
  7
SLDTEXTSTYLE1
 73
     1
 44
1.0
  0
MTEXT
  5
236
330
227
100
AcDbEntity
  8
FORMAT
100
AcDbMText
 10
109.9155352297
 20
613.7534148746
 30
0.0
 40
7.4083333333
 41
0.0
 71
     1
 72
     1
  1
2.00
  7
SLDTEXTSTYLE1
 73
     1
 44
1.0
  0
ENDBLK
  5
229
330
227
100
AcDbEntity
  8
0
100
AcDbBlockEnd
  0
BLOCK
  5
239
330
238
100
AcDbEntity
  8
0
100
AcDbBlockBegin
  2
*D4
 70
     1
 10
0.0
 20
0.0
 30
0.0
  3
*D4
  1

  0
SOLID
  5
23B
330
238
100
AcDbEntity
  8
FORMAT
100
AcDbTrace
 10
119.5175900792
 20
579.8799035085
 30
0.0
 11
118.4112374149
 21
572.6886111908
 31
0.0
 12
120.6239427434
 22
572.6886111908
 32
0.0
 13
120.6239427434
 23
572.6886111908
 33
0.0
  0
SOLID
  5
23C
330
238
100
AcDbEntity
  8
FORMAT
100
AcDbTrace
 10
119.5175900792
 20
325.8799035085
 30
0.0
 11
120.6239427434
 21
333.0711958262
 31
0.0
 12
118.4112374149
 22
333.0711958262
 32
0.0
 13
118.4112374149
 23
333.0711958262
 33
0.0
  0
LINE
  5
23D
330
238
100
AcDbEntity
  8
FORMAT
100
AcDbLine
 10
103.883139243
 20
481.4268604778
 30
0.0
 11
103.883139243
 21
472.0402951266
 31
0.0
  0
LINE
  5
23E
330
238
100
AcDbEntity
  8
FORMAT
100
AcDbLine
 10
103.883139243
 20
472.0402951266
 30
0.0
 11
105.5271472698
 21
472.0402951266
 31
0.0
  0
LINE
  5
23F
330
238
100
AcDbEntity
  8
FORMAT
100
AcDbLine
 10
103.883139243
 20
481.4268604778
 30
0.0
 11
105.5271472698
 21
481.4268604778
 31
0.0
  0
LINE
  5
240
330
238
100
AcDbEntity
  8
FORMAT
100
AcDbLine
 10
135.1520409153
 20
481.4268604778
 30
0.0
 11
135.1520409153
 21
472.0402951266
 31
0.0
  0
LINE
  5
241
330
238
100
AcDbEntity
  8
FORMAT
100
AcDbLine
 10
135.1520409153
 20
472.0402951266
 30
0.0
 11
133.5080328885
 21
472.0402951266
 31
0.0
  0
LINE
  5
242
330
238
100
AcDbEntity
  8
FORMAT
100
AcDbLine
 10
135.1520409153
 20
481.4268604778
 30
0.0
 11
133.5080328885
 21
481.4268604778
 31
0.0
  0
LINE
  5
243
330
238
100
AcDbEntity
  8
FORMAT
100
AcDbLine
 10
162.9635999594
 20
579.8799035085
 30
0.0
 11
118.5175900792
 21
579.8799035085
 31
0.0
  0
LINE
  5
244
330
238
100
AcDbEntity
  8
FORMAT
100
AcDbLine
 10
429.8548987845
 20
325.8799035085
 30
0.0
 11
118.5175900792
 21
325.8799035085
 31
0.0
  0
LINE
  5
245
330
238
100
AcDbEntity
  8
FORMAT
100
AcDbLine
 10
119.5175900792
 20
579.8799035085
 30
0.0
 11
119.5175900792
 21
482.2550868323
 31
0.0
  0
LINE
  5
246
330
238
100
AcDbEntity
  8
FORMAT
100
AcDbLine
 10
119.5175900792
 20
325.8799035085
 30
0.0
 11
119.5175900792
 21
460.1690507119
 31
0.0
  0
MTEXT
  5
247
330
238
100
AcDbEntity
  8
FORMAT
100
AcDbMText
 10
111.2910001126
 20
469.7188942174
 30
0.0
 40
7.4083333333
 41
0.0
 71
     1
 72
     1
  1
254
  7
SLDTEXTSTYLE1
 73
     1
 44
1.0
  0
MTEXT
  5
248
330
238
100
AcDbEntity
  8
FORMAT
100
AcDbMText
 10
107.1711552965
 20
480.7619122776
 30
0.0
 40
7.4083333333
 41
0.0
 71
     1
 72
     1
  1
10.00
  7
SLDTEXTSTYLE1
 73
     1
 44
1.0
  0
ENDBLK
  5
23A
330
238
100
AcDbEntity
  8
0
100
AcDbBlockEnd
  0
BLOCK
  5
24C
330
24B
100
AcDbEntity
  8
0
100
AcDbBlockBegin
  2
*D5
 70
     1
 10
0.0
 20
0.0
 30
0.0
  3
*D5
  1

  0
SOLID
  5
24E
330
24B
100
AcDbEntity
  8
FORMAT
100
AcDbTrace
 10
152.9747067063
 20
579.8799035085
 30
0.0
 11
151.868354042
 21
572.6886111908
 31
0.0
 12
154.0810593705
 22
572.6886111908
 32
0.0
 13
154.0810593705
 23
572.6886111908
 33
0.0
  0
SOLID
  5
24F
330
24B
100
AcDbEntity
  8
FORMAT
100
AcDbTrace
 10
152.9747067063
 20
500.5299035085
 30
0.0
 11
154.0810593705
 21
507.7211958262
 31
0.0
 12
151.868354042
 22
507.7211958262
 32
0.0
 13
151.868354042
 23
507.7211958262
 33
0.0
  0
LINE
  5
250
330
24B
100
AcDbEntity
  8
FORMAT
100
AcDbLine
 10
140.0846358033
 20
553.325650026
 30
0.0
 11
140.0846358033
 21
543.9390846748
 31
0.0
  0
LINE
  5
251
330
24B
100
AcDbEntity
  8
FORMAT
100
AcDbLine
 10
140.0846358033
 20
543.9390846748
 30
0.0
 11
141.72864383
 21
543.9390846748
 31
0.0
  0
LINE
  5
252
330
24B
100
AcDbEntity
  8
FORMAT
100
AcDbLine
 10
140.0846358033
 20
553.325650026
 30
0.0
 11
141.72864383
 21
553.325650026
 31
0.0
  0
LINE
  5
253
330
24B
100
AcDbEntity
  8
FORMAT
100
AcDbLine
 10
165.8647776093
 20
553.325650026
 30
0.0
 11
165.8647776093
 21
543.9390846748
 31
0.0
  0
LINE
  5
254
330
24B
100
AcDbEntity
  8
FORMAT
100
AcDbLine
 10
165.8647776093
 20
543.9390846748
 30
0.0
 11
164.2207695825
 21
543.9390846748
 31
0.0
  0
LINE
  5
255
330
24B
100
AcDbEntity
  8
FORMAT
100
AcDbLine
 10
165.8647776093
 20
553.325650026
 30
0.0
 11
164.2207695825
 21
553.325650026
 31
0.0
  0
LINE
  5
256
330
24B
100
AcDbEntity
  8
FORMAT
100
AcDbLine
 10
352.7258987845
 20
579.8799035085
 30
0.0
 11
151.9747067063
 21
579.8799035085
 31
0.0
  0
LINE
  5
257
330
24B
100
AcDbEntity
  8
FORMAT
100
AcDbLine
 10
454.3258987845
 20
500.5299035085
 30
0.0
 11
151.9747067063
 21
500.5299035085
 31
0.0
  0
LINE
  5
258
330
24B
100
AcDbEntity
  8
FORMAT
100
AcDbLine
 10
152.9747067063
 20
579.8799035085
 30
0.0
 11
152.9747067063
 21
554.1538763805
 31
0.0
  0
LINE
  5
259
330
24B
100
AcDbEntity
  8
FORMAT
100
AcDbLine
 10
152.9747067063
 20
500.5299035085
 30
0.0
 11
152.9747067063
 21
532.0678402601
 31
0.0
  0
MTEXT
  5
25A
330
24B
100
AcDbEntity
  8
FORMAT
100
AcDbMText
 10
140.6282719237
 20
541.6176837656
 30
0.0
 40
7.4083333333
 41
0.0
 71
     1
 72
     1
  1
79.35
  7
SLDTEXTSTYLE1
 73
     1
 44
1.0
  0
MTEXT
  5
25B
330
24B
100
AcDbEntity
  8
FORMAT
100
AcDbMText
 10
143.3726518568
 20
552.6607018258
 30
0.0
 40
7.4083333333
 41
0.0
 71
     1
 72
     1
  1
3.12
  7
SLDTEXTSTYLE1
 73
     1
 44
1.0
  0
ENDBLK
  5
24D
330
24B
100
AcDbEntity
  8
0
100
AcDbBlockEnd
  0
BLOCK
  5
25D
330
25C
100
AcDbEntity
  8
0
100
AcDbBlockBegin
  2
SW_NOTE_1
 70
     0
 10
0.0
 20
0.0
 30
0.0
  3
SW_NOTE_1
  1

  0
MTEXT
  5
25F
330
25C
100
AcDbEntity
  8
G__TOTO
 62
     0
100
AcDbMText
 10
0.5051399604
 20
3.5526126225
 30
0.0
 40
7.4083333333
 41
0.0
 71
     1
 72
     1
  1
FINISH WALL / BACK SPLASH
  7
SLDTEXTSTYLE1
 73
     1
 44
1.0
  0
MTEXT
  5
260
330
25C
100
AcDbEntity
  8
G__TOTO
 62
     0
100
AcDbMText
 10
0.5051399604
 20
-6.3251650359
 30
0.0
 40
7.4083333333
 41
0.0
 71
     1
 72
     1
  1
PARED ACBADA / PARED POSTERIOR
  7
SLDTEXTSTYLE1
 73
     1
 44
1.0
  0
MTEXT
  5
261
330
25C
100
AcDbEntity
  8
G__TOTO
 62
     0
100
AcDbMText
 10
0.5051399604
 20
-16.2029426943
 30
0.0
 40
7.4083333333
 41
0.0
 71
     1
 72
     1
  1
MUR FIN / DOSSERET
  7
SLDTEXTSTYLE1
 73
     1
 44
1.0
  0
ENDBLK
  5
25E
330
25C
100
AcDbEntity
  8
0
100
AcDbBlockEnd
  0
BLOCK
  5
266
330
265
100
AcDbEntity
  8
0
100
AcDbBlockBegin
  2
SW_NOTE_2
 70
     0
 10
0.0
 20
0.0
 30
0.0
  3
SW_NOTE_2
  1

  0
MTEXT
  5
268
330
265
100
AcDbEntity
  8
G__TOTO
 62
     0
100
AcDbMText
 10
0.5079269676
 20
3.6071426301
 30
0.0
 40
7.4083333333
 41
0.0
 71
     1
 72
     1
  1
CENTERLINE OF FITTING
  7
SLDTEXTSTYLE1
 73
     1
 44
1.0
  0
MTEXT
  5
269
330
265
100
AcDbEntity
  8
G__TOTO
 62
     0
100
AcDbMText
 10
0.5079269676
 20
-6.2706350283
 30
0.0
 40
7.4083333333
 41
0.0
 71
     1
 72
     1
  1
LINEA CENTRAL DEL GRIFO
  7
SLDTEXTSTYLE1
 73
     1
 44
1.0
  0
MTEXT
  5
26A
330
265
100
AcDbEntity
  8
G__TOTO
 62
     0
100
AcDbMText
 10
0.5079269676
 20
-16.1484126867
 30
0.0
 40
7.4083333333
 41
0.0
 71
     1
 72
     1
  1
AXE DU ROBINET
  7
SLDTEXTSTYLE1
 73
     1
 44
1.0
  0
ENDBLK
  5
267
330
265
100
AcDbEntity
  8
0
100
AcDbBlockEnd
  0
BLOCK
  5
26E
330
26D
100
AcDbEntity
  8
0
100
AcDbBlockBegin
  2
SW_NOTE_3
 70
     0
 10
0.0
 20
0.0
 30
0.0
  3
SW_NOTE_3
  1

  0
MTEXT
  5
270
330
26D
100
AcDbEntity
  8
FORMAT
 62
     0
100
AcDbMText
 10
0.0
 20
8.1855801476
 30
0.0
 40
6.35
 41
0.0
 71
     1
 72
     1
  1
PAPER SIZE:  
  7
SLDTEXTSTYLE1
 73
     1
 44
1.0
  0
MTEXT
  5
272
330
26D
100
AcDbEntity
  8
FORMAT
 62
     0
100
AcDbMText
 10
10.0
 20
-0.2810864168
 30
0.0
 40
6.35
 41
0.0
 71
     1
 72
     1
  1
23" X 35"    25" X 38"   26" X 40"
  7
SLDTEXTSTYLE2
 73
     1
 44
1.0
  0
MTEXT
  5
273
330
26D
100
AcDbEntity
  8
FORMAT
 62
     0
100
AcDbMText
 10
0.0
 20
-8.7477529811
 30
0.0
 40
6.35
 41
0.0
 71
     1
 72
     1
  1
LINE WEIGHT: 1.00mm
  7
SLDTEXTSTYLE1
 73
     1
 44
1.0
  0
MTEXT
  5
274
330
26D
100
AcDbEntity
  8
FORMAT
 62
     0
100
AcDbMText
 10
0.0
 20
-17.2144195455
 30
0.0
 40
6.35
 41
0.0
 71
     1
 72
     1
  1
PAPER SPEC:
  7
SLDTEXTSTYLE1
 73
     1
 44
1.0
  0
MTEXT
  5
275
330
26D
100
AcDbEntity
  8
FORMAT
 62
     0
100
AcDbMText
 10
10.0
 20
-25.6810861098
 30
0.0
 40
6.35
 41
0.0
 71
     1
 72
     1
  1
70# OFFSET UNCOATED SHEET
  7
SLDTEXTSTYLE1
 73
     1
 44
1.0
  0
MTEXT
  5
276
330
26D
100
AcDbEntity
  8
FORMAT
 62
     0
100
AcDbMText
 10
10.0
 20
-34.1477526742
 30
0.0
 40
6.35
 41
0.0
 71
     1
 72
     1
  1
BRIGHTNESS FACTOR- 86% OR HIGHER 
  7
SLDTEXTSTYLE1
 73
     1
 44
1.0
  0
ENDBLK
  5
26F
330
26D
100
AcDbEntity
  8
0
100
AcDbBlockEnd
  0
BLOCK
  5
279
330
278
100
AcDbEntity
  8
0
100
AcDbBlockBegin
  2
SW_NOTE_4
 70
     0
 10
0.0
 20
0.0
 30
0.0
  3
SW_NOTE_4
  1

  0
MTEXT
  5
27B
330
278
100
AcDbEntity
  8
G__TOTO
 62
     0
100
AcDbMText
 10
0.5076644241
 20
3.555385335
 30
0.0
 40
7.4083333333
 41
0.0
 71
     1
 72
     1
  1
MOUNTING HOLE ( 4 PLACES )
  7
SLDTEXTSTYLE1
 73
     1
 44
1.0
  0
MTEXT
  5
27C
330
278
100
AcDbEntity
  8
G__TOTO
 62
     0
100
AcDbMText
 10
0.5076644241
 20
-6.3223923234
 30
0.0
 40
7.4083333333
 41
0.0
 71
     1
 72
     1
  1
AGUJERO DE MONTAJE ( 4 LUGARES )
  7
SLDTEXTSTYLE1
 73
     1
 44
1.0
  0
MTEXT
  5
27D
330
278
100
AcDbEntity
  8
G__TOTO
 62
     0
100
AcDbMText
 10
0.5076644241
 20
-16.2001699818
 30
0.0
 40
7.4083333333
 41
0.0
 71
     1
 72
     1
  1
TROU POUR MONTAGE ( 4 ENROITS )
  7
SLDTEXTSTYLE1
 73
     1
 44
1.0
  0
ENDBLK
  5
27A
330
278
100
AcDbEntity
  8
0
100
AcDbBlockEnd
  0
BLOCK
  5
281
330
280
100
AcDbEntity
  8
0
100
AcDbBlockBegin
  2
SW_NOTE_5
 70
     0
 10
0.0
 20
0.0
 30
0.0
  3
SW_NOTE_5
  1

  0
MTEXT
  5
283
330
280
100
AcDbEntity
  8
G__TOTO
 62
     0
100
AcDbMText
 10
-108.056181182
 20
5.661597295
 30
0.0
 40
7.4083333333
 41
0.0
 71
     1
 72
     1
  1
CUT ALONG THIS LINE
  7
SLDTEXTSTYLE1
 73
     1
 44
1.0
  0
MTEXT
  5
284
330
280
100
AcDbEntity
  8
G__TOTO
 62
     0
100
AcDbMText
 10
-108.056181182
 20
-4.2161803634
 30
0.0
 40
7.4083333333
 41
0.0
 71
     1
 72
     1
  1
CORTE A LO DE ESTA LINEA
  7
SLDTEXTSTYLE1
 73
     1
 44
1.0
  0
MTEXT
  5
285
330
280
100
AcDbEntity
  8
G__TOTO
 62
     0
100
AcDbMText
 10
-108.056181182
 20
-14.0939580218
 30
0.0
 40
7.4083333333
 41
0.0
 71
     1
 72
     1
  1
DECOUPER AU LONG DE CETTE LIGNE
  7
SLDTEXTSTYLE1
 73
     1
 44
1.0
  0
ENDBLK
  5
282
330
280
100
AcDbEntity
  8
0
100
AcDbBlockEnd
  0
BLOCK
  5
289
330
288
100
AcDbEntity
  8
0
100
AcDbBlockBegin
  2
SW_NOTE_6
 70
     0
 10
0.0
 20
0.0
 30
0.0
  3
SW_NOTE_6
  1

  0
MTEXT
  5
28B
330
288
100
AcDbEntity
  8
FORMAT
 62
     0
100
AcDbMText
 10
0.508685159
 20
3.5581155237
 30
0.0
 40
7.4083333333
 41
0.0
 71
     1
 72
     1
  1
RIM OF LAVATORY
  7
SLDTEXTSTYLE1
 73
     1
 44
1.0
  0
MTEXT
  5
28C
330
288
100
AcDbEntity
  8
FORMAT
 62
     0
100
AcDbMText
 10
0.508685159
 20
-6.3196621347
 30
0.0
 40
7.4083333333
 41
0.0
 71
     1
 72
     1
  1
BORDE DEL LAVABO
  7
SLDTEXTSTYLE1
 73
     1
 44
1.0
  0
MTEXT
  5
28D
330
288
100
AcDbEntity
  8
FORMAT
 62
     0
100
AcDbMText
 10
0.508685159
 20
-16.1974397931
 30
0.0
 40
7.4083333333
 41
0.0
 71
     1
 72
     1
  1
REBORD DE LAVABO
  7
SLDTEXTSTYLE1
 73
     1
 44
1.0
  0
ENDBLK
  5
28A
330
288
100
AcDbEntity
  8
0
100
AcDbBlockEnd
  0
BLOCK
  5
291
330
290
100
AcDbEntity
  8
0
100
AcDbBlockBegin
  2
SW_CENTERMARKSYMBOL_0
 70
     0
 10
0.0
 20
0.0
 30
0.0
  3
SW_CENTERMARKSYMBOL_0
  1

  0
LINE
  5
293
330
290
100
AcDbEntity
  8
0
  6
SLD-Solid
 62
     0
370
     0
100
AcDbLine
 10
0.0
 20
0.0
 30
0.0
 11
0.0
 21
2.5
 31
0.0
  0
LINE
  5
294
330
290
100
AcDbEntity
  8
0
  6
SLD-Solid
 62
     0
370
     0
100
AcDbLine
 10
0.0
 20
0.0
 30
0.0
 11
-2.5
 21
0.0
 31
0.0
  0
LINE
  5
295
330
290
100
AcDbEntity
  8
0
  6
SLD-Solid
 62
     0
370
     0
100
AcDbLine
 10
0.0
 20
0.0
 30
0.0
 11
0.0
 21
-2.5
 31
0.0
  0
LINE
  5
296
330
290
100
AcDbEntity
  8
0
  6
SLD-Solid
 62
     0
370
     0
100
AcDbLine
 10
0.0
 20
0.0
 30
0.0
 11
2.5
 21
0.0
 31
0.0
  0
LINE
  5
297
330
290
100
AcDbEntity
  8
0
  6
SLD-Solid
 62
     0
370
     0
100
AcDbLine
 10
0.0
 20
5.0
 30
0.0
 11
0.0
 21
24.471
 31
0.0
  0
LINE
  5
298
330
290
100
AcDbEntity
  8
0
  6
SLD-Solid
 62
     0
370
     0
100
AcDbLine
 10
-5.0
 20
0.0
 30
0.0
 11
-24.471
 21
0.0
 31
0.0
  0
LINE
  5
299
330
290
100
AcDbEntity
  8
0
  6
SLD-Solid
 62
     0
370
     0
100
AcDbLine
 10
0.0
 20
-5.0
 30
0.0
 11
0.0
 21
-24.471
 31
0.0
  0
LINE
  5
29A
330
290
100
AcDbEntity
  8
0
  6
SLD-Solid
 62
     0
370
     0
100
AcDbLine
 10
5.0
 20
0.0
 30
0.0
 11
24.471
 21
0.0
 31
0.0
  0
ENDBLK
  5
292
330
290
100
AcDbEntity
  8
0
100
AcDbBlockEnd
  0
BLOCK
  5
29D
330
29C
100
AcDbEntity
  8
0
100
AcDbBlockBegin
  2
SW_CENTERMARKSYMBOL_1
 70
     0
 10
0.0
 20
0.0
 30
0.0
  3
SW_CENTERMARKSYMBOL_1
  1

  0
LINE
  5
29F
330
29C
100
AcDbEntity
  8
0
  6
SLD-Solid
 62
     0
370
     0
100
AcDbLine
 10
0.0
 20
0.0
 30
0.0
 11
0.0
 21
2.5
 31
0.0
  0
LINE
  5
2A0
330
29C
100
AcDbEntity
  8
0
  6
SLD-Solid
 62
     0
370
     0
100
AcDbLine
 10
0.0
 20
0.0
 30
0.0
 11
-2.5
 21
0.0
 31
0.0
  0
LINE
  5
2A1
330
29C
100
AcDbEntity
  8
0
  6
SLD-Solid
 62
     0
370
     0
100
AcDbLine
 10
0.0
 20
0.0
 30
0.0
 11
0.0
 21
-2.5
 31
0.0
  0
LINE
  5
2A2
330
29C
100
AcDbEntity
  8
0
  6
SLD-Solid
 62
     0
370
     0
100
AcDbLine
 10
0.0
 20
0.0
 30
0.0
 11
2.5
 21
0.0
 31
0.0
  0
LINE
  5
2A3
330
29C
100
AcDbEntity
  8
0
  6
SLD-Solid
 62
     0
370
     0
100
AcDbLine
 10
0.0
 20
5.0
 30
0.0
 11
0.0
 21
20.5
 31
0.0
  0
LINE
  5
2A4
330
29C
100
AcDbEntity
  8
0
  6
SLD-Solid
 62
     0
370
     0
100
AcDbLine
 10
-5.0
 20
0.0
 30
0.0
 11
-20.5
 21
0.0
 31
0.0
  0
LINE
  5
2A5
330
29C
100
AcDbEntity
  8
0
  6
SLD-Solid
 62
     0
370
     0
100
AcDbLine
 10
0.0
 20
-5.0
 30
0.0
 11
0.0
 21
-20.5
 31
0.0
  0
LINE
  5
2A6
330
29C
100
AcDbEntity
  8
0
  6
SLD-Solid
 62
     0
370
     0
100
AcDbLine
 10
5.0
 20
0.0
 30
0.0
 11
20.5
 21
0.0
 31
0.0
  0
ENDBLK
  5
29E
330
29C
100
AcDbEntity
  8
0
100
AcDbBlockEnd
  0
BLOCK
  5
2A9
330
2A8
100
AcDbEntity
  8
0
100
AcDbBlockBegin
  2
SW_CENTERMARKSYMBOL_2
 70
     0
 10
0.0
 20
0.0
 30
0.0
  3
SW_CENTERMARKSYMBOL_2
  1

  0
LINE
  5
2AB
330
2A8
100
AcDbEntity
  8
G__TOTO
 62
     0
100
AcDbLine
 10
0.0
 20
0.0
 30
0.0
 11
0.0
 21
2.5
 31
0.0
  0
LINE
  5
2AC
330
2A8
100
AcDbEntity
  8
G__TOTO
 62
     0
100
AcDbLine
 10
0.0
 20
0.0
 30
0.0
 11
-2.5
 21
0.0
 31
0.0
  0
LINE
  5
2AD
330
2A8
100
AcDbEntity
  8
G__TOTO
 62
     0
100
AcDbLine
 10
0.0
 20
0.0
 30
0.0
 11
0.0
 21
-2.5
 31
0.0
  0
LINE
  5
2AE
330
2A8
100
AcDbEntity
  8
G__TOTO
 62
     0
100
AcDbLine
 10
0.0
 20
0.0
 30
0.0
 11
2.5
 21
0.0
 31
0.0
  0
LINE
  5
2AF
330
2A8
100
AcDbEntity
  8
G__TOTO
 62
     0
100
AcDbLine
 10
0.0
 20
5.0
 30
0.0
 11
0.0
 21
5.625
 31
0.0
  0
LINE
  5
2B0
330
2A8
100
AcDbEntity
  8
G__TOTO
 62
     0
100
AcDbLine
 10
-5.0
 20
0.0
 30
0.0
 11
-5.625
 21
0.0
 31
0.0
  0
LINE
  5
2B1
330
2A8
100
AcDbEntity
  8
G__TOTO
 62
     0
100
AcDbLine
 10
0.0
 20
-5.0
 30
0.0
 11
0.0
 21
-5.625
 31
0.0
  0
LINE
  5
2B2
330
2A8
100
AcDbEntity
  8
G__TOTO
 62
     0
100
AcDbLine
 10
5.0
 20
0.0
 30
0.0
 11
5.625
 21
0.0
 31
0.0
  0
ENDBLK
  5
2AA
330
2A8
100
AcDbEntity
  8
0
100
AcDbBlockEnd
  0
BLOCK
  5
2B5
330
2B4
100
AcDbEntity
  8
0
100
AcDbBlockBegin
  2
SW_CENTERMARKSYMBOL_3
 70
     0
 10
0.0
 20
0.0
 30
0.0
  3
SW_CENTERMARKSYMBOL_3
  1

  0
LINE
  5
2B7
330
2B4
100
AcDbEntity
  8
G__TOTO
 62
     0
100
AcDbLine
 10
0.0
 20
0.0
 30
0.0
 11
0.0
 21
2.5
 31
0.0
  0
LINE
  5
2B8
330
2B4
100
AcDbEntity
  8
G__TOTO
 62
     0
100
AcDbLine
 10
0.0
 20
0.0
 30
0.0
 11
-2.5
 21
0.0
 31
0.0
  0
LINE
  5
2B9
330
2B4
100
AcDbEntity
  8
G__TOTO
 62
     0
100
AcDbLine
 10
0.0
 20
0.0
 30
0.0
 11
0.0
 21
-2.5
 31
0.0
  0
LINE
  5
2BA
330
2B4
100
AcDbEntity
  8
G__TOTO
 62
     0
100
AcDbLine
 10
0.0
 20
0.0
 30
0.0
 11
2.5
 21
0.0
 31
0.0
  0
LINE
  5
2BB
330
2B4
100
AcDbEntity
  8
G__TOTO
 62
     0
100
AcDbLine
 10
0.0
 20
5.0
 30
0.0
 11
0.0
 21
5.625
 31
0.0
  0
LINE
  5
2BC
330
2B4
100
AcDbEntity
  8
G__TOTO
 62
     0
100
AcDbLine
 10
-5.0
 20
0.0
 30
0.0
 11
-5.625
 21
0.0
 31
0.0
  0
LINE
  5
2BD
330
2B4
100
AcDbEntity
  8
G__TOTO
 62
     0
100
AcDbLine
 10
0.0
 20
-5.0
 30
0.0
 11
0.0
 21
-5.625
 31
0.0
  0
LINE
  5
2BE
330
2B4
100
AcDbEntity
  8
G__TOTO
 62
     0
100
AcDbLine
 10
5.0
 20
0.0
 30
0.0
 11
5.625
 21
0.0
 31
0.0
  0
ENDBLK
  5
2B6
330
2B4
100
AcDbEntity
  8
0
100
AcDbBlockEnd
  0
BLOCK
  5
2C1
330
2C0
100
AcDbEntity
  8
0
100
AcDbBlockBegin
  2
SW_CENTERMARKSYMBOL_4
 70
     0
 10
0.0
 20
0.0
 30
0.0
  3
SW_CENTERMARKSYMBOL_4
  1

  0
LINE
  5
2C3
330
2C0
100
AcDbEntity
  8
G__TOTO
 62
     0
100
AcDbLine
 10
0.0
 20
0.0
 30
0.0
 11
0.0
 21
2.5
 31
0.0
  0
LINE
  5
2C4
330
2C0
100
AcDbEntity
  8
G__TOTO
 62
     0
100
AcDbLine
 10
0.0
 20
0.0
 30
0.0
 11
-2.5
 21
0.0
 31
0.0
  0
LINE
  5
2C5
330
2C0
100
AcDbEntity
  8
G__TOTO
 62
     0
100
AcDbLine
 10
0.0
 20
0.0
 30
0.0
 11
0.0
 21
-2.5
 31
0.0
  0
LINE
  5
2C6
330
2C0
100
AcDbEntity
  8
G__TOTO
 62
     0
100
AcDbLine
 10
0.0
 20
0.0
 30
0.0
 11
2.5
 21
0.0
 31
0.0
  0
LINE
  5
2C7
330
2C0
100
AcDbEntity
  8
G__TOTO
 62
     0
100
AcDbLine
 10
0.0
 20
5.0
 30
0.0
 11
0.0
 21
5.625
 31
0.0
  0
LINE
  5
2C8
330
2C0
100
AcDbEntity
  8
G__TOTO
 62
     0
100
AcDbLine
 10
-5.0
 20
0.0
 30
0.0
 11
-5.625
 21
0.0
 31
0.0
  0
LINE
  5
2C9
330
2C0
100
AcDbEntity
  8
G__TOTO
 62
     0
100
AcDbLine
 10
0.0
 20
-5.0
 30
0.0
 11
0.0
 21
-5.625
 31
0.0
  0
LINE
  5
2CA
330
2C0
100
AcDbEntity
  8
G__TOTO
 62
     0
100
AcDbLine
 10
5.0
 20
0.0
 30
0.0
 11
5.625
 21
0.0
 31
0.0
  0
ENDBLK
  5
2C2
330
2C0
100
AcDbEntity
  8
0
100
AcDbBlockEnd
  0
BLOCK
  5
2CD
330
2CC
100
AcDbEntity
  8
0
100
AcDbBlockBegin
  2
SW_CENTERMARKSYMBOL_5
 70
     0
 10
0.0
 20
0.0
 30
0.0
  3
SW_CENTERMARKSYMBOL_5
  1

  0
LINE
  5
2CF
330
2CC
100
AcDbEntity
  8
G__TOTO
 62
     0
100
AcDbLine
 10
0.0
 20
0.0
 30
0.0
 11
0.0
 21
2.5
 31
0.0
  0
LINE
  5
2D0
330
2CC
100
AcDbEntity
  8
G__TOTO
 62
     0
100
AcDbLine
 10
0.0
 20
0.0
 30
0.0
 11
-2.5
 21
0.0
 31
0.0
  0
LINE
  5
2D1
330
2CC
100
AcDbEntity
  8
G__TOTO
 62
     0
100
AcDbLine
 10
0.0
 20
0.0
 30
0.0
 11
0.0
 21
-2.5
 31
0.0
  0
LINE
  5
2D2
330
2CC
100
AcDbEntity
  8
G__TOTO
 62
     0
100
AcDbLine
 10
0.0
 20
0.0
 30
0.0
 11
2.5
 21
0.0
 31
0.0
  0
LINE
  5
2D3
330
2CC
100
AcDbEntity
  8
G__TOTO
 62
     0
100
AcDbLine
 10
0.0
 20
2.5
 30
0.0
 11
0.0
 21
2.55
 31
0.0
  0
LINE
  5
2D4
330
2CC
100
AcDbEntity
  8
G__TOTO
 62
     0
100
AcDbLine
 10
-2.5
 20
0.0
 30
0.0
 11
-2.55
 21
0.0
 31
0.0
  0
LINE
  5
2D5
330
2CC
100
AcDbEntity
  8
G__TOTO
 62
     0
100
AcDbLine
 10
0.0
 20
-2.5
 30
0.0
 11
0.0
 21
-2.55
 31
0.0
  0
LINE
  5
2D6
330
2CC
100
AcDbEntity
  8
G__TOTO
 62
     0
100
AcDbLine
 10
2.5
 20
0.0
 30
0.0
 11
2.55
 21
0.0
 31
0.0
  0
ENDBLK
  5
2CE
330
2CC
100
AcDbEntity
  8
0
100
AcDbBlockEnd
  0
ENDSEC
  0
SECTION
  2
ENTITIES
  0
INSERT
  5
BE
330
1F
100
AcDbEntity
  8
0
  6
Continuous
 62
     7
100
AcDbBlockReference
  2
Block1
 10
831.6492741578
 20
101.3598799074
 30
0.0
 41
0.1
 42
0.1
 43
0.1
  0
INSERT
  5
C5
330
1F
100
AcDbEntity
  8
SLD-0
 62
   250
420
  1644836
100
AcDbBlockReference
  2
SW_NOTE_0
 10
798.5412261784
 20
110.3971597753
 30
0.0
  0
ELLIPSE
  5
C6
330
1F
100
AcDbEntity
  8
0
  6
SLD-Solid
 62
     7
100
AcDbEllipse
 10
455.3258987845
 20
325.8799035085
 30
0.0
 11
-239.15
 21
0.0
 31
0.0
210
0.0
220
0.0
230
1.0
 40
0.7302947941
 41
0.0
 42
6.283185307179586
  0
LINE
  5
C7
330
1F
100
AcDbEntity
  8
0
  6
SLD-Center
 62
     7
100
AcDbLine
 10
216.1758987845
 20
325.8799035085
 30
0.0
 11
694.4758987845
 21
325.8799035085
 31
0.0
  0
LINE
  5
C8
330
1F
100
AcDbEntity
  8
0
  6
SLD-Center
 62
     7
100
AcDbLine
 10
455.3258987845
 20
151.2299035085
 30
0.0
 11
455.3258987845
 21
500.5299035085
 31
0.0
  0
LWPOLYLINE
  5
C9
330
1F
100
AcDbEntity
  8
0
  6
SLD-Solid
 62
     7
100
AcDbPolyline
 90
      243
 70
   128
 43
0.0
 10
180.1758987845
 20
325.8799035085
 10
180.2574811205
 20
320.7332631435
 10
180.5015646978
 20
315.5907819797
 10
180.9071543703
 20
310.4566192181
 10
181.4732549917
 20
305.3349340598
 10
182.1988714159
 20
300.2298857059
 10
183.0830084966
 20
295.1456333576
 10
184.0609213282
 20
290.3746940853
 10
185.1780370113
 20
285.6294256448
 10
186.4335161677
 20
280.913309575
 10
187.8261267935
 20
276.2294826983
 10
189.3539795867
 20
271.580504744
 10
191.2164781352
 20
266.436136522
 10
193.2422914445
 20
261.3417786407
 10
195.4287059228
 20
256.3009131598
 10
197.7730079782
 20
251.3170221392
 10
200.2724840188
 20
246.3935876385
 10
202.9244204527
 20
241.5340917174
 10
205.7260509293
 20
236.7418159832
 10
208.674362413
 20
232.019104785
 10
211.7662698287
 20
227.3680287633
 10
214.9986880924
 20
222.7906585255
 10
218.3685321204
 20
218.289064679
 10
221.8727168286
 20
213.8653178312
 10
225.5081571333
 20
209.5214885897
 10
229.2717679505
 20
205.2596475618
 10
233.1604749355
 20
201.0817973493
 10
237.1712756253
 20
196.9894853619
 10
241.5007806403
 20
192.795528907
 10
245.9576032414
 20
188.6985080601
 10
250.53832532
 20
184.699986507
 10
255.2395287677
 20
180.801527934
 10
260.057795476
 20
177.004696027
 10
264.9897073365
 20
173.311054472
 10
270.4834152597
 20
169.4094207152
 10
276.1033067279
 20
165.6331720564
 10
281.8449577887
 20
161.9835710343
 10
287.7039444899
 20
158.4618801875
 10
293.675842879
 20
155.0693620549
 10
299.6467249686
 20
151.8643795361
 10
305.7180636642
 20
148.7864115645
 10
311.8856678041
 20
145.8366542434
 10
318.1453462264
 20
143.0163036762
 10
324.6233355194
 20
140.2730314232
 10
331.1883785659
 20
137.6670179901
 10
337.8360223299
 20
135.199534216
 10
344.5618137755
 20
132.8718509396
 10
351.3612998666
 20
130.6852389997
 10
358.2300083936
 20
128.6409219128
 10
365.1632723199
 20
126.7396423463
 10
372.1563110733
 20
124.981862752
 10
379.2043426677
 20
123.3680420923
 10
386.3025851168
 20
121.8986393293
 10
393.4462564345
 20
120.5741134251
 10
400.6305746347
 20
119.394923342
 10
407.8507577311
 20
118.3615280421
 10
415.1020237376
 20
117.4743864875
 10
423.1086098054
 20
116.6680016248
 10
431.1406551676
 20
116.0397500169
 10
439.1917950006
 20
115.5902425424
 10
447.2556644807
 20
115.3200900801
 10
455.3258987845
 20
115.2299035085
 10
462.6466388187
 20
115.3041207613
 10
469.9626280988
 20
115.5264685435
 10
477.2691158706
 20
115.8964908904
 10
484.56135138
 20
116.4137318375
 10
491.8345838729
 20
117.07773542
 10
498.9548434432
 20
117.8722955067
 10
506.0476892501
 20
118.8075517084
 10
513.1086205265
 20
119.8830720536
 10
520.1331365052
 20
121.0984245708
 10
527.2588012738
 20
122.4822737546
 10
534.3370809067
 20
124.01081204
 10
541.3631934177
 20
125.6835804649
 10
548.3323568208
 20
127.500120067
 10
555.2397891296
 20
129.4599718842
 10
562.0807275319
 20
131.562629632
 10
568.850604042
 20
133.8071061766
 10
575.5449642099
 20
136.1921341692
 10
582.1593549998
 20
138.7164427709
 10
588.6893233757
 20
141.3787611428
 10
595.1304163016
 20
144.1778184462
 10
601.4781807415
 20
147.1123438423
 10
607.7281636594
 20
150.1810664921
 10
613.8759120194
 20
153.382715557
 10
619.4177345915
 20
156.4332473107
 10
624.8664799777
 20
159.5934274499
 10
630.2187182064
 20
162.8622771051
 10
635.4710193062
 20
166.2388174069
 10
640.6199533053
 20
169.7220694856
 10
645.6620902324
 20
173.311054472
 10
651.0251932083
 20
177.3366850726
 10
656.2532800353
 20
181.4844214015
 10
661.3419420621
 20
185.7522466278
 10
666.2867706372
 20
190.1381439208
 10
671.0833571092
 20
194.6400964495
 10
675.6457295612
 20
199.1726706409
 10
680.0566777283
 20
203.813336097
 10
684.3120091646
 20
208.5600821865
 10
688.4074298718
 20
213.4102551968
 10
691.9253951384
 20
217.8257953051
 10
695.3093402529
 20
222.3193975403
 10
698.5561801314
 20
226.8889912949
 10
701.6628296901
 20
231.5325059613
 10
704.6262038449
 20
236.2478709323
 10
707.4432175122
 20
241.0330156003
 10
710.1108383667
 20
245.8856689055
 10
712.6262807681
 20
250.8026225297
 10
714.986831116
 20
255.7803944463
 10
717.1897758184
 20
260.8155025956
 10
719.2324012835
 20
265.9044649177
 10
721.1119939194
 20
271.0437993531
 10
722.8258401341
 20
276.2300238419
 10
724.3712263359
 20
281.4596563244
 10
725.7455876534
 20
286.7290841676
 10
726.9473546671
 20
292.0338207536
 10
728.0199657284
 20
297.6237552181
 10
728.9005463026
 20
303.2415511342
 10
729.5877631425
 20
308.8816362116
 10
730.080283001
 20
314.53843816
 10
730.3767726307
 20
320.2063846891
 10
730.4758987845
 20
325.8799035085
 10
730.3943164484
 20
331.0265438734
 10
730.1502328711
 20
336.1690250373
 10
729.7446431986
 20
341.3031877989
 10
729.1785425772
 20
346.4248729572
 10
728.4529261531
 20
351.529921311
 10
727.5687890723
 20
356.6141736594
 10
726.5908762407
 20
361.3851129316
 10
725.4737605576
 20
366.1303813721
 10
724.2182814013
 20
370.8464974419
 10
722.8256707755
 20
375.5303243186
 10
721.2978179822
 20
380.1793022729
 10
719.4353194337
 20
385.323670495
 10
717.4095061244
 20
390.4180283763
 10
715.2230916461
 20
395.4588938571
 10
712.8787895907
 20
400.4427848777
 10
710.3793135501
 20
405.3662193785
 10
707.7273771162
 20
410.2257152996
 10
704.9257466397
 20
415.0179910337
 10
701.9774351559
 20
419.7407022319
 10
698.8855277402
 20
424.3917782536
 10
695.6531094765
 20
428.9691484914
 10
692.2832654485
 20
433.470742338
 10
688.7790807403
 20
437.8944891857
 10
685.1436404356
 20
442.2383184272
 10
681.3800296184
 20
446.5001594551
 10
677.4913226334
 20
450.6780096676
 10
673.4805219436
 20
454.7703216551
 10
669.1510169286
 20
458.9642781099
 10
664.6941943275
 20
463.0612989569
 10
660.1134722489
 20
467.0598205099
 10
655.4122688012
 20
470.9582790829
 10
650.5940020929
 20
474.75511099
 10
645.6620902324
 20
478.4487525449
 10
640.1683823092
 20
482.3503863017
 10
634.548490841
 20
486.1266349605
 10
628.8068397802
 20
489.7762359827
 10
622.947853079
 20
493.2979268294
 10
616.9759546899
 20
496.690444962
 10
611.0050726003
 20
499.8954274808
 10
604.9337339047
 20
502.9733954524
 10
598.7661297648
 20
505.9231527735
 10
592.5064513425
 20
508.7435033407
 10
586.0284620495
 20
511.4867755938
 10
579.463419003
 20
514.0927890268
 10
572.815775239
 20
516.5602728009
 10
566.0899837935
 20
518.8879560773
 10
559.2904977023
 20
521.0745680172
 10
552.4217891753
 20
523.1188851041
 10
545.488525249
 20
525.0201646707
 10
538.4954864956
 20
526.7779442649
 10
531.4474549012
 20
528.3917649246
 10
524.3492124521
 20
529.8611676876
 10
517.2055411344
 20
531.1856935918
 10
510.0212229343
 20
532.3648836749
 10
502.8010398378
 20
533.3982789749
 10
495.5497738313
 20
534.2854205294
 10
487.5431877635
 20
535.0918053921
 10
479.5111424013
 20
535.720057
 10
471.4600025683
 20
536.1695644745
 10
463.3961330882
 20
536.4397169369
 10
455.3258987845
 20
536.5299035085
 10
448.0051587502
 20
536.4556862556
 10
440.6891694701
 20
536.2333384734
 10
433.3826816983
 20
535.8633161265
 10
426.0904461889
 20
535.3460751795
 10
418.817213696
 20
534.6820715969
 10
411.6969541257
 20
533.8875115103
 10
404.6041083188
 20
532.9522553085
 10
397.5431770424
 20
531.8767349633
 10
390.5186610637
 20
530.6613824461
 10
383.3929962951
 20
529.2775332623
 10
376.3147166623
 20
527.7489949769
 10
369.2886041512
 20
526.076226552
 10
362.3194407482
 20
524.2596869499
 10
355.4120084393
 20
522.2998351328
 10
348.5710700371
 20
520.197177385
 10
341.801193527
 20
517.9527008403
 10
335.106833359
 20
515.5676728477
 10
328.4924425691
 20
513.0433642461
 10
321.9624741932
 20
510.3810458741
 10
315.5213812673
 20
507.5819885707
 10
309.1736168275
 20
504.6474631747
 10
302.9236339095
 20
501.5787405248
 10
296.7758855495
 20
498.3770914599
 10
291.2340629774
 20
495.3265597062
 10
285.7853175912
 20
492.166379567
 10
280.4330793625
 20
488.8975299118
 10
275.1807782628
 20
485.5209896101
 10
270.0318442636
 20
482.0377375313
 10
264.9897073365
 20
478.4487525449
 10
259.6266043607
 20
474.4231219444
 10
254.3985175336
 20
470.2753856155
 10
249.3098555068
 20
466.0075603891
 10
244.3650269317
 20
461.6216630961
 10
239.5684404597
 20
457.1197105675
 10
235.0060680078
 20
452.5871363761
 10
230.5951198406
 20
447.9464709199
 10
226.3397884043
 20
443.1997248304
 10
222.2443676971
 20
438.3495518202
 10
218.7264024305
 20
433.9340117118
 10
215.342457316
 20
429.4404094766
 10
212.0956174375
 20
424.8708157221
 10
208.9889678789
 20
420.2273010556
 10
206.025593724
 20
415.5119360846
 10
203.2085800567
 20
410.7267914166
 10
200.5409592023
 20
405.8741381115
 10
198.0255168008
 20
400.9571844872
 10
195.6649664529
 20
395.9794125706
 10
193.4620217505
 20
390.9443044213
 10
191.4193962854
 20
385.8553420992
 10
189.5398036495
 20
380.7160076638
 10
187.8259574348
 20
375.529783175
 10
186.280571233
 20
370.3001506925
 10
184.9062099155
 20
365.0307228493
 10
183.7044429018
 20
359.7259862633
 10
182.6318318405
 20
354.1360517989
 10
181.7512512663
 20
348.5182558828
 10
181.0640344264
 20
342.8781708053
 10
180.5715145679
 20
337.2213688569
 10
180.2750249382
 20
331.5534223279
 10
180.1758987845
 20
325.8799035085
  0
LINE
  5
CA
330
1F
100
AcDbEntity
  8
G__TOTO
100
AcDbLine
 10
356.5729431791
 20
579.7393722097
 30
0.0
 11
735.2188697539
 21
579.7393722097
 31
0.0
  0
LINE
  5
CB
330
1F
100
AcDbEntity
  8
0
  6
SLD-Solid
 62
     7
370
     0
100
AcDbLine
 10
10.8258987845
 20
667.9516697496
 30
0.0
 11
899.8258987845
 21
667.9516697496
 31
0.0
  0
LINE
  5
CC
330
1F
100
AcDbEntity
  8
0
  6
SLD-Solid
 62
     7
370
     0
100
AcDbLine
 10
10.8258987845
 20
667.9516697496
 30
0.0
 11
10.8258987845
 21
83.9516697496
 31
0.0
  0
LINE
  5
CD
330
1F
100
AcDbEntity
  8
0
  6
SLD-Solid
 62
     7
370
     0
100
AcDbLine
 10
10.8258987845
 20
83.9516697496
 30
0.0
 11
899.8258987845
 21
83.9516697496
 31
0.0
  0
LINE
  5
CE
330
1F
100
AcDbEntity
  8
0
  6
SLD-Solid
 62
     7
370
     0
100
AcDbLine
 10
899.8258987845
 20
667.9516697496
 30
0.0
 11
899.8258987845
 21
83.9516697496
 31
0.0
  0
LINE
  5
CF
330
1F
100
AcDbEntity
  8
G__TOTO
100
AcDbLine
 10
80.5669842236
 20
630.6799035085
 30
0.0
 11
800.6989923947
 21
630.6799035085
 31
0.0
  0
LINE
  5
D0
330
1F
100
AcDbEntity
  8
FORMAT
100
AcDbLine
 10
62.5020098737
 20
126.2174295802
 30
0.0
 11
64.3220045842
 21
126.2174295802
 31
0.0
  0
LINE
  5
D1
330
1F
100
AcDbEntity
  8
FORMAT
100
AcDbLine
 10
68.3924422352
 20
122.1461350851
 30
0.0
 11
68.3922115084
 21
121.0499519175
 31
0.0
  0
LINE
  5
D2
330
1F
100
AcDbEntity
  8
FORMAT
100
AcDbLine
 10
68.3922115084
 20
121.0499519175
 30
0.0
 11
70.8041007879
 21
121.0499519175
 31
0.0
  0
LINE
  5
D3
330
1F
100
AcDbEntity
  8
FORMAT
100
AcDbLine
 10
70.8041007879
 20
121.0499519175
 30
0.0
 11
70.8056961083
 21
128.6293188063
 31
0.0
  0
LINE
  5
D4
330
1F
100
AcDbEntity
  8
FORMAT
100
AcDbLine
 10
70.8056961083
 20
128.6293188063
 30
0.0
 11
49.3060517337
 21
128.6293188063
 31
0.0
  0
LINE
  5
D5
330
1F
100
AcDbEntity
  8
FORMAT
100
AcDbLine
 10
49.3060517337
 20
128.6293188063
 30
0.0
 11
49.3058947084
 21
121.0499519175
 31
0.0
  0
LINE
  5
D6
330
1F
100
AcDbEntity
  8
FORMAT
100
AcDbLine
 10
49.3058947084
 20
121.0499519175
 30
0.0
 11
51.7173042461
 21
121.0499519175
 31
0.0
  0
LINE
  5
D7
330
1F
100
AcDbEntity
  8
FORMAT
100
AcDbLine
 10
51.7173042461
 20
121.0499519175
 30
0.0
 11
51.7175353336
 21
122.1478485928
 31
0.0
  0
LINE
  5
D8
330
1F
100
AcDbEntity
  8
FORMAT
100
AcDbLine
 10
55.7879729846
 20
126.2174295801
 30
0.0
 11
57.6097912011
 21
126.2174295801
 31
0.0
  0
LINE
  5
D9
330
1F
100
AcDbEntity
  8
FORMAT
100
AcDbLine
 10
57.6097912011
 20
126.2174295801
 30
0.0
 11
57.606820514
 21
112.5740392265
 31
0.0
  0
LINE
  5
DA
330
1F
100
AcDbEntity
  8
FORMAT
100
AcDbLine
 10
56.0906474345
 20
111.0581962399
 30
0.0
 11
53.5065784131
 21
111.0581962399
 31
0.0
  0
LINE
  5
DB
330
1F
100
AcDbEntity
  8
FORMAT
100
AcDbLine
 10
53.5065784131
 20
111.0581962399
 30
0.0
 11
53.5060532527
 21
108.6463070137
 31
0.0
  0
LINE
  5
DC
330
1F
100
AcDbEntity
  8
FORMAT
100
AcDbLine
 10
53.5060532527
 20
108.6463070137
 30
0.0
 11
66.5980960132
 21
108.6463070137
 31
0.0
  0
LINE
  5
DD
330
1F
100
AcDbEntity
  8
FORMAT
100
AcDbLine
 10
66.5980960132
 20
108.6463070137
 30
0.0
 11
66.5986211736
 21
111.0581962399
 31
0.0
  0
LINE
  5
DE
330
1F
100
AcDbEntity
  8
FORMAT
100
AcDbLine
 10
66.5986211736
 20
111.0581962399
 30
0.0
 11
64.0152124098
 21
111.0581962399
 31
0.0
  0
LINE
  5
DF
330
1F
100
AcDbEntity
  8
FORMAT
100
AcDbLine
 10
62.4990393303
 20
112.5746994841
 30
0.0
 11
62.5020098737
 21
126.2174295802
 31
0.0
  0
LINE
  5
E0
330
1F
100
AcDbEntity
  8
FORMAT
100
AcDbLine
 10
114.0524789419
 20
126.2174295802
 30
0.0
 11
115.8724736524
 21
126.2174295802
 31
0.0
  0
LINE
  5
E1
330
1F
100
AcDbEntity
  8
FORMAT
100
AcDbLine
 10
119.9429113034
 20
122.1461350851
 30
0.0
 11
119.9426805766
 21
121.0499519175
 31
0.0
  0
LINE
  5
E2
330
1F
100
AcDbEntity
  8
FORMAT
100
AcDbLine
 10
119.9426805766
 20
121.0499519175
 30
0.0
 11
122.3545698561
 21
121.0499519175
 31
0.0
  0
LINE
  5
E3
330
1F
100
AcDbEntity
  8
FORMAT
100
AcDbLine
 10
122.3545698561
 20
121.0499519175
 30
0.0
 11
122.3561651765
 21
128.6293188063
 31
0.0
  0
LINE
  5
E4
330
1F
100
AcDbEntity
  8
FORMAT
100
AcDbLine
 10
122.3561651765
 20
128.6293188063
 30
0.0
 11
100.8565208019
 21
128.6293188063
 31
0.0
  0
LINE
  5
E5
330
1F
100
AcDbEntity
  8
FORMAT
100
AcDbLine
 10
100.8565208019
 20
128.6293188063
 30
0.0
 11
100.8563637767
 21
121.0499519175
 31
0.0
  0
LINE
  5
E6
330
1F
100
AcDbEntity
  8
FORMAT
100
AcDbLine
 10
100.8563637767
 20
121.0499519175
 30
0.0
 11
103.2677733143
 21
121.0499519175
 31
0.0
  0
LINE
  5
E7
330
1F
100
AcDbEntity
  8
FORMAT
100
AcDbLine
 10
103.2677733143
 20
121.0499519175
 30
0.0
 11
103.2680044018
 21
122.1478485928
 31
0.0
  0
LINE
  5
E8
330
1F
100
AcDbEntity
  8
FORMAT
100
AcDbLine
 10
107.3384420528
 20
126.2174295801
 30
0.0
 11
109.1602602693
 21
126.2174295801
 31
0.0
  0
LINE
  5
E9
330
1F
100
AcDbEntity
  8
FORMAT
100
AcDbLine
 10
109.1602602693
 20
126.2174295801
 30
0.0
 11
109.1572895822
 21
112.5740392265
 31
0.0
  0
LINE
  5
EA
330
1F
100
AcDbEntity
  8
FORMAT
100
AcDbLine
 10
107.6411165027
 20
111.0581962399
 30
0.0
 11
105.0570474813
 21
111.0581962399
 31
0.0
  0
LINE
  5
EB
330
1F
100
AcDbEntity
  8
FORMAT
100
AcDbLine
 10
105.0570474813
 20
111.0581962399
 30
0.0
 11
105.0565223209
 21
108.6463070137
 31
0.0
  0
LINE
  5
EC
330
1F
100
AcDbEntity
  8
FORMAT
100
AcDbLine
 10
105.0565223209
 20
108.6463070137
 30
0.0
 11
118.1485650814
 21
108.6463070137
 31
0.0
  0
LINE
  5
ED
330
1F
100
AcDbEntity
  8
FORMAT
100
AcDbLine
 10
118.1485650814
 20
108.6463070137
 30
0.0
 11
118.1490902418
 21
111.0581962399
 31
0.0
  0
LINE
  5
EE
330
1F
100
AcDbEntity
  8
FORMAT
100
AcDbLine
 10
118.1490902418
 20
111.0581962399
 30
0.0
 11
115.565681478
 21
111.0581962399
 31
0.0
  0
LINE
  5
EF
330
1F
100
AcDbEntity
  8
FORMAT
100
AcDbLine
 10
114.0495083985
 20
112.5746994841
 30
0.0
 11
114.0524789419
 21
126.2174295802
 31
0.0
  0
LINE
  5
F0
330
1F
100
AcDbEntity
  8
FORMAT
100
AcDbLine
 10
152.2687861867
 20
127.8574005027
 30
0.0
 11
152.2849491966
 21
127.8571790623
 31
0.0
  0
LINE
  5
F1
330
1F
100
AcDbEntity
  8
FORMAT
100
AcDbLine
 10
152.2849491966
 20
127.8571790623
 30
0.0
 11
152.3181616898
 21
127.8560718606
 31
0.0
  0
LINE
  5
F2
330
1F
100
AcDbEntity
  8
FORMAT
100
AcDbLine
 10
152.3181616898
 20
127.8560718606
 30
0.0
 11
152.3502669812
 21
127.8536367287
 31
0.0
  0
LINE
  5
F3
330
1F
100
AcDbEntity
  8
FORMAT
100
AcDbLine
 10
152.3502669812
 20
127.8536367287
 30
0.0
 11
152.3817072395
 21
127.850093683
 31
0.0
  0
LINE
  5
F4
330
1F
100
AcDbEntity
  8
FORMAT
100
AcDbLine
 10
152.3817072395
 20
127.850093683
 30
0.0
 11
152.4120410081
 21
127.8452227072
 31
0.0
  0
LINE
  5
F5
330
1F
100
AcDbEntity
  8
FORMAT
100
AcDbLine
 10
152.4120410081
 20
127.8452227072
 30
0.0
 11
152.4417111676
 21
127.8390230893
 31
0.0
  0
LINE
  5
F6
330
1F
100
AcDbEntity
  8
FORMAT
100
AcDbLine
 10
152.4417111676
 20
127.8390230893
 30
0.0
 11
152.4704948537
 21
127.8319377099
 31
0.0
  0
LINE
  5
F7
330
1F
100
AcDbEntity
  8
FORMAT
100
AcDbLine
 10
152.4704948537
 20
127.8319377099
 30
0.0
 11
152.498171338
 21
127.8233022481
 31
0.0
  0
LINE
  5
F8
330
1F
100
AcDbEntity
  8
FORMAT
100
AcDbLine
 10
152.498171338
 20
127.8233022481
 30
0.0
 11
152.5251842132
 21
127.8135602965
 31
0.0
  0
LINE
  5
F9
330
1F
100
AcDbEntity
  8
FORMAT
100
AcDbLine
 10
152.5251842132
 20
127.8135602965
 30
0.0
 11
152.5513113271
 21
127.8027111431
 31
0.0
  0
LINE
  5
FA
330
1F
100
AcDbEntity
  8
FORMAT
100
AcDbLine
 10
152.5513113271
 20
127.8027111431
 30
0.0
 11
152.5765526795
 21
127.7905333476
 31
0.0
  0
LINE
  5
FB
330
1F
100
AcDbEntity
  8
FORMAT
100
AcDbLine
 10
152.5765526795
 20
127.7905333476
 30
0.0
 11
152.6009082705
 21
127.7772483504
 31
0.0
  0
LINE
  5
FC
330
1F
100
AcDbEntity
  8
FORMAT
100
AcDbLine
 10
152.6009082705
 20
127.7772483504
 30
0.0
 11
152.6241566597
 21
127.762634711
 31
0.0
  0
LINE
  5
FD
330
1F
100
AcDbEntity
  8
FORMAT
100
AcDbLine
 10
152.6241566597
 20
127.762634711
 30
0.0
 11
152.6467407278
 21
127.7469145818
 31
0.0
  0
LINE
  5
FE
330
1F
100
AcDbEntity
  8
FORMAT
100
AcDbLine
 10
152.6467407278
 20
127.7469145818
 30
0.0
 11
152.6684397466
 21
127.7298658105
 31
0.0
  0
LINE
  5
FF
330
1F
100
AcDbEntity
  8
FORMAT
100
AcDbLine
 10
152.6684397466
 20
127.7298658105
 30
0.0
 11
152.6865957197
 21
127.7134806483
 31
0.0
  0
LINE
  5
100
330
1F
100
AcDbEntity
  8
FORMAT
100
AcDbLine
 10
152.6865957197
 20
127.7134806483
 30
0.0
 11
152.7067439439
 21
127.6931109837
 31
0.0
  0
LINE
  5
101
330
1F
100
AcDbEntity
  8
FORMAT
100
AcDbLine
 10
152.7067439439
 20
127.6931109837
 30
0.0
 11
152.7251213573
 21
127.6716334053
 31
0.0
  0
LINE
  5
102
330
1F
100
AcDbEntity
  8
FORMAT
100
AcDbLine
 10
152.7251213573
 20
127.6716334053
 30
0.0
 11
152.7419494003
 21
127.6492707775
 31
0.0
  0
LINE
  5
103
330
1F
100
AcDbEntity
  8
FORMAT
100
AcDbLine
 10
152.7419494003
 20
127.6492707775
 30
0.0
 11
152.7572266487
 21
127.6258009479
 31
0.0
  0
LINE
  5
104
330
1F
100
AcDbEntity
  8
FORMAT
100
AcDbLine
 10
152.7572266487
 20
127.6258009479
 30
0.0
 11
152.7709545267
 21
127.6014453569
 31
0.0
  0
LINE
  5
105
330
1F
100
AcDbEntity
  8
FORMAT
100
AcDbLine
 10
152.7709545267
 20
127.6014453569
 30
0.0
 11
152.7829108819
 21
127.5759825641
 31
0.0
  0
LINE
  5
106
330
1F
100
AcDbEntity
  8
FORMAT
100
AcDbLine
 10
152.7829108819
 20
127.5759825641
 30
0.0
 11
152.7933171545
 21
127.5494125696
 31
0.0
  0
LINE
  5
107
330
1F
100
AcDbEntity
  8
FORMAT
100
AcDbLine
 10
152.7933171545
 20
127.5494125696
 30
0.0
 11
152.8021740567
 21
127.5219575256
 31
0.0
  0
LINE
  5
108
330
1F
100
AcDbEntity
  8
FORMAT
100
AcDbLine
 10
152.8021740567
 20
127.5219575256
 30
0.0
 11
152.8092594361
 21
127.4936160082
 31
0.0
  0
LINE
  5
109
330
1F
100
AcDbEntity
  8
FORMAT
100
AcDbLine
 10
152.8092594361
 20
127.4936160082
 30
0.0
 11
152.8150161733
 21
127.4639465607
 31
0.0
  0
LINE
  5
10A
330
1F
100
AcDbEntity
  8
FORMAT
100
AcDbLine
 10
152.8150161733
 20
127.4639465607
 30
0.0
 11
152.8190013876
 21
127.4336127922
 31
0.0
  0
LINE
  5
10B
330
1F
100
AcDbEntity
  8
FORMAT
100
AcDbLine
 10
152.8190013876
 20
127.4336127922
 30
0.0
 11
152.8214372315
 21
127.4019503815
 31
0.0
  0
LINE
  5
10C
330
1F
100
AcDbEntity
  8
FORMAT
100
AcDbLine
 10
152.8214372315
 20
127.4019503815
 30
0.0
 11
152.8221015526
 21
127.3694029214
 31
0.0
  0
LINE
  5
10D
330
1F
100
AcDbEntity
  8
FORMAT
100
AcDbLine
 10
152.8221015526
 20
127.3694029214
 30
0.0
 11
152.8218801123
 21
127.3457109394
 31
0.0
  0
LINE
  5
10E
330
1F
100
AcDbEntity
  8
FORMAT
100
AcDbLine
 10
152.8218801123
 20
127.3457109394
 30
0.0
 11
152.8209943508
 21
127.3116133968
 31
0.0
  0
LINE
  5
10F
330
1F
100
AcDbEntity
  8
FORMAT
100
AcDbLine
 10
152.8209943508
 20
127.3116133968
 30
0.0
 11
152.8190013876
 21
127.278622344
 31
0.0
  0
LINE
  5
110
330
1F
100
AcDbEntity
  8
FORMAT
100
AcDbLine
 10
152.8190013876
 20
127.278622344
 30
0.0
 11
152.8159019347
 21
127.246739205
 31
0.0
  0
LINE
  5
111
330
1F
100
AcDbEntity
  8
FORMAT
100
AcDbLine
 10
152.8159019347
 20
127.246739205
 30
0.0
 11
152.8121374486
 21
127.2157411154
 31
0.0
  0
LINE
  5
112
330
1F
100
AcDbEntity
  8
FORMAT
100
AcDbLine
 10
152.8121374486
 20
127.2157411154
 30
0.0
 11
152.8074879132
 21
127.1856287872
 31
0.0
  0
LINE
  5
113
330
1F
100
AcDbEntity
  8
FORMAT
100
AcDbLine
 10
152.8074879132
 20
127.1856287872
 30
0.0
 11
152.801731176
 21
127.156844389
 31
0.0
  0
LINE
  5
114
330
1F
100
AcDbEntity
  8
FORMAT
100
AcDbLine
 10
152.801731176
 20
127.156844389
 30
0.0
 11
152.7953101177
 21
127.128725024
 31
0.0
  0
LINE
  5
115
330
1F
100
AcDbEntity
  8
FORMAT
100
AcDbLine
 10
152.7953101177
 20
127.128725024
 30
0.0
 11
152.7877818577
 21
127.1019335891
 31
0.0
  0
LINE
  5
116
330
1F
100
AcDbEntity
  8
FORMAT
100
AcDbLine
 10
152.7877818577
 20
127.1019335891
 30
0.0
 11
152.7793685482
 21
127.0760279157
 31
0.0
  0
LINE
  5
117
330
1F
100
AcDbEntity
  8
FORMAT
100
AcDbLine
 10
152.7793685482
 20
127.0760279157
 30
0.0
 11
152.7700687653
 21
127.0510080036
 31
0.0
  0
LINE
  5
118
330
1F
100
AcDbEntity
  8
FORMAT
100
AcDbLine
 10
152.7700687653
 20
127.0510080036
 30
0.0
 11
152.759883933
 21
127.0273167337
 31
0.0
  0
LINE
  5
119
330
1F
100
AcDbEntity
  8
FORMAT
100
AcDbLine
 10
152.759883933
 20
127.0273167337
 30
0.0
 11
152.7488133393
 21
127.0042897848
 31
0.0
  0
LINE
  5
11A
330
1F
100
AcDbEntity
  8
FORMAT
100
AcDbLine
 10
152.7488133393
 20
127.0042897848
 30
0.0
 11
152.7366348318
 21
126.9825914781
 31
0.0
  0
LINE
  5
11B
330
1F
100
AcDbEntity
  8
FORMAT
100
AcDbLine
 10
152.7366348318
 20
126.9825914781
 30
0.0
 11
152.7237934272
 21
126.9617782208
 31
0.0
  0
LINE
  5
11C
330
1F
100
AcDbEntity
  8
FORMAT
100
AcDbLine
 10
152.7237934272
 20
126.9617782208
 30
0.0
 11
152.7098441089
 21
126.9418507248
 31
0.0
  0
LINE
  5
11D
330
1F
100
AcDbEntity
  8
FORMAT
100
AcDbLine
 10
152.7098441089
 20
126.9418507248
 30
0.0
 11
152.6952304695
 21
126.9230304307
 31
0.0
  0
LINE
  5
11E
330
1F
100
AcDbEntity
  8
FORMAT
100
AcDbLine
 10
152.6952304695
 20
126.9230304307
 30
0.0
 11
152.6795103403
 21
126.9053173384
 31
0.0
  0
LINE
  5
11F
330
1F
100
AcDbEntity
  8
FORMAT
100
AcDbLine
 10
152.6795103403
 20
126.9053173384
 30
0.0
 11
152.6629044497
 21
126.8887114478
 31
0.0
  0
LINE
  5
120
330
1F
100
AcDbEntity
  8
FORMAT
100
AcDbLine
 10
152.6629044497
 20
126.8887114478
 30
0.0
 11
152.6454120857
 21
126.8727698783
 31
0.0
  0
LINE
  5
121
330
1F
100
AcDbEntity
  8
FORMAT
100
AcDbLine
 10
152.6454120857
 20
126.8727698783
 30
0.0
 11
152.6270346723
 21
126.8581562388
 31
0.0
  0
LINE
  5
122
330
1F
100
AcDbEntity
  8
FORMAT
100
AcDbLine
 10
152.6270346723
 20
126.8581562388
 30
0.0
 11
152.6075507691
 21
126.8444283609
 31
0.0
  0
LINE
  5
123
330
1F
100
AcDbEntity
  8
FORMAT
100
AcDbLine
 10
152.6075507691
 20
126.8444283609
 30
0.0
 11
152.5874018328
 21
126.8318076847
 31
0.0
  0
LINE
  5
124
330
1F
100
AcDbEntity
  8
FORMAT
100
AcDbLine
 10
152.5874018328
 20
126.8318076847
 30
0.0
 11
152.5661456948
 21
126.8200727699
 31
0.0
  0
LINE
  5
125
330
1F
100
AcDbEntity
  8
FORMAT
100
AcDbLine
 10
152.5661456948
 20
126.8200727699
 30
0.0
 11
152.5442259477
 21
126.8094450569
 31
0.0
  0
LINE
  5
126
330
1F
100
AcDbEntity
  8
FORMAT
100
AcDbLine
 10
152.5442259477
 20
126.8094450569
 30
0.0
 11
152.5211989989
 21
126.7997023933
 31
0.0
  0
LINE
  5
127
330
1F
100
AcDbEntity
  8
FORMAT
100
AcDbLine
 10
152.5211989989
 20
126.7997023933
 30
0.0
 11
152.4972862886
 21
126.7910676434
 31
0.0
  0
LINE
  5
128
330
1F
100
AcDbEntity
  8
FORMAT
100
AcDbLine
 10
152.4972862886
 20
126.7910676434
 30
0.0
 11
152.4724878169
 21
126.7835393834
 31
0.0
  0
LINE
  5
129
330
1F
100
AcDbEntity
  8
FORMAT
100
AcDbLine
 10
152.4724878169
 20
126.7835393834
 30
0.0
 11
152.4468035837
 21
126.7768968847
 31
0.0
  0
LINE
  5
12A
330
1F
100
AcDbEntity
  8
FORMAT
100
AcDbLine
 10
152.4468035837
 20
126.7768968847
 30
0.0
 11
152.4200121488
 21
126.7713615879
 31
0.0
  0
LINE
  5
12B
330
1F
100
AcDbEntity
  8
FORMAT
100
AcDbLine
 10
152.4200121488
 20
126.7713615879
 30
0.0
 11
152.3925571049
 21
126.7667120524
 31
0.0
  0
LINE
  5
12C
330
1F
100
AcDbEntity
  8
FORMAT
100
AcDbLine
 10
152.3925571049
 20
126.7667120524
 30
0.0
 11
152.3639941472
 21
126.7631690068
 31
0.0
  0
LINE
  5
12D
330
1F
100
AcDbEntity
  8
FORMAT
100
AcDbLine
 10
152.3639941472
 20
126.7631690068
 30
0.0
 11
152.3347675804
 21
126.7607338749
 31
0.0
  0
LINE
  5
12E
330
1F
100
AcDbEntity
  8
FORMAT
100
AcDbLine
 10
152.3347675804
 20
126.7607338749
 30
0.0
 11
152.3044338118
 21
126.7591837924
 31
0.0
  0
LINE
  5
12F
330
1F
100
AcDbEntity
  8
FORMAT
100
AcDbLine
 10
152.3044338118
 20
126.7591837924
 30
0.0
 11
152.2732142818
 21
126.7585194713
 31
0.0
  0
LINE
  5
130
330
1F
100
AcDbEntity
  8
FORMAT
100
AcDbLine
 10
152.2732142818
 20
126.7585194713
 30
0.0
 11
151.1973609114
 21
126.7585194713
 31
0.0
  0
LINE
  5
131
330
1F
100
AcDbEntity
  8
FORMAT
100
AcDbLine
 10
151.1973609114
 20
126.7585194713
 30
0.0
 11
151.1973609114
 21
127.8574005027
 31
0.0
  0
LINE
  5
132
330
1F
100
AcDbEntity
  8
FORMAT
100
AcDbLine
 10
151.1973609114
 20
127.8574005027
 30
0.0
 11
152.2687861867
 21
127.8574005027
 31
0.0
  0
LINE
  5
133
330
1F
100
AcDbEntity
  8
FORMAT
100
AcDbLine
 10
152.9119956565
 20
126.532898094
 30
0.0
 11
152.8825476494
 21
126.5548178411
 31
0.0
  0
LINE
  5
134
330
1F
100
AcDbEntity
  8
FORMAT
100
AcDbLine
 10
152.8825476494
 20
126.5548178411
 30
0.0
 11
152.851106679
 21
126.5774026213
 31
0.0
  0
LINE
  5
135
330
1F
100
AcDbEntity
  8
FORMAT
100
AcDbLine
 10
152.851106679
 20
126.5774026213
 30
0.0
 11
152.8178941859
 21
126.6004295701
 31
0.0
  0
LINE
  5
136
330
1F
100
AcDbEntity
  8
FORMAT
100
AcDbLine
 10
152.8178941859
 20
126.6004295701
 30
0.0
 11
152.8373788011
 21
126.6146003288
 31
0.0
  0
LINE
  5
137
330
1F
100
AcDbEntity
  8
FORMAT
100
AcDbLine
 10
152.8373788011
 20
126.6146003288
 30
0.0
 11
152.8643916764
 21
126.6351914338
 31
0.0
  0
LINE
  5
138
330
1F
100
AcDbEntity
  8
FORMAT
100
AcDbLine
 10
152.8643916764
 20
126.6351914338
 30
0.0
 11
152.8902966378
 21
126.6557832507
 31
0.0
  0
LINE
  5
139
330
1F
100
AcDbEntity
  8
FORMAT
100
AcDbLine
 10
152.8902966378
 20
126.6557832507
 30
0.0
 11
152.9153165499
 21
126.6768179484
 31
0.0
  0
LINE
  5
13A
330
1F
100
AcDbEntity
  8
FORMAT
100
AcDbLine
 10
152.9153165499
 20
126.6768179484
 30
0.0
 11
152.9394507005
 21
126.6980733745
 31
0.0
  0
LINE
  5
13B
330
1F
100
AcDbEntity
  8
FORMAT
100
AcDbLine
 10
152.9394507005
 20
126.6980733745
 30
0.0
 11
152.9626998017
 21
126.7195509528
 31
0.0
  0
LINE
  5
13C
330
1F
100
AcDbEntity
  8
FORMAT
100
AcDbLine
 10
152.9626998017
 20
126.7195509528
 30
0.0
 11
152.9848409892
 21
126.7412492596
 31
0.0
  0
LINE
  5
13D
330
1F
100
AcDbEntity
  8
FORMAT
100
AcDbLine
 10
152.9848409892
 20
126.7412492596
 30
0.0
 11
153.0060971272
 21
126.763390447
 31
0.0
  0
LINE
  5
13E
330
1F
100
AcDbEntity
  8
FORMAT
100
AcDbLine
 10
153.0060971272
 20
126.763390447
 30
0.0
 11
153.0264667918
 21
126.7857537868
 31
0.0
  0
LINE
  5
13F
330
1F
100
AcDbEntity
  8
FORMAT
100
AcDbLine
 10
153.0264667918
 20
126.7857537868
 30
0.0
 11
153.045951407
 21
126.808337855
 31
0.0
  0
LINE
  5
140
330
1F
100
AcDbEntity
  8
FORMAT
100
AcDbLine
 10
153.045951407
 20
126.808337855
 30
0.0
 11
153.0643288204
 21
126.8311433635
 31
0.0
  0
LINE
  5
141
330
1F
100
AcDbEntity
  8
FORMAT
100
AcDbLine
 10
153.0643288204
 20
126.8311433635
 30
0.0
 11
153.0818204724
 21
126.8543924647
 31
0.0
  0
LINE
  5
142
330
1F
100
AcDbEntity
  8
FORMAT
100
AcDbLine
 10
153.0818204724
 20
126.8543924647
 30
0.0
 11
153.098426363
 21
126.877640854
 31
0.0
  0
LINE
  5
143
330
1F
100
AcDbEntity
  8
FORMAT
100
AcDbLine
 10
153.098426363
 20
126.877640854
 30
0.0
 11
153.1139257639
 21
126.9013321239
 31
0.0
  0
LINE
  5
144
330
1F
100
AcDbEntity
  8
FORMAT
100
AcDbLine
 10
153.1139257639
 20
126.9013321239
 30
0.0
 11
153.1285394033
 21
126.9252448342
 31
0.0
  0
LINE
  5
145
330
1F
100
AcDbEntity
  8
FORMAT
100
AcDbLine
 10
153.1285394033
 20
126.9252448342
 30
0.0
 11
153.1422665692
 21
126.9496004252
 31
0.0
  0
LINE
  5
146
330
1F
100
AcDbEntity
  8
FORMAT
100
AcDbLine
 10
153.1422665692
 20
126.9496004252
 30
0.0
 11
153.1551086858
 21
126.9739560162
 31
0.0
  0
LINE
  5
147
330
1F
100
AcDbEntity
  8
FORMAT
100
AcDbLine
 10
153.1551086858
 20
126.9739560162
 30
0.0
 11
153.1668436006
 21
126.9987544879
 31
0.0
  0
LINE
  5
148
330
1F
100
AcDbEntity
  8
FORMAT
100
AcDbLine
 10
153.1668436006
 20
126.9987544879
 30
0.0
 11
153.177693466
 21
127.0237743999
 31
0.0
  0
LINE
  5
149
330
1F
100
AcDbEntity
  8
FORMAT
100
AcDbLine
 10
153.177693466
 20
127.0237743999
 30
0.0
 11
153.1876568579
 21
127.0490157523
 31
0.0
  0
LINE
  5
14A
330
1F
100
AcDbEntity
  8
FORMAT
100
AcDbLine
 10
153.1876568579
 20
127.0490157523
 30
0.0
 11
153.1967344884
 21
127.0746999855
 31
0.0
  0
LINE
  5
14B
330
1F
100
AcDbEntity
  8
FORMAT
100
AcDbLine
 10
153.1967344884
 20
127.0746999855
 30
0.0
 11
153.2047056292
 21
127.1003835066
 31
0.0
  0
LINE
  5
14C
330
1F
100
AcDbEntity
  8
FORMAT
100
AcDbLine
 10
153.2047056292
 20
127.1003835066
 30
0.0
 11
153.2117910085
 21
127.1265106204
 31
0.0
  0
LINE
  5
14D
330
1F
100
AcDbEntity
  8
FORMAT
100
AcDbLine
 10
153.2117910085
 20
127.1265106204
 30
0.0
 11
153.2179906265
 21
127.1528591746
 31
0.0
  0
LINE
  5
14E
330
1F
100
AcDbEntity
  8
FORMAT
100
AcDbLine
 10
153.2179906265
 20
127.1528591746
 30
0.0
 11
153.2230830426
 21
127.1796506095
 31
0.0
  0
LINE
  5
14F
330
1F
100
AcDbEntity
  8
FORMAT
100
AcDbLine
 10
153.2230830426
 20
127.1796506095
 30
0.0
 11
153.2275111377
 21
127.2064413324
 31
0.0
  0
LINE
  5
150
330
1F
100
AcDbEntity
  8
FORMAT
100
AcDbLine
 10
153.2275111377
 20
127.2064413324
 30
0.0
 11
153.2306113027
 21
127.233675648
 31
0.0
  0
LINE
  5
151
330
1F
100
AcDbEntity
  8
FORMAT
100
AcDbLine
 10
153.2306113027
 20
127.233675648
 30
0.0
 11
153.2330464346
 21
127.2611306919
 31
0.0
  0
LINE
  5
152
330
1F
100
AcDbEntity
  8
FORMAT
100
AcDbLine
 10
153.2330464346
 20
127.2611306919
 30
0.0
 11
153.2345965171
 21
127.2888078883
 31
0.0
  0
LINE
  5
153
330
1F
100
AcDbEntity
  8
FORMAT
100
AcDbLine
 10
153.2345965171
 20
127.2888078883
 30
0.0
 11
153.2350393978
 21
127.3167058129
 31
0.0
  0
LINE
  5
154
330
1F
100
AcDbEntity
  8
FORMAT
100
AcDbLine
 10
153.2350393978
 20
127.3167058129
 30
0.0
 11
153.2348179574
 21
127.3428329268
 31
0.0
  0
LINE
  5
155
330
1F
100
AcDbEntity
  8
FORMAT
100
AcDbLine
 10
153.2348179574
 20
127.3428329268
 30
0.0
 11
153.233932196
 21
127.3789234325
 31
0.0
  0
LINE
  5
156
330
1F
100
AcDbEntity
  8
FORMAT
100
AcDbLine
 10
153.233932196
 20
127.3789234325
 30
0.0
 11
153.2323828255
 21
127.4143496173
 31
0.0
  0
LINE
  5
157
330
1F
100
AcDbEntity
  8
FORMAT
100
AcDbLine
 10
153.2323828255
 20
127.4143496173
 30
0.0
 11
153.230168422
 21
127.4486693122
 31
0.0
  0
LINE
  5
158
330
1F
100
AcDbEntity
  8
FORMAT
100
AcDbLine
 10
153.230168422
 20
127.4486693122
 30
0.0
 11
153.2272896974
 21
127.4825454144
 31
0.0
  0
LINE
  5
159
330
1F
100
AcDbEntity
  8
FORMAT
100
AcDbLine
 10
153.2272896974
 20
127.4825454144
 30
0.0
 11
153.2235259233
 21
127.5153150269
 31
0.0
  0
LINE
  5
15A
330
1F
100
AcDbEntity
  8
FORMAT
100
AcDbLine
 10
153.2235259233
 20
127.5153150269
 30
0.0
 11
153.2190978283
 21
127.5476410467
 31
0.0
  0
LINE
  5
15B
330
1F
100
AcDbEntity
  8
FORMAT
100
AcDbLine
 10
153.2190978283
 20
127.5476410467
 30
0.0
 11
153.2140054121
 21
127.5788605766
 31
0.0
  0
LINE
  5
15C
330
1F
100
AcDbEntity
  8
FORMAT
100
AcDbLine
 10
153.2140054121
 20
127.5788605766
 30
0.0
 11
153.2082486749
 21
127.6094157856
 31
0.0
  0
LINE
  5
15D
330
1F
100
AcDbEntity
  8
FORMAT
100
AcDbLine
 10
153.2082486749
 20
127.6094157856
 30
0.0
 11
153.2018276166
 21
127.6390859451
 31
0.0
  0
LINE
  5
15E
330
1F
100
AcDbEntity
  8
FORMAT
100
AcDbLine
 10
153.2018276166
 20
127.6390859451
 30
0.0
 11
153.1947422373
 21
127.6680910715
 31
0.0
  0
LINE
  5
15F
330
1F
100
AcDbEntity
  8
FORMAT
100
AcDbLine
 10
153.1947422373
 20
127.6680910715
 30
0.0
 11
153.1867710965
 21
127.6962104365
 31
0.0
  0
LINE
  5
160
330
1F
100
AcDbEntity
  8
FORMAT
100
AcDbLine
 10
153.1867710965
 20
127.6962104365
 30
0.0
 11
153.1781356346
 21
127.7234447521
 31
0.0
  0
LINE
  5
161
330
1F
100
AcDbEntity
  8
FORMAT
100
AcDbLine
 10
153.1781356346
 20
127.7234447521
 30
0.0
 11
153.1688365638
 21
127.7500140347
 31
0.0
  0
LINE
  5
162
330
1F
100
AcDbEntity
  8
FORMAT
100
AcDbLine
 10
153.1688365638
 20
127.7500140347
 30
0.0
 11
153.1588731718
 21
127.7759197081
 31
0.0
  0
LINE
  5
163
330
1F
100
AcDbEntity
  8
FORMAT
100
AcDbLine
 10
153.1588731718
 20
127.7759197081
 30
0.0
 11
153.1482447468
 21
127.8007181799
 31
0.0
  0
LINE
  5
164
330
1F
100
AcDbEntity
  8
FORMAT
100
AcDbLine
 10
153.1482447468
 20
127.8007181799
 30
0.0
 11
153.1367312724
 21
127.8248523305
 31
0.0
  0
LINE
  5
165
330
1F
100
AcDbEntity
  8
FORMAT
100
AcDbLine
 10
153.1367312724
 20
127.8248523305
 30
0.0
 11
153.1247749172
 21
127.8483221601
 31
0.0
  0
LINE
  5
166
330
1F
100
AcDbEntity
  8
FORMAT
100
AcDbLine
 10
153.1247749172
 20
127.8483221601
 30
0.0
 11
153.1119328007
 21
127.8709069402
 31
0.0
  0
LINE
  5
167
330
1F
100
AcDbEntity
  8
FORMAT
100
AcDbLine
 10
153.1119328007
 20
127.8709069402
 30
0.0
 11
153.098426363
 21
127.892605247
 31
0.0
  0
LINE
  5
168
330
1F
100
AcDbEntity
  8
FORMAT
100
AcDbLine
 10
153.098426363
 20
127.892605247
 30
0.0
 11
153.0842563164
 21
127.9136399447
 31
0.0
  0
LINE
  5
169
330
1F
100
AcDbEntity
  8
FORMAT
100
AcDbLine
 10
153.0842563164
 20
127.9136399447
 30
0.0
 11
153.0691997962
 21
127.9337881689
 31
0.0
  0
LINE
  5
16A
330
1F
100
AcDbEntity
  8
FORMAT
100
AcDbLine
 10
153.0691997962
 20
127.9337881689
 30
0.0
 11
153.0537011074
 21
127.9530513437
 31
0.0
  0
LINE
  5
16B
330
1F
100
AcDbEntity
  8
FORMAT
100
AcDbLine
 10
153.0537011074
 20
127.9530513437
 30
0.0
 11
153.0373159452
 21
127.9716501975
 31
0.0
  0
LINE
  5
16C
330
1F
100
AcDbEntity
  8
FORMAT
100
AcDbLine
 10
153.0373159452
 20
127.9716501975
 30
0.0
 11
153.0227030178
 21
127.986928158
 31
0.0
  0
LINE
  5
16D
330
1F
100
AcDbEntity
  8
FORMAT
100
AcDbLine
 10
153.0227030178
 20
127.986928158
 30
0.0
 11
153.0054328062
 21
128.0033126082
 31
0.0
  0
LINE
  5
16E
330
1F
100
AcDbEntity
  8
FORMAT
100
AcDbLine
 10
153.0054328062
 20
128.0033126082
 30
0.0
 11
152.9874982734
 21
128.0192548898
 31
0.0
  0
LINE
  5
16F
330
1F
100
AcDbEntity
  8
FORMAT
100
AcDbLine
 10
152.9874982734
 20
128.0192548898
 30
0.0
 11
152.9688994197
 21
128.0345321382
 31
0.0
  0
LINE
  5
170
330
1F
100
AcDbEntity
  8
FORMAT
100
AcDbLine
 10
152.9688994197
 20
128.0345321382
 30
0.0
 11
152.9494148045
 21
128.0491457776
 31
0.0
  0
LINE
  5
171
330
1F
100
AcDbEntity
  8
FORMAT
100
AcDbLine
 10
152.9494148045
 20
128.0491457776
 30
0.0
 11
152.9290444278
 21
128.0633158243
 31
0.0
  0
LINE
  5
172
330
1F
100
AcDbEntity
  8
FORMAT
100
AcDbLine
 10
152.9290444278
 20
128.0633158243
 30
0.0
 11
152.9080104422
 21
128.076822262
 31
0.0
  0
LINE
  5
173
330
1F
100
AcDbEntity
  8
FORMAT
100
AcDbLine
 10
152.9080104422
 20
128.076822262
 30
0.0
 11
152.8863114234
 21
128.0896643785
 31
0.0
  0
LINE
  5
174
330
1F
100
AcDbEntity
  8
FORMAT
100
AcDbLine
 10
152.8863114234
 20
128.0896643785
 30
0.0
 11
152.8637273553
 21
128.1020636144
 31
0.0
  0
LINE
  5
175
330
1F
100
AcDbEntity
  8
FORMAT
100
AcDbLine
 10
152.8637273553
 20
128.1020636144
 30
0.0
 11
152.840478966
 21
128.1137985292
 31
0.0
  0
LINE
  5
176
330
1F
100
AcDbEntity
  8
FORMAT
100
AcDbLine
 10
152.840478966
 20
128.1137985292
 30
0.0
 11
152.8163441034
 21
128.1248691229
 31
0.0
  0
LINE
  5
177
330
1F
100
AcDbEntity
  8
FORMAT
100
AcDbLine
 10
152.8163441034
 20
128.1248691229
 30
0.0
 11
152.7915463437
 21
128.1354975479
 31
0.0
  0
LINE
  5
178
330
1F
100
AcDbEntity
  8
FORMAT
100
AcDbLine
 10
152.7915463437
 20
128.1354975479
 30
0.0
 11
152.7658621106
 21
128.1452394995
 31
0.0
  0
LINE
  5
179
330
1F
100
AcDbEntity
  8
FORMAT
100
AcDbLine
 10
152.7658621106
 20
128.1452394995
 30
0.0
 11
152.7395135564
 21
128.1545385704
 31
0.0
  0
LINE
  5
17A
330
1F
100
AcDbEntity
  8
FORMAT
100
AcDbLine
 10
152.7395135564
 20
128.1545385704
 30
0.0
 11
152.7122792408
 21
128.1633954726
 31
0.0
  0
LINE
  5
17B
330
1F
100
AcDbEntity
  8
FORMAT
100
AcDbLine
 10
152.7122792408
 20
128.1633954726
 30
0.0
 11
152.6843813161
 21
128.1713666133
 31
0.0
  0
LINE
  5
17C
330
1F
100
AcDbEntity
  8
FORMAT
100
AcDbLine
 10
152.6843813161
 20
128.1713666133
 30
0.0
 11
152.65559763
 21
128.1788941614
 31
0.0
  0
LINE
  5
17D
330
1F
100
AcDbEntity
  8
FORMAT
100
AcDbLine
 10
152.65559763
 20
128.1788941614
 30
0.0
 11
152.6261496229
 21
128.1857581004
 31
0.0
  0
LINE
  5
17E
330
1F
100
AcDbEntity
  8
FORMAT
100
AcDbLine
 10
152.6261496229
 20
128.1857581004
 30
0.0
 11
152.5960365827
 21
128.1921791586
 31
0.0
  0
LINE
  5
17F
330
1F
100
AcDbEntity
  8
FORMAT
100
AcDbLine
 10
152.5960365827
 20
128.1921791586
 30
0.0
 11
152.5648177647
 21
128.1977144555
 31
0.0
  0
LINE
  5
180
330
1F
100
AcDbEntity
  8
FORMAT
100
AcDbLine
 10
152.5648177647
 20
128.1977144555
 30
0.0
 11
152.533155354
 21
128.203029024
 31
0.0
  0
LINE
  5
181
330
1F
100
AcDbEntity
  8
FORMAT
100
AcDbLine
 10
152.533155354
 20
128.203029024
 30
0.0
 11
152.5006071819
 21
128.2074571191
 31
0.0
  0
LINE
  5
182
330
1F
100
AcDbEntity
  8
FORMAT
100
AcDbLine
 10
152.5006071819
 20
128.2074571191
 30
0.0
 11
152.4673946887
 21
128.2112208931
 31
0.0
  0
LINE
  5
183
330
1F
100
AcDbEntity
  8
FORMAT
100
AcDbLine
 10
152.4673946887
 20
128.2112208931
 30
0.0
 11
152.4332971461
 21
128.2145424985
 31
0.0
  0
LINE
  5
184
330
1F
100
AcDbEntity
  8
FORMAT
100
AcDbLine
 10
152.4332971461
 20
128.2145424985
 30
0.0
 11
152.3983138421
 21
128.2174205111
 31
0.0
  0
LINE
  5
185
330
1F
100
AcDbEntity
  8
FORMAT
100
AcDbLine
 10
152.3983138421
 20
128.2174205111
 30
0.0
 11
152.3626662171
 21
128.2194134743
 31
0.0
  0
LINE
  5
186
330
1F
100
AcDbEntity
  8
FORMAT
100
AcDbLine
 10
152.3626662171
 20
128.2194134743
 30
0.0
 11
152.3263535589
 21
128.2209635567
 31
0.0
  0
LINE
  5
187
330
1F
100
AcDbEntity
  8
FORMAT
100
AcDbLine
 10
152.3263535589
 20
128.2209635567
 30
0.0
 11
152.2891558513
 21
128.2218486061
 31
0.0
  0
LINE
  5
188
330
1F
100
AcDbEntity
  8
FORMAT
100
AcDbLine
 10
152.2891558513
 20
128.2218486061
 30
0.0
 11
152.2512945347
 21
128.2220700465
 31
0.0
  0
LINE
  5
189
330
1F
100
AcDbEntity
  8
FORMAT
100
AcDbLine
 10
152.2512945347
 20
128.2220700465
 30
0.0
 11
150.7846437946
 21
128.2220700465
 31
0.0
  0
LINE
  5
18A
330
1F
100
AcDbEntity
  8
FORMAT
100
AcDbLine
 10
150.7846437946
 20
128.2220700465
 30
0.0
 11
150.7846437946
 21
125.018200493
 31
0.0
  0
LINE
  5
18B
330
1F
100
AcDbEntity
  8
FORMAT
100
AcDbLine
 10
150.7846437946
 20
125.018200493
 30
0.0
 11
151.1973609114
 21
125.018200493
 31
0.0
  0
LINE
  5
18C
330
1F
100
AcDbEntity
  8
FORMAT
100
AcDbLine
 10
151.1973609114
 20
125.018200493
 30
0.0
 11
151.1973609114
 21
126.3938499276
 31
0.0
  0
LINE
  5
18D
330
1F
100
AcDbEntity
  8
FORMAT
100
AcDbLine
 10
151.1973609114
 20
126.3938499276
 30
0.0
 11
152.2732142818
 21
126.3938499276
 31
0.0
  0
LINE
  5
18E
330
1F
100
AcDbEntity
  8
FORMAT
100
AcDbLine
 10
152.2732142818
 20
126.3938499276
 30
0.0
 11
152.2975698728
 21
126.3934070469
 31
0.0
  0
LINE
  5
18F
330
1F
100
AcDbEntity
  8
FORMAT
100
AcDbLine
 10
152.2975698728
 20
126.3934070469
 30
0.0
 11
152.3263535589
 21
126.3918569644
 31
0.0
  0
LINE
  5
190
330
1F
100
AcDbEntity
  8
FORMAT
100
AcDbLine
 10
152.3263535589
 20
126.3918569644
 30
0.0
 11
152.3544736359
 21
126.3891996801
 31
0.0
  0
LINE
  5
191
330
1F
100
AcDbEntity
  8
FORMAT
100
AcDbLine
 10
152.3544736359
 20
126.3891996801
 30
0.0
 11
152.3814857992
 21
126.3854359061
 31
0.0
  0
LINE
  5
192
330
1F
100
AcDbEntity
  8
FORMAT
100
AcDbLine
 10
152.3814857992
 20
126.3854359061
 30
0.0
 11
152.407612913
 21
126.3805649303
 31
0.0
  0
LINE
  5
193
330
1F
100
AcDbEntity
  8
FORMAT
100
AcDbLine
 10
152.407612913
 20
126.3805649303
 30
0.0
 11
152.4328542654
 21
126.3743653124
 31
0.0
  0
LINE
  5
194
330
1F
100
AcDbEntity
  8
FORMAT
100
AcDbLine
 10
152.4328542654
 20
126.3743653124
 30
0.0
 11
152.4572098564
 21
126.367279933
 31
0.0
  0
LINE
  5
195
330
1F
100
AcDbEntity
  8
FORMAT
100
AcDbLine
 10
152.4572098564
 20
126.367279933
 30
0.0
 11
152.480679686
 21
126.3588659115
 31
0.0
  0
LINE
  5
196
330
1F
100
AcDbEntity
  8
FORMAT
100
AcDbLine
 10
152.480679686
 20
126.3588659115
 30
0.0
 11
152.5032644662
 21
126.3493454003
 31
0.0
  0
LINE
  5
197
330
1F
100
AcDbEntity
  8
FORMAT
100
AcDbLine
 10
152.5032644662
 20
126.3493454003
 30
0.0
 11
152.5247413325
 21
126.3384962469
 31
0.0
  0
LINE
  5
198
330
1F
100
AcDbEntity
  8
FORMAT
100
AcDbLine
 10
152.5247413325
 20
126.3384962469
 30
0.0
 11
152.5455545899
 21
126.3267613322
 31
0.0
  0
LINE
  5
199
330
1F
100
AcDbEntity
  8
FORMAT
100
AcDbLine
 10
152.5455545899
 20
126.3267613322
 30
0.0
 11
152.5652599334
 21
126.3136977752
 31
0.0
  0
LINE
  5
19A
330
1F
100
AcDbEntity
  8
FORMAT
100
AcDbLine
 10
152.5652599334
 20
126.3136977752
 30
0.0
 11
152.5840802275
 21
126.2997484569
 31
0.0
  0
LINE
  5
19B
330
1F
100
AcDbEntity
  8
FORMAT
100
AcDbLine
 10
152.5840802275
 20
126.2997484569
 30
0.0
 11
152.6020147602
 21
126.2844712085
 31
0.0
  0
LINE
  5
19C
330
1F
100
AcDbEntity
  8
FORMAT
100
AcDbLine
 10
152.6020147602
 20
126.2844712085
 30
0.0
 11
152.6190642435
 21
126.2680860462
 31
0.0
  0
LINE
  5
19D
330
1F
100
AcDbEntity
  8
FORMAT
100
AcDbLine
 10
152.6190642435
 20
126.2680860462
 30
0.0
 11
152.6352272534
 21
126.2503729538
 31
0.0
  0
LINE
  5
19E
330
1F
100
AcDbEntity
  8
FORMAT
100
AcDbLine
 10
152.6352272534
 20
126.2503729538
 30
0.0
 11
152.6505052139
 21
126.2317741001
 31
0.0
  0
LINE
  5
19F
330
1F
100
AcDbEntity
  8
FORMAT
100
AcDbLine
 10
152.6505052139
 20
126.2317741001
 30
0.0
 11
152.6646752606
 21
126.2118466042
 31
0.0
  0
LINE
  5
1A0
330
1F
100
AcDbEntity
  8
FORMAT
100
AcDbLine
 10
152.6646752606
 20
126.2118466042
 30
0.0
 11
152.6781816982
 21
126.1908126185
 31
0.0
  0
LINE
  5
1A1
330
1F
100
AcDbEntity
  8
FORMAT
100
AcDbLine
 10
152.6781816982
 20
126.1908126185
 30
0.0
 11
152.690580934
 21
126.168670719
 31
0.0
  0
LINE
  5
1A2
330
1F
100
AcDbEntity
  8
FORMAT
100
AcDbLine
 10
152.690580934
 20
126.168670719
 30
0.0
 11
152.7023158488
 21
126.1454223298
 31
0.0
  0
LINE
  5
1A3
330
1F
100
AcDbEntity
  8
FORMAT
100
AcDbLine
 10
152.7023158488
 20
126.1454223298
 30
0.0
 11
152.7129435618
 21
126.1210667388
 31
0.0
  0
LINE
  5
1A4
330
1F
100
AcDbEntity
  8
FORMAT
100
AcDbLine
 10
152.7129435618
 20
126.1210667388
 30
0.0
 11
152.7226862254
 21
126.0953825057
 31
0.0
  0
LINE
  5
1A5
330
1F
100
AcDbEntity
  8
FORMAT
100
AcDbLine
 10
152.7226862254
 20
126.0953825057
 30
0.0
 11
152.7315424156
 21
126.0688132232
 31
0.0
  0
LINE
  5
1A6
330
1F
100
AcDbEntity
  8
FORMAT
100
AcDbLine
 10
152.7315424156
 20
126.0688132232
 30
0.0
 11
152.7395135564
 21
126.0409145865
 31
0.0
  0
LINE
  5
1A7
330
1F
100
AcDbEntity
  8
FORMAT
100
AcDbLine
 10
152.7395135564
 20
126.0409145865
 30
0.0
 11
152.7463774954
 21
126.0119094601
 31
0.0
  0
LINE
  5
1A8
330
1F
100
AcDbEntity
  8
FORMAT
100
AcDbLine
 10
152.7463774954
 20
126.0119094601
 30
0.0
 11
152.7525771133
 21
125.9815756915
 31
0.0
  0
LINE
  5
1A9
330
1F
100
AcDbEntity
  8
FORMAT
100
AcDbLine
 10
152.7525771133
 20
125.9815756915
 30
0.0
 11
152.7576695294
 21
125.9503561615
 31
0.0
  0
LINE
  5
1AA
330
1F
100
AcDbEntity
  8
FORMAT
100
AcDbLine
 10
152.7576695294
 20
125.9503561615
 30
0.0
 11
152.7620976245
 21
125.9178079894
 31
0.0
  0
LINE
  5
1AB
330
1F
100
AcDbEntity
  8
FORMAT
100
AcDbLine
 10
152.7620976245
 20
125.9178079894
 30
0.0
 11
152.7654192299
 21
125.8843747679
 31
0.0
  0
LINE
  5
1AC
330
1F
100
AcDbEntity
  8
FORMAT
100
AcDbLine
 10
152.7654192299
 20
125.8843747679
 30
0.0
 11
152.7678543617
 21
125.8496129042
 31
0.0
  0
LINE
  5
1AD
330
1F
100
AcDbEntity
  8
FORMAT
100
AcDbLine
 10
152.7678543617
 20
125.8496129042
 30
0.0
 11
152.7694044442
 21
125.8137431268
 31
0.0
  0
LINE
  5
1AE
330
1F
100
AcDbEntity
  8
FORMAT
100
AcDbLine
 10
152.7694044442
 20
125.8137431268
 30
0.0
 11
152.7685186828
 21
125.7938163429
 31
0.0
  0
LINE
  5
1AF
330
1F
100
AcDbEntity
  8
FORMAT
100
AcDbLine
 10
152.7685186828
 20
125.7938163429
 30
0.0
 11
152.766747872
 21
125.7559543143
 31
0.0
  0
LINE
  5
1B0
330
1F
100
AcDbEntity
  8
FORMAT
100
AcDbLine
 10
152.766747872
 20
125.7559543143
 30
0.0
 11
152.7651977895
 21
125.7191994874
 31
0.0
  0
LINE
  5
1B1
330
1F
100
AcDbEntity
  8
FORMAT
100
AcDbLine
 10
152.7651977895
 20
125.7191994874
 30
0.0
 11
152.7640905877
 21
125.6835518624
 31
0.0
  0
LINE
  5
1B2
330
1F
100
AcDbEntity
  8
FORMAT
100
AcDbLine
 10
152.7640905877
 20
125.6835518624
 30
0.0
 11
152.7634262667
 21
125.6490107271
 31
0.0
  0
LINE
  5
1B3
330
1F
100
AcDbEntity
  8
FORMAT
100
AcDbLine
 10
152.7634262667
 20
125.6490107271
 30
0.0
 11
152.7632048263
 21
125.6155775055
 31
0.0
  0
LINE
  5
1B4
330
1F
100
AcDbEntity
  8
FORMAT
100
AcDbLine
 10
152.7632048263
 20
125.6155775055
 30
0.0
 11
152.7632048263
 21
125.5830293334
 31
0.0
  0
LINE
  5
1B5
330
1F
100
AcDbEntity
  8
FORMAT
100
AcDbLine
 10
152.7632048263
 20
125.5830293334
 30
0.0
 11
152.7634262667
 21
125.5515883631
 31
0.0
  0
LINE
  5
1B6
330
1F
100
AcDbEntity
  8
FORMAT
100
AcDbLine
 10
152.7634262667
 20
125.5515883631
 30
0.0
 11
152.7643120281
 21
125.5212545945
 31
0.0
  0
LINE
  5
1B7
330
1F
100
AcDbEntity
  8
FORMAT
100
AcDbLine
 10
152.7643120281
 20
125.5212545945
 30
0.0
 11
152.7651977895
 21
125.4920280277
 31
0.0
  0
LINE
  5
1B8
330
1F
100
AcDbEntity
  8
FORMAT
100
AcDbLine
 10
152.7651977895
 20
125.4920280277
 30
0.0
 11
152.766747872
 21
125.4639079507
 31
0.0
  0
LINE
  5
1B9
330
1F
100
AcDbEntity
  8
FORMAT
100
AcDbLine
 10
152.766747872
 20
125.4639079507
 30
0.0
 11
152.7685186828
 21
125.4366743471
 31
0.0
  0
LINE
  5
1BA
330
1F
100
AcDbEntity
  8
FORMAT
100
AcDbLine
 10
152.7685186828
 20
125.4366743471
 30
0.0
 11
152.770511646
 21
125.4107686736
 31
0.0
  0
LINE
  5
1BB
330
1F
100
AcDbEntity
  8
FORMAT
100
AcDbLine
 10
152.770511646
 20
125.4107686736
 30
0.0
 11
152.7731689303
 21
125.3857487616
 31
0.0
  0
LINE
  5
1BC
330
1F
100
AcDbEntity
  8
FORMAT
100
AcDbLine
 10
152.7731689303
 20
125.3857487616
 30
0.0
 11
152.7758255025
 21
125.3618360513
 31
0.0
  0
LINE
  5
1BD
330
1F
100
AcDbEntity
  8
FORMAT
100
AcDbLine
 10
152.7758255025
 20
125.3618360513
 30
0.0
 11
152.7791471079
 21
125.3388091024
 31
0.0
  0
LINE
  5
1BE
330
1F
100
AcDbEntity
  8
FORMAT
100
AcDbLine
 10
152.7791471079
 20
125.3388091024
 30
0.0
 11
152.7826894415
 21
125.3171100837
 31
0.0
  0
LINE
  5
1BF
330
1F
100
AcDbEntity
  8
FORMAT
100
AcDbLine
 10
152.7826894415
 20
125.3171100837
 30
0.0
 11
152.7840180836
 21
125.3086967742
 31
0.0
  0
LINE
  5
1C0
330
1F
100
AcDbEntity
  8
FORMAT
100
AcDbLine
 10
152.7840180836
 20
125.3086967742
 30
0.0
 11
152.7895533805
 21
125.2781415653
 31
0.0
  0
LINE
  5
1C1
330
1F
100
AcDbEntity
  8
FORMAT
100
AcDbLine
 10
152.7895533805
 20
125.2781415653
 30
0.0
 11
152.7955315581
 21
125.2480292371
 31
0.0
  0
LINE
  5
1C2
330
1F
100
AcDbEntity
  8
FORMAT
100
AcDbLine
 10
152.7955315581
 20
125.2480292371
 30
0.0
 11
152.8021740567
 21
125.2181383492
 31
0.0
  0
LINE
  5
1C3
330
1F
100
AcDbEntity
  8
FORMAT
100
AcDbLine
 10
152.8021740567
 20
125.2181383492
 30
0.0
 11
152.8090379957
 21
125.1884681897
 31
0.0
  0
LINE
  5
1C4
330
1F
100
AcDbEntity
  8
FORMAT
100
AcDbLine
 10
152.8090379957
 20
125.1884681897
 30
0.0
 11
152.8165655437
 21
125.1592416229
 31
0.0
  0
LINE
  5
1C5
330
1F
100
AcDbEntity
  8
FORMAT
100
AcDbLine
 10
152.8165655437
 20
125.1592416229
 30
0.0
 11
152.8247581249
 21
125.1304579368
 31
0.0
  0
LINE
  5
1C6
330
1F
100
AcDbEntity
  8
FORMAT
100
AcDbLine
 10
152.8247581249
 20
125.1304579368
 30
0.0
 11
152.8331721463
 21
125.1018956911
 31
0.0
  0
LINE
  5
1C7
330
1F
100
AcDbEntity
  8
FORMAT
100
AcDbLine
 10
152.8331721463
 20
125.1018956911
 30
0.0
 11
152.8422497769
 21
125.0735541737
 31
0.0
  0
LINE
  5
1C8
330
1F
100
AcDbEntity
  8
FORMAT
100
AcDbLine
 10
152.8422497769
 20
125.0735541737
 30
0.0
 11
152.8517710001
 21
125.0456562491
 31
0.0
  0
LINE
  5
1C9
330
1F
100
AcDbEntity
  8
FORMAT
100
AcDbLine
 10
152.8517710001
 20
125.0456562491
 30
0.0
 11
152.861734392
 21
125.0182004931
 31
0.0
  0
LINE
  5
1CA
330
1F
100
AcDbEntity
  8
FORMAT
100
AcDbLine
 10
152.861734392
 20
125.0182004931
 30
0.0
 11
153.3579245545
 21
125.0182004931
 31
0.0
  0
LINE
  5
1CB
330
1F
100
AcDbEntity
  8
FORMAT
100
AcDbLine
 10
153.3579245545
 20
125.0182004931
 30
0.0
 11
153.3579245545
 21
125.1235939977
 31
0.0
  0
LINE
  5
1CC
330
1F
100
AcDbEntity
  8
FORMAT
100
AcDbLine
 10
153.3579245545
 20
125.1235939977
 30
0.0
 11
153.3377756182
 21
125.1408642093
 31
0.0
  0
LINE
  5
1CD
330
1F
100
AcDbEntity
  8
FORMAT
100
AcDbLine
 10
153.3377756182
 20
125.1408642093
 30
0.0
 11
153.3160773115
 21
125.1616774667
 31
0.0
  0
LINE
  5
1CE
330
1F
100
AcDbEntity
  8
FORMAT
100
AcDbLine
 10
153.3160773115
 20
125.1616774667
 30
0.0
 11
153.2963712559
 21
125.1835972138
 31
0.0
  0
LINE
  5
1CF
330
1F
100
AcDbEntity
  8
FORMAT
100
AcDbLine
 10
153.2963712559
 20
125.1835972138
 30
0.0
 11
153.2786581636
 21
125.2064027223
 31
0.0
  0
LINE
  5
1D0
330
1F
100
AcDbEntity
  8
FORMAT
100
AcDbLine
 10
153.2786581636
 20
125.2064027223
 30
0.0
 11
153.2629380344
 21
125.2305375849
 31
0.0
  0
LINE
  5
1D1
330
1F
100
AcDbEntity
  8
FORMAT
100
AcDbLine
 10
153.2629380344
 20
125.2305375849
 30
0.0
 11
153.2489887161
 21
125.255556785
 31
0.0
  0
LINE
  5
1D2
330
1F
100
AcDbEntity
  8
FORMAT
100
AcDbLine
 10
153.2489887161
 20
125.255556785
 30
0.0
 11
153.2370323609
 21
125.2814624584
 31
0.0
  0
LINE
  5
1D3
330
1F
100
AcDbEntity
  8
FORMAT
100
AcDbLine
 10
153.2370323609
 20
125.2814624584
 30
0.0
 11
153.2270682569
 21
125.3086967741
 31
0.0
  0
LINE
  5
1D4
330
1F
100
AcDbEntity
  8
FORMAT
100
AcDbLine
 10
153.2270682569
 20
125.3086967741
 30
0.0
 11
153.2188763878
 21
125.3368161391
 31
0.0
  0
LINE
  5
1D5
330
1F
100
AcDbEntity
  8
FORMAT
100
AcDbLine
 10
153.2188763878
 20
125.3368161391
 30
0.0
 11
153.2128982103
 21
125.3658212655
 31
0.0
  0
LINE
  5
1D6
330
1F
100
AcDbEntity
  8
FORMAT
100
AcDbLine
 10
153.2128982103
 20
125.3658212655
 30
0.0
 11
153.2086908435
 21
125.3961550341
 31
0.0
  0
LINE
  5
1D7
330
1F
100
AcDbEntity
  8
FORMAT
100
AcDbLine
 10
153.2086908435
 20
125.3961550341
 30
0.0
 11
153.2082486748
 21
125.4025760924
 31
0.0
  0
LINE
  5
1D8
330
1F
100
AcDbEntity
  8
FORMAT
100
AcDbLine
 10
153.2082486748
 20
125.4025760924
 30
0.0
 11
153.2055913906
 21
125.4439811667
 31
0.0
  0
LINE
  5
1D9
330
1F
100
AcDbEntity
  8
FORMAT
100
AcDbLine
 10
153.2055913906
 20
125.4439811667
 30
0.0
 11
153.2029341063
 21
125.4842783272
 31
0.0
  0
LINE
  5
1DA
330
1F
100
AcDbEntity
  8
FORMAT
100
AcDbLine
 10
153.2029341063
 20
125.4842783272
 30
0.0
 11
153.2004989744
 21
125.5234689979
 31
0.0
  0
LINE
  5
1DB
330
1F
100
AcDbEntity
  8
FORMAT
100
AcDbLine
 10
153.2004989744
 20
125.5234689979
 30
0.0
 11
153.1980631305
 21
125.5615524669
 31
0.0
  0
LINE
  5
1DC
330
1F
100
AcDbEntity
  8
FORMAT
100
AcDbLine
 10
153.1980631305
 20
125.5615524669
 30
0.0
 11
153.195849439
 21
125.5987494624
 31
0.0
  0
LINE
  5
1DD
330
1F
100
AcDbEntity
  8
FORMAT
100
AcDbLine
 10
153.195849439
 20
125.5987494624
 30
0.0
 11
153.1936350354
 21
125.6346192399
 31
0.0
  0
LINE
  5
1DE
330
1F
100
AcDbEntity
  8
FORMAT
100
AcDbLine
 10
153.1936350354
 20
125.6346192399
 30
0.0
 11
153.1914206319
 21
125.6696025439
 31
0.0
  0
LINE
  5
1DF
330
1F
100
AcDbEntity
  8
FORMAT
100
AcDbLine
 10
153.1914206319
 20
125.6696025439
 30
0.0
 11
153.1896498211
 21
125.7034786461
 31
0.0
  0
LINE
  5
1E0
330
1F
100
AcDbEntity
  8
FORMAT
100
AcDbLine
 10
153.1896498211
 20
125.7034786461
 30
0.0
 11
153.1876568579
 21
125.7362482586
 31
0.0
  0
LINE
  5
1E1
330
1F
100
AcDbEntity
  8
FORMAT
100
AcDbLine
 10
153.1876568579
 20
125.7362482586
 30
0.0
 11
153.185885335
 21
125.7679106693
 31
0.0
  0
LINE
  5
1E2
330
1F
100
AcDbEntity
  8
FORMAT
100
AcDbLine
 10
153.185885335
 20
125.7679106693
 30
0.0
 11
153.1843352525
 21
125.7984658782
 31
0.0
  0
LINE
  5
1E3
330
1F
100
AcDbEntity
  8
FORMAT
100
AcDbLine
 10
153.1843352525
 20
125.7984658782
 30
0.0
 11
153.1827858821
 21
125.8279138853
 31
0.0
  0
LINE
  5
1E4
330
1F
100
AcDbEntity
  8
FORMAT
100
AcDbLine
 10
153.1827858821
 20
125.8279138853
 30
0.0
 11
153.1814572399
 21
125.8564761311
 31
0.0
  0
LINE
  5
1E5
330
1F
100
AcDbEntity
  8
FORMAT
100
AcDbLine
 10
153.1814572399
 20
125.8564761311
 30
0.0
 11
153.1801285978
 21
125.8837104467
 31
0.0
  0
LINE
  5
1E6
330
1F
100
AcDbEntity
  8
FORMAT
100
AcDbLine
 10
153.1801285978
 20
125.8837104467
 30
0.0
 11
153.1787999557
 21
125.9100590009
 31
0.0
  0
LINE
  5
1E7
330
1F
100
AcDbEntity
  8
FORMAT
100
AcDbLine
 10
153.1787999557
 20
125.9100590009
 30
0.0
 11
153.1779141942
 21
125.9353003533
 31
0.0
  0
LINE
  5
1E8
330
1F
100
AcDbEntity
  8
FORMAT
100
AcDbLine
 10
153.1779141942
 20
125.9353003533
 30
0.0
 11
153.1768077045
 21
125.9594345039
 31
0.0
  0
LINE
  5
1E9
330
1F
100
AcDbEntity
  8
FORMAT
100
AcDbLine
 10
153.1768077045
 20
125.9594345039
 30
0.0
 11
153.1759219431
 21
125.9826828931
 31
0.0
  0
LINE
  5
1EA
330
1F
100
AcDbEntity
  8
FORMAT
100
AcDbLine
 10
153.1759219431
 20
125.9826828931
 30
0.0
 11
153.175257622
 21
126.0046026402
 31
0.0
  0
LINE
  5
1EB
330
1F
100
AcDbEntity
  8
FORMAT
100
AcDbLine
 10
153.175257622
 20
126.0046026402
 30
0.0
 11
153.1745933009
 21
126.0256373379
 31
0.0
  0
LINE
  5
1EC
330
1F
100
AcDbEntity
  8
FORMAT
100
AcDbLine
 10
153.1745933009
 20
126.0256373379
 30
0.0
 11
153.1739289799
 21
126.0453433935
 31
0.0
  0
LINE
  5
1ED
330
1F
100
AcDbEntity
  8
FORMAT
100
AcDbLine
 10
153.1739289799
 20
126.0453433935
 30
0.0
 11
153.1734860992
 21
126.0641636876
 31
0.0
  0
LINE
  5
1EE
330
1F
100
AcDbEntity
  8
FORMAT
100
AcDbLine
 10
153.1734860992
 20
126.0641636876
 30
0.0
 11
153.1706080866
 21
126.0944974562
 31
0.0
  0
LINE
  5
1EF
330
1F
100
AcDbEntity
  8
FORMAT
100
AcDbLine
 10
153.1706080866
 20
126.0944974562
 30
0.0
 11
153.1659578391
 21
126.131915892
 31
0.0
  0
LINE
  5
1F0
330
1F
100
AcDbEntity
  8
FORMAT
100
AcDbLine
 10
153.1659578391
 20
126.131915892
 30
0.0
 11
153.1606439826
 21
126.1668999081
 31
0.0
  0
LINE
  5
1F1
330
1F
100
AcDbEntity
  8
FORMAT
100
AcDbLine
 10
153.1606439826
 20
126.1668999081
 30
0.0
 11
153.154665805
 21
126.1996688085
 31
0.0
  0
LINE
  5
1F2
330
1F
100
AcDbEntity
  8
FORMAT
100
AcDbLine
 10
153.154665805
 20
126.1996688085
 30
0.0
 11
153.1480233064
 21
126.2300025771
 31
0.0
  0
LINE
  5
1F3
330
1F
100
AcDbEntity
  8
FORMAT
100
AcDbLine
 10
153.1480233064
 20
126.2300025771
 30
0.0
 11
153.1404957584
 21
126.2579012138
 31
0.0
  0
LINE
  5
1F4
330
1F
100
AcDbEntity
  8
FORMAT
100
AcDbLine
 10
153.1404957584
 20
126.2579012138
 30
0.0
 11
153.1323031772
 21
126.2833640065
 31
0.0
  0
LINE
  5
1F5
330
1F
100
AcDbEntity
  8
FORMAT
100
AcDbLine
 10
153.1323031772
 20
126.2833640065
 30
0.0
 11
153.123446275
 21
126.3063909554
 31
0.0
  0
LINE
  5
1F6
330
1F
100
AcDbEntity
  8
FORMAT
100
AcDbLine
 10
153.123446275
 20
126.3063909554
 30
0.0
 11
153.1137043235
 21
126.3272042127
 31
0.0
  0
LINE
  5
1F7
330
1F
100
AcDbEntity
  8
FORMAT
100
AcDbLine
 10
153.1137043235
 20
126.3272042127
 30
0.0
 11
153.1032980508
 21
126.3453601858
 31
0.0
  0
LINE
  5
1F8
330
1F
100
AcDbEntity
  8
FORMAT
100
AcDbLine
 10
153.1032980508
 20
126.3453601858
 30
0.0
 11
153.0939982679
 21
126.3595302325
 31
0.0
  0
LINE
  5
1F9
330
1F
100
AcDbEntity
  8
FORMAT
100
AcDbLine
 10
153.0939982679
 20
126.3595302325
 30
0.0
 11
153.0811561513
 21
126.3765797158
 31
0.0
  0
LINE
  5
1FA
330
1F
100
AcDbEntity
  8
FORMAT
100
AcDbLine
 10
153.0811561513
 20
126.3765797158
 30
0.0
 11
153.066543224
 21
126.3942928081
 31
0.0
  0
LINE
  5
1FB
330
1F
100
AcDbEntity
  8
FORMAT
100
AcDbLine
 10
153.066543224
 20
126.3942928081
 30
0.0
 11
153.0501580617
 21
126.4124487812
 31
0.0
  0
LINE
  5
1FC
330
1F
100
AcDbEntity
  8
FORMAT
100
AcDbLine
 10
153.0501580617
 20
126.4124487812
 30
0.0
 11
153.0317806483
 21
126.4312690753
 31
0.0
  0
LINE
  5
1FD
330
1F
100
AcDbEntity
  8
FORMAT
100
AcDbLine
 10
153.0317806483
 20
126.4312690753
 30
0.0
 11
153.0116324241
 21
126.4505315381
 31
0.0
  0
LINE
  5
1FE
330
1F
100
AcDbEntity
  8
FORMAT
100
AcDbLine
 10
153.0116324241
 20
126.4505315381
 30
0.0
 11
152.9894905246
 21
126.4702375937
 31
0.0
  0
LINE
  5
1FF
330
1F
100
AcDbEntity
  8
FORMAT
100
AcDbLine
 10
152.9894905246
 20
126.4702375937
 30
0.0
 11
152.9655778143
 21
126.4906079703
 31
0.0
  0
LINE
  5
200
330
1F
100
AcDbEntity
  8
FORMAT
100
AcDbLine
 10
152.9655778143
 20
126.4906079703
 30
0.0
 11
152.9396721408
 21
126.511641956
 31
0.0
  0
LINE
  5
201
330
1F
100
AcDbEntity
  8
FORMAT
100
AcDbLine
 10
152.9396721408
 20
126.511641956
 30
0.0
 11
152.9119956565
 21
126.532898094
 31
0.0
  0
CIRCLE
  5
202
330
1F
100
AcDbEntity
  8
G__TOTO
100
AcDbCircle
 10
455.3258987845
 20
325.8799035085
 30
0.0
 40
22.0
  0
CIRCLE
  5
203
330
1F
100
AcDbEntity
  8
G__TOTO
100
AcDbCircle
 10
642.9368260186
 20
504.350491852
 30
0.0
 40
0.050000000000029
  0
ARC
  5
204
330
1F
100
AcDbEntity
  8
FORMAT
100
AcDbCircle
 10
64.3220045842
 20
122.146991839
 30
0.0
 40
4.070437741199854
100
AcDbArc
 50
359.9879402696
 51
90.0000000001
  0
ARC
  5
205
330
1F
100
AcDbEntity
  8
FORMAT
100
AcDbCircle
 10
55.7879729846
 20
122.1469918389
 30
0.0
 40
4.070437741203286
100
AcDbArc
 50
90.0
 51
179.9879402696
  0
ARC
  5
206
330
1F
100
AcDbEntity
  8
FORMAT
100
AcDbCircle
 10
56.0906474345
 20
112.5743693553
 30
0.0
 40
1.516173115427746
100
AcDbArc
 50
270.0000000003
 51
359.987524521
  0
ARC
  5
207
330
1F
100
AcDbEntity
  8
FORMAT
100
AcDbCircle
 10
64.0152124098
 20
112.5743693553
 30
0.0
 40
1.516173115432181
100
AcDbArc
 50
179.987524521
 51
270.0000000001
  0
ARC
  5
208
330
1F
100
AcDbEntity
  8
FORMAT
100
AcDbCircle
 10
115.8724736524
 20
122.146991839
 30
0.0
 40
4.070437741199186
100
AcDbArc
 50
359.9879402696
 51
90.0000000001
  0
ARC
  5
209
330
1F
100
AcDbEntity
  8
FORMAT
100
AcDbCircle
 10
107.3384420528
 20
122.1469918389
 30
0.0
 40
4.070437741203286
100
AcDbArc
 50
90.0
 51
179.9879402696
  0
ARC
  5
20A
330
1F
100
AcDbEntity
  8
FORMAT
100
AcDbCircle
 10
107.6411165027
 20
112.5743693553
 30
0.0
 40
1.516173115425976
100
AcDbArc
 50
270.0000000003
 51
359.9875245211
  0
ARC
  5
20B
330
1F
100
AcDbEntity
  8
FORMAT
100
AcDbCircle
 10
115.565681478
 20
112.5743693553
 30
0.0
 40
1.516173115432187
100
AcDbArc
 50
179.987524521
 51
270.0000000001
  0
ARC
  5
20C
330
1F
100
AcDbEntity
  8
FORMAT
100
AcDbCircle
 10
85.8292304815
 20
115.9459264962
 30
0.0
 40
5.576627171138359
100
AcDbArc
 50
199.120265
 51
340.867675
  0
ARC
  5
20D
330
1F
100
AcDbEntity
  8
FORMAT
100
AcDbCircle
 10
78.0780901909
 20
118.6348974361
 30
0.0
 40
13.78093948365574
100
AcDbArc
 50
340.8676765204
 51
19.193527
  0
ARC
  5
20E
330
1F
100
AcDbEntity
  8
FORMAT
100
AcDbCircle
 10
85.8297971056
 20
121.3333454019
 30
0.0
 40
5.57298105811017
100
AcDbArc
 50
19.1935277085
 51
160.794413
  0
ARC
  5
20F
330
1F
100
AcDbEntity
  8
FORMAT
100
AcDbCircle
 10
93.5809357859
 20
118.6332669181
 30
0.0
 40
13.78093906600775
100
AcDbArc
 50
160.7944173195
 51
199.1202687174
  0
ARC
  5
210
330
1F
100
AcDbEntity
  8
FORMAT
100
AcDbCircle
 10
84.5548353816
 20
118.6342160264
 30
0.0
 40
10.33595430364061
100
AcDbArc
 50
142.997119
 51
216.437586
  0
ARC
  5
211
330
1F
100
AcDbEntity
  8
FORMAT
100
AcDbCircle
 10
85.829840825
 20
120.3605553107
 30
0.0
 40
12.40314521073164
100
AcDbArc
 50
219.3563212715
 51
320.61032
  0
ARC
  5
212
330
1F
100
AcDbEntity
  8
FORMAT
100
AcDbCircle
 10
87.1041910227
 20
118.6339476141
 30
0.0
 40
10.33595433327383
100
AcDbArc
 50
323.5257904376
 51
36.9655204161
  0
ARC
  5
213
330
1F
100
AcDbEntity
  8
FORMAT
100
AcDbCircle
 10
85.8291870896
 20
116.9150704246
 30
0.0
 40
12.40314518251964
100
AcDbArc
 50
39.7691474539
 51
140.1968750971
  0
ARC
  5
214
330
1F
100
AcDbEntity
  8
FORMAT
100
AcDbCircle
 10
136.1043458567
 20
118.6342160264
 30
0.0
 40
10.33595430364061
100
AcDbArc
 50
142.997119
 51
216.437586
  0
ARC
  5
215
330
1F
100
AcDbEntity
  8
FORMAT
100
AcDbCircle
 10
137.3793513001
 20
120.3605553107
 30
0.0
 40
12.40314521072881
100
AcDbArc
 50
219.3563212715
 51
320.61032
  0
ARC
  5
216
330
1F
100
AcDbEntity
  8
FORMAT
100
AcDbCircle
 10
138.6537014978
 20
118.6339476141
 30
0.0
 40
10.33595433327265
100
AcDbArc
 50
323.5257904376
 51
36.9655204161
  0
ARC
  5
217
330
1F
100
AcDbEntity
  8
FORMAT
100
AcDbCircle
 10
137.3786975647
 20
116.9150704246
 30
0.0
 40
12.40314518252084
100
AcDbArc
 50
39.769147454
 51
140.1968750971
  0
ARC
  5
218
330
1F
100
AcDbEntity
  8
FORMAT
100
AcDbCircle
 10
137.3787409567
 20
115.9459264962
 30
0.0
 40
5.576627171138146
100
AcDbArc
 50
199.120265
 51
340.867675
  0
ARC
  5
219
330
1F
100
AcDbEntity
  8
FORMAT
100
AcDbCircle
 10
129.627600666
 20
118.6348974361
 30
0.0
 40
13.78093948365356
100
AcDbArc
 50
340.8676765204
 51
19.193527
  0
ARC
  5
21A
330
1F
100
AcDbEntity
  8
FORMAT
100
AcDbCircle
 10
137.3793075808
 20
121.3333454019
 30
0.0
 40
5.572981058110156
100
AcDbArc
 50
19.1935277085
 51
160.794413
  0
ARC
  5
21B
330
1F
100
AcDbEntity
  8
FORMAT
100
AcDbCircle
 10
145.130446261
 20
118.6332669181
 30
0.0
 40
13.78093906600629
100
AcDbArc
 50
160.7944173195
 51
199.1202687174
  0
CIRCLE
  5
21C
330
1F
100
AcDbEntity
  8
FORMAT
100
AcDbCircle
 10
151.8377635712
 20
126.4701087169
 30
0.0
 40
2.492094032515269
  0
CIRCLE
  5
21D
330
1F
100
AcDbEntity
  8
FORMAT
100
AcDbCircle
 10
151.8377635712
 20
126.4701087169
 30
0.0
 40
2.848107465732483
  0
HATCH
  5
21E
330
1F
100
AcDbEntity
  8
G__TOTO
 62
   250
420
  1644836
100
AcDbHatch
 10
0.0
 20
0.0
 30
0.0
210
0.0
220
0.0
230
1.0
  2
SOLID
 70
     1
 71
     0
 91
        1
 92
        0
 93
       20
 72
     1
 10
66.59862117360382
 20
111.0581962398727
 11
64.01521240983826
 21
111.0581962398727
 72
     2
 10
64.01521240983476
 20
112.5743693553049
 40
1.516173115432181
 50
89.9999999998679
 51
180.0124754790091
 73
     0
 72
     1
 10
62.4990393303434
 20
112.5746994840837
 11
62.50200987369775
 21
126.2174295801554
 72
     1
 10
62.50200987369775
 20
126.2174295801554
 11
64.32200458416143
 21
126.2174295801554
 72
     2
 10
64.32200458417137
 20
122.1469918389555
 40
4.070437741197688
 50
269.999999999861
 51
360.0120597303764
 73
     0
 72
     1
 10
68.39244223520124
 20
122.1461350850772
 11
68.3922115083716
 21
121.0499519175344
 72
     1
 10
68.3922115083716
 20
121.0499519175344
 11
70.80410078793048
 21
121.0499519175344
 72
     1
 10
70.80410078793048
 20
121.0499519175344
 11
70.80569610825954
 21
128.6293188062767
 72
     1
 10
70.80569610825954
 20
128.6293188062767
 11
49.30605173367702
 21
128.6293188062767
 72
     1
 10
49.30605173367702
 20
128.6293188062767
 11
49.30589470844698
 21
121.0499519175344
 72
     1
 10
49.30589470844698
 20
121.0499519175344
 11
51.71730424609561
 21
121.0499519175344
 72
     1
 10
51.71730424609561
 20
121.0499519175344
 11
51.71753533357726
 21
122.1478485928192
 72
     2
 10
55.7879729846148
 20
122.1469918389425
 40
4.070437741202961
 50
180.0120597303546
 51
269.9999999999844
 73
     0
 72
     1
 10
55.78797298461363
 20
126.2174295801452
 11
57.60979120107507
 21
126.2174295801452
 72
     1
 10
57.60979120107507
 20
126.2174295801452
 11
57.60682051396182
 21
112.574039226516
 72
     2
 10
56.0906474344749
 20
112.5743693552937
 40
1.51617311542774
 50
0.0124754789659151
 51
89.99999999972101
 73
     0
 72
     1
 10
56.09064743448228
 20
111.058196239866
 11
53.50657841312917
 21
111.058196239866
 72
     1
 10
53.50657841312917
 20
111.058196239866
 11
53.50605325273938
 21
108.6463070137422
 72
     1
 10
53.50605325273938
 20
108.6463070137422
 11
66.5980960132016
 21
108.6463070137422
 72
     1
 10
66.5980960132016
 20
108.6463070137422
 11
66.59862117360382
 21
111.0581962398727
 97
        0
 75
     0
 76
     1
 98
        1
 10
0.0
 20
0.0
  0
HATCH
  5
21F
330
1F
100
AcDbEntity
  8
G__TOTO
 62
   250
420
  1644836
100
AcDbHatch
 10
0.0
 20
0.0
 30
0.0
210
0.0
220
0.0
230
1.0
  2
SOLID
 70
     1
 71
     0
 91
        2
 92
        0
 93
        4
 72
     2
 10
87.10419102266142
 20
118.6339476141401
 40
10.33595433327338
 50
323.525790437636
 51
396.9655204160637
 73
     1
 72
     2
 10
85.82918708959453
 20
116.9150704246223
 40
12.40314518251927
 50
39.76914745392611
 51
140.1968750970755
 73
     1
 72
     2
 10
84.55483538159447
 20
118.6342160264237
 40
10.33595430364048
 50
142.9971189999963
 51
216.4375859999901
 73
     1
 72
     2
 10
85.82984082498923
 20
120.3605553107351
 40
12.40314521073142
 50
219.356321271484
 51
320.6103199999976
 73
     1
 97
        0
 92
        0
 93
        4
 72
     2
 10
93.58093578586646
 20
118.6332669180904
 40
13.78093906600764
 50
160.8797312826042
 51
199.2055826804566
 73
     0
 72
     2
 10
85.82979710560379
 20
121.3333454019071
 40
5.572981058109338
 50
199.2055869999988
 51
340.8064722915088
 73
     0
 72
     2
 10
78.07809019089851
 20
118.6348974361336
 40
13.7809394836555
 50
340.8064730000007
 51
379.1323234795636
 73
     0
 72
     2
 10
85.82923048154767
 20
115.9459264961643
 40
5.576627171137559
 50
19.13232499998226
 51
160.8797349999763
 73
     0
 97
        0
 75
     0
 76
     1
 98
        1
 10
0.0
 20
0.0
  0
HATCH
  5
220
330
1F
100
AcDbEntity
  8
G__TOTO
 62
   250
420
  1644836
100
AcDbHatch
 10
0.0
 20
0.0
 30
0.0
210
0.0
220
0.0
230
1.0
  2
SOLID
 70
     1
 71
     0
 91
        1
 92
        0
 93
       20
 72
     1
 10
118.1490902417989
 20
111.0581962398711
 11
115.5656814780333
 21
111.058196239871
 72
     2
 10
115.5656814780298
 20
112.5743693553032
 40
1.516173115432181
 50
89.9999999998679
 51
180.0124754790086
 73
     0
 72
     1
 10
114.0495083985384
 20
112.574699484082
 11
114.0524789418928
 21
126.2174295801536
 72
     1
 10
114.0524789418928
 20
126.2174295801536
 11
115.872473652357
 21
126.2174295801536
 72
     2
 10
115.8724736523661
 20
122.1469918389544
 40
4.070437741197355
 50
269.9999999998734
 51
360.0120597303594
 73
     0
 72
     1
 10
119.942911303396
 20
122.1461350850773
 11
119.9426805765663
 21
121.0499519175344
 72
     1
 10
119.9426805765663
 20
121.0499519175344
 11
122.354569856127
 21
121.0499519175344
 72
     1
 10
122.354569856127
 20
121.0499519175344
 11
122.3561651764543
 21
128.6293188062767
 72
     1
 10
122.3561651764543
 20
128.6293188062767
 11
100.8565208018717
 21
128.6293188062767
 72
     1
 10
100.8565208018717
 20
128.6293188062767
 11
100.8563637766559
 21
121.0499519175344
 72
     1
 10
100.8563637766559
 20
121.0499519175344
 11
103.2677733142903
 21
121.0499519175344
 72
     1
 10
103.2677733142903
 20
121.0499519175344
 11
103.2680044017719
 21
122.1478485928192
 72
     2
 10
107.3384420528095
 20
122.1469918389425
 40
4.070437741202961
 50
180.0120597303546
 51
270.0000000000188
 73
     0
 72
     1
 10
107.3384420528108
 20
126.2174295801452
 11
109.1602602692722
 21
126.2174295801452
 72
     1
 10
109.1602602692722
 20
126.2174295801452
 11
109.1572895821554
 21
112.5740392265153
 72
     2
 10
107.6411165026703
 20
112.5743693552913
 40
1.516173115425963
 50
0.0124754788993386
 51
89.99999999973363
 73
     0
 72
     1
 10
107.6411165026773
 20
111.0581962398654
 11
105.0570474813224
 21
111.0581962398654
 72
     1
 10
105.0570474813224
 20
111.0581962398654
 11
105.0565223209362
 21
108.6463070137405
 72
     1
 10
105.0565223209362
 20
108.6463070137405
 11
118.1485650813984
 21
108.6463070137406
 72
     1
 10
118.1485650813984
 20
108.6463070137406
 11
118.1490902417989
 21
111.0581962398711
 97
        0
 75
     0
 76
     1
 98
        1
 10
0.0
 20
0.0
  0
HATCH
  5
221
330
1F
100
AcDbEntity
  8
G__TOTO
 62
   250
420
  1644836
100
AcDbHatch
 10
0.0
 20
0.0
 30
0.0
210
0.0
220
0.0
230
1.0
  2
SOLID
 70
     1
 71
     0
 91
        2
 92
        0
 93
        4
 72
     2
 10
138.6537014978094
 20
118.6339476141446
 40
10.33595433327196
 50
323.525790437605
 51
396.9655204160708
 73
     1
 72
     2
 10
137.3786975647443
 20
116.9150704246215
 40
12.4031451825207
 50
39.76914745395647
 51
140.1968750970775
 73
     1
 72
     2
 10
136.1043458567425
 20
118.6342160264237
 40
10.33595430363977
 50
142.9971189999964
 51
216.4375859999961
 73
     1
 72
     2
 10
137.3793513001355
 20
120.3605553107351
 40
12.40314521072863
 50
219.3563212714944
 51
320.6103199999926
 73
     1
 97
        0
 92
        0
 93
        4
 72
     2
 10
145.1304462610113
 20
118.6332669180909
 40
13.78093906600505
 50
160.8797312826038
 51
199.2055826804521
 73
     0
 72
     2
 10
137.3793075807518
 20
121.3333454019071
 40
5.572981058109047
 50
199.2055869999816
 51
340.8064722915083
 73
     0
 72
     2
 10
129.6276006660483
 20
118.6348974361336
 40
13.78093948365298
 50
340.806472999998
 51
379.1323234795684
 73
     0
 72
     2
 10
137.3787409566957
 20
115.9459264961643
 40
5.576627171137414
 50
19.13232499998827
 51
160.879734999991
 73
     0
 97
        0
 75
     0
 76
     1
 98
        1
 10
0.0
 20
0.0
  0
POINT
  5
222
330
1F
100
AcDbEntity
  8
G__TOTO
100
AcDbPoint
 10
642.9368260186
 20
504.350491852
 30
0.0
  0
POINT
  5
223
330
1F
100
AcDbEntity
  8
0
  6
Continuous
 62
     7
370
     0
100
AcDbPoint
 10
220.3758987845
 20
325.8799035085
 30
0.0
  0
DIMENSION
  5
224
330
1F
100
AcDbEntity
  8
FORMAT
100
AcDbDimension
  2
*D3
 10
119.5175900792
 20
579.8799035085
 30
0.0
 11
119.5175900792
 21
604.2035713692
 31
0.0
 70
   160
 71
     2
 42
-1.0
  3
SLDDIMSTYLE0
100
AcDbAlignedDimension
 13
74.3258987845
 23
630.6799035085
 33
0.0
 14
163.9635999594
 24
579.8799035085
 34
0.0
 50
90.0
100
AcDbRotatedDimension
  0
DIMENSION
  5
237
330
1F
100
AcDbEntity
  8
FORMAT
100
AcDbDimension
  2
*D4
 10
119.5175900792
 20
325.8799035085
 30
0.0
 11
119.5175900792
 21
471.2120687721
 31
0.0
 70
   160
 71
     2
 42
-1.0
  3
SLDDIMSTYLE0
100
AcDbAlignedDimension
 13
163.9635999594
 23
579.8799035085
 33
0.0
 14
430.8548987845
 24
325.8799035085
 34
0.0
 50
90.0
100
AcDbRotatedDimension
  0
DIMENSION
  5
249
330
1F
100
AcDbEntity
  8
FORMAT
100
AcDbDimension
  2
*D5
 10
152.9747067063
 20
500.5299035085
 30
0.0
 11
152.9747067063
 21
543.1108583203
 31
0.0
 70
   160
 71
     2
 42
-1.0
  3
SLDDIMSTYLE1
100
AcDbAlignedDimension
 13
353.7258987845
 23
579.8799035085
 33
0.0
 14
455.3258987845
 24
500.5299035085
 34
0.0
 50
90.0
100
AcDbRotatedDimension
  0
INSERT
  5
262
330
1F
100
AcDbEntity
  8
G__TOTO
100
AcDbBlockReference
  2
SW_NOTE_1
 10
698.635198779
 20
614.3069966555
 30
0.0
  0
LEADER
  5
264
330
1F
100
AcDbEntity
  8
G__TOTO
100
AcDbLeader
  3
SLDDIMSTYLE2
 76
     2
 10
670.3633933086
 20
630.6799035085
 30
0.0
 10
698.635198779
 20
614.3069966555
 30
0.0
  0
INSERT
  5
26B
330
1F
100
AcDbEntity
  8
G__TOTO
100
AcDbBlockReference
  2
SW_NOTE_2
 10
737.8817967723
 20
520.1858996656
 30
0.0
  0
LEADER
  5
26C
330
1F
100
AcDbEntity
  8
G__TOTO
100
AcDbLeader
  3
SLDDIMSTYLE2
 76
     2
 10
703.9785398845
 20
579.8799035085
 30
0.0
 10
737.8817967723
 20
520.1858996656
 30
0.0
  0
INSERT
  5
277
330
1F
100
AcDbEntity
  8
FORMAT
100
AcDbBlockReference
  2
SW_NOTE_3
 10
679.604164317
 20
60.8549148161
 30
0.0
  0
INSERT
  5
27E
330
1F
100
AcDbEntity
  8
G__TOTO
100
AcDbBlockReference
  2
SW_NOTE_4
 10
685.6534302171
 20
174.3678287625
 30
0.0
  0
LEADER
  5
27F
330
1F
100
AcDbEntity
  8
G__TOTO
100
AcDbLeader
  3
SLDDIMSTYLE2
 76
     2
 10
645.305972677
 20
149.447149582
 30
0.0
 10
685.6534302171
 20
174.3678287625
 30
0.0
  0
INSERT
  5
286
330
1F
100
AcDbEntity
  8
G__TOTO
100
AcDbBlockReference
  2
SW_NOTE_5
 10
130.4643489635
 20
212.8284468227
 30
0.0
  0
LEADER
  5
287
330
1F
100
AcDbEntity
  8
G__TOTO
100
AcDbLeader
  3
SLDDIMSTYLE2
 76
     2
 10
221.5254279553
 20
289.1462761619
 30
0.0
 10
130.4643489635
 20
212.8284468227
 30
0.0
  0
INSERT
  5
28E
330
1F
100
AcDbEntity
  8
FORMAT
100
AcDbBlockReference
  2
SW_NOTE_6
 10
794.7474449328
 20
424.3618461538
 30
0.0
  0
LEADER
  5
28F
330
1F
100
AcDbEntity
  8
FORMAT
100
AcDbLeader
  3
SLDDIMSTYLE2
 76
     2
 10
718.2631125171
 20
388.3270222805
 30
0.0
 10
794.7474449328
 20
424.3618461538
 30
0.0
  0
INSERT
  5
29B
330
1F
100
AcDbEntity
  8
0
  6
SLD-Solid
 62
     7
370
     0
100
AcDbBlockReference
  2
SW_CENTERMARKSYMBOL_0
 10
455.3258987845
 20
325.8799035085
 30
0.0
  0
INSERT
  5
2A7
330
1F
100
AcDbEntity
  8
0
  6
SLD-Solid
 62
     7
370
     0
100
AcDbBlockReference
  2
SW_CENTERMARKSYMBOL_1
 10
455.3258987845
 20
579.8799035085
 30
0.0
  0
INSERT
  5
2B3
330
1F
100
AcDbEntity
  8
G__TOTO
100
AcDbBlockReference
  2
SW_CENTERMARKSYMBOL_2
 10
267.7149715503
 20
504.350491852
 30
0.0
  0
INSERT
  5
2BF
330
1F
100
AcDbEntity
  8
G__TOTO
100
AcDbBlockReference
  2
SW_CENTERMARKSYMBOL_3
 10
267.7149715503
 20
147.4093151649
 30
0.0
  0
INSERT
  5
2CB
330
1F
100
AcDbEntity
  8
G__TOTO
100
AcDbBlockReference
  2
SW_CENTERMARKSYMBOL_4
 10
642.9368260186
 20
147.4093151649
 30
0.0
  0
INSERT
  5
2D7
330
1F
100
AcDbEntity
  8
G__TOTO
100
AcDbBlockReference
  2
SW_CENTERMARKSYMBOL_5
 10
642.9368260186
 20
504.350491852
 30
0.0
  0
ENDSEC
  0
SECTION
  2
OBJECTS
  0
DICTIONARY
  5
C
330
0
100
AcDbDictionary
281
     1
  3
ACAD_GROUP
350
D
  3
ACAD_LAYOUT
350
1A
  3
ACAD_MLEADERSTYLE
350
2D9
  3
ACAD_MLINESTYLE
350
17
  3
ACAD_PLOTSETTINGS
350
19
  3
ACAD_PLOTSTYLENAME
350
E
  3
ACAD_SCALELIST
350
3B
  3
ACAD_TABLESTYLE
350
2D8
  3
ACAD_VISUALSTYLE
350
2A
  0
DICTIONARY
  5
D
102
{ACAD_REACTORS
330
C
102
}
330
C
100
AcDbDictionary
281
     1
  0
DICTIONARY
  5
1A
102
{ACAD_REACTORS
330
C
102
}
330
C
100
AcDbDictionary
281
     1
  3
Layout1
350
1E
  3
Layout2
350
26
  3
Model
350
22
  0
DICTIONARY
  5
2D9
102
{ACAD_REACTORS
330
C
102
}
330
C
100
AcDbDictionary
281
     1
  0
DICTIONARY
  5
17
102
{ACAD_REACTORS
330
C
102
}
330
C
100
AcDbDictionary
281
     1
  3
Standard
350
18
  0
DICTIONARY
  5
19
102
{ACAD_REACTORS
330
C
102
}
330
C
100
AcDbDictionary
281
     1
  0
ACDBDICTIONARYWDFLT
  5
E
102
{ACAD_REACTORS
330
C
102
}
330
C
100
AcDbDictionary
281
     1
  3
Normal
350
F
100
AcDbDictionaryWithDefault
340
F
  0
DICTIONARY
  5
3B
102
{ACAD_REACTORS
330
C
102
}
330
C
100
AcDbDictionary
281
     1
  3
A0
350
3C
  3
A1
350
3D
  3
A2
350
3E
  3
A3
350
3F
  3
A4
350
40
  3
A5
350
41
  3
A6
350
42
  3
A7
350
43
  3
A8
350
44
  3
A9
350
45
  3
B0
350
46
  3
B1
350
47
  3
B2
350
48
  3
B3
350
49
  3
B4
350
4A
  3
B5
350
4B
  3
B6
350
4C
  3
B7
350
4D
  3
B8
350
4E
  3
B9
350
4F
  3
C0
350
50
  3
C1
350
51
  3
C2
350
52
  3
C3
350
53
  3
C4
350
54
  3
C5
350
55
  3
C6
350
56
  3
C7
350
57
  3
C8
350
58
  3
C9
350
59
  3
D0
350
5A
  3
D1
350
5B
  3
D2
350
5C
  0
DICTIONARY
  5
2D8
102
{ACAD_REACTORS
330
C
102
}
330
C
100
AcDbDictionary
281
     1
  0
DICTIONARY
  5
2A
102
{ACAD_REACTORS
330
C
102
}
330
C
100
AcDbDictionary
281
     1
  3
2dWireframe
350
2F
  3
3D Hidden
350
31
  3
3dWireframe
350
30
  3
Basic
350
32
  3
Brighten
350
36
  3
ColorChange
350
3A
  3
Conceptual
350
34
  3
Dim
350
35
  3
Facepattern
350
39
  3
Flat
350
2B
  3
FlatWithEdges
350
2C
  3
Gouraud
350
2D
  3
GouraudWithEdges
350
2E
  3
Linepattern
350
38
  3
Realistic
350
33
  3
Thicken
350
37
  0
LAYOUT
  5
1E
102
{ACAD_REACTORS
330
1A
102
}
330
1A
100
AcDbPlotSettings
  1

  2
none_device
  4

  6

 40
0.0
 41
0.0
 42
0.0
 43
0.0
 44
0.0
 45
0.0
 46
0.0
 47
0.0
 48
0.0
 49
0.0
140
0.0
141
0.0
142
1.0
143
1.0
 70
   688
 72
     0
 73
     0
 74
     5
  7

 75
    16
 76
     0
 77
     2
 78
   300
147
1.0
148
0.0
149
0.0
100
AcDbLayout
  1
Layout1
 70
     1
 71
     1
 10
0.0
 20
0.0
 11
420.0
 21
297.0
 12
0.0
 22
0.0
 32
0.0
 14
1.0000000000E+20
 24
1.0000000000E+20
 34
1.0000000000E+20
 15
-1.0000000000E+20
 25
-1.0000000000E+20
 35
-1.0000000000E+20
146
0.0
 13
0.0
 23
0.0
 33
0.0
 16
1.0
 26
0.0
 36
0.0
 17
0.0
 27
1.0
 37
0.0
 76
     0
330
1B
  0
LAYOUT
  5
26
102
{ACAD_REACTORS
330
1A
102
}
330
1A
100
AcDbPlotSettings
  1

  2
none_device
  4

  6

 40
0.0
 41
0.0
 42
0.0
 43
0.0
 44
0.0
 45
0.0
 46
0.0
 47
0.0
 48
0.0
 49
0.0
140
0.0
141
0.0
142
1.0
143
1.0
 70
   688
 72
     0
 73
     0
 74
     5
  7

 75
    16
 76
     0
 77
     2
 78
   300
147
1.0
148
0.0
149
0.0
100
AcDbLayout
  1
Layout2
 70
     1
 71
     2
 10
0.0
 20
0.0
 11
0.0
 21
0.0
 12
0.0
 22
0.0
 32
0.0
 14
0.0
 24
0.0
 34
0.0
 15
0.0
 25
0.0
 35
0.0
146
0.0
 13
0.0
 23
0.0
 33
0.0
 16
1.0
 26
0.0
 36
0.0
 17
0.0
 27
1.0
 37
0.0
 76
     0
330
23
  0
LAYOUT
  5
22
102
{ACAD_REACTORS
330
1A
102
}
330
1A
100
AcDbPlotSettings
  1

  2
none_device
  4

  6

 40
0.0
 41
0.0
 42
0.0
 43
0.0
 44
0.0
 45
0.0
 46
0.0
 47
0.0
 48
0.0
 49
0.0
140
0.0
141
0.0
142
1.0
143
1.0
 70
  1712
 72
     0
 73
     0
 74
     0
  7

 75
     0
 76
     0
 77
     2
 78
   300
147
1.0
148
0.0
149
0.0
100
AcDbLayout
  1
Model
 70
     1
 71
     0
 10
0.0
 20
0.0
 11
909.0
 21
680.0
 12
0.0
 22
0.0
 32
0.0
 14
0.0
 24
0.0
 34
0.0
 15
909.0
 25
680.0
 35
0.0
146
0.0
 13
0.0
 23
0.0
 33
0.0
 16
1.0
 26
0.0
 36
0.0
 17
0.0
 27
1.0
 37
0.0
 76
     0
330
1F
331
29
  0
MLINESTYLE
  5
18
102
{ACAD_REACTORS
330
17
102
}
330
17
100
AcDbMlineStyle
  2
Standard
 70
     0
  3

 62
   256
 51
90.0
 52
90.0
 71
     2
 49
0.5
 62
   256
  6
BYLAYER
 49
-0.5
 62
   256
  6
BYLAYER
  0
ACDBPLACEHOLDER
  5
F
102
{ACAD_REACTORS
330
E
102
}
330
E
  0
SCALE
  5
3C
102
{ACAD_REACTORS
330
3B
102
}
330
3B
100
AcDbScale
 70
     0
300
1:1
140
1.0
141
1.0
290
     1
  0
SCALE
  5
3D
102
{ACAD_REACTORS
330
3B
102
}
330
3B
100
AcDbScale
 70
     0
300
1:2
140
1.0
141
2.0
290
     0
  0
SCALE
  5
3E
102
{ACAD_REACTORS
330
3B
102
}
330
3B
100
AcDbScale
 70
     0
300
1:4
140
1.0
141
4.0
290
     0
  0
SCALE
  5
3F
102
{ACAD_REACTORS
330
3B
102
}
330
3B
100
AcDbScale
 70
     0
300
1:5
140
1.0
141
5.0
290
     0
  0
SCALE
  5
40
102
{ACAD_REACTORS
330
3B
102
}
330
3B
100
AcDbScale
 70
     0
300
1:8
140
1.0
141
8.0
290
     0
  0
SCALE
  5
41
102
{ACAD_REACTORS
330
3B
102
}
330
3B
100
AcDbScale
 70
     0
300
1:10
140
1.0
141
10.0
290
     0
  0
SCALE
  5
42
102
{ACAD_REACTORS
330
3B
102
}
330
3B
100
AcDbScale
 70
     0
300
1:16
140
1.0
141
16.0
290
     0
  0
SCALE
  5
43
102
{ACAD_REACTORS
330
3B
102
}
330
3B
100
AcDbScale
 70
     0
300
1:20
140
1.0
141
20.0
290
     0
  0
SCALE
  5
44
102
{ACAD_REACTORS
330
3B
102
}
330
3B
100
AcDbScale
 70
     0
300
1:30
140
1.0
141
30.0
290
     0
  0
SCALE
  5
45
102
{ACAD_REACTORS
330
3B
102
}
330
3B
100
AcDbScale
 70
     0
300
1:40
140
1.0
141
40.0
290
     0
  0
SCALE
  5
46
102
{ACAD_REACTORS
330
3B
102
}
330
3B
100
AcDbScale
 70
     0
300
1:50
140
1.0
141
50.0
290
     0
  0
SCALE
  5
47
102
{ACAD_REACTORS
330
3B
102
}
330
3B
100
AcDbScale
 70
     0
300
1:100
140
1.0
141
100.0
290
     0
  0
SCALE
  5
48
102
{ACAD_REACTORS
330
3B
102
}
330
3B
100
AcDbScale
 70
     0
300
2:1
140
2.0
141
1.0
290
     0
  0
SCALE
  5
49
102
{ACAD_REACTORS
330
3B
102
}
330
3B
100
AcDbScale
 70
     0
300
4:1
140
4.0
141
1.0
290
     0
  0
SCALE
  5
4A
102
{ACAD_REACTORS
330
3B
102
}
330
3B
100
AcDbScale
 70
     0
300
8:1
140
8.0
141
1.0
290
     0
  0
SCALE
  5
4B
102
{ACAD_REACTORS
330
3B
102
}
330
3B
100
AcDbScale
 70
     0
300
10:1
140
10.0
141
1.0
290
     0
  0
SCALE
  5
4C
102
{ACAD_REACTORS
330
3B
102
}
330
3B
100
AcDbScale
 70
     0
300
100:1
140
100.0
141
1.0
290
     0
  0
SCALE
  5
4D
102
{ACAD_REACTORS
330
3B
102
}
330
3B
100
AcDbScale
 70
     0
300
1/128" = 1'-0"
140
0.0078125
141
12.0
290
     0
  0
SCALE
  5
4E
102
{ACAD_REACTORS
330
3B
102
}
330
3B
100
AcDbScale
 70
     0
300
1/64" = 1'-0"
140
0.015625
141
12.0
290
     0
  0
SCALE
  5
4F
102
{ACAD_REACTORS
330
3B
102
}
330
3B
100
AcDbScale
 70
     0
300
1/32" = 1'-0"
140
0.03125
141
12.0
290
     0
  0
SCALE
  5
50
102
{ACAD_REACTORS
330
3B
102
}
330
3B
100
AcDbScale
 70
     0
300
1/16" = 1'-0"
140
0.0625
141
12.0
290
     0
  0
SCALE
  5
51
102
{ACAD_REACTORS
330
3B
102
}
330
3B
100
AcDbScale
 70
     0
300
3/32" = 1'-0"
140
0.09375
141
12.0
290
     0
  0
SCALE
  5
52
102
{ACAD_REACTORS
330
3B
102
}
330
3B
100
AcDbScale
 70
     0
300
1/8" = 1'-0"
140
0.125
141
12.0
290
     0
  0
SCALE
  5
53
102
{ACAD_REACTORS
330
3B
102
}
330
3B
100
AcDbScale
 70
     0
300
3/16" = 1'-0"
140
0.1875
141
12.0
290
     0
  0
SCALE
  5
54
102
{ACAD_REACTORS
330
3B
102
}
330
3B
100
AcDbScale
 70
     0
300
1/4" = 1'-0"
140
0.25
141
12.0
290
     0
  0
SCALE
  5
55
102
{ACAD_REACTORS
330
3B
102
}
330
3B
100
AcDbScale
 70
     0
300
3/8" = 1'-0"
140
0.375
141
12.0
290
     0
  0
SCALE
  5
56
102
{ACAD_REACTORS
330
3B
102
}
330
3B
100
AcDbScale
 70
     0
300
1/2" = 1'-0"
140
0.5
141
12.0
290
     0
  0
SCALE
  5
57
102
{ACAD_REACTORS
330
3B
102
}
330
3B
100
AcDbScale
 70
     0
300
3/4" = 1'-0"
140
0.75
141
12.0
290
     0
  0
SCALE
  5
58
102
{ACAD_REACTORS
330
3B
102
}
330
3B
100
AcDbScale
 70
     0
300
1" = 1'-0"
140
1.0
141
12.0
290
     0
  0
SCALE
  5
59
102
{ACAD_REACTORS
330
3B
102
}
330
3B
100
AcDbScale
 70
     0
300
1-1/2" = 1'-0"
140
1.5
141
12.0
290
     0
  0
SCALE
  5
5A
102
{ACAD_REACTORS
330
3B
102
}
330
3B
100
AcDbScale
 70
     0
300
3" = 1'-0"
140
3.0
141
12.0
290
     0
  0
SCALE
  5
5B
102
{ACAD_REACTORS
330
3B
102
}
330
3B
100
AcDbScale
 70
     0
300
6" = 1'-0"
140
6.0
141
12.0
290
     0
  0
SCALE
  5
5C
102
{ACAD_REACTORS
330
3B
102
}
330
3B
100
AcDbScale
 70
     0
300
1'-0" = 1'-0"
140
12.0
141
12.0
290
     0
  0
VISUALSTYLE
  5
2F
102
{ACAD_REACTORS
330
2A
102
}
330
2A
100
AcDbVisualStyle
  2
2dWireframe
 70
     4
 71
     0
 72
     2
 73
     0
 90
        0
 40
-0.6
 41
-30.0
 62
     5
 63
     7
421
 16777215
 74
     1
 91
        4
 64
     7
 65
   257
 75
     1
175
     1
 42
1.0
 92
        0
 66
   257
 43
1.0
 76
     1
 77
     6
 78
     2
 67
     7
 79
     5
170
     0
171
     0
290
     0
174
     0
 93
        1
 44
0.0
173
     0
291
     0
 45
0.0
1001
ACAD
1000
AcDbSavedByObjectVersion
1070
     0
  0
VISUALSTYLE
  5
31
102
{ACAD_REACTORS
330
2A
102
}
330
2A
100
AcDbVisualStyle
  2
3D Hidden
 70
     6
 71
     1
 72
     2
 73
     2
 90
        0
 40
-0.6
 41
-30.0
 62
     5
 63
     7
421
 16777215
 74
     2
 91
        2
 64
     7
 65
   257
 75
     2
175
     1
 42
40.0
 92
        0
 66
   257
 43
1.0
 76
     1
 77
     6
 78
     2
 67
     7
 79
     3
170
     0
171
     0
290
     0
174
     0
 93
        1
 44
0.0
173
     0
291
     0
 45
0.0
1001
ACAD
1000
AcDbSavedByObjectVersion
1070
     0
  0
VISUALSTYLE
  5
30
102
{ACAD_REACTORS
330
2A
102
}
330
2A
100
AcDbVisualStyle
  2
3dWireframe
 70
     5
 71
     0
 72
     2
 73
     0
 90
        0
 40
-0.6
 41
-30.0
 62
     5
 63
     7
421
 16777215
 74
     1
 91
        4
 64
     7
 65
   257
 75
     1
175
     1
 42
1.0
 92
        0
 66
   257
 43
1.0
 76
     1
 77
     6
 78
     2
 67
     7
 79
     5
170
     0
171
     0
290
     0
174
     0
 93
        1
 44
0.0
173
     0
291
     0
 45
0.0
1001
ACAD
1000
AcDbSavedByObjectVersion
1070
     0
  0
VISUALSTYLE
  5
32
102
{ACAD_REACTORS
330
2A
102
}
330
2A
100
AcDbVisualStyle
  2
Basic
 70
     7
 71
     1
 72
     0
 73
     1
 90
        0
 40
-0.6
 41
-30.0
 62
     5
 63
     7
421
 16777215
 74
     0
 91
        4
 64
     7
 65
   257
 75
     1
175
     1
 42
1.0
 92
        8
 66
     7
 43
1.0
 76
     1
 77
     6
 78
     2
 67
     7
 79
     5
170
     0
171
     0
290
     0
174
     0
 93
        1
 44
0.0
173
     0
291
     1
 45
0.0
1001
ACAD
1000
AcDbSavedByObjectVersion
1070
     0
  0
VISUALSTYLE
  5
36
102
{ACAD_REACTORS
330
2A
102
}
330
2A
100
AcDbVisualStyle
  2
Brighten
 70
    12
 71
     2
 72
     2
 73
     0
 90
        0
 40
-0.6
 41
-30.0
 62
     5
 63
     7
421
 16777215
 74
     1
 91
        4
 64
     7
 65
   257
 75
     1
175
     1
 42
1.0
 92
        8
 66
     7
 43
1.0
 76
     1
 77
     6
 78
     2
 67
     7
 79
     5
170
     0
171
     0
290
     0
174
     0
 93
        1
 44
50.0
173
     0
291
     1
 45
0.0
1001
ACAD
1000
AcDbSavedByObjectVersion
1070
     0
  0
VISUALSTYLE
  5
3A
102
{ACAD_REACTORS
330
2A
102
}
330
2A
100
AcDbVisualStyle
  2
ColorChange
 70
    16
 71
     2
 72
     2
 73
     3
 90
        0
 40
-0.6
 41
-30.0
 62
     5
 63
     8
421
  8421504
 74
     1
 91
        4
 64
     7
 65
   257
 75
     1
175
     1
 42
1.0
 92
        8
 66
     8
424
  8421504
 43
1.0
 76
     1
 77
     6
 78
     2
 67
     7
 79
     5
170
     0
171
     0
290
     0
174
     0
 93
        1
 44
0.0
173
     0
291
     1
 45
0.0
1001
ACAD
1000
AcDbSavedByObjectVersion
1070
     0
  0
VISUALSTYLE
  5
34
102
{ACAD_REACTORS
330
2A
102
}
330
2A
100
AcDbVisualStyle
  2
Conceptual
 70
     9
 71
     3
 72
     2
 73
     0
 90
        0
 40
-0.6
 41
-30.0
 62
     5
 63
     7
421
 16777215
 74
     2
 91
        2
 64
     7
 65
   257
 75
     1
175
     1
 42
40.0
 92
        8
 66
     7
 43
1.0
 76
     1
 77
     6
 78
     2
 67
     7
 79
     3
170
     0
171
     0
290
     0
174
     0
 93
        1
 44
0.0
173
     0
291
     0
 45
0.0
1001
ACAD
1000
AcDbSavedByObjectVersion
1070
     0
  0
VISUALSTYLE
  5
35
102
{ACAD_REACTORS
330
2A
102
}
330
2A
100
AcDbVisualStyle
  2
Dim
 70
    11
 71
     2
 72
     2
 73
     0
 90
        0
 40
-0.6
 41
-30.0
 62
     5
 63
     7
421
 16777215
 74
     1
 91
        4
 64
     7
 65
   257
 75
     1
175
     1
 42
1.0
 92
        8
 66
     7
 43
1.0
 76
     1
 77
     6
 78
     2
 67
     7
 79
     5
170
     0
171
     0
290
     0
174
     0
 93
        1
 44
-50.0
173
     0
291
     1
 45
0.0
1001
ACAD
1000
AcDbSavedByObjectVersion
1070
     0
  0
VISUALSTYLE
  5
39
102
{ACAD_REACTORS
330
2A
102
}
330
2A
100
AcDbVisualStyle
  2
Facepattern
 70
    15
 71
     2
 72
     2
 73
     0
 90
        0
 40
-0.6
 41
-30.0
 62
     5
 63
     7
421
 16777215
 74
     1
 91
        4
 64
     7
 65
   257
 75
     1
175
     1
 42
1.0
 92
        8
 66
     7
 43
1.0
 76
     1
 77
     6
 78
     2
 67
     7
 79
     5
170
     0
171
     0
290
     0
174
     0
 93
        1
 44
0.0
173
     0
291
     1
 45
0.0
1001
ACAD
1000
AcDbSavedByObjectVersion
1070
     0
  0
VISUALSTYLE
  5
2B
102
{ACAD_REACTORS
330
2A
102
}
330
2A
100
AcDbVisualStyle
  2
Flat
 70
     0
 71
     2
 72
     1
 73
     1
 90
        2
 40
-0.6
 41
30.0
 62
     5
 63
     7
421
 16777215
 74
     0
 91
        4
 64
     7
 65
   257
 75
     1
175
     1
 42
1.0
 92
        8
 66
     7
 43
1.0
 76
     1
 77
     6
 78
     2
 67
     7
 79
     5
170
     0
171
     0
290
     0
174
     0
 93
       13
 44
0.0
173
     0
291
     1
 45
0.0
1001
ACAD
1000
AcDbSavedByObjectVersion
1070
     0
  0
VISUALSTYLE
  5
2C
102
{ACAD_REACTORS
330
2A
102
}
330
2A
100
AcDbVisualStyle
  2
FlatWithEdges
 70
     1
 71
     2
 72
     1
 73
     1
 90
        2
 40
-0.6
 41
30.0
 62
     5
 63
     7
421
 16777215
 74
     1
 91
        4
 64
     7
 65
   257
 75
     1
175
     1
 42
1.0
 92
        0
 66
   257
 43
1.0
 76
     1
 77
     6
 78
     2
 67
     7
 79
     5
170
     0
171
     0
290
     0
174
     0
 93
       13
 44
0.0
173
     0
291
     1
 45
0.0
1001
ACAD
1000
AcDbSavedByObjectVersion
1070
     0
  0
VISUALSTYLE
  5
2D
102
{ACAD_REACTORS
330
2A
102
}
330
2A
100
AcDbVisualStyle
  2
Gouraud
 70
     2
 71
     2
 72
     2
 73
     1
 90
        2
 40
-0.6
 41
30.0
 62
     5
 63
     7
421
 16777215
 74
     0
 91
        4
 64
     7
 65
   257
 75
     1
175
     1
 42
1.0
 92
        0
 66
     7
 43
1.0
 76
     1
 77
     6
 78
     2
 67
     7
 79
     5
170
     0
171
     0
290
     0
174
     0
 93
       13
 44
0.0
173
     0
291
     1
 45
0.0
1001
ACAD
1000
AcDbSavedByObjectVersion
1070
     0
  0
VISUALSTYLE
  5
2E
102
{ACAD_REACTORS
330
2A
102
}
330
2A
100
AcDbVisualStyle
  2
GouraudWithEdges
 70
     3
 71
     2
 72
     2
 73
     1
 90
        2
 40
-0.6
 41
30.0
 62
     5
 63
     7
421
 16777215
 74
     1
 91
        4
 64
     7
 65
   257
 75
     1
175
     1
 42
1.0
 92
        0
 66
   257
 43
1.0
 76
     1
 77
     6
 78
     2
 67
     7
 79
     5
170
     0
171
     0
290
     0
174
     0
 93
       13
 44
0.0
173
     0
291
     1
 45
0.0
1001
ACAD
1000
AcDbSavedByObjectVersion
1070
     0
  0
VISUALSTYLE
  5
38
102
{ACAD_REACTORS
330
2A
102
}
330
2A
100
AcDbVisualStyle
  2
Linepattern
 70
    14
 71
     2
 72
     2
 73
     0
 90
        0
 40
-0.6
 41
-30.0
 62
     5
 63
     7
421
 16777215
 74
     1
 91
        4
 64
     7
 65
   257
 75
     7
175
     7
 42
1.0
 92
        8
 66
     7
 43
1.0
 76
     1
 77
     6
 78
     2
 67
     7
 79
     5
170
     0
171
     0
290
     0
174
     0
 93
        1
 44
0.0
173
     0
291
     1
 45
0.0
1001
ACAD
1000
AcDbSavedByObjectVersion
1070
     0
  0
VISUALSTYLE
  5
33
102
{ACAD_REACTORS
330
2A
102
}
330
2A
100
AcDbVisualStyle
  2
Realistic
 70
     8
 71
     2
 72
     2
 73
     0
 90
        0
 40
-0.6
 41
-30.0
 62
     5
 63
     7
421
 16777215
 74
     1
 91
        0
 64
     7
 65
   257
 75
     1
175
     1
 42
1.0
 92
        8
 66
     8
424
  7895160
 43
1.0
 76
     1
 77
     6
 78
     2
 67
     7
 79
     5
170
     0
171
     0
290
     0
174
     0
 93
       13
 44
0.0
173
     0
291
     0
 45
0.0
1001
ACAD
1000
AcDbSavedByObjectVersion
1070
     0
  0
VISUALSTYLE
  5
37
102
{ACAD_REACTORS
330
2A
102
}
330
2A
100
AcDbVisualStyle
  2
Thicken
 70
    13
 71
     2
 72
     2
 73
     0
 90
        0
 40
-0.6
 41
-30.0
 62
     5
 63
     7
421
 16777215
 74
     1
 91
        4
 64
     7
 65
   257
 75
     1
175
     1
 42
1.0
 92
       12
 66
     7
 43
1.0
 76
     1
 77
     6
 78
     2
 67
     7
 79
     5
170
     0
171
     0
290
     0
174
     0
 93
        1
 44
0.0
173
     0
291
     1
 45
0.0
1001
ACAD
1000
AcDbSavedByObjectVersion
1070
     0
  0
ENDSEC
  0
EOF
