  0
SECTION
  2
HEADER
  9
$ACADVER
  1
AC1015
  9
$ACADMAINTVER
 70
    20
  9
$DWGCODEPAGE
  3
ANSI_1252
  9
$INSBASE
 10
0.0
 20
0.0
 30
0.0
  9
$EXTMIN
 10
4.6660667351907
 20
9.660016709443697
 30
0.0
  9
$EXTMAX
 10
70.66606673519074
 20
43.66001670944377
 30
0.0
  9
$LIMMIN
 10
0.0
 20
0.0
  9
$LIMMAX
 10
0.0
 20
0.0
  9
$ORTHOMODE
 70
     0
  9
$REGENMODE
 70
     1
  9
$FILLMODE
 70
     1
  9
$QTEXTMODE
 70
     0
  9
$MIRRTEXT
 70
     1
  9
$LTSCALE
 40
1.0
  9
$ATTMODE
 70
     1
  9
$TEXTSIZE
 40
0.0
  9
$TRACEWID
 40
0.05
  9
$TEXTSTYLE
  7
STANDARD
  9
$CLAYER
  8
template
  9
$CELTYPE
  6
CONTINUOUS
  9
$CECOLOR
 62
   142
  9
$CELTSCALE
 40
4.0
  9
$DISPSILH
 70
     0
  9
$DIMSCALE
 40
1.0
  9
$DIMASZ
 40
0.18
  9
$DIMEXO
 40
0.625
  9
$DIMDLI
 40
0.38
  9
$DIMRND
 40
0.0
  9
$DIMDLE
 40
0.0
  9
$DIMEXE
 40
0.18
  9
$DIMTP
 40
0.0
  9
$DIMTM
 40
0.0
  9
$DIMTXT
 40
0.25
  9
$DIMCEN
 40
0.09
  9
$DIMTSZ
 40
0.0
  9
$DIMTOL
 70
     0
  9
$DIMLIM
 70
     0
  9
$DIMTIH
 70
     1
  9
$DIMTOH
 70
     1
  9
$DIMSE1
 70
     0
  9
$DIMSE2
 70
     0
  9
$DIMTAD
 70
     0
  9
$DIMZIN
 70
     8
  9
$DIMBLK
  1

  9
$DIMASO
 70
     1
  9
$DIMSHO
 70
     1
  9
$DIMPOST
  1
"\X
  9
$DIMAPOST
  1
mm
  9
$DIMALT
 70
     1
  9
$DIMALTD
 70
     0
  9
$DIMALTF
 40
25.4
  9
$DIMLFAC
 40
1.0
  9
$DIMTOFL
 70
     0
  9
$DIMTVP
 40
0.0
  9
$DIMTIX
 70
     0
  9
$DIMSOXD
 70
     0
  9
$DIMSAH
 70
     0
  9
$DIMBLK1
  1

  9
$DIMBLK2
  1

  9
$DIMSTYLE
  2
STANDARD
  9
$DIMCLRD
 70
     0
  9
$DIMCLRE
 70
     0
  9
$DIMCLRT
 70
     0
  9
$DIMTFAC
 40
1.0
  9
$DIMGAP
 40
0.09
  9
$DIMJUST
 70
     0
  9
$DIMSD1
 70
     0
  9
$DIMSD2
 70
     0
  9
$DIMTOLJ
 70
     1
  9
$DIMTZIN
 70
     0
  9
$DIMALTZ
 70
     0
  9
$DIMALTTZ
 70
     0
  9
$DIMUPT
 70
     0
  9
$DIMDEC
 70
     4
  9
$DIMTDEC
 70
     4
  9
$DIMALTU
 70
     2
  9
$DIMALTTD
 70
     0
  9
$DIMTXSTY
  7
ARIAL
  9
$DIMAUNIT
 70
     0
  9
$DIMADEC
 70
     0
  9
$DIMALTRND
 40
0.0
  9
$DIMAZIN
 70
     0
  9
$DIMDSEP
 70
    46
  9
$DIMATFIT
 70
     3
  9
$DIMFRAC
 70
     0
  9
$DIMLDRBLK
  1

  9
$DIMLUNIT
 70
     5
  9
$DIMLWD
 70
    -2
  9
$DIMLWE
 70
    -2
  9
$DIMTMOVE
 70
     0
  9
$LUNITS
 70
     2
  9
$LUPREC
 70
     4
  9
$SKETCHINC
 40
0.1
  9
$FILLETRAD
 40
0.0
  9
$AUNITS
 70
     0
  9
$AUPREC
 70
     0
  9
$MENU
  1
acad
  9
$ELEVATION
 40
0.0
  9
$PELEVATION
 40
0.0
  9
$THICKNESS
 40
0.3
  9
$LIMCHECK
 70
     0
  9
$CHAMFERA
 40
0.0
  9
$CHAMFERB
 40
0.0
  9
$CHAMFERC
 40
0.0
  9
$CHAMFERD
 40
0.0
  9
$SKPOLY
 70
     0
  9
$TDCREATE
 40
2311888.289094722
  9
$TDUCREATE
 40
2311888.622428055
  9
$TDUPDATE
 40
2455154.425097836
  9
$TDUUPDATE
 40
2455154.758431170
  9
$TDINDWG
 40
0.7057387500
  9
$TDUSRTIMER
 40
0.7057365856
  9
$USRTIMER
 70
     1
  9
$ANGBASE
 50
0.0
  9
$ANGDIR
 70
     0
  9
$PDMODE
 70
     0
  9
$PDSIZE
 40
0.0
  9
$PLINEWID
 40
0.0
  9
$SPLFRAME
 70
     0
  9
$SPLINETYPE
 70
     6
  9
$SPLINESEGS
 70
     8
  9
$HANDSEED
  5
7203
  9
$SURFTAB1
 70
     6
  9
$SURFTAB2
 70
     6
  9
$SURFTYPE
 70
     6
  9
$SURFU
 70
     6
  9
$SURFV
 70
     6
  9
$UCSBASE
  2

  9
$UCSNAME
  2

  9
$UCSORG
 10
0.0
 20
0.0
 30
0.0
  9
$UCSXDIR
 10
1.0
 20
0.0
 30
0.0
  9
$UCSYDIR
 10
0.0
 20
1.0
 30
0.0
  9
$UCSORTHOREF
  2

  9
$UCSORTHOVIEW
 70
     0
  9
$UCSORGTOP
 10
0.0
 20
0.0
 30
0.0
  9
$UCSORGBOTTOM
 10
0.0
 20
0.0
 30
0.0
  9
$UCSORGLEFT
 10
0.0
 20
0.0
 30
0.0
  9
$UCSORGRIGHT
 10
0.0
 20
0.0
 30
0.0
  9
$UCSORGFRONT
 10
0.0
 20
0.0
 30
0.0
  9
$UCSORGBACK
 10
0.0
 20
0.0
 30
0.0
  9
$PUCSBASE
  2

  9
$PUCSNAME
  2

  9
$PUCSORG
 10
0.0
 20
0.0
 30
0.0
  9
$PUCSXDIR
 10
1.0
 20
0.0
 30
0.0
  9
$PUCSYDIR
 10
0.0
 20
1.0
 30
0.0
  9
$PUCSORTHOREF
  2

  9
$PUCSORTHOVIEW
 70
     0
  9
$PUCSORGTOP
 10
0.0
 20
0.0
 30
0.0
  9
$PUCSORGBOTTOM
 10
0.0
 20
0.0
 30
0.0
  9
$PUCSORGLEFT
 10
0.0
 20
0.0
 30
0.0
  9
$PUCSORGRIGHT
 10
0.0
 20
0.0
 30
0.0
  9
$PUCSORGFRONT
 10
0.0
 20
0.0
 30
0.0
  9
$PUCSORGBACK
 10
0.0
 20
0.0
 30
0.0
  9
$USERI1
 70
     0
  9
$USERI2
 70
     0
  9
$USERI3
 70
     0
  9
$USERI4
 70
     0
  9
$USERI5
 70
     0
  9
$USERR1
 40
11.65
  9
$USERR2
 40
0.0
  9
$USERR3
 40
0.0
  9
$USERR4
 40
0.0
  9
$USERR5
 40
0.0
  9
$WORLDVIEW
 70
     1
  9
$SHADEDGE
 70
     3
  9
$SHADEDIF
 70
    70
  9
$TILEMODE
 70
     1
  9
$MAXACTVP
 70
    16
  9
$PINSBASE
 10
0.0
 20
0.0
 30
0.0
  9
$PLIMCHECK
 70
     0
  9
$PEXTMIN
 10
29.0650012254715
 20
20.3649996995926
 30
0.0
  9
$PEXTMAX
 10
261.5850110292434
 20
183.2849972963333
 30
0.0
  9
$PLIMMIN
 10
-3.17498779296875
 20
-3.174999952316284
  9
$PLIMMAX
 10
293.8250122070312
 20
206.8250000476837
  9
$UNITMODE
 70
     0
  9
$VISRETAIN
 70
     0
  9
$PLINEGEN
 70
     1
  9
$PSLTSCALE
 70
     1
  9
$TREEDEPTH
 70
  3020
  9
$CMLSTYLE
  2
STANDARD
  9
$CMLJUST
 70
     0
  9
$CMLSCALE
 40
1.0
  9
$PROXYGRAPHICS
 70
     0
  9
$MEASUREMENT
 70
     1
  9
$CELWEIGHT
370
    -1
  9
$ENDCAPS
280
     0
  9
$JOINSTYLE
280
     0
  9
$LWDISPLAY
290
     1
  9
$INSUNITS
 70
     0
  9
$HYPERLINKBASE
  1

  9
$STYLESHEET
  1
monochrome.ctb
  9
$XEDIT
290
     1
  9
$CEPSNTYPE
380
     0
  9
$PSTYLEMODE
290
     1
  9
$FINGERPRINTGUID
  2
{A2D022F8-F542-4357-A35A-AF02B7EA8789}
  9
$VERSIONGUID
  2
{A12C8F78-E507-4489-B688-DC3A935DE9E1}
  9
$EXTNAMES
290
     1
  9
$PSVPSCALE
 40
0.0
  9
$OLESTARTUP
290
     0
  0
ENDSEC
  0
SECTION
  2
CLASSES
  0
CLASS
  1
IMAGE
  2
AcDbRasterImage
  3
ISM
 90
    34943
280
     0
281
     1
  0
CLASS
  1
DICTIONARYVAR
  2
AcDbDictionaryVar
  3
ObjectDBX Classes
 90
        0
280
     0
281
     0
  0
CLASS
  1
RASTERVARIABLES
  2
AcDbRasterVariables
  3
ISM
 90
    32768
280
     0
281
     0
  0
CLASS
  1
IMAGEDEF
  2
AcDbRasterImageDef
  3
ISM
 90
    32768
280
     0
281
     0
  0
CLASS
  1
IMAGEDEF_REACTOR
  2
AcDbRasterImageDefReactor
  3
ISM
 90
    32769
280
     0
281
     0
  0
CLASS
  1
IDBUFFER
  2
AcDbIdBuffer
  3
ObjectDBX Classes
 90
    32768
280
     0
281
     0
  0
CLASS
  1
SPATIAL_FILTER
  2
AcDbSpatialFilter
  3
ObjectDBX Classes
 90
    32768
280
     0
281
     0
  0
CLASS
  1
SORTENTSTABLE
  2
AcDbSortentsTable
  3
ObjectDBX Classes
 90
        0
280
     0
281
     0
  0
CLASS
  1
LAYER_INDEX
  2
AcDbLayerIndex
  3
ObjectDBX Classes
 90
    32768
280
     0
281
     0
  0
CLASS
  1
SPATIAL_INDEX
  2
AcDbSpatialIndex
  3
ObjectDBX Classes
 90
    32768
280
     0
281
     0
  0
CLASS
  1
OBJECT_PTR
  2
CAseDLPNTableRecord
  3
"ASE-LPNTableRecord"
 90
    32769
280
     0
281
     0
  0
CLASS
  1
LAYOUT
  2
AcDbLayout
  3
ObjectDBX Classes
 90
        0
280
     0
281
     0
  0
CLASS
  1
PLOTSETTINGS
  2
AcDbPlotSettings
  3
ObjectDBX Classes
 90
        0
280
     0
281
     0
  0
CLASS
  1
ACDBDICTIONARYWDFLT
  2
AcDbDictionaryWithDefault
  3
ObjectDBX Classes
 90
        0
280
     0
281
     0
  0
CLASS
  1
ACDBPLACEHOLDER
  2
AcDbPlaceHolder
  3
ObjectDBX Classes
 90
        0
280
     0
281
     0
  0
CLASS
  1
MATERIAL
  2
AcDbMaterial
  3
ObjectDBX Classes
 90
     1024
280
     0
281
     0
  0
CLASS
  1
VISUALSTYLE
  2
AcDbVisualStyle
  3
ObjectDBX Classes
 90
     4095
280
     0
281
     0
  0
CLASS
  1
TABLESTYLE
  2
AcDbTableStyle
  3
ObjectDBX Classes
 90
     4095
280
     0
281
     0
  0
CLASS
  1
DBCOLOR
  2
AcDbColor
  3
ObjectDBX Classes
 90
        0
280
     0
281
     0
  0
CLASS
  1
DIMASSOC
  2
AcDbDimAssoc
  3
"AcDbDimAssoc|Product Desc:     AcDim ARX App For Dimension|Company:          Autodesk, Inc.|WEB Address:      www.autodesk.com"
 90
    32768
280
     0
281
     0
  0
CLASS
  1
SOLID_BACKGROUND
  2
AcDbSolidBackground
  3
SCENEOE
 90
    36863
280
     0
281
     0
  0
CLASS
  1
NPOCOLLECTION
  2
AcDbImpNonPersistentObjectsCollection
  3
ObjectDBX Classes
 90
    33921
280
     0
281
     0
  0
ENDSEC
  0
SECTION
  2
TABLES
  0
TABLE
  2
VPORT
  5
7
102
{ACAD_XDICTIONARY
360
5682
102
}
330
0
100
AcDbSymbolTable
 70
     1
  0
VPORT
  5
15
330
7
100
AcDbSymbolTableRecord
100
AcDbViewportTableRecord
  2
*ACTIVE
 70
     0
 10
0.0
 20
0.0
 11
1.0
 21
1.0
 12
37.7079512928849
 22
32.6612046296432
 13
0.0
 23
0.0
 14
1.0
 24
1.0
 15
0.0
 25
0.0
 16
0.0
 26
0.0
 36
1.0
 17
0.0
 27
0.0
 37
0.0
 40
46.56657751370198
 41
1.835195530726257
 42
50.0
 43
0.0
 44
0.0
 50
0.0
 51
0.0
 71
     0
 72
   100
 73
     1
 74
     1
 75
     0
 76
     0
 77
     0
 78
     0
281
     0
 65
     1
110
0.0
120
0.0
130
0.0
111
1.0
121
0.0
131
0.0
112
0.0
122
1.0
132
0.0
 79
     0
146
0.0
  0
ENDTAB
  0
TABLE
  2
LTYPE
  5
4
330
0
100
AcDbSymbolTable
 70
     1
  0
LTYPE
  5
11
330
4
100
AcDbSymbolTableRecord
100
AcDbLinetypeTableRecord
  2
BYBLOCK
 70
     0
  3

 72
    65
 73
     0
 40
0.0
  0
LTYPE
  5
12
330
4
100
AcDbSymbolTableRecord
100
AcDbLinetypeTableRecord
  2
BYLAYER
 70
     0
  3

 72
    65
 73
     0
 40
0.0
  0
LTYPE
  5
13
330
4
100
AcDbSymbolTableRecord
100
AcDbLinetypeTableRecord
  2
CONTINUOUS
 70
     0
  3
Solid line
 72
    65
 73
     0
 40
0.0
  0
ENDTAB
  0
TABLE
  2
LAYER
  5
2
102
{ACAD_XDICTIONARY
360
46A5
102
}
330
0
100
AcDbSymbolTable
 70
     3
  0
LAYER
  5
14
330
2
100
AcDbSymbolTableRecord
100
AcDbLayerTableRecord
  2
0
 70
     0
 62
     7
  6
CONTINUOUS
370
    -3
390
2A5A
  0
LAYER
  5
46E9
330
2
100
AcDbSymbolTableRecord
100
AcDbLayerTableRecord
  2
template
 70
     0
 62
   142
  6
CONTINUOUS
370
    -3
390
2A5A
1001
AcAecLayerStandard
1000

1000

  0
LAYER
  5
4795
330
2
100
AcDbSymbolTableRecord
100
AcDbLayerTableRecord
  2
Defpoints
 70
     0
 62
     7
  6
CONTINUOUS
290
     0
370
    -3
390
2A5A
  0
ENDTAB
  0
TABLE
  2
STYLE
  5
3
330
0
100
AcDbSymbolTable
 70
     3
  0
STYLE
  5
17
330
3
100
AcDbSymbolTableRecord
100
AcDbTextStyleTableRecord
  2
STANDARD
 70
     0
 40
0.0
 41
1.0
 50
0.0
 71
     0
 42
0.0
  3
txt
  4

  0
STYLE
  5
4799
330
3
100
AcDbSymbolTableRecord
100
AcDbTextStyleTableRecord
  2
ARIAL
 70
     0
 40
0.0
 41
1.0
 50
0.0
 71
     0
 42
3.0
  3
ARIALBD.TTF
  4

1001
ACAD
1000
Arial
1071
 33554466
  0
STYLE
  5
5EDA
330
3
100
AcDbSymbolTableRecord
100
AcDbTextStyleTableRecord
  2
TEXTSTYLE_0
 70
     0
 40
0.0
 41
0.8
 50
0.0
 71
     0
 42
0.2
  3
txt
  4

  0
ENDTAB
  0
TABLE
  2
VIEW
  5
5
330
0
100
AcDbSymbolTable
 70
     0
  0
ENDTAB
  0
TABLE
  2
UCS
  5
6
330
0
100
AcDbSymbolTable
 70
     0
  0
ENDTAB
  0
TABLE
  2
APPID
  5
8
330
0
100
AcDbSymbolTable
 70
    19
  0
APPID
  5
16
330
8
100
AcDbSymbolTableRecord
100
AcDbRegAppTableRecord
  2
ACAD
 70
     0
  0
APPID
  5
46A4
330
8
100
AcDbSymbolTableRecord
100
AcDbRegAppTableRecord
  2
AcAecLayerStandard
 70
     0
  0
APPID
  5
46AF
330
8
100
AcDbSymbolTableRecord
100
AcDbRegAppTableRecord
  2
ACAD_PSEXT
 70
     0
  0
APPID
  5
46C1
330
8
100
AcDbSymbolTableRecord
100
AcDbRegAppTableRecord
  2
ACAD_EXEMPT_FROM_CAD_STANDARDS
 70
     0
  0
APPID
  5
47A0
330
8
100
AcDbSymbolTableRecord
100
AcDbRegAppTableRecord
  2
DCO15
 70
     0
  0
APPID
  5
47A1
330
8
100
AcDbSymbolTableRecord
100
AcDbRegAppTableRecord
  2
ACAD_DSTYLE_DIMTEXT_FILL
 70
     0
  0
APPID
  5
47A2
330
8
100
AcDbSymbolTableRecord
100
AcDbRegAppTableRecord
  2
ACAD_DSTYLE_DIMEXT_LENGTH
 70
     0
  0
APPID
  5
47A3
330
8
100
AcDbSymbolTableRecord
100
AcDbRegAppTableRecord
  2
ACAD_DSTYLE_DIMEXT_ENABLED
 70
     0
  0
APPID
  5
47A4
330
8
100
AcDbSymbolTableRecord
100
AcDbRegAppTableRecord
  2
ACAD_DSTYLE_DIM_LINETYPE
 70
     0
  0
APPID
  5
47A5
330
8
100
AcDbSymbolTableRecord
100
AcDbRegAppTableRecord
  2
ACAD_DSTYLE_DIM_EXT1_LINETYPE
 70
     0
  0
APPID
  5
47A6
330
8
100
AcDbSymbolTableRecord
100
AcDbRegAppTableRecord
  2
ACAD_DSTYLE_DIM_EXT2_LINETYPE
 70
     0
  0
APPID
  5
47A7
330
8
100
AcDbSymbolTableRecord
100
AcDbRegAppTableRecord
  2
ACAD_DSTYLE_DIMJOGGED_JOGANGLE_SYMBOL
 70
     0
  0
APPID
  5
47A8
330
8
100
AcDbSymbolTableRecord
100
AcDbRegAppTableRecord
  2
ACAD_DSTYLE_DIMARC_LENGTH_SYMBOL
 70
     0
  0
APPID
  5
5427
330
8
100
AcDbSymbolTableRecord
100
AcDbRegAppTableRecord
  2
AcadStringInfo
 70
     0
  0
APPID
  5
5567
330
8
100
AcDbSymbolTableRecord
100
AcDbRegAppTableRecord
  2
RAK
 70
     0
  0
APPID
  5
5568
330
8
100
AcDbSymbolTableRecord
100
AcDbRegAppTableRecord
  2
ACAUTHENVIRON
 70
     0
  0
APPID
  5
5569
330
8
100
AcDbSymbolTableRecord
100
AcDbRegAppTableRecord
  2
AcDbDynamicBlockTrueName
 70
     0
  0
APPID
  5
556A
330
8
100
AcDbSymbolTableRecord
100
AcDbRegAppTableRecord
  2
AcDbDynamicBlockGUID
 70
     0
  0
APPID
  5
556B
330
8
100
AcDbSymbolTableRecord
100
AcDbRegAppTableRecord
  2
AcDbBlockRepETag
 70
     0
  0
ENDTAB
  0
TABLE
  2
DIMSTYLE
  5
9
330
0
100
AcDbSymbolTable
 70
     1
100
AcDbDimStyleTable
 71
     1
340
18
  0
DIMSTYLE
105
18
102
{ACAD_REACTORS
330
6C31
330
6C40
330
6C4F
330
639B
330
6BD7
330
6CAB
330
6CBA
330
6CC9
330
6CD3
330
70B5
330
70C4
330
70D3
330
70E2
330
6C9C
102
}
330
9
100
AcDbSymbolTableRecord
100
AcDbDimStyleTableRecord
  2
STANDARD
 70
     0
  3
"\X
  4
mm
 42
0.625
 78
     8
140
0.25
170
     1
171
     0
274
     0
277
     5
340
4799
  0
ENDTAB
  0
TABLE
  2
BLOCK_RECORD
  5
1
330
0
100
AcDbSymbolTable
 70
    12
  0
BLOCK_RECORD
  5
A
102
{ACAD_XDICTIONARY
360
2A7B
102
}
330
1
100
AcDbSymbolTableRecord
100
AcDbBlockTableRecord
  2
*MODEL_SPACE
340
2A76
  0
BLOCK_RECORD
  5
6413
330
1
100
AcDbSymbolTableRecord
100
AcDbBlockTableRecord
  2
*Paper_Space
340
6414
  0
BLOCK_RECORD
  5
6C32
330
1
100
AcDbSymbolTableRecord
100
AcDbBlockTableRecord
  2
*D0
340
0
  0
BLOCK_RECORD
  5
6C41
330
1
100
AcDbSymbolTableRecord
100
AcDbBlockTableRecord
  2
*D1
340
0
  0
BLOCK_RECORD
  5
6C50
330
1
100
AcDbSymbolTableRecord
100
AcDbBlockTableRecord
  2
*D2
340
0
  0
BLOCK_RECORD
  5
6C9D
330
1
100
AcDbSymbolTableRecord
100
AcDbBlockTableRecord
  2
*D3
340
0
  0
BLOCK_RECORD
  5
6CAC
330
1
100
AcDbSymbolTableRecord
100
AcDbBlockTableRecord
  2
*D4
340
0
  0
BLOCK_RECORD
  5
6CBB
330
1
100
AcDbSymbolTableRecord
100
AcDbBlockTableRecord
  2
*D5
340
0
  0
BLOCK_RECORD
  5
6CCA
330
1
100
AcDbSymbolTableRecord
100
AcDbBlockTableRecord
  2
*D6
340
0
  0
BLOCK_RECORD
  5
6CD4
330
1
100
AcDbSymbolTableRecord
100
AcDbBlockTableRecord
  2
*D7
340
0
  0
BLOCK_RECORD
  5
70B6
330
1
100
AcDbSymbolTableRecord
100
AcDbBlockTableRecord
  2
*D8
340
0
  0
BLOCK_RECORD
  5
70C5
330
1
100
AcDbSymbolTableRecord
100
AcDbBlockTableRecord
  2
*D9
340
0
  0
BLOCK_RECORD
  5
70D4
330
1
100
AcDbSymbolTableRecord
100
AcDbBlockTableRecord
  2
*D10
340
0
  0
BLOCK_RECORD
  5
70E3
330
1
100
AcDbSymbolTableRecord
100
AcDbBlockTableRecord
  2
*D11
340
0
  0
ENDTAB
  0
ENDSEC
  0
SECTION
  2
BLOCKS
  0
BLOCK
  5
D
330
A
100
AcDbEntity
  8
0
100
AcDbBlockBegin
  2
*MODEL_SPACE
 70
     0
 10
0.0
 20
0.0
 30
0.0
  3
*MODEL_SPACE
  1

  0
ENDBLK
  5
E
330
A
100
AcDbEntity
  8
0
100
AcDbBlockEnd
  0
BLOCK
  5
6415
330
6413
100
AcDbEntity
 67
     1
  8
0
 62
   142
 48
4.0
100
AcDbBlockBegin
  2
*Paper_Space
 70
     0
 10
0.0
 20
0.0
 30
0.0
  3
*Paper_Space
  1

  0
ENDBLK
  5
6416
330
6413
100
AcDbEntity
 67
     1
  8
0
 62
   142
 48
4.0
100
AcDbBlockEnd
  0
BLOCK
  5
6C3E
330
6C32
100
AcDbEntity
  8
0
 62
   142
 48
4.0
100
AcDbBlockBegin
  2
*D0
 70
     1
 10
0.0
 20
0.0
 30
0.0
  3
*D0
  1

  0
LINE
  5
6C5E
330
6C32
100
AcDbEntity
  8
template
  6
Continuous
 62
     0
 48
4.0
370
    -2
100
AcDbLine
 10
20.49819545691389
 20
39.57250671263583
 30
0.0
 11
22.17186101165208
 21
39.57250671263583
 31
0.0
  0
LINE
  5
6C5F
330
6C32
100
AcDbEntity
  8
template
  6
Continuous
 62
     0
 48
4.0
370
    -2
100
AcDbLine
 10
20.49819545691389
 20
13.85368688040895
 30
0.0
 11
22.17186101165208
 21
13.85368688040895
 31
0.0
  0
LINE
  5
6C60
330
6C32
100
AcDbEntity
  8
template
  6
Continuous
 62
     0
 48
4.0
370
    -2
100
AcDbLine
 10
21.99186101165208
 20
39.39250671263583
 30
0.0
 11
21.99186101165208
 21
27.35077642362562
 31
0.0
  0
LINE
  5
6C61
330
6C32
100
AcDbEntity
  8
template
  6
Continuous
 62
     0
 48
4.0
370
    -2
100
AcDbLine
 10
21.99186101165208
 20
14.03368688040895
 30
0.0
 11
21.99186101165208
 21
26.07541716941917
 31
0.0
  0
SOLID
  5
6C62
330
6C32
100
AcDbEntity
  8
template
  6
Continuous
 62
     0
 48
4.0
100
AcDbTrace
 10
21.96186101165208
 20
39.39250671263583
 30
0.0
 11
22.02186101165208
 21
39.39250671263583
 31
0.0
 12
21.99186101165208
 22
39.57250671263583
 32
0.0
 13
21.99186101165208
 23
39.57250671263583
 33
0.0
  0
SOLID
  5
6C63
330
6C32
100
AcDbEntity
  8
template
  6
Continuous
 62
     0
 48
4.0
100
AcDbTrace
 10
21.96186101165208
 20
14.03368688040895
 30
0.0
 11
22.02186101165208
 21
14.03368688040895
 31
0.0
 12
21.99186101165208
 22
13.85368688040895
 32
0.0
 13
21.99186101165208
 23
13.85368688040895
 33
0.0
  0
MTEXT
  5
6C64
330
6C32
100
AcDbEntity
  8
template
  6
Continuous
 62
     0
 48
4.0
100
AcDbMText
 10
21.99186101165207
 20
27.10004995704991
 30
0.0
 40
0.25
 41
0.0
 71
     5
 72
     1
  1
\A1;25{\H1.000000x;\S3/4;}"
  7
ARIAL
 73
     1
 44
1.0
1001
ACAD
1000
MTEXTBEGIN
1070
    73
1070
     1
1070
    44
1040
1.0
1070
    74
1070
     0
1000
MTEXTEND
  0
MTEXT
  5
6C65
330
6C32
100
AcDbEntity
  8
template
  6
Continuous
 62
     0
 48
4.0
100
AcDbMText
 10
21.99186101165207
 20
26.46237032994668
 30
0.0
 40
0.25
 41
0.0
 71
     5
 72
     1
  1
\A1;[653mm]
  7
ARIAL
 73
     1
 44
1.0
1001
ACAD
1000
MTEXTBEGIN
1070
    73
1070
     1
1070
    44
1040
1.0
1070
    74
1070
     0
1000
MTEXTEND
  0
POINT
  5
6C66
330
6C32
100
AcDbEntity
  8
Defpoints
  6
Continuous
 62
     0
 48
4.0
100
AcDbPoint
 10
19.87319545691389
 20
39.57250671263583
 30
0.0
  0
POINT
  5
6C67
330
6C32
100
AcDbEntity
  8
Defpoints
  6
Continuous
 62
     0
 48
4.0
100
AcDbPoint
 10
19.87319545691389
 20
13.85368688040895
 30
0.0
  0
POINT
  5
6C68
330
6C32
100
AcDbEntity
  8
Defpoints
  6
Continuous
 62
     0
 48
4.0
100
AcDbPoint
 10
21.99186101165208
 20
13.85368688040895
 30
0.0
  0
ENDBLK
  5
6C3F
330
6C32
100
AcDbEntity
  8
0
 62
   142
 48
4.0
100
AcDbBlockEnd
  0
BLOCK
  5
6C4D
330
6C41
100
AcDbEntity
  8
0
 62
   142
 48
4.0
100
AcDbBlockBegin
  2
*D1
 70
     1
 10
0.0
 20
0.0
 30
0.0
  3
*D1
  1

  0
LINE
  5
6C69
330
6C41
100
AcDbEntity
  8
template
  6
Continuous
 62
     0
 48
4.0
370
    -2
100
AcDbLine
 10
17.81455230329018
 20
40.08431773625787
 30
0.0
 11
17.51079675202075
 21
40.08431773625787
 31
0.0
  0
LINE
  5
6C6A
330
6C41
100
AcDbEntity
  8
template
  6
Continuous
 62
     0
 48
4.0
370
    -2
100
AcDbLine
 10
17.81455230329018
 20
13.34187585678691
 30
0.0
 11
17.51079675202074
 21
13.34187585678691
 31
0.0
  0
LINE
  5
6C6B
330
6C41
100
AcDbEntity
  8
template
  6
Continuous
 62
     0
 48
4.0
370
    -2
100
AcDbLine
 10
17.33079675202075
 20
39.90431773625788
 30
0.0
 11
17.33079675202075
 21
27.35077642362562
 31
0.0
  0
LINE
  5
6C6C
330
6C41
100
AcDbEntity
  8
template
  6
Continuous
 62
     0
 48
4.0
370
    -2
100
AcDbLine
 10
17.33079675202074
 20
13.52187585678691
 30
0.0
 11
17.33079675202075
 21
26.07541716941917
 31
0.0
  0
SOLID
  5
6C6D
330
6C41
100
AcDbEntity
  8
template
  6
Continuous
 62
     0
 48
4.0
100
AcDbTrace
 10
17.30079675202075
 20
39.90431773625788
 30
0.0
 11
17.36079675202075
 21
39.90431773625788
 31
0.0
 12
17.33079675202075
 22
40.08431773625787
 32
0.0
 13
17.33079675202075
 23
40.08431773625787
 33
0.0
  0
SOLID
  5
6C6E
330
6C41
100
AcDbEntity
  8
template
  6
Continuous
 62
     0
 48
4.0
100
AcDbTrace
 10
17.30079675202074
 20
13.52187585678691
 30
0.0
 11
17.36079675202075
 21
13.52187585678691
 31
0.0
 12
17.33079675202074
 22
13.34187585678691
 32
0.0
 13
17.33079675202074
 23
13.34187585678691
 33
0.0
  0
MTEXT
  5
6C6F
330
6C41
100
AcDbEntity
  8
template
  6
Continuous
 62
     0
 48
4.0
100
AcDbMText
 10
17.33079675202074
 20
27.10004995704991
 30
0.0
 40
0.25
 41
0.0
 71
     5
 72
     1
  1
\A1;26{\H1.000000x;\S3/4;}"
  7
ARIAL
 73
     1
 44
1.0
1001
ACAD
1000
MTEXTBEGIN
1070
    73
1070
     1
1070
    44
1040
1.0
1070
    74
1070
     0
1000
MTEXTEND
  0
MTEXT
  5
6C70
330
6C41
100
AcDbEntity
  8
template
  6
Continuous
 62
     0
 48
4.0
100
AcDbMText
 10
17.33079675202074
 20
26.46237032994668
 30
0.0
 40
0.25
 41
0.0
 71
     5
 72
     1
  1
\A1;[679mm]
  7
ARIAL
 73
     1
 44
1.0
1001
ACAD
1000
MTEXTBEGIN
1070
    73
1070
     1
1070
    44
1040
1.0
1070
    74
1070
     0
1000
MTEXTEND
  0
POINT
  5
6C71
330
6C41
100
AcDbEntity
  8
Defpoints
  6
Continuous
 62
     0
 48
4.0
100
AcDbPoint
 10
17.18955230329018
 20
40.08431773625787
 30
0.0
  0
POINT
  5
6C72
330
6C41
100
AcDbEntity
  8
Defpoints
  6
Continuous
 62
     0
 48
4.0
100
AcDbPoint
 10
17.18955230329018
 20
13.34187585678691
 30
0.0
  0
POINT
  5
6C73
330
6C41
100
AcDbEntity
  8
Defpoints
  6
Continuous
 62
     0
 48
4.0
100
AcDbPoint
 10
17.33079675202074
 20
13.34187585678691
 30
0.0
  0
ENDBLK
  5
6C4E
330
6C41
100
AcDbEntity
  8
0
 62
   142
 48
4.0
100
AcDbBlockEnd
  0
BLOCK
  5
6C5C
330
6C50
100
AcDbEntity
  8
0
 62
   142
 48
4.0
100
AcDbBlockBegin
  2
*D2
 70
     1
 10
0.0
 20
0.0
 30
0.0
  3
*D2
  1

  0
LINE
  5
6C74
330
6C50
100
AcDbEntity
  8
template
  6
Continuous
 62
     0
 48
4.0
370
    -2
100
AcDbLine
 10
8.621533513989362
 20
42.46095021341321
 30
0.0
 11
6.981201932448143
 21
42.46095021341321
 31
0.0
  0
LINE
  5
6C75
330
6C50
100
AcDbEntity
  8
template
  6
Continuous
 62
     0
 48
4.0
370
    -2
100
AcDbLine
 10
8.621185556934335
 20
10.96524337963157
 30
0.0
 11
6.981201932448136
 21
10.96524337963157
 31
0.0
  0
LINE
  5
6C76
330
6C50
100
AcDbEntity
  8
template
  6
Continuous
 62
     0
 48
4.0
370
    -2
100
AcDbLine
 10
7.161201932448142
 20
42.28095021341321
 30
0.0
 11
7.161201932448139
 21
27.34864477287529
 31
0.0
  0
LINE
  5
6C77
330
6C50
100
AcDbEntity
  8
template
  6
Continuous
 62
     0
 48
4.0
370
    -2
100
AcDbLine
 10
7.161201932448135
 20
11.14524337963157
 30
0.0
 11
7.161201932448139
 21
26.0775488201695
 31
0.0
  0
SOLID
  5
6C78
330
6C50
100
AcDbEntity
  8
template
  6
Continuous
 62
     0
 48
4.0
100
AcDbTrace
 10
7.131201932448142
 20
42.28095021341321
 30
0.0
 11
7.191201932448143
 21
42.28095021341321
 31
0.0
 12
7.161201932448142
 22
42.46095021341321
 32
0.0
 13
7.161201932448142
 23
42.46095021341321
 33
0.0
  0
SOLID
  5
6C79
330
6C50
100
AcDbEntity
  8
template
  6
Continuous
 62
     0
 48
4.0
100
AcDbTrace
 10
7.131201932448135
 20
11.14524337963157
 30
0.0
 11
7.191201932448135
 21
11.14524337963157
 31
0.0
 12
7.161201932448135
 22
10.96524337963157
 32
0.0
 13
7.161201932448135
 23
10.96524337963157
 33
0.0
  0
MTEXT
  5
6C7A
330
6C50
100
AcDbEntity
  8
template
  6
Continuous
 62
     0
 48
4.0
100
AcDbMText
 10
7.161201932448134
 20
27.09791830629957
 30
0.0
 40
0.25
 41
0.0
 71
     5
 72
     1
  1
\A1;31{\H1.000000x;\S1/2;}"
  7
ARIAL
 73
     1
 44
1.0
1001
ACAD
1000
MTEXTBEGIN
1070
    73
1070
     1
1070
    44
1040
1.0
1070
    74
1070
     0
1000
MTEXTEND
  0
MTEXT
  5
6C7B
330
6C50
100
AcDbEntity
  8
template
  6
Continuous
 62
     0
 48
4.0
100
AcDbMText
 10
7.161201932448134
 20
26.46237032994668
 30
0.0
 40
0.25
 41
0.0
 71
     5
 72
     1
  1
\A1;[800mm]
  7
ARIAL
 73
     1
 44
1.0
1001
ACAD
1000
MTEXTBEGIN
1070
    73
1070
     1
1070
    44
1040
1.0
1070
    74
1070
     0
1000
MTEXTEND
  0
POINT
  5
6C7C
330
6C50
100
AcDbEntity
  8
Defpoints
  6
Continuous
 62
     0
 48
4.0
100
AcDbPoint
 10
9.246533513989362
 20
42.46095021341321
 30
0.0
  0
POINT
  5
6C7D
330
6C50
100
AcDbEntity
  8
Defpoints
  6
Continuous
 62
     0
 48
4.0
100
AcDbPoint
 10
9.246185556934335
 20
10.96524337963157
 30
0.0
  0
POINT
  5
6C7E
330
6C50
100
AcDbEntity
  8
Defpoints
  6
Continuous
 62
     0
 48
4.0
100
AcDbPoint
 10
7.161201932448135
 20
10.96524337963157
 30
0.0
  0
ENDBLK
  5
6C5D
330
6C50
100
AcDbEntity
  8
0
 62
   142
 48
4.0
100
AcDbBlockEnd
  0
BLOCK
  5
6CA9
330
6C9D
100
AcDbEntity
  8
0
 62
   142
 48
4.0
100
AcDbBlockBegin
  2
*D3
 70
     1
 10
0.0
 20
0.0
 30
0.0
  3
*D3
  1

  0
LINE
  5
71A7
330
6C9D
100
AcDbEntity
  8
template
  6
Continuous
 62
     0
 48
4.0
370
    -2
100
AcDbLine
 10
8.968512978003813
 20
11.82177958335292
 30
0.0
 11
8.968512978003813
 21
11.84356415086622
 31
0.0
  0
LINE
  5
71A8
330
6C9D
100
AcDbEntity
  8
template
  6
Continuous
 62
     0
 48
4.0
370
    -2
100
AcDbLine
 10
68.02331405244856
 20
11.82177958335292
 30
0.0
 11
68.02331405244856
 21
11.84356415086622
 31
0.0
  0
LINE
  5
71A9
330
6C9D
100
AcDbEntity
  8
template
  6
Continuous
 62
     0
 48
4.0
370
    -2
100
AcDbLine
 10
9.148512978003813
 20
12.02356415086622
 30
0.0
 11
37.61549741699972
 21
12.02356415086622
 31
0.0
  0
LINE
  5
71AA
330
6C9D
100
AcDbEntity
  8
template
  6
Continuous
 62
     0
 48
4.0
370
    -2
100
AcDbLine
 10
67.84331405244856
 20
12.02356415086622
 30
0.0
 11
39.37632961345265
 21
12.02356415086622
 31
0.0
  0
SOLID
  5
71AB
330
6C9D
100
AcDbEntity
  8
template
  6
Continuous
 62
     0
 48
4.0
100
AcDbTrace
 10
9.148512978003813
 20
12.05356415086622
 30
0.0
 11
9.148512978003813
 21
11.99356415086622
 31
0.0
 12
8.968512978003813
 22
12.02356415086622
 32
0.0
 13
8.968512978003813
 23
12.02356415086622
 33
0.0
  0
SOLID
  5
71AC
330
6C9D
100
AcDbEntity
  8
template
  6
Continuous
 62
     0
 48
4.0
100
AcDbTrace
 10
67.84331405244856
 20
12.05356415086622
 30
0.0
 11
67.84331405244856
 21
11.99356415086622
 31
0.0
 12
68.02331405244856
 22
12.02356415086622
 32
0.0
 13
68.02331405244856
 23
12.02356415086622
 33
0.0
  0
MTEXT
  5
71AD
330
6C9D
100
AcDbEntity
  8
template
  6
Continuous
 62
     0
 48
4.0
100
AcDbMText
 10
38.49591351522619
 20
12.41060257742375
 30
0.0
 40
0.25
 41
0.0
 71
     5
 72
     1
  1
\A1;59{\H1.000000x;\S1/16;}"
  7
ARIAL
 73
     1
 44
1.0
1001
ACAD
1000
MTEXTBEGIN
1070
    73
1070
     1
1070
    44
1040
1.0
1070
    74
1070
     0
1000
MTEXTEND
  0
MTEXT
  5
71AE
330
6C9D
100
AcDbEntity
  8
template
  6
Continuous
 62
     0
 48
4.0
100
AcDbMText
 10
38.49591351522619
 20
11.7728376842905
 30
0.0
 40
0.25
 41
0.0
 71
     5
 72
     1
  1
\A1;[1500mm]
  7
ARIAL
 73
     1
 44
1.0
1001
ACAD
1000
MTEXTBEGIN
1070
    73
1070
     1
1070
    44
1040
1.0
1070
    74
1070
     0
1000
MTEXTEND
  0
POINT
  5
71AF
330
6C9D
100
AcDbEntity
  8
Defpoints
  6
Continuous
 62
     0
 48
4.0
100
AcDbPoint
 10
8.968512978003813
 20
12.44677958335292
 30
0.0
  0
POINT
  5
71B0
330
6C9D
100
AcDbEntity
  8
Defpoints
  6
Continuous
 62
     0
 48
4.0
100
AcDbPoint
 10
68.02331405244856
 20
12.44677958335292
 30
0.0
  0
POINT
  5
71B1
330
6C9D
100
AcDbEntity
  8
Defpoints
  6
Continuous
 62
     0
 48
4.0
100
AcDbPoint
 10
68.02331405244856
 20
12.02356415086622
 30
0.0
  0
ENDBLK
  5
6CAA
330
6C9D
100
AcDbEntity
  8
0
 62
   142
 48
4.0
100
AcDbBlockEnd
  0
BLOCK
  5
6CB8
330
6CAC
100
AcDbEntity
  8
0
 62
   142
 48
4.0
100
AcDbBlockBegin
  2
*D4
 70
     1
 10
0.0
 20
0.0
 30
0.0
  3
*D4
  1

  0
LINE
  5
6CAD
330
6CAC
100
AcDbEntity
  8
template
  6
Continuous
 62
     0
 48
4.0
370
    -2
100
AcDbLine
 10
12.05479507472484
 20
21.46555253877223
 30
0.0
 11
12.05479507472484
 21
21.16162432321365
 31
0.0
  0
LINE
  5
6CAE
330
6CAC
100
AcDbEntity
  8
template
  6
Continuous
 62
     0
 48
4.0
370
    -2
100
AcDbLine
 10
64.73721695529821
 20
21.46555253877223
 30
0.0
 11
64.73721695529821
 21
21.16162432321365
 31
0.0
  0
LINE
  5
6CAF
330
6CAC
100
AcDbEntity
  8
template
  6
Continuous
 62
     0
 48
4.0
370
    -2
100
AcDbLine
 10
12.23479507472484
 20
20.98162432321365
 30
0.0
 11
37.51558991678506
 21
20.98162432321365
 31
0.0
  0
LINE
  5
6CB0
330
6CAC
100
AcDbEntity
  8
template
  6
Continuous
 62
     0
 48
4.0
370
    -2
100
AcDbLine
 10
64.5572169552982
 20
20.98162432321365
 30
0.0
 11
39.27642211323799
 21
20.98162432321365
 31
0.0
  0
SOLID
  5
6CB1
330
6CAC
100
AcDbEntity
  8
template
  6
Continuous
 62
     0
 48
4.0
100
AcDbTrace
 10
12.23479507472484
 20
21.01162432321365
 30
0.0
 11
12.23479507472484
 21
20.95162432321365
 31
0.0
 12
12.05479507472484
 22
20.98162432321365
 32
0.0
 13
12.05479507472484
 23
20.98162432321365
 33
0.0
  0
SOLID
  5
6CB2
330
6CAC
100
AcDbEntity
  8
template
  6
Continuous
 62
     0
 48
4.0
100
AcDbTrace
 10
64.5572169552982
 20
21.01162432321365
 30
0.0
 11
64.5572169552982
 21
20.95162432321365
 31
0.0
 12
64.73721695529821
 22
20.98162432321365
 32
0.0
 13
64.73721695529821
 23
20.98162432321365
 33
0.0
  0
MTEXT
  5
6CB3
330
6CAC
100
AcDbEntity
  8
template
  6
Continuous
 62
     0
 48
4.0
100
AcDbMText
 10
38.39600601501152
 20
21.36857748374116
 30
0.0
 40
0.25
 41
0.0
 71
     5
 72
     1
  1
\A1;52{\H1.000000x;\S11/16;}"
  7
ARIAL
 73
     1
 44
1.0
1001
ACAD
1000
MTEXTBEGIN
1070
    73
1070
     1
1070
    44
1040
1.0
1070
    74
1070
     0
1000
MTEXTEND
  0
MTEXT
  5
6CB4
330
6CAC
100
AcDbEntity
  8
template
  6
Continuous
 62
     0
 48
4.0
100
AcDbMText
 10
38.39600601501152
 20
20.73089785663793
 30
0.0
 40
0.25
 41
0.0
 71
     5
 72
     1
  1
\A1;[1338mm]
  7
ARIAL
 73
     1
 44
1.0
1001
ACAD
1000
MTEXTBEGIN
1070
    73
1070
     1
1070
    44
1040
1.0
1070
    74
1070
     0
1000
MTEXTEND
  0
POINT
  5
6CB5
330
6CAC
100
AcDbEntity
  8
Defpoints
  6
Continuous
 62
     0
 48
4.0
100
AcDbPoint
 10
12.05479507472484
 20
20.84055253877223
 30
0.0
  0
POINT
  5
6CB6
330
6CAC
100
AcDbEntity
  8
Defpoints
  6
Continuous
 62
     0
 48
4.0
100
AcDbPoint
 10
64.73721695529821
 20
20.84055253877223
 30
0.0
  0
POINT
  5
6CB7
330
6CAC
100
AcDbEntity
  8
Defpoints
  6
Continuous
 62
     0
 48
4.0
100
AcDbPoint
 10
64.73721695529821
 20
20.98162432321365
 30
0.0
  0
ENDBLK
  5
6CB9
330
6CAC
100
AcDbEntity
  8
0
 62
   142
 48
4.0
100
AcDbBlockEnd
  0
BLOCK
  5
6CC7
330
6CBB
100
AcDbEntity
  8
0
 62
   142
 48
4.0
100
AcDbBlockBegin
  2
*D5
 70
     1
 10
0.0
 20
0.0
 30
0.0
  3
*D5
  1

  0
LINE
  5
719C
330
6CBB
100
AcDbEntity
  8
template
  6
Continuous
 62
     0
 48
4.0
370
    -2
100
AcDbLine
 10
11.54298405110279
 20
17.25304443220291
 30
0.0
 11
11.54298405110279
 21
17.2042930679143
 31
0.0
  0
LINE
  5
719D
330
6CBB
100
AcDbEntity
  8
template
  6
Continuous
 62
     0
 48
4.0
370
    -2
100
AcDbLine
 10
65.24902797892025
 20
17.25304443220291
 30
0.0
 11
65.24902797892025
 21
17.2042930679143
 31
0.0
  0
LINE
  5
719E
330
6CBB
100
AcDbEntity
  8
template
  6
Continuous
 62
     0
 48
4.0
370
    -2
100
AcDbLine
 10
11.72298405110279
 20
17.3842930679143
 30
0.0
 11
37.51558991678506
 21
17.3842930679143
 31
0.0
  0
LINE
  5
719F
330
6CBB
100
AcDbEntity
  8
template
  6
Continuous
 62
     0
 48
4.0
370
    -2
100
AcDbLine
 10
65.06902797892024
 20
17.3842930679143
 30
0.0
 11
39.27642211323799
 21
17.3842930679143
 31
0.0
  0
SOLID
  5
71A0
330
6CBB
100
AcDbEntity
  8
template
  6
Continuous
 62
     0
 48
4.0
100
AcDbTrace
 10
11.72298405110279
 20
17.4142930679143
 30
0.0
 11
11.72298405110279
 21
17.3542930679143
 31
0.0
 12
11.54298405110279
 22
17.3842930679143
 32
0.0
 13
11.54298405110279
 23
17.3842930679143
 33
0.0
  0
SOLID
  5
71A1
330
6CBB
100
AcDbEntity
  8
template
  6
Continuous
 62
     0
 48
4.0
100
AcDbTrace
 10
65.06902797892024
 20
17.4142930679143
 30
0.0
 11
65.06902797892024
 21
17.3542930679143
 31
0.0
 12
65.24902797892025
 22
17.3842930679143
 32
0.0
 13
65.24902797892025
 23
17.3842930679143
 33
0.0
  0
MTEXT
  5
71A2
330
6CBB
100
AcDbEntity
  8
template
  6
Continuous
 62
     0
 48
4.0
100
AcDbMText
 10
38.39600601501152
 20
17.77124622844181
 30
0.0
 40
0.25
 41
0.0
 71
     5
 72
     1
  1
\A1;53{\H1.000000x;\S11/16;}"
  7
ARIAL
 73
     1
 44
1.0
1001
ACAD
1000
MTEXTBEGIN
1070
    73
1070
     1
1070
    44
1040
1.0
1070
    74
1070
     0
1000
MTEXTEND
  0
MTEXT
  5
71A3
330
6CBB
100
AcDbEntity
  8
template
  6
Continuous
 62
     0
 48
4.0
100
AcDbMText
 10
38.39600601501152
 20
17.13356660133858
 30
0.0
 40
0.25
 41
0.0
 71
     5
 72
     1
  1
\A1;[1364mm]
  7
ARIAL
 73
     1
 44
1.0
1001
ACAD
1000
MTEXTBEGIN
1070
    73
1070
     1
1070
    44
1040
1.0
1070
    74
1070
     0
1000
MTEXTEND
  0
POINT
  5
71A4
330
6CBB
100
AcDbEntity
  8
Defpoints
  6
Continuous
 62
     0
 48
4.0
100
AcDbPoint
 10
11.54298405110279
 20
17.87804443220291
 30
0.0
  0
POINT
  5
71A5
330
6CBB
100
AcDbEntity
  8
Defpoints
  6
Continuous
 62
     0
 48
4.0
100
AcDbPoint
 10
65.24902797892025
 20
17.87804443220291
 30
0.0
  0
POINT
  5
71A6
330
6CBB
100
AcDbEntity
  8
Defpoints
  6
Continuous
 62
     0
 48
4.0
100
AcDbPoint
 10
65.24902797892025
 20
17.3842930679143
 30
0.0
  0
ENDBLK
  5
6CC8
330
6CBB
100
AcDbEntity
  8
0
 62
   142
 48
4.0
100
AcDbBlockEnd
  0
BLOCK
  5
6CD1
330
6CCA
100
AcDbEntity
  8
0
 62
   142
 48
4.0
100
AcDbBlockBegin
  2
*D6
 70
     1
 10
0.0
 20
0.0
 30
0.0
  3
*D6
  1

  0
LINE
  5
6CCB
330
6CCA
100
AcDbEntity
  8
template
  6
Continuous
 62
     0
 48
4.0
370
    -2
100
AcDbLine
 10
14.05465114744346
 20
37.88292370102511
 30
0.0
 11
13.87465114744346
 21
37.88292370102511
 31
0.0
  0
LINE
  5
6CCC
330
6CCA
100
AcDbEntity
  8
template
  6
Continuous
 62
     0
 48
4.0
370
    -2
100
AcDbLine
 10
13.87465114744346
 20
37.88292370102511
 30
0.0
 11
12.45631262224212
 21
38.98980973506566
 31
0.0
  0
MTEXT
  5
6CCD
330
6CCA
100
AcDbEntity
  8
template
  6
Continuous
 62
     0
 48
4.0
100
AcDbMText
 10
14.91545605876679
 20
37.88292370102511
 30
0.0
 40
0.25
 41
0.0
 71
     5
 72
     1
  1
\A1;R1{\H1.000000x;\S1/4;}"\P [R31mm]
  7
ARIAL
 73
     1
 44
1.0
1001
ACAD
1000
MTEXTBEGIN
1070
    73
1070
     1
1070
    44
1040
1.0
1070
    74
1070
     0
1000
MTEXTEND
  0
SOLID
  5
6CCE
330
6CCA
100
AcDbEntity
  8
template
  6
Continuous
 62
     0
 48
4.0
100
AcDbTrace
 10
12.47476960918397
 20
39.01346009728337
 30
0.0
 11
12.43785563530027
 21
38.96615937284797
 31
0.0
 12
12.31441044893594
 22
39.10055165671679
 32
0.0
 13
12.31441044893594
 23
39.10055165671679
 33
0.0
  0
POINT
  5
6CCF
330
6CCA
100
AcDbEntity
  8
Defpoints
  6
Continuous
 62
     0
 48
4.0
100
AcDbPoint
 10
12.31441044893594
 20
39.10055165671679
 30
0.0
  0
POINT
  5
6CD0
330
6CCA
100
AcDbEntity
  8
Defpoints
  6
Continuous
 62
     0
 48
4.0
100
AcDbPoint
 10
13.28139436957559
 20
38.34590741778527
 30
0.0
  0
ENDBLK
  5
6CD2
330
6CCA
100
AcDbEntity
  8
0
 62
   142
 48
4.0
100
AcDbBlockEnd
  0
BLOCK
  5
6CDD
330
6CD4
100
AcDbEntity
  8
0
 62
   142
 48
4.0
100
AcDbBlockBegin
  2
*D7
 70
     1
 10
0.0
 20
0.0
 30
0.0
  3
*D7
  1

  0
LINE
  5
6CD5
330
6CD4
100
AcDbEntity
  8
template
  6
Continuous
 62
     0
 48
4.0
370
    -2
100
AcDbLine
 10
11.37193372697118
 20
40.54970135526573
 30
0.0
 11
11.55193372697118
 21
40.54970135526573
 31
0.0
  0
LINE
  5
6CD6
330
6CD4
100
AcDbEntity
  8
template
  6
Continuous
 62
     0
 48
4.0
370
    -2
100
AcDbLine
 10
11.55193372697118
 20
40.54970135526573
 30
0.0
 11
12.0970450058418
 21
39.85508425786927
 31
0.0
  0
MTEXT
  5
6CD7
330
6CD4
100
AcDbEntity
  8
template
  6
Continuous
 62
     0
 48
4.0
100
AcDbMText
 10
10.51112881564785
 20
40.54970135526573
 30
0.0
 40
0.25
 41
0.0
 71
     5
 72
     1
  1
\A1;R1{\H1.000000x;\S3/4;}"\P [R44mm]
  7
ARIAL
 73
     1
 44
1.0
1001
ACAD
1000
MTEXTBEGIN
1070
    73
1070
     1
1070
    44
1040
1.0
1070
    74
1070
     0
1000
MTEXTEND
  0
SOLID
  5
6CD8
330
6CD4
100
AcDbEntity
  8
template
  6
Continuous
 62
     0
 48
4.0
100
AcDbTrace
 10
12.12064543415818
 20
39.87360505113747
 30
0.0
 11
12.07344457752542
 21
39.83656346460107
 31
0.0
 12
12.20816976545099
 22
39.71348168797098
 32
0.0
 13
12.20816976545099
 23
39.71348168797098
 33
0.0
  0
LINE
  5
6CD9
330
6CD4
100
AcDbEntity
  8
template
  6
Continuous
 62
     0
 48
4.0
370
    -2
100
AcDbLine
 10
13.19139436957557
 20
38.34590741778526
 30
0.0
 11
13.37139436957557
 21
38.34590741778526
 31
0.0
  0
LINE
  5
6CDA
330
6CD4
100
AcDbEntity
  8
template
  6
Continuous
 62
     0
 48
4.0
370
    -2
100
AcDbLine
 10
13.28139436957557
 20
38.25590741778525
 30
0.0
 11
13.28139436957557
 21
38.43590741778526
 31
0.0
  0
POINT
  5
6CDB
330
6CD4
100
AcDbEntity
  8
Defpoints
  6
Continuous
 62
     0
 48
4.0
100
AcDbPoint
 10
12.20816976545099
 20
39.71348168797098
 30
0.0
  0
POINT
  5
6CDC
330
6CD4
100
AcDbEntity
  8
Defpoints
  6
Continuous
 62
     0
 48
4.0
100
AcDbPoint
 10
13.28139436957557
 20
38.34590741778526
 30
0.0
  0
ENDBLK
  5
6CDE
330
6CD4
100
AcDbEntity
  8
0
 62
   142
 48
4.0
100
AcDbBlockEnd
  0
BLOCK
  5
70C2
330
70B6
100
AcDbEntity
  8
0
 62
   142
 48
4.0
100
AcDbBlockBegin
  2
*D8
 70
     1
 10
0.0
 20
0.0
 30
0.0
  3
*D8
  1

  0
LINE
  5
70B7
330
70B6
100
AcDbEntity
  8
template
  6
Continuous
 62
     0
 48
4.0
370
    -2
100
AcDbLine
 10
65.24902797892025
 20
18.05879936447581
 30
0.0
 11
65.24902797892025
 21
18.47497945339939
 31
0.0
  0
LINE
  5
70B8
330
70B6
100
AcDbEntity
  8
template
  6
Continuous
 62
     0
 48
4.0
370
    -2
100
AcDbLine
 10
68.02331405244856
 20
18.05879936447581
 30
0.0
 11
68.02331405244856
 21
18.47497945339939
 31
0.0
  0
LINE
  5
70B9
330
70B6
100
AcDbEntity
  8
template
  6
Continuous
 62
     0
 48
4.0
370
    -2
100
AcDbLine
 10
65.42902797892026
 20
18.65497945339939
 30
0.0
 11
65.94999093382902
 21
18.65497945339939
 31
0.0
  0
LINE
  5
70BA
330
70B6
100
AcDbEntity
  8
template
  6
Continuous
 62
     0
 48
4.0
370
    -2
100
AcDbLine
 10
67.84331405244856
 20
18.65497945339939
 30
0.0
 11
67.32235109753979
 21
18.65497945339939
 31
0.0
  0
SOLID
  5
70BB
330
70B6
100
AcDbEntity
  8
template
  6
Continuous
 62
     0
 48
4.0
100
AcDbTrace
 10
65.42902797892026
 20
18.68497945339939
 30
0.0
 11
65.42902797892026
 21
18.62497945339939
 31
0.0
 12
65.24902797892025
 22
18.65497945339939
 32
0.0
 13
65.24902797892025
 23
18.65497945339939
 33
0.0
  0
SOLID
  5
70BC
330
70B6
100
AcDbEntity
  8
template
  6
Continuous
 62
     0
 48
4.0
100
AcDbTrace
 10
67.84331405244856
 20
18.68497945339939
 30
0.0
 11
67.84331405244856
 21
18.62497945339939
 31
0.0
 12
68.02331405244856
 22
18.65497945339939
 32
0.0
 13
68.02331405244856
 23
18.65497945339939
 33
0.0
  0
MTEXT
  5
70BD
330
70B6
100
AcDbEntity
  8
template
  6
Continuous
 62
     0
 48
4.0
100
AcDbMText
 10
66.63617101568441
 20
19.03980096317656
 30
0.0
 40
0.25
 41
0.0
 71
     5
 72
     1
  1
\A1;2{\H1.000000x;\S3/4;}"
  7
ARIAL
 73
     1
 44
1.0
1001
ACAD
1000
MTEXTBEGIN
1070
    73
1070
     1
1070
    44
1040
1.0
1070
    74
1070
     0
1000
MTEXTEND
  0
MTEXT
  5
70BE
330
70B6
100
AcDbEntity
  8
template
  6
Continuous
 62
     0
 48
4.0
100
AcDbMText
 10
66.63617101568441
 20
18.40425298682367
 30
0.0
 40
0.25
 41
0.0
 71
     5
 72
     1
  1
\A1;[70mm]
  7
ARIAL
 73
     1
 44
1.0
1001
ACAD
1000
MTEXTBEGIN
1070
    73
1070
     1
1070
    44
1040
1.0
1070
    74
1070
     0
1000
MTEXTEND
  0
POINT
  5
70BF
330
70B6
100
AcDbEntity
  8
Defpoints
  6
Continuous
 62
     0
 48
4.0
100
AcDbPoint
 10
65.24902797892025
 20
18.68379936447581
 30
0.0
  0
POINT
  5
70C0
330
70B6
100
AcDbEntity
  8
Defpoints
  6
Continuous
 62
     0
 48
4.0
100
AcDbPoint
 10
68.02331405244856
 20
18.68379936447581
 30
0.0
  0
POINT
  5
70C1
330
70B6
100
AcDbEntity
  8
Defpoints
  6
Continuous
 62
     0
 48
4.0
100
AcDbPoint
 10
68.02331405244856
 20
18.65497945339939
 30
0.0
  0
ENDBLK
  5
70C3
330
70B6
100
AcDbEntity
  8
0
 62
   142
 48
4.0
100
AcDbBlockEnd
  0
BLOCK
  5
70D1
330
70C5
100
AcDbEntity
  8
0
 62
   142
 48
4.0
100
AcDbBlockBegin
  2
*D9
 70
     1
 10
0.0
 20
0.0
 30
0.0
  3
*D9
  1

  0
LINE
  5
70C6
330
70C5
100
AcDbEntity
  8
template
  6
Continuous
 62
     0
 48
4.0
370
    -2
100
AcDbLine
 10
64.73721695529821
 20
23.25690551501748
 30
0.0
 11
64.73721695529821
 21
22.81190551501748
 31
0.0
  0
LINE
  5
70C7
330
70C5
100
AcDbEntity
  8
template
  6
Continuous
 62
     0
 48
4.0
370
    -2
100
AcDbLine
 10
68.02331405244856
 20
23.25690551501748
 30
0.0
 11
68.02331405244856
 21
22.81190551501748
 31
0.0
  0
LINE
  5
70C8
330
70C5
100
AcDbEntity
  8
template
  6
Continuous
 62
     0
 48
4.0
370
    -2
100
AcDbLine
 10
64.91721695529822
 20
22.63190551501748
 30
0.0
 11
65.694085422018
 21
22.63190551501748
 31
0.0
  0
LINE
  5
70C9
330
70C5
100
AcDbEntity
  8
template
  6
Continuous
 62
     0
 48
4.0
370
    -2
100
AcDbLine
 10
67.84331405244856
 20
22.63190551501748
 30
0.0
 11
67.06644558572877
 21
22.63190551501748
 31
0.0
  0
SOLID
  5
70CA
330
70C5
100
AcDbEntity
  8
template
  6
Continuous
 62
     0
 48
4.0
100
AcDbTrace
 10
64.91721695529822
 20
22.66190551501748
 30
0.0
 11
64.91721695529822
 21
22.60190551501748
 31
0.0
 12
64.73721695529821
 22
22.63190551501748
 32
0.0
 13
64.73721695529821
 23
22.63190551501748
 33
0.0
  0
SOLID
  5
70CB
330
70C5
100
AcDbEntity
  8
template
  6
Continuous
 62
     0
 48
4.0
100
AcDbTrace
 10
67.84331405244856
 20
22.66190551501748
 30
0.0
 11
67.84331405244856
 21
22.60190551501748
 31
0.0
 12
68.02331405244856
 22
22.63190551501748
 32
0.0
 13
68.02331405244856
 23
22.63190551501748
 33
0.0
  0
MTEXT
  5
70CC
330
70C5
100
AcDbEntity
  8
template
  6
Continuous
 62
     0
 48
4.0
100
AcDbMText
 10
66.38026550387339
 20
23.01877340951498
 30
0.0
 40
0.25
 41
0.0
 71
     5
 72
     1
  1
\A1;3{\H1.000000x;\S5/16;}"
  7
ARIAL
 73
     1
 44
1.0
1001
ACAD
1000
MTEXTBEGIN
1070
    73
1070
     1
1070
    44
1040
1.0
1070
    74
1070
     0
1000
MTEXTEND
  0
MTEXT
  5
70CD
330
70C5
100
AcDbEntity
  8
template
  6
Continuous
 62
     0
 48
4.0
100
AcDbMText
 10
66.38026550387339
 20
22.38117904844176
 30
0.0
 40
0.25
 41
0.0
 71
     5
 72
     1
  1
\A1;[83mm]
  7
ARIAL
 73
     1
 44
1.0
1001
ACAD
1000
MTEXTBEGIN
1070
    73
1070
     1
1070
    44
1040
1.0
1070
    74
1070
     0
1000
MTEXTEND
  0
POINT
  5
70CE
330
70C5
100
AcDbEntity
  8
Defpoints
  6
Continuous
 62
     0
 48
4.0
100
AcDbPoint
 10
64.73721695529821
 20
22.63190551501748
 30
0.0
  0
POINT
  5
70CF
330
70C5
100
AcDbEntity
  8
Defpoints
  6
Continuous
 62
     0
 48
4.0
100
AcDbPoint
 10
68.02331405244856
 20
22.63190551501748
 30
0.0
  0
POINT
  5
70D0
330
70C5
100
AcDbEntity
  8
Defpoints
  6
Continuous
 62
     0
 48
4.0
100
AcDbPoint
 10
68.02331405244856
 20
22.63190551501748
 30
0.0
  0
ENDBLK
  5
70D2
330
70C5
100
AcDbEntity
  8
0
 62
   142
 48
4.0
100
AcDbBlockEnd
  0
BLOCK
  5
70E0
330
70D4
100
AcDbEntity
  8
0
 62
   142
 48
4.0
100
AcDbBlockBegin
  2
*D10
 70
     1
 10
0.0
 20
0.0
 30
0.0
  3
*D10
  1

  0
LINE
  5
70D5
330
70D4
100
AcDbEntity
  8
template
  6
Continuous
 62
     0
 48
4.0
370
    -2
100
AcDbLine
 10
11.54298405110279
 20
18.89187602933225
 30
0.0
 11
11.54298405110279
 21
18.63006927525946
 31
0.0
  0
LINE
  5
70D6
330
70D4
100
AcDbEntity
  8
template
  6
Continuous
 62
     0
 48
4.0
370
    -2
100
AcDbLine
 10
8.968512978003815
 20
18.89187602933225
 30
0.0
 11
8.968512978003815
 21
18.63006927525946
 31
0.0
  0
LINE
  5
70D7
330
70D4
100
AcDbEntity
  8
template
  6
Continuous
 62
     0
 48
4.0
370
    -2
100
AcDbLine
 10
11.36298405110279
 20
18.45006927525946
 30
0.0
 11
10.94192859640869
 21
18.45006927525946
 31
0.0
  0
LINE
  5
70D8
330
70D4
100
AcDbEntity
  8
template
  6
Continuous
 62
     0
 48
4.0
370
    -2
100
AcDbLine
 10
9.148512978003815
 20
18.45006927525946
 30
0.0
 11
9.569568432697915
 21
18.45006927525946
 31
0.0
  0
SOLID
  5
70D9
330
70D4
100
AcDbEntity
  8
template
  6
Continuous
 62
     0
 48
4.0
100
AcDbTrace
 10
11.36298405110279
 20
18.48006927525947
 30
0.0
 11
11.36298405110279
 21
18.42006927525946
 31
0.0
 12
11.54298405110279
 22
18.45006927525946
 32
0.0
 13
11.54298405110279
 23
18.45006927525946
 33
0.0
  0
SOLID
  5
70DA
330
70D4
100
AcDbEntity
  8
template
  6
Continuous
 62
     0
 48
4.0
100
AcDbTrace
 10
9.148512978003815
 20
18.48006927525947
 30
0.0
 11
9.148512978003815
 21
18.42006927525946
 31
0.0
 12
8.968512978003815
 22
18.45006927525946
 32
0.0
 13
8.968512978003815
 23
18.45006927525946
 33
0.0
  0
MTEXT
  5
70DB
330
70D4
100
AcDbEntity
  8
template
  6
Continuous
 62
     0
 48
4.0
100
AcDbMText
 10
10.2557485145533
 20
18.83710770181699
 30
0.0
 40
0.25
 41
0.0
 71
     5
 72
     1
  1
\A1;2{\H1.000000x;\S9/16;}"
  7
ARIAL
 73
     1
 44
1.0
1001
ACAD
1000
MTEXTBEGIN
1070
    73
1070
     1
1070
    44
1040
1.0
1070
    74
1070
     0
1000
MTEXTEND
  0
MTEXT
  5
70DC
330
70D4
100
AcDbEntity
  8
template
  6
Continuous
 62
     0
 48
4.0
100
AcDbMText
 10
10.2557485145533
 20
18.19934280868375
 30
0.0
 40
0.25
 41
0.0
 71
     5
 72
     1
  1
\A1;[65mm]
  7
ARIAL
 73
     1
 44
1.0
1001
ACAD
1000
MTEXTBEGIN
1070
    73
1070
     1
1070
    44
1040
1.0
1070
    74
1070
     0
1000
MTEXTEND
  0
POINT
  5
70DD
330
70D4
100
AcDbEntity
  8
Defpoints
  6
Continuous
 62
     0
 48
4.0
100
AcDbPoint
 10
11.54298405110279
 20
18.26687602933225
 30
0.0
  0
POINT
  5
70DE
330
70D4
100
AcDbEntity
  8
Defpoints
  6
Continuous
 62
     0
 48
4.0
100
AcDbPoint
 10
8.968512978003815
 20
18.26687602933225
 30
0.0
  0
POINT
  5
70DF
330
70D4
100
AcDbEntity
  8
Defpoints
  6
Continuous
 62
     0
 48
4.0
100
AcDbPoint
 10
8.968512978003815
 20
18.45006927525946
 30
0.0
  0
ENDBLK
  5
70E1
330
70D4
100
AcDbEntity
  8
0
 62
   142
 48
4.0
100
AcDbBlockEnd
  0
BLOCK
  5
70EF
330
70E3
100
AcDbEntity
  8
0
 62
   142
 48
4.0
100
AcDbBlockBegin
  2
*D11
 70
     1
 10
0.0
 20
0.0
 30
0.0
  3
*D11
  1

  0
LINE
  5
70E4
330
70E3
100
AcDbEntity
  8
template
  6
Continuous
 62
     0
 48
4.0
370
    -2
100
AcDbLine
 10
12.05479507472484
 20
21.97186286759597
 30
0.0
 11
12.05479507472484
 21
22.26697748456428
 31
0.0
  0
LINE
  5
70E5
330
70E3
100
AcDbEntity
  8
template
  6
Continuous
 62
     0
 48
4.0
370
    -2
100
AcDbLine
 10
8.968512978003815
 20
21.97186286759597
 30
0.0
 11
8.968512978003815
 21
22.26697748456428
 31
0.0
  0
LINE
  5
70E6
330
70E3
100
AcDbEntity
  8
template
  6
Continuous
 62
     0
 48
4.0
370
    -2
100
AcDbLine
 10
11.87479507472483
 20
22.44697748456429
 30
0.0
 11
11.19783410821971
 21
22.44697748456429
 31
0.0
  0
LINE
  5
70E7
330
70E3
100
AcDbEntity
  8
template
  6
Continuous
 62
     0
 48
4.0
370
    -2
100
AcDbLine
 10
9.148512978003815
 20
22.44697748456429
 30
0.0
 11
9.825473944508937
 21
22.44697748456429
 31
0.0
  0
SOLID
  5
70E8
330
70E3
100
AcDbEntity
  8
template
  6
Continuous
 62
     0
 48
4.0
100
AcDbTrace
 10
11.87479507472483
 20
22.47697748456429
 30
0.0
 11
11.87479507472483
 21
22.41697748456429
 31
0.0
 12
12.05479507472484
 22
22.44697748456429
 32
0.0
 13
12.05479507472484
 23
22.44697748456429
 33
0.0
  0
SOLID
  5
70E9
330
70E3
100
AcDbEntity
  8
template
  6
Continuous
 62
     0
 48
4.0
100
AcDbTrace
 10
9.148512978003815
 20
22.47697748456429
 30
0.0
 11
9.148512978003815
 21
22.41697748456429
 31
0.0
 12
8.968512978003815
 22
22.44697748456429
 32
0.0
 13
8.968512978003815
 23
22.44697748456429
 33
0.0
  0
MTEXT
  5
70EA
330
70E3
100
AcDbEntity
  8
template
  6
Continuous
 62
     0
 48
4.0
100
AcDbMText
 10
10.51165402636432
 20
22.8339306450918
 30
0.0
 40
0.25
 41
0.0
 71
     5
 72
     1
  1
\A1;3{\H1.000000x;\S1/16;}"
  7
ARIAL
 73
     1
 44
1.0
1001
ACAD
1000
MTEXTBEGIN
1070
    73
1070
     1
1070
    44
1040
1.0
1070
    74
1070
     0
1000
MTEXTEND
  0
MTEXT
  5
70EB
330
70E3
100
AcDbEntity
  8
template
  6
Continuous
 62
     0
 48
4.0
100
AcDbMText
 10
10.51165402636432
 20
22.19625101798857
 30
0.0
 40
0.25
 41
0.0
 71
     5
 72
     1
  1
\A1;[78mm]
  7
ARIAL
 73
     1
 44
1.0
1001
ACAD
1000
MTEXTBEGIN
1070
    73
1070
     1
1070
    44
1040
1.0
1070
    74
1070
     0
1000
MTEXTEND
  0
POINT
  5
70EC
330
70E3
100
AcDbEntity
  8
Defpoints
  6
Continuous
 62
     0
 48
4.0
100
AcDbPoint
 10
12.05479507472484
 20
22.59686286759597
 30
0.0
  0
POINT
  5
70ED
330
70E3
100
AcDbEntity
  8
Defpoints
  6
Continuous
 62
     0
 48
4.0
100
AcDbPoint
 10
8.968512978003815
 20
22.59686286759597
 30
0.0
  0
POINT
  5
70EE
330
70E3
100
AcDbEntity
  8
Defpoints
  6
Continuous
 62
     0
 48
4.0
100
AcDbPoint
 10
8.968512978003815
 20
22.44697748456429
 30
0.0
  0
ENDBLK
  5
70F0
330
70E3
100
AcDbEntity
  8
0
 62
   142
 48
4.0
100
AcDbBlockEnd
  0
ENDSEC
  0
SECTION
  2
ENTITIES
  0
LWPOLYLINE
  5
4874
102
{ACAD_REACTORS
330
4875
102
}
330
A
100
AcDbEntity
  8
template
 62
   142
100
AcDbPolyline
 90
        7
 70
     1
 43
0.0
 10
38.10065401273637
 20
28.17269976043359
 10
38.10065401273637
 20
28.17269976043365
 42
0.4729861284586391
 10
39.76924629860699
 20
28.17221401924174
 42
0.3318792280744457
 10
39.76463518427684
 20
29.24768334439701
 10
39.764635184276
 20
29.24768334439794
 42
0.4685817664296389
 10
38.10595950802586
 20
29.24817510908773
 10
38.10595950802495
 20
29.24817510908659
 42
0.3318827794208164
  0
HATCH
  5
4875
330
A
100
AcDbEntity
  8
template
 62
   142
100
AcDbHatch
 10
0.0
 20
0.0
 30
0.0
210
0.0
220
0.0
230
1.0
  2
SOLID
 70
     1
 71
     1
 91
        2
 92
        1
 93
        4
 72
     2
 10
38.93514946023482
 20
28.8570973159274
 40
1.079250974454718
 50
219.3563211992619
 51
320.6103202389356
 73
     1
 72
     2
 10
39.04603616060831
 20
28.7068577768855
 40
0.8993758120449479
 50
323.5257893453438
 51
396.9655231726366
 73
     1
 72
     2
 10
38.9350925854778
 20
28.5572908888777
 40
1.079250974454109
 50
39.76914948153907
 51
140.1968763777462
 73
     1
 72
     2
 10
38.82420575502223
 20
28.70688112245186
 40
0.8993758120455488
 50
142.9971193771487
 51
216.4375863596903
 73
     1
 97
        1
330
4874
 92
       16
 93
        4
 72
     2
 10
38.26063634689379
 20
28.70694043283797
 40
1.199138769989905
 50
340.8676753184352
 51
379.1935274096843
 73
     1
 72
     2
 10
38.93514567588503
 20
28.9417439978051
 40
0.4849290325755376
 50
19.19352740526916
 51
160.7944129020822
 73
     1
 72
     2
 10
39.60960556819633
 20
28.70679846649945
 40
1.199138769989624
 50
160.7944129022219
 51
199.1202649951317
 73
     1
 72
     2
 10
38.93509634093057
 20
28.47296149754443
 40
0.4852463231065179
 50
199.1202649950886
 51
340.8676753164798
 73
     1
 97
        4
330
487C
330
4878
330
487B
330
4879
 75
     0
 76
     1
 98
        1
 10
39.55038923762212
 20
28.91759112248101
  0
HATCH
  5
4876
330
A
100
AcDbEntity
  8
template
 62
   142
100
AcDbHatch
 10
0.0
 20
0.0
 30
0.0
210
0.0
220
0.0
230
1.0
  2
SOLID
 70
     1
 71
     0
 91
        1
 92
        7
 72
     1
 73
     1
 93
       20
 10
36.24266532179873
 20
27.83779023924022
 42
0.0
 10
37.38186022102562
 20
27.83779023924022
 42
0.0
 10
37.38190591748817
 20
28.04765908508635
 42
0.0
 10
37.15711241962507
 20
28.04765908508635
 42
-0.4142773378492344
 10
37.02518368473612
 20
28.17961654902658
 42
0.0
 10
37.02544216447794
 20
29.36672911971776
 42
0.0
 10
37.18380772504962
 20
29.36672911971776
 42
-0.4142752124674228
 10
37.53799399639907
 20
29.01246829068682
 42
0.0
 10
37.53797391986619
 20
28.9170846828014
 42
0.0
 10
37.74784277036113
 20
28.91708468280136
 42
0.0
 10
37.74798158603845
 20
29.57659796556394
 42
0.0
 10
35.87720514153476
 20
29.57659796556395
 42
0.0
 10
35.87719147809551
 20
28.91708468280142
 42
0.0
 10
36.08701858418426
 20
28.91708468280142
 42
0.0
 10
36.08703869209993
 20
29.01261739035866
 42
-0.4141519149661068
 10
36.44122496344936
 20
29.36672911971776
 42
0.0
 10
36.59974919511375
 20
29.36672911971776
 42
0.0
 10
36.59949070286244
 20
28.17955909717883
 42
-0.4141497897727766
 10
36.46756196797343
 20
28.04765908508635
 42
0.0
 10
36.24271101826119
 20
28.04765908508635
 42
0.0
 97
        0
 75
     0
 76
     1
 47
0.2439883527651791
 98
        1
 10
37.60429333549415
 20
29.35915695912232
  0
LWPOLYLINE
  5
4877
330
A
100
AcDbEntity
  8
template
 62
   142
100
AcDbPolyline
 90
       24
 70
     0
 43
0.0
 10
36.59949070598974
 20
28.17958782310271
 42
-0.4142135623730951
 10
36.46756196797336
 20
28.04765908508635
 10
36.24271101826119
 20
28.04765908508635
 10
36.24266532179873
 20
27.83779023924022
 10
37.38186022102562
 20
27.83779023924022
 10
37.38190591748817
 20
28.04765908508635
 10
37.15711241962507
 20
28.04765908508635
 42
-0.4142773378493006
 10
37.02518368473605
 20
28.17961654902658
 10
37.02518368473612
 20
28.17961654902658
 10
37.02544216447794
 20
29.36672911971776
 10
37.18380772504962
 20
29.36672911971776
 42
-0.4142752124675667
 10
37.53799399639907
 20
29.01246829068671
 10
37.53799399639907
 20
29.01246829068654
 10
37.53797391986619
 20
28.91708468280145
 10
37.74784277036113
 20
28.91708468280145
 10
37.74798158603845
 20
29.57659796556394
 10
35.87720514153476
 20
29.57659796556392
 10
35.87719147809551
 20
28.91708468280142
 10
36.08701858418426
 20
28.91708468280142
 10
36.08703869209993
 20
29.01261739035866
 10
36.08703869209993
 20
29.01261739035873
 42
-0.4141519149660314
 10
36.44122496344945
 20
29.36672911971776
 10
36.59974919511375
 20
29.36672911971776
 10
36.59949070286244
 20
28.17955909717888
  0
ARC
  5
4878
102
{ACAD_REACTORS
330
4875
102
}
330
A
100
AcDbEntity
  8
template
 62
   142
100
AcDbCircle
 10
38.93514567588503
 20
28.9417439978051
 30
0.0
 40
0.4849290325755376
100
AcDbArc
 50
19.19352740526916
 51
160.7944129020822
  0
ARC
  5
4879
102
{ACAD_REACTORS
330
4875
102
}
330
A
100
AcDbEntity
  8
template
 62
   142
100
AcDbCircle
 10
38.93509634093057
 20
28.47296149754443
 30
0.0
 40
0.4852463231065179
100
AcDbArc
 50
199.1202649950886
 51
340.8676753164798
  0
LINE
  5
487A
330
A
100
AcDbEntity
  8
template
 62
   142
100
AcDbLine
 10
38.47720570957581
 20
29.10126563862942
 30
0.0
 11
38.4772057095752
 21
29.10126563862796
 31
0.0
  0
ARC
  5
487B
102
{ACAD_REACTORS
330
4875
102
}
330
A
100
AcDbEntity
  8
template
 62
   142
100
AcDbCircle
 10
39.60960556819633
 20
28.70679846649945
 30
0.0
 40
1.199138769989624
100
AcDbArc
 50
160.7944129022219
 51
199.1202649951317
  0
ARC
  5
487C
102
{ACAD_REACTORS
330
4875
102
}
330
A
100
AcDbEntity
  8
template
 62
   142
100
AcDbCircle
 10
38.26063634689379
 20
28.70694043283797
 30
0.0
 40
1.199138769989905
100
AcDbArc
 50
340.8676753184352
 51
19.1935274096843
  0
LWPOLYLINE
  5
487D
102
{ACAD_REACTORS
330
487F
102
}
330
A
100
AcDbEntity
  8
template
 62
   142
100
AcDbPolyline
 90
        5
 70
     1
 43
0.0
 10
42.7218689551115
 20
28.31401804620656
 42
0.7116314934561954
 10
43.63878908428806
 20
28.31392154894964
 42
0.1688045712628093
 10
43.63836861953635
 20
29.10116924727677
 42
0.7106688244406217
 10
42.7224551207325
 20
29.10126563862942
 10
42.72245512073197
 20
29.10126563862796
 42
0.1688045712702787
  0
LWPOLYLINE
  5
487E
102
{ACAD_REACTORS
330
487F
102
}
330
A
100
AcDbEntity
  8
template
 62
   142
100
AcDbPolyline
 90
        7
 70
     1
 43
0.0
 10
42.34590342389313
 20
28.17269976043359
 10
42.34590342389306
 20
28.17269976043368
 42
0.4729861284586391
 10
44.01449570976367
 20
28.17221401924177
 42
0.3318792280744457
 10
44.00988459543353
 20
29.24768334439702
 10
44.00988459543277
 20
29.24768334439794
 42
0.4685817664296389
 10
42.35120891918255
 20
29.24817510908773
 10
42.35120891918173
 20
29.24817510908659
 42
0.3318827794208164
  0
HATCH
  5
487F
330
A
100
AcDbEntity
  8
template
 62
   142
100
AcDbHatch
 10
0.0
 20
0.0
 30
0.0
210
0.0
220
0.0
230
1.0
  2
SOLID
 70
     1
 71
     1
 91
        2
 92
       16
 93
        4
 72
     2
 10
43.1803457520873
 20
28.47296149754442
 40
0.4852463231064965
 50
199.1202649951162
 51
340.8676753164555
 73
     1
 72
     2
 10
42.50588575805047
 20
28.70694043283799
 40
1.199138769989962
 50
340.8676753184323
 51
379.193527409674
 73
     1
 72
     2
 10
43.1803950870418
 20
28.94174399780512
 40
0.4849290325755248
 50
19.19352740524906
 51
160.7944129020513
 73
     1
 72
     2
 10
43.85485497935309
 20
28.70679846649945
 40
1.199138769989626
 50
160.7944129022272
 51
199.1202649951332
 73
     1
 97
        1
330
487D
 92
        1
 93
        4
 72
     2
 10
43.18039887139151
 20
28.85709731592743
 40
1.079250974454718
 50
219.3563211992619
 51
320.6103202389356
 73
     1
 72
     2
 10
43.29128557176501
 20
28.70685777688552
 40
0.8993758120449378
 50
323.5257893453439
 51
396.9655231726365
 73
     1
 72
     2
 10
43.18034199663453
 20
28.55729088887766
 40
1.079250974454164
 50
39.76914948153908
 51
140.1968763777462
 73
     1
 72
     2
 10
43.069455166179
 20
28.70688112245185
 40
0.8993758120455495
 50
142.9971193771478
 51
216.4375863596894
 73
     1
 97
        1
330
487E
 75
     0
 76
     1
 98
        1
 10
-25.7565581522138
 20
-82.78699318708449
  0
HATCH
  5
4880
330
A
100
AcDbEntity
  8
template
 62
   142
100
AcDbHatch
 10
0.0
 20
0.0
 30
0.0
210
0.0
220
0.0
230
1.0
  2
SOLID
 70
     1
 71
     0
 91
        1
 92
        7
 72
     1
 73
     1
 93
       20
 10
40.48799814106105
 20
27.83779023924022
 42
0.0
 10
41.62719304028787
 20
27.83779023924019
 42
0.0
 10
41.62723873675034
 20
28.04765908508638
 42
0.0
 10
41.40244523888732
 20
28.04765908508638
 42
-0.4142773378492051
 10
41.2705165039983
 20
28.17961654902659
 42
0.0
 10
41.2707749837402
 20
29.36672911971781
 42
0.0
 10
41.42914054431187
 20
29.36672911971781
 42
-0.4142752124674276
 10
41.78332681566131
 20
29.01246829068681
 42
0.0
 10
41.78330673912845
 20
28.91708468280145
 42
0.0
 10
41.99317558962339
 20
28.91708468280136
 42
0.0
 10
41.99331440530071
 20
29.57659796556394
 42
0.0
 10
40.12253796079702
 20
29.57659796556394
 42
0.0
 10
40.12252429735776
 20
28.91708468280145
 42
0.0
 10
40.33235140344643
 20
28.91708468280136
 42
0.0
 10
40.33237151136218
 20
29.01261739035872
 42
-0.414151914966033
 10
40.68655778271161
 20
29.36672911971781
 42
0.0
 10
40.84508201437593
 20
29.36672911971785
 42
0.0
 10
40.84482352212463
 20
28.17955909717884
 42
-0.4141497897728013
 10
40.71289478723568
 20
28.04765908508638
 42
0.0
 10
40.48804383752345
 20
28.04765908508638
 42
0.0
 97
        0
 75
     0
 76
     1
 47
0.1093653812395761
 98
        1
 10
41.117006286663
 20
29.07703542364405
  0
LWPOLYLINE
  5
4881
330
A
100
AcDbEntity
  8
template
 62
   142
100
AcDbPolyline
 90
       24
 70
     0
 43
0.0
 10
40.84482352525192
 20
28.17958782310267
 42
-0.4142135623730951
 10
40.71289478723561
 20
28.04765908508638
 10
40.48804383752345
 20
28.04765908508638
 10
40.48799814106105
 20
27.83779023924022
 10
41.62719304028787
 20
27.83779023924022
 10
41.62723873675034
 20
28.04765908508638
 10
41.40244523888732
 20
28.04765908508638
 42
-0.4142773378493006
 10
41.2705165039983
 20
28.17961654902659
 10
41.2705165039983
 20
28.17961654902659
 10
41.2707749837402
 20
29.36672911971781
 10
41.42914054431187
 20
29.36672911971781
 42
-0.4142752124675667
 10
41.78332681566131
 20
29.01246829068673
 10
41.78332681566131
 20
29.01246829068656
 10
41.78330673912845
 20
28.91708468280145
 10
41.99317558962339
 20
28.91708468280145
 10
41.99331440530071
 20
29.57659796556394
 10
40.12253796079702
 20
29.57659796556394
 10
40.12252429735776
 20
28.91708468280145
 10
40.33235140344643
 20
28.91708468280145
 10
40.33237151136218
 20
29.01261739035867
 10
40.33237151136218
 20
29.01261739035872
 42
-0.4141519149660314
 10
40.68655778271161
 20
29.36672911971781
 10
40.84508201437593
 20
29.36672911971781
 10
40.84482352212463
 20
28.1795590971789
  0
HATCH
  5
4882
330
A
100
AcDbEntity
  8
template
  6
Continuous
 62
   142
 48
12.0
100
AcDbHatch
 10
0.0
 20
0.0
 30
0.0
210
0.0
220
0.0
230
1.0
  2
SOLID
 70
     1
 71
     0
 91
        4
 92
        7
 72
     1
 73
     1
 93
        2
 10
44.43371260869142
 20
29.63654186333151
 42
1.0
 10
44.43371260869142
 20
29.14088972452321
 42
1.0
 97
        0
 92
       22
 72
     1
 73
     1
 93
        2
 10
44.43371260869142
 20
29.17186798319877
 42
-1.0
 10
44.43371260869142
 20
29.60556360465601
 42
-1.0
 97
        0
 92
        6
 72
     0
 73
     1
 93
      207
 10
44.54998792533345
 20
29.35197801800184
 10
44.54995598857691
 20
29.35335129853437
 10
44.54955984041501
 20
29.35724675545855
 10
44.54919761471496
 20
29.36001284262325
 10
44.5487859946011
 20
29.36261428174267
 10
44.54834144487823
 20
29.3650675376211
 10
44.54784750074163
 20
29.3673561454536
 10
44.54728769738695
 20
29.36949657004542
 10
44.54669496442302
 20
29.37148881139625
 10
44.54605283704551
 20
29.37331640470146
 10
44.54536131525434
 20
29.37497934996135
 10
44.54462039904943
 20
29.37651057678464
 10
44.5438300884308
 20
29.37786069075803
 10
44.54312210183512
 20
29.37896383266294
 10
44.54218360797573
 20
29.38024808741797
 10
44.54111339567972
 20
29.38156527178241
 10
44.53994439455636
 20
29.38291538575576
 10
44.538643674997
 20
29.3842984293377
 10
44.53722770180528
 20
29.38571440252939
 10
44.53568001017752
 20
29.38716330533031
 10
44.53401706491805
 20
29.38866160254411
 10
44.53223886602612
 20
29.39017636456326
 10
44.53032894869771
 20
29.39174052099573
 10
44.5283037777378
 20
29.39333760703713
 10
44.5261633531459
 20
29.39495115788307
 10
44.52389121011768
 20
29.39661410314338
 10
44.52150381345771
 20
29.39830997801114
 10
44.51900116316607
 20
29.40005524729443
 10
44.51987379780731
 20
29.40068090986725
 10
44.5219154335718
 20
29.40221213669074
 10
44.52390767492234
 20
29.40374336351382
 10
44.52585052185973
 20
29.40530751994636
 10
44.5277110447741
 20
29.4068881411836
 10
44.52952217327511
 20
29.40848522722554
 10
44.53126744255764
 20
29.41009877807139
 10
44.53296331742606
 20
29.41172879372168
 10
44.53457686827235
 20
29.41337527417692
 10
44.53614102470497
 20
29.41505468424154
 10
44.53763932191906
 20
29.41673409430561
 10
44.53908822471994
 20
29.41842996917485
 10
44.54047126830213
 20
29.42015877365257
 10
44.54178845266645
 20
29.42188757813067
 10
44.54303977781231
 20
29.42364931221788
 10
44.54424170854466
 20
29.42541104630479
 10
44.54536131525434
 20
29.42720571000119
 10
44.5464479923548
 20
29.4290168385019
 10
44.54745234543234
 20
29.43082796700244
 10
44.54840730409647
 20
29.43267202511238
 10
44.54929640354236
 20
29.43453254802692
 10
44.55011964376978
 20
29.4364095357456
 10
44.55089348958384
 20
29.43830298826926
 10
44.55158501137508
 20
29.44021290559734
 10
44.5522271387526
 20
29.44213928772994
 10
44.55281987171644
 20
29.44408213466697
 10
44.55333028065754
 20
29.44605791121333
 10
44.55379129518506
 20
29.44803368775969
 10
44.55420291529877
 20
29.4500259291104
 10
44.5545322113899
 20
29.45205110007042
 10
44.55481211306728
 20
29.45407627103025
 10
44.55502615552641
 20
29.45613437159946
 10
44.5551743387674
 20
29.45819247216839
 10
44.55527312759473
 20
29.46028350234652
 10
44.55530549717646
 20
29.46235515557696
 10
44.55525666279014
 20
29.46640840963998
 10
44.55515787396282
 20
29.46909217278213
 10
44.55502615552641
 20
29.47172654151027
 10
44.55484504267636
 20
29.47431151582506
 10
44.55461453541256
 20
29.47683063092176
 10
44.55435109853975
 20
29.47931681640895
 10
44.55402180244878
 20
29.48173714267765
 10
44.55365957674858
 20
29.48410807453353
 10
44.55324795663473
 20
29.48642961197545
 10
44.55280340691193
 20
29.48870175500363
 10
44.55230946277525
 20
29.49092450361828
 10
44.55174965942056
 20
29.49308139301466
 10
44.55115692645672
 20
29.49518888799699
 10
44.55053126388371
 20
29.49726345337072
 10
44.54983974209247
 20
29.4992721595261
 10
44.54911529069223
 20
29.50123147126781
 10
44.54834144487816
 20
29.5031413885961
 10
44.54751820465058
 20
29.50498544670616
 10
44.54666203481379
 20
29.50679657520679
 10
44.5457564705634
 20
29.5085418444893
 10
44.54480151189942
 20
29.51025418416269
 10
44.54379715882201
 20
29.51190066461734
 10
44.54274341133042
 20
29.5134977506594
 10
44.54165673422981
 20
29.51504544228733
 10
44.54052066271593
 20
29.516527274697
 10
44.53933519678808
 20
29.51797617749783
 10
44.53810033644673
 20
29.51935922107971
 10
44.53752406828701
 20
29.51996841884837
 10
44.53627274314167
 20
29.52123620879863
 10
44.53495555877689
 20
29.52247106914031
 10
44.5336054448041
 20
29.52365653506788
 10
44.53218947161238
 20
29.52479260658176
 10
44.5307405688118
 20
29.52591221329172
 10
44.52922580679315
 20
29.52698242558782
 10
44.52767811516487
 20
29.52800324347011
 10
44.52606456431927
 20
29.52900759654723
 10
44.52440161905939
 20
29.52996255521133
 10
44.52270574419045
 20
29.53086811946199
 10
44.52094401010294
 20
29.53174075410355
 10
44.51913288160286
 20
29.53258045913557
 10
44.51728882349262
 20
29.53338723455843
 10
44.51537890616513
 20
29.5341446155678
 10
44.51341959442382
 20
29.53485260216361
 10
44.51141088826719
 20
29.53554412395491
 10
44.50935278769826
 20
29.5361862513323
 10
44.50726175752018
 20
29.53677898429653
 10
44.50510486812439
 20
29.53735525245539
 10
44.50289858431403
 20
29.53788212620124
 10
44.50064290609091
 20
29.53835960553319
 10
44.4983378334524
 20
29.5388041552562
 10
44.49598336640265
 20
29.53921577536979
 10
44.49357950493764
 20
29.53959446587467
 10
44.49112624905898
 20
29.53992376196581
 10
44.48862359876726
 20
29.54020366364306
 10
44.48607155406143
 20
29.54046710051592
 10
44.48347011494125
 20
29.5406811429752
 10
44.48081928141076
 20
29.54084579102057
 10
44.47810258865793
 20
29.54099397426158
 10
44.47535296629662
 20
29.54109276308893
 10
44.47255394952331
 20
29.54114215750256
 10
44.46970553833416
 20
29.54115862230712
 10
44.34207037344772
 20
29.54115862230718
 10
44.34207037344772
 20
29.26237655162854
 10
44.37799657698074
 20
29.26237655162854
 10
44.37799657698074
 20
29.38207568072333
 10
44.47281189812841
 20
29.38207568072333
 10
44.47667545288751
 20
29.38190138501992
 10
44.48081368810217
 20
29.38140873797059
 10
44.48502414288005
 20
29.38055237428692
 10
44.48878194513648
 20
29.37939087177138
 10
44.49208362534003
 20
29.37801250042421
 10
44.49506956974895
 20
29.37641178795762
 10
44.49799250406707
 20
29.37444127043996
 10
44.5006241758585
 20
29.37222681490803
 10
44.50317986142986
 20
29.36956890191378
 10
44.5054176994104
 20
29.36670578567404
 10
44.50752772306883
 20
29.36329458075946
 10
44.50918792229559
 20
29.36000550681982
 10
44.51072376407124
 20
29.35619929024543
 10
44.5119430084254
 20
29.35232271845244
 10
44.51307881125894
 20
29.34763753176462
 10
44.5139061807633
 20
29.34274226219669
 10
44.51441571509836
 20
29.3382463710053
 10
44.51468738437343
 20
29.33429481791269
 10
44.5147877766615
 20
29.33155076203842
 10
44.51462152515519
 20
29.32831809385985
 10
44.51450627152335
 20
29.32551907708606
 10
44.51440748269604
 20
29.32278591953096
 10
44.5143251586733
 20
29.32011862119315
 10
44.51427576425963
 20
29.31751718207382
 10
44.51424283465049
 20
29.31498160217286
 10
44.51424283465049
 20
29.31252834629435
 10
44.51425929945506
 20
29.31014094963476
 10
44.51429222906414
 20
29.30781941219273
 10
44.51435808828238
 20
29.30556373396846
 10
44.51444041230511
 20
29.30337391496382
 10
44.51453920113245
 20
29.3012499551764
 10
44.51467091956892
 20
29.29920831941186
 10
44.51483556761425
 20
29.29723254286662
 10
44.5150002156599
 20
29.29532262553751
 10
44.51519779331452
 20
29.29347856742778
 10
44.51542830057833
 20
29.29171683334046
 10
44.51567527264663
 20
29.29000449366716
 10
44.51593870951952
 20
29.28837447801632
 10
44.51630093521956
 20
29.28631637744778
 10
44.51672902013784
 20
29.2840277696146
 10
44.51719003466529
 20
29.28175562658673
 10
44.51768397880205
 20
29.2795164131672
 10
44.51821085254765
 20
29.27731012935722
 10
44.51877065590243
 20
29.27510384554738
 10
44.51936338886619
 20
29.2729304913469
 10
44.51998905143928
 20
29.27077360195026
 10
44.52064764362136
 20
29.26864964216317
 10
44.52133916541252
 20
29.26652568237548
 10
44.52206361681286
 20
29.26443465219764
 10
44.52282099782226
 20
29.26237655162854
 10
44.56599171535825
 20
29.26237655162854
 10
44.56599171535825
 20
29.27148350677551
 10
44.56252640452433
 20
29.27461237966442
 10
44.55965055137338
 20
29.27791307475816
 10
44.55724497224744
 20
29.28155485426818
 10
44.55532235632475
 20
29.28550127642509
 10
44.55394378392038
 20
29.28973786478998
 10
44.55306182260319
 20
29.29428335773283
 10
44.55286926612994
 20
29.29736426130244
 10
44.55267168847545
 20
29.30044317975511
 10
44.55247411082082
 20
29.30343977418225
 10
44.55229299797084
 20
29.30638697419418
 10
44.55211188512069
 20
29.30925185019019
 10
44.55184359762123
 20
29.31339811154295
 10
44.55161794098408
 20
29.3174348580509
 10
44.5514532929386
 20
29.32001983236624
 10
44.55132157450221
 20
29.32253894746263
 10
44.55110168969322
 20
29.32617926263313
 10
44.55092641919285
 20
29.32968467263916
 10
44.55081116556117
 20
29.33192388605703
 10
44.55069591192919
 20
29.33409724025799
 10
44.55059712310188
 20
29.33620473523966
 10
44.55049833427456
 20
29.33822990620101
 10
44.55041601025174
 20
29.34018921794396
 10
44.55033368622899
 20
29.34208267046556
 10
44.55025136220625
 20
29.34391026377111
 10
44.55018550298802
 20
29.34567199785967
 10
44.55005465112029
 20
29.34900872048577
 97
        0
 92
        6
 72
     0
 73
     1
 93
       40
 10
44.48973398173828
 20
29.41618248025175
 10
44.48584927920026
 20
29.41518640267791
 10
44.48172059391651
 20
29.41445975406795
 10
44.47738895209532
 20
29.41400033751119
 10
44.47320705343829
 20
29.41381982390005
 10
44.37799657698074
 20
29.41381982390009
 10
44.37799657698074
 20
29.50941447913043
 10
44.47276524784823
 20
29.50941447913043
 10
44.47689607493933
 20
29.50925034030566
 10
44.48173682006362
 20
29.50871247973622
 10
44.48612009592916
 20
29.50791261187756
 10
44.4902919547226
 20
29.50678941912534
 10
44.49442481956462
 20
29.50531099592982
 10
44.49831171243668
 20
29.50350158028262
 10
44.50188774440344
 20
29.50140189178834
 10
44.50548208281507
 20
29.49882947312115
 10
44.50844312374029
 20
29.49611264175665
 10
44.51126075536045
 20
29.49293037545622
 10
44.51365642065762
 20
29.4894845555082
 10
44.51568947343498
 20
29.48565563944401
 10
44.5172071281092
 20
29.48174848592109
 10
44.51832103598026
 20
29.47767476570684
 10
44.51906819544929
 20
29.47322429408696
 10
44.51933045925719
 20
29.46942146887293
 10
44.51938451959263
 20
29.46673647221141
 10
44.51930576205028
 20
29.4625885749842
 10
44.51900939556847
 20
29.45764913361891
 10
44.51846618815385
 20
29.45311175403798
 10
44.51761165871118
 20
29.44834063131592
 10
44.51653181865627
 20
29.44408876109988
 10
44.51535420895768
 20
29.44052573688347
 10
44.51387237654803
 20
29.43690347988219
 10
44.51216314753631
 20
29.43361402027469
 10
44.51010577037689
 20
29.43039079605829
 10
44.5079464201152
 20
29.42761909273738
 10
44.50545597209568
 20
29.42502768060885
 10
44.5027997954867
 20
29.42276021277204
 10
44.49996719051223
 20
29.42076451381259
 10
44.49669255984239
 20
29.4189225340608
 10
44.49336888187086
 20
29.41743817302492
 97
        0
 75
     0
 76
     1
 47
0.0814214242307967
 98
        4
 10
44.57639116131004
 20
29.20050754427276
 10
44.57639116131004
 20
29.20050754427276
 10
44.57639116131004
 20
29.20050754427276
 10
44.57639116131004
 20
29.20050754427276
  0
CIRCLE
  5
4883
330
A
100
AcDbEntity
  8
template
 62
   142
100
AcDbCircle
 10
44.43371260869135
 20
29.38871579392738
 30
0.0
 40
0.2478260694041408
  0
LWPOLYLINE
  5
4884
330
A
100
AcDbEntity
  8
template
 62
   142
370
     0
100
AcDbPolyline
 90
      239
 70
     1
 43
0.0
 10
44.48755338647131
 20
29.37977060808604
 10
44.48933158536301
 20
29.3791614103176
 10
44.49102746023181
 20
29.37845342372184
 10
44.49267394068711
 20
29.37769604271246
 10
44.49427102672858
 20
29.37683987287569
 10
44.49580225355205
 20
29.37591784382077
 10
44.4972676211572
 20
29.37492995554769
 10
44.4986835943487
 20
29.37385974325176
 10
44.50003370832187
 20
29.37272367173765
 10
44.50131796307705
 20
29.37150527620079
 10
44.50255282341841
 20
29.3702210214457
 10
44.50373828934617
 20
29.36885444266792
 10
44.50485789605578
 20
29.36742200467184
 10
44.50591164354707
 20
29.36590724265303
 10
44.5068995318202
 20
29.36431015661147
 10
44.50785449048426
 20
29.36264721135169
 10
44.50872712512548
 20
29.3609184068737
 10
44.50955036535313
 20
29.35910727837295
 10
44.51030774636254
 20
29.35723029065399
 10
44.51101573295829
 20
29.35527097891228
 10
44.5116578603358
 20
29.35322934314779
 10
44.51223412849514
 20
29.35112184816511
 10
44.51276100224082
 20
29.34894849396421
 10
44.51323848157286
 20
29.34669281574056
 10
44.51363363688206
 20
29.34435481349415
 10
44.51399586258226
 20
29.34195095202954
 10
44.51427576425963
 20
29.33948123134666
 10
44.51450627152335
 20
29.33692918664107
 10
44.51468738437343
 20
29.33429481791269
 10
44.51478617320074
 20
29.33159458996616
 10
44.51476970839617
 20
29.33119943465691
 10
44.51462152515519
 20
29.32831809386025
 10
44.51450627152335
 20
29.3255190770864
 10
44.51440748269604
 20
29.32278591953071
 10
44.5143251586733
 20
29.32011862119319
 10
44.51427576425963
 20
29.31751718207401
 10
44.51424283465049
 20
29.31498160217294
 10
44.51424283465049
 20
29.31252834629466
 10
44.51425929945506
 20
29.31014094963459
 10
44.51429222906414
 20
29.30781941219269
 10
44.51435808828238
 20
29.30556373396902
 10
44.51444041230511
 20
29.30337391496362
 10
44.51453920113245
 20
29.30124995517636
 10
44.51467091956892
 20
29.29920831941186
 10
44.51483556761441
 20
29.2972325428656
 10
44.5150002156599
 20
29.29532262553754
 10
44.51519779331452
 20
29.2934785674277
 10
44.51542830057833
 20
29.29171683334065
 10
44.51567527264656
 20
29.29000449366718
 10
44.51593870951943
 20
29.2883744780165
 10
44.51630093521956
 20
29.28631637744748
 10
44.51672902013784
 20
29.28402776961471
 10
44.51719003466537
 20
29.28175562658649
 10
44.51768397880189
 20
29.27951641316738
 10
44.51821085254765
 20
29.27731012935739
 10
44.51877065590243
 20
29.27510384554738
 10
44.51936338886627
 20
29.2729304913465
 10
44.51998905143928
 20
29.27077360195013
 10
44.52064764362136
 20
29.26864964216291
 10
44.52133916541252
 20
29.2665256823757
 10
44.52206361681286
 20
29.26443465219755
 10
44.52282099782226
 20
29.26237655162854
 10
44.56599171535825
 20
29.26237655162854
 10
44.56599171535825
 20
29.27154744776411
 10
44.56495443267145
 20
29.27242008240539
 10
44.56325855780251
 20
29.27395130922875
 10
44.56171086617461
 20
29.27554839527031
 10
44.56026196337403
 20
29.27721134053003
 10
44.55896124381443
 20
29.27895660981258
 10
44.55777577788667
 20
29.28075127350878
 10
44.5567220303953
 20
29.28262826122781
 10
44.55578353653582
 20
29.28455464336035
 10
44.55497676111277
 20
29.28656334951578
 10
44.5543017041261
 20
29.28863791488935
 10
44.55374190077132
 20
29.2907783394811
 10
44.55331381585304
 20
29.29298462329113
 10
44.55300098456651
 20
29.29525676631934
 10
44.5528692661301
 20
29.29736426130202
 10
44.55267168847545
 20
29.30044317975332
 10
44.55247411082082
 20
29.30343977418177
 10
44.55229299797084
 20
29.30638697419667
 10
44.55211188512069
 20
29.30925185018876
 10
44.55193077227055
 20
29.31205086696262
 10
44.55176612422507
 20
29.31478402451833
 10
44.55161794098408
 20
29.31743485805119
 10
44.5514532929386
 20
29.3200198323659
 10
44.55132157450212
 20
29.32253894746239
 10
44.55117339126123
 20
29.32499220334071
 10
44.55104167282482
 20
29.32737960000078
 10
44.55092641919292
 20
29.32968467263808
 10
44.55081116556103
 20
29.3319238860572
 10
44.55069591192919
 20
29.33409724025806
 10
44.55059712310188
 20
29.33620473524077
 10
44.55049833427456
 20
29.33822990620072
 10
44.55041601025174
 20
29.34018921794241
 10
44.55033368622908
 20
29.34208267046594
 10
44.55025136220625
 20
29.34391026377124
 10
44.55018550298809
 20
29.34567199785833
 10
44.55011964376978
 20
29.34735140792268
 10
44.55007024935627
 20
29.34896495876875
 10
44.55002085494252
 20
29.35051265039665
 10
44.54998792533345
 20
29.35197801800184
 10
44.54995499572429
 20
29.35339399119333
 10
44.54985620689697
 20
29.35433248505281
 10
44.54955984041508
 20
29.35724675545855
 10
44.54919761471488
 20
29.36001284262332
 10
44.5487859946011
 20
29.36261428174255
 10
44.54834144487816
 20
29.36506753762089
 10
44.5478475007417
 20
29.3673561454536
 10
44.54728769738695
 20
29.36949657004542
 10
44.54669496442302
 20
29.37148881139625
 10
44.54605283704544
 20
29.37331640470153
 10
44.54536131525427
 20
29.37497934996131
 10
44.54462039904943
 20
29.37651057678472
 10
44.54383008843088
 20
29.37786069075796
 10
44.54312210183512
 20
29.37896383266296
 10
44.54218360797573
 20
29.38024808741804
 10
44.54111339567979
 20
29.3815652717822
 10
44.53994439455651
 20
29.38291538575553
 10
44.538643674997
 20
29.38429842933791
 10
44.53722770180543
 20
29.38571440252936
 10
44.53568001017752
 20
29.38716330532996
 10
44.53401706491781
 20
29.38866160254425
 10
44.53223886602612
 20
29.39017636456306
 10
44.53032894869802
 20
29.3917405209955
 10
44.5283037777381
 20
29.39333760703708
 10
44.52616335314636
 20
29.39495115788314
 10
44.52389121011814
 20
29.39661410314297
 10
44.52150381345809
 20
29.39830997801185
 10
44.51900116316607
 20
29.40005524729443
 10
44.51987379780745
 20
29.40068090986736
 10
44.52191543357187
 20
29.40221213669074
 10
44.52390767492263
 20
29.40374336351411
 10
44.52585052185989
 20
29.40530751994655
 10
44.52771104477425
 20
29.4068881411836
 10
44.52952217327495
 20
29.40848522722511
 10
44.53126744255756
 20
29.41009877807127
 10
44.53296331742644
 20
29.41172879372194
 10
44.53457686827251
 20
29.41337527417714
 10
44.53614102470497
 20
29.41505468424144
 10
44.53763932191928
 20
29.41673409430583
 10
44.53908822471986
 20
29.41842996917471
 10
44.54047126830228
 20
29.42015877365268
 10
44.54178845266645
 20
29.42188757813067
 10
44.54303977781238
 20
29.42364931221773
 10
44.54424170854466
 20
29.42541104630479
 10
44.54536131525427
 20
29.42720571000105
 10
44.54644799235471
 20
29.42901683850178
 10
44.54745234543243
 20
29.43082796700256
 10
44.54840730409647
 20
29.43267202511238
 10
44.54929640354222
 20
29.43453254802681
 10
44.55011964376978
 20
29.43640953574576
 10
44.55089348958384
 20
29.43830298826927
 10
44.55158501137508
 20
29.44021290559734
 10
44.55222713875251
 20
29.44213928772992
 10
44.55281987171644
 20
29.44408213466706
 10
44.55333028065754
 20
29.44605791121333
 10
44.55379129518499
 20
29.44803368775961
 10
44.55420291529877
 20
29.45002592911043
 10
44.5545322113899
 20
29.45205110007042
 10
44.55481211306728
 20
29.45407627103029
 10
44.55502615552641
 20
29.45613437159933
 10
44.5551743387674
 20
29.45819247216831
 10
44.55527312759473
 20
29.46028350234647
 10
44.5553060572038
 20
29.46239099732921
 10
44.5552895923993
 20
29.46367525208429
 10
44.55525666279014
 20
29.46640840963991
 10
44.55515787396282
 20
29.46909217278194
 10
44.55502615552641
 20
29.47172654151032
 10
44.55484504267636
 20
29.47431151582499
 10
44.55461453541263
 20
29.47683063092153
 10
44.55435109853975
 20
29.4793168164089
 10
44.55402180244878
 20
29.48173714267806
 10
44.55365957674858
 20
29.48410807453361
 10
44.5532479566348
 20
29.48642961197548
 10
44.55280340691186
 20
29.48870175500367
 10
44.55230946277533
 20
29.49092450361823
 10
44.55174965942056
 20
29.49308139301454
 10
44.55115692645664
 20
29.49518888799727
 10
44.55053126388371
 20
29.49726345337088
 10
44.54983974209247
 20
29.49927215952622
 10
44.54911529069223
 20
29.5012314712679
 10
44.54834144487816
 20
29.50314138859599
 10
44.54751820465058
 20
29.50498544670583
 10
44.54666203481386
 20
29.50679657520659
 10
44.54575647056347
 20
29.50854184448909
 10
44.54480151189942
 20
29.51025418416255
 10
44.54379715882178
 20
29.5119006646178
 10
44.5427434113305
 20
29.51349775065935
 10
44.54165673422997
 20
29.51504544228725
 10
44.54052066271593
 20
29.51652727469697
 10
44.53933519678817
 20
29.51797617749754
 10
44.53810033644673
 20
29.51935922107997
 10
44.5375240682874
 20
29.51996841884839
 10
44.53627274314145
 20
29.52123620879891
 10
44.53495555877721
 20
29.52247106914031
 10
44.53360544480395
 20
29.52365653506812
 10
44.53218947161245
 20
29.52479260658221
 10
44.53074056881187
 20
29.52591221329172
 10
44.52922580679306
 20
29.52698242558766
 10
44.52767811516517
 20
29.52800324346988
 10
44.52606456431904
 20
29.5290075965476
 10
44.52440161905925
 20
29.5299625552116
 10
44.52270574419045
 20
29.53086811946194
 10
44.52094401010332
 20
29.53174075410327
 10
44.51913288160255
 20
29.5325804591354
 10
44.51728882349269
 20
29.53338723455843
 10
44.51537890616466
 20
29.53414461556788
 10
44.51341959442291
 20
29.53485260216361
 10
44.51141088826749
 20
29.53554412395479
 10
44.50935278769857
 20
29.53618625133234
 10
44.50726175752033
 20
29.53677898429625
 10
44.505104868124
 20
29.53735525245555
 10
44.50289858431403
 20
29.53788212620121
 10
44.5006429060903
 20
29.53835960553322
 10
44.49833783345307
 20
29.53880415525616
 10
44.49598336640204
 20
29.53921577536998
 10
44.4935795049375
 20
29.53959446587467
 10
44.49112624905914
 20
29.53992376196571
 10
44.48862359876719
 20
29.5402036636431
 10
44.48607155406167
 20
29.54046710051592
 10
44.48347011494239
 20
29.54068114297516
 10
44.48081928140946
 20
29.5408457910206
 10
44.47810258865838
 20
29.54099397426158
 10
44.47535296629813
 20
29.54109276308893
 10
44.47255394952422
 20
29.54114215750256
 10
44.46970553833674
 20
29.54115862230712
 10
44.34207037344772
 20
29.54115862230712
 10
44.34207037344772
 20
29.26237655162854
 10
44.37799657698074
 20
29.26237655162854
 10
44.37799657698074
 20
29.38207568072333
 10
44.47161545566475
 20
29.38207568072333
 10
44.47354183779744
 20
29.38204275111421
 10
44.47573165680283
 20
29.38194396228686
 10
44.4778391517855
 20
29.38176284943684
 10
44.47991371715907
 20
29.38151587736859
 10
44.48190595850992
 20
29.38118658127753
 10
44.48384880544709
 20
29.38079142596827
 10
44.48574225797061
 20
29.3803304114408
  0
LWPOLYLINE
  5
4885
330
A
100
AcDbEntity
  8
template
 62
   142
370
     0
100
AcDbPolyline
 90
       78
 70
     1
 43
0.0
 10
44.49731701557086
 20
29.50396462882357
 10
44.49917753848516
 20
29.50299320535501
 10
44.50097220218142
 20
29.50193945786364
 10
44.50270100665939
 20
29.50081985115415
 10
44.50438041672376
 20
29.49961792042184
 10
44.5060104323744
 20
29.49833366566671
 10
44.50607629159264
 20
29.49828427125304
 10
44.50767337763418
 20
29.49681890364793
 10
44.50918813965301
 20
29.49527121202002
 10
44.51058764803993
 20
29.49369059078296
 10
44.5118883675996
 20
29.49202764552324
 10
44.51309029833187
 20
29.49029884104519
 10
44.51417697543232
 20
29.48850417734907
 10
44.51516486370545
 20
29.48664365443463
 10
44.51605396315126
 20
29.48471727230201
 10
44.51682780896525
 20
29.48272503095119
 10
44.51750286595184
 20
29.48066693038216
 10
44.51807913411117
 20
29.47855943539949
 10
44.51854014863862
 20
29.47636961639405
 10
44.51891883914341
 20
29.47411393817036
 10
44.5191658112117
 20
29.47180886553305
 10
44.51933045925719
 20
29.469421468873
 10
44.51937985367085
 20
29.46696821299472
 10
44.51937985367085
 20
29.46649073366267
 10
44.51933045925719
 20
29.46388929454342
 10
44.51923167042987
 20
29.46135371464239
 10
44.51908348718889
 20
29.45888399395959
 10
44.51886944472974
 20
29.45648013249493
 10
44.51858954305229
 20
29.45414213024849
 10
44.51824378215666
 20
29.45186998722027
 10
44.51784862684745
 20
29.44966370341027
 10
44.51740407712459
 20
29.44752327881852
 10
44.51687720337882
 20
29.44544871344492
 10
44.51631740002406
 20
29.44344000728957
 10
44.51567527264656
 20
29.44149716035237
 10
44.51498375085539
 20
29.43962017263343
 10
44.51424283465049
 20
29.43780904413269
 10
44.51343605922741
 20
29.43606377485013
 10
44.51256342458619
 20
29.43438436478582
 10
44.51162493072671
 20
29.4327708139397
 10
44.51063704245358
 20
29.43122312231181
 10
44.5095997597668
 20
29.42974128990207
 10
44.50849661786183
 20
29.42832531671054
 10
44.50732761673857
 20
29.4269752027373
 10
44.50610922120172
 20
29.42570741278677
 10
44.50482496644663
 20
29.4244890172499
 10
44.50347485247337
 20
29.4233364809313
 10
44.50207534408646
 20
29.42224980383084
 10
44.5006264412858
 20
29.42122898594855
 10
44.49909521446248
 20
29.42027402728455
 10
44.49751459322543
 20
29.41938492783875
 10
44.49588457757473
 20
29.4185616876111
 10
44.49418870270593
 20
29.41780430660172
 10
44.4924269686188
 20
29.41711278481053
 10
44.49061584011802
 20
29.41648712223751
 10
44.48873885239909
 20
29.41592731888275
 10
44.48681247026648
 20
29.41543337474619
 10
44.48482022891565
 20
29.41500528982782
 10
44.48276212834665
 20
29.4146430641277
 10
44.48065463336398
 20
29.41434669764574
 10
44.47848127916301
 20
29.41411619038199
 10
44.47625853054852
 20
29.41395154233649
 10
44.47396992271572
 20
29.41385275350915
 10
44.47161545566475
 20
29.41381982390005
 10
44.37799657698074
 20
29.41381982390005
 10
44.37799657698074
 20
29.50941447913043
 10
44.47123676516006
 20
29.50941447913043
 10
44.47317961209724
 20
29.50939801432581
 10
44.4756657975846
 20
29.50929922549851
 10
44.47808612385379
 20
29.50911811264844
 10
44.48045705570926
 20
29.5088546757756
 10
44.48276212834665
 20
29.50852537968454
 10
44.48501780657029
 20
29.50811375957075
 10
44.48720762557569
 20
29.50761981543421
 10
44.48934805016752
 20
29.50704354727485
 10
44.4914226155411
 20
29.50638495509277
 10
44.49344778650102
 20
29.5056605036925
 10
44.49540709824278
 20
29.50485372826941
  0
CIRCLE
  5
4886
330
A
100
AcDbEntity
  8
template
 62
   142
100
AcDbCircle
 10
44.43371260869135
 20
29.38871579392738
 30
0.0
 40
0.2168478107286232
  0
HATCH
  5
4887
330
A
100
AcDbEntity
  8
template
 62
   142
100
AcDbHatch
 10
0.0
 20
0.0
 30
0.0
210
0.0
220
0.0
230
1.0
  2
SOLID
 70
     1
 71
     0
 91
        2
 92
        7
 72
     0
 73
     1
 93
      197
 10
44.47281189812826
 20
29.38207568072333
 10
44.47792147580854
 20
29.38184517345958
 10
44.48419797285398
 20
29.38080773593141
 10
44.48941470287032
 20
29.37919529210816
 10
44.49421848793436
 20
29.37698555097869
 10
44.49878988131318
 20
29.37390371274593
 10
44.50266591803925
 20
29.370226447134
 10
44.50581773451891
 20
29.36619397604984
 10
44.50875407514637
 20
29.36108069323321
 10
44.51110223824317
 20
29.3552613325149
 10
44.51252997807647
 20
29.35003988398215
 10
44.51371194450276
 20
29.34445611155437
 10
44.51441571509829
 20
29.33824637100544
 10
44.51482554683589
 20
29.33228518209538
 10
44.51462152515519
 20
29.32831809386014
 10
44.51450627152328
 20
29.32551907708492
 10
44.51440748269604
 20
29.32278591953141
 10
44.5143251586733
 20
29.32011862119323
 10
44.51427576425963
 20
29.31751718207555
 10
44.51424283465049
 20
29.31498160217259
 10
44.51424283465049
 20
29.31252834629636
 10
44.51425929945506
 20
29.31014094963469
 10
44.51429222906414
 20
29.30781941219315
 10
44.51435808828238
 20
29.30556373396953
 10
44.51444041230511
 20
29.3033739149637
 10
44.51453920113245
 20
29.30124995517672
 10
44.51467091956892
 20
29.29920831941186
 10
44.51483556761441
 20
29.29723254286493
 10
44.5150002156599
 20
29.29532262553771
 10
44.51519779331452
 20
29.29347856742757
 10
44.51542830057817
 20
29.29171683334125
 10
44.51567527264647
 20
29.29000449366751
 10
44.51593870951936
 20
29.28837447801694
 10
44.51630093521956
 20
29.28631637744732
 10
44.51672902013792
 20
29.2840277696145
 10
44.51719003466545
 20
29.28175562658615
 10
44.51768397880205
 20
29.27951641316695
 10
44.51821085254765
 20
29.27731012935739
 10
44.51877065590234
 20
29.27510384554748
 10
44.51936338886635
 20
29.27293049134622
 10
44.51998905143928
 20
29.27077360194985
 10
44.52064764362122
 20
29.26864964216319
 10
44.52133916541261
 20
29.26652568237543
 10
44.52206361681286
 20
29.26443465219755
 10
44.52282099782226
 20
29.26237655162854
 10
44.56599171535825
 20
29.26237655162854
 10
44.56599171535825
 20
29.27148350677551
 10
44.56152516567934
 20
29.27551641085456
 10
44.55766052425484
 20
29.28070187909514
 10
44.55488988911961
 20
29.28638897226731
 10
44.55313612322798
 20
29.29309454773524
 10
44.55286926613017
 20
29.29736426130056
 10
44.55267168847545
 20
29.30044317975244
 10
44.55247411082097
 20
29.30343977418019
 10
44.55229299797113
 20
29.30638697419075
 10
44.55211188512099
 20
29.30925185018292
 10
44.551843597621
 20
29.31339811154773
 10
44.55161794098424
 20
29.31743485805017
 10
44.5514532929386
 20
29.32001983236596
 10
44.55132157450212
 20
29.3225389474636
 10
44.55110168969314
 20
29.3261792626342
 10
44.55092641919307
 20
29.32968467263426
 10
44.55081116556117
 20
29.33192388605526
 10
44.55058065829776
 20
29.33627059444972
 10
44.55041601025196
 20
29.34018921793873
 10
44.55033368622908
 20
29.34208267046613
 10
44.55016903818328
 20
29.34573785708304
 10
44.55007024935642
 20
29.34896495876123
 10
44.55002085494245
 20
29.35051265039719
 10
44.54998792533345
 20
29.35197801800184
 10
44.54995598857691
 20
29.35335129853437
 10
44.54955984041501
 20
29.35724675545876
 10
44.54919761471496
 20
29.36001284262325
 10
44.5487859946011
 20
29.36261428174262
 10
44.54834144487823
 20
29.36506753762065
 10
44.5478475007417
 20
29.36735614545344
 10
44.54728769738695
 20
29.36949657004531
 10
44.54669496442302
 20
29.37148881139622
 10
44.54605283704544
 20
29.37331640470153
 10
44.54536131525434
 20
29.37497934996118
 10
44.54462039904943
 20
29.37651057678464
 10
44.54383008843095
 20
29.37786069075783
 10
44.54312210183512
 20
29.37896383266305
 10
44.54218360797566
 20
29.38024808741808
 10
44.54111339567972
 20
29.38156527178224
 10
44.53994439455651
 20
29.38291538575548
 10
44.538643674997
 20
29.38429842933791
 10
44.53722770180543
 20
29.38571440252939
 10
44.53568001017745
 20
29.38716330533005
 10
44.53401706491773
 20
29.38866160254427
 10
44.53223886602612
 20
29.39017636456309
 10
44.53032894869816
 20
29.39174052099545
 10
44.5283037777381
 20
29.39333760703708
 10
44.52616335314636
 20
29.39495115788311
 10
44.52389121011814
 20
29.39661410314297
 10
44.52150381345801
 20
29.39830997801185
 10
44.51900116316607
 20
29.40005524729443
 10
44.51987379780738
 20
29.40068090986736
 10
44.52191543357165
 20
29.40221213669052
 10
44.52390767492309
 20
29.40374336351441
 10
44.52585052186004
 20
29.4053075199467
 10
44.52771104477418
 20
29.40688814118355
 10
44.52952217327495
 20
29.40848522722509
 10
44.53126744255742
 20
29.41009877807115
 10
44.53296331742629
 20
29.41172879372182
 10
44.53457686827258
 20
29.41337527417714
 10
44.5361410247052
 20
29.41505468424171
 10
44.53763932191928
 20
29.41673409430583
 10
44.53908822471994
 20
29.41842996917477
 10
44.54047126830242
 20
29.42015877365292
 10
44.54178845266645
 20
29.42188757813072
 10
44.54303977781246
 20
29.4236493122178
 10
44.54424170854482
 20
29.42541104630496
 10
44.54536131525434
 20
29.42720571000119
 10
44.54644799235471
 20
29.42901683850171
 10
44.54745234543243
 20
29.43082796700262
 10
44.54840730409647
 20
29.43267202511253
 10
44.54929640354222
 20
29.43453254802668
 10
44.55011964376978
 20
29.43640953574564
 10
44.55089348958384
 20
29.43830298826931
 10
44.55158501137501
 20
29.44021290559719
 10
44.55222713875251
 20
29.44213928772994
 10
44.5528198717163
 20
29.4440821346668
 10
44.55333028065754
 20
29.44605791121339
 10
44.55379129518514
 20
29.44803368775998
 10
44.55420291529877
 20
29.45002592911031
 10
44.5545322113899
 20
29.45205110007075
 10
44.5548121130672
 20
29.45407627102993
 10
44.5550261555265
 20
29.45613437159973
 10
44.55517433876733
 20
29.458192472168
 10
44.55527312759464
 20
29.46028350234652
 10
44.55530549717646
 20
29.46235515557729
 10
44.55525666279014
 20
29.46640840964004
 10
44.55515787396282
 20
29.4690921727823
 10
44.55502615552641
 20
29.47172654151022
 10
44.55484504267636
 20
29.47431151582491
 10
44.55461453541256
 20
29.47683063092184
 10
44.55435109853975
 20
29.47931681640867
 10
44.55402180244878
 20
29.48173714267814
 10
44.55365957674851
 20
29.48410807453387
 10
44.5532479566348
 20
29.48642961197541
 10
44.55280340691186
 20
29.48870175500367
 10
44.55230946277533
 20
29.49092450361823
 10
44.55174965942049
 20
29.49308139301466
 10
44.55115692645664
 20
29.49518888799718
 10
44.55053126388371
 20
29.49726345337088
 10
44.54983974209247
 20
29.49927215952615
 10
44.54911529069223
 20
29.50123147126781
 10
44.54834144487816
 20
29.50314138859605
 10
44.54751820465067
 20
29.50498544670576
 10
44.54666203481393
 20
29.5067965752065
 10
44.54575647056354
 20
29.50854184448905
 10
44.54480151189957
 20
29.51025418416243
 10
44.54379715882178
 20
29.51190066461776
 10
44.5427434113305
 20
29.51349775065935
 10
44.54165673422997
 20
29.51504544228725
 10
44.54052066271586
 20
29.51652727469704
 10
44.53933519678817
 20
29.51797617749754
 10
44.53810033644673
 20
29.51935922107997
 10
44.53752406828731
 20
29.51996841884844
 10
44.53627274314145
 20
29.52123620879895
 10
44.53495555877728
 20
29.52247106914027
 10
44.53360544480395
 20
29.52365653506812
 10
44.53218947161245
 20
29.52479260658213
 10
44.53074056881187
 20
29.52591221329172
 10
44.52922580679306
 20
29.52698242558766
 10
44.52767811516517
 20
29.52800324346988
 10
44.52606456431904
 20
29.5290075965476
 10
44.52440161905925
 20
29.5299625552116
 10
44.52270574419036
 20
29.53086811946194
 10
44.52094401010332
 20
29.53174075410324
 10
44.51913288160255
 20
29.53258045913545
 10
44.51728882349269
 20
29.53338723455843
 10
44.51537890616459
 20
29.53414461556788
 10
44.51341959442291
 20
29.53485260216361
 10
44.51141088826765
 20
29.53554412395475
 10
44.50935278769857
 20
29.53618625133234
 10
44.50726175752033
 20
29.53677898429625
 10
44.505104868124
 20
29.53735525245555
 10
44.50289858431403
 20
29.53788212620121
 10
44.50064290609053
 20
29.53835960553319
 10
44.49833783345307
 20
29.53880415525616
 10
44.49598336640188
 20
29.53921577536998
 10
44.49357950493727
 20
29.53959446587472
 10
44.49112624905929
 20
29.53992376196568
 10
44.48862359876741
 20
29.54020366364306
 10
44.48607155406189
 20
29.5404671005159
 10
44.48347011494248
 20
29.54068114297516
 10
44.48081928140932
 20
29.5408457910206
 10
44.4781025886583
 20
29.54099397426158
 10
44.47535296629813
 20
29.54109276308893
 10
44.47255394952422
 20
29.54114215750256
 10
44.46970553833689
 20
29.54115862230712
 10
44.34207037344772
 20
29.54115862230712
 10
44.34207037344772
 20
29.26237655162854
 10
44.37799657698074
 20
29.26237655162854
 10
44.37799657698074
 20
29.38207568072333
 97
        0
 92
       23
 72
     0
 73
     1
 93
       30
 10
44.37799657698074
 20
29.41381982390005
 10
44.37799657698074
 20
29.50941447913043
 10
44.47276524784884
 20
29.50941447913043
 10
44.4779923197836
 20
29.50920678090782
 10
44.48506720098417
 20
29.50819608359349
 10
44.49148847475926
 20
29.50646727911554
 10
44.49742152908405
 20
29.50402425674655
 10
44.50278426566458
 20
29.50087549398366
 10
44.5060104323744
 20
29.49833366566671
 10
44.50668878232154
 20
29.49782490320651
 10
44.51072509797028
 20
29.49370084156537
 10
44.51424324756108
 20
29.48864048941405
 10
44.51689161665827
 20
29.4829023563703
 10
44.51867667391391
 20
29.47637414697805
 10
44.51930936797857
 20
29.47046900237508
 10
44.5194038951996
 20
29.46577415039899
 10
44.51917587141181
 20
29.45992153984817
 10
44.51867168018743
 20
29.45425908455853
 10
44.51748308391411
 20
29.44762275536564
 10
44.51582797194808
 20
29.44168382419331
 10
44.51350191844558
 20
29.43599791563182
 10
44.5106379329779
 20
29.43107387044179
 10
44.50744264456758
 20
29.42697245546721
 10
44.50358821992248
 20
29.42331569362442
 10
44.49926090458442
 20
29.42026690327255
 10
44.4942902009316
 20
29.41775644688222
 10
44.48880471161733
 20
29.4158614596645
 10
44.48282798756466
 20
29.41457720490941
 10
44.47630542397916
 20
29.41388541786248
 10
44.47161545566499
 20
29.41381982390005
 97
        0
 75
     0
 76
     1
 47
0.1037924397788885
 98
        2
 10
44.46057499800254
 20
29.40253129613055
 10
44.46057499800254
 20
29.40253129613055
  0
MTEXT
  5
488B
330
A
100
AcDbEntity
  8
template
 62
   142
370
    30
100
AcDbMText
 10
36.85918795440503
 20
26.74838468314262
 30
0.0
 40
0.5
 41
3.572698217586889
 71
     1
 72
     5
  1
{\fArial|b1|i0|c0|p34;\C142;\c13470976;FBY1550 }
 73
     1
 44
1.0
1001
ACAD
1000
MTEXTBEGIN
1070
    73
1070
     1
1070
    44
1040
1.0
1070
    74
1070
     0
1000
MTEXTEND
  0
MTEXT
  5
4D7E
330
A
100
AcDbEntity
  8
template
 62
   142
370
    30
100
AcDbMText
 10
64.44923488555762
 20
41.75020792740051
 30
0.0
 40
0.5
 41
6.245346106367264
 71
     1
 72
     5
  1
{\fArial|b1|i0|c0|p34;\C142;\c13470976;0GU5049\P4-15-09}
 73
     1
 44
1.0
1001
ACAD
1000
MTEXTBEGIN
1070
    73
1070
     1
1070
    44
1040
1.0
1070
    74
1070
     0
1000
MTEXTEND
  0
TEXT
  5
5F67
330
A
100
AcDbEntity
  8
0
  6
Continuous
 62
     2
100
AcDbText
 10
115.8074460720188
 20
73.60449659234294
 30
0.0
 40
0.1
  1
 
 41
0.8000000000001248
  7
TEXTSTYLE_0
 72
     5
 11
115.8874460720188
 21
73.60449659234294
 31
0.0
100
AcDbText
  0
TEXT
  5
5F6B
330
A
100
AcDbEntity
  8
0
  6
Continuous
 62
     7
100
AcDbText
 10
100.0515315807188
 20
79.87459982224294
 30
0.0
 40
0.156
  1
 
 41
0.7999999999999574
  7
TEXTSTYLE_0
 72
     5
 11
100.1763315807188
 21
79.87459982224294
 31
0.0
100
AcDbText
  0
TEXT
  5
5F72
330
A
100
AcDbEntity
  8
0
  6
Continuous
 62
     2
100
AcDbText
 10
95.4652587543188
 20
88.01018321904294
 30
0.0
 40
0.116666666
  1
 
 41
0.8000000000000028
  7
TEXTSTYLE_0
 72
     5
 11
95.55859208711879
 21
88.01018321904294
 31
0.0
100
AcDbText
  0
TEXT
  5
5F74
330
A
100
AcDbEntity
  8
0
  6
Continuous
 62
     2
100
AcDbText
 10
95.4652587543188
 20
87.60118322004293
 30
0.0
 40
0.116666666
  1
 
 41
0.8000000000000028
  7
TEXTSTYLE_0
 72
     5
 11
95.55859208711879
 21
87.60118322004293
 31
0.0
100
AcDbText
  0
TEXT
  5
5F7E
330
A
100
AcDbEntity
  8
0
  6
Continuous
 62
     7
100
AcDbText
 10
95.6562598736188
 20
82.34791576984294
 30
0.0
 40
0.21875
  1
 
 41
0.9500000000000129
  7
TEXTSTYLE_0
 72
     5
 11
95.8640723736188
 21
82.34791576984294
 31
0.0
100
AcDbText
  0
TEXT
  5
5F80
330
A
100
AcDbEntity
  8
0
  6
Continuous
 62
     7
100
AcDbText
 10
95.6562598736188
 20
81.69166576984293
 30
0.0
 40
0.21875
  1
 
 41
0.9500000000000129
  7
TEXTSTYLE_0
 72
     5
 11
95.8640723736188
 21
81.69166576984293
 31
0.0
100
AcDbText
  0
TEXT
  5
5F8C
330
A
100
AcDbEntity
  8
0
  6
Continuous
 62
     2
100
AcDbText
 10
108.9847700788188
 20
85.97384117084294
 30
0.0
 40
0.125
  1
 
 41
0.7999999999999546
  7
TEXTSTYLE_0
 72
     5
 11
109.0847700788188
 21
85.97384117084294
 31
0.0
100
AcDbText
  0
TEXT
  5
5F8E
330
A
100
AcDbEntity
  8
0
  6
Continuous
 62
     2
100
AcDbText
 10
106.4847700788188
 20
85.59884117084294
 30
0.0
 40
0.125
  1
 
 41
0.7999999999999546
  7
TEXTSTYLE_0
 72
     5
 11
106.5847700788188
 21
85.59884117084294
 31
0.0
100
AcDbText
  0
TEXT
  5
5F90
330
A
100
AcDbEntity
  8
0
  6
Continuous
 62
     2
100
AcDbText
 10
108.9847700788188
 20
85.41134117084295
 30
0.0
 40
0.125
  1
 
 41
0.7999999999999546
  7
TEXTSTYLE_0
 72
     5
 11
109.0847700788188
 21
85.41134117084295
 31
0.0
100
AcDbText
  0
TEXT
  5
5F91
330
A
100
AcDbEntity
  8
0
  6
Continuous
 62
     2
100
AcDbText
 10
106.1847700788188
 20
85.22384117084294
 30
0.0
 40
0.125
  1
 
 41
0.7999999999998409
  7
TEXTSTYLE_0
 72
     5
 11
106.2847700788188
 21
85.22384117084294
 31
0.0
100
AcDbText
  0
TEXT
  5
5F96
330
A
100
AcDbEntity
  8
0
  6
Continuous
 62
     2
100
AcDbText
 10
114.6769925127188
 20
85.32790896454292
 30
0.0
 40
0.116666666
  1
 
 41
0.8000000000001247
  7
TEXTSTYLE_0
 72
     5
 11
114.7703258455188
 21
85.32790896454292
 31
0.0
100
AcDbText
  0
TEXT
  5
5F99
330
A
100
AcDbEntity
  8
0
  6
Continuous
 62
     2
100
AcDbText
 10
114.6769925127188
 20
84.77790896554294
 30
0.0
 40
0.116666666
  1
 
 41
0.8000000000001247
  7
TEXTSTYLE_0
 72
     5
 11
114.7703258455188
 21
84.77790896554294
 31
0.0
100
AcDbText
  0
TEXT
  5
5F9A
330
A
100
AcDbEntity
  8
0
  6
Continuous
 62
     2
100
AcDbText
 10
111.8769925127188
 20
84.59249229904294
 30
0.0
 40
0.116666666
  1
 
 41
0.8000000000000028
  7
TEXTSTYLE_0
 72
     5
 11
111.9703258455188
 21
84.59249229904294
 31
0.0
100
AcDbText
  0
TEXT
  5
5FA0
330
A
100
AcDbEntity
  8
0
  6
Continuous
 62
     2
100
AcDbText
 10
110.3169065363188
 20
82.58687362594294
 30
0.0
 40
0.1367187441
  1
 
 41
0.8000000001462957
  7
TEXTSTYLE_0
 72
     5
 11
110.4262815316188
 21
82.58687362594294
 31
0.0
100
AcDbText
  0
TEXT
  5
5FA4
330
A
100
AcDbEntity
  8
0
  6
Continuous
 62
     2
100
AcDbText
 10
110.3169065363188
 20
81.76656139304295
 30
0.0
 40
0.1367187441
  1
 
 41
0.8000000001462957
  7
TEXTSTYLE_0
 72
     5
 11
110.4262815316188
 21
81.76656139304295
 31
0.0
100
AcDbText
  0
LINE
  5
5FF1
330
A
100
AcDbEntity
  8
0
  6
Continuous
 62
     7
100
AcDbLine
 10
28.69380154905676
 20
25.00301886526135
 30
0.0
 11
28.22792727042818
 21
25.00301886526135
 31
0.0
  0
LINE
  5
5FF2
330
A
100
AcDbEntity
  8
0
  6
Continuous
 62
     7
100
AcDbLine
 10
31.60100274174246
 20
27.02617166183276
 30
0.0
 11
29.35100275454246
 21
27.02617166183276
 31
0.0
  0
LINE
  5
5FF3
330
A
100
AcDbEntity
  8
0
  6
Continuous
 62
     7
100
AcDbLine
 10
29.35100275454246
 20
27.4761716593185
 30
0.0
 11
31.60100274174246
 21
27.4761716593185
 31
0.0
  0
LINE
  5
5FF4
330
A
100
AcDbEntity
  8
0
  6
Continuous
 62
     7
100
AcDbLine
 10
29.35100275454246
 20
28.07617165588992
 30
0.0
 11
31.60100274174246
 21
28.07617165588992
 31
0.0
  0
LINE
  5
5FF5
330
A
100
AcDbEntity
  8
0
  6
Continuous
 62
     7
100
AcDbLine
 10
28.22792727042818
 20
25.00301886526135
 30
0.0
 11
28.77144726219962
 21
27.03146308903277
 31
0.0
  0
LINE
  5
5FF6
330
A
100
AcDbEntity
  8
0
  6
Continuous
 62
     7
100
AcDbLine
 10
29.2061138813996
 20
26.91499451920419
 30
0.0
 11
28.69380154905676
 21
25.00301886526135
 31
0.0
  0
LINE
  5
5FF7
330
A
100
AcDbEntity
  8
0
  6
Continuous
 62
     7
100
AcDbLine
 10
29.35100275454246
 20
27.4761716593185
 30
0.0
 11
29.35100275454246
 21
28.07617165588992
 31
0.0
  0
LINE
  5
5FF8
330
A
100
AcDbEntity
  8
0
  6
Continuous
 62
     7
100
AcDbLine
 10
31.60100274174246
 20
28.07617165588992
 30
0.0
 11
31.60100274174246
 21
27.02617166183276
 31
0.0
  0
ARC
  5
5FF9
330
A
100
AcDbEntity
  8
0
  6
Continuous
 62
     7
100
AcDbCircle
 10
29.35100275454246
 20
26.87617166274707
 30
0.0
 40
0.1499999990857143
100
AcDbArc
 50
90.0
 51
164.9999999999996
  0
ARC
  5
5FFA
330
A
100
AcDbEntity
  8
0
  6
Continuous
 62
     7
100
AcDbCircle
 10
29.35100275454246
 20
26.87617166274707
 30
0.0
 40
0.5999999965714286
100
AcDbArc
 50
90.0
 51
164.9999999999996
  0
LINE
  5
600A
330
A
100
AcDbEntity
  8
0
  6
Continuous
 62
     7
100
AcDbLine
 10
47.67135182754339
 20
25.78800199634479
 30
0.0
 11
47.20547754891484
 21
25.78800199634479
 31
0.0
  0
LINE
  5
600B
330
A
100
AcDbEntity
  8
0
  6
Continuous
 62
     7
100
AcDbLine
 10
50.8054775283434
 20
27.8111547929162
 30
0.0
 11
48.32855303302912
 21
27.8111547929162
 31
0.0
  0
LINE
  5
600C
330
A
100
AcDbEntity
  8
0
  6
Continuous
 62
     7
100
AcDbLine
 10
47.80547754548627
 20
28.26115479040192
 30
0.0
 11
50.8054775283434
 21
28.26115479040192
 31
0.0
  0
LINE
  5
600D
330
A
100
AcDbEntity
  8
0
  6
Continuous
 62
     7
100
AcDbLine
 10
50.8054775283434
 20
28.86115478697334
 30
0.0
 11
47.80547754548627
 21
28.86115478697334
 31
0.0
  0
LINE
  5
600E
330
A
100
AcDbEntity
  8
0
  6
Continuous
 62
     7
100
AcDbLine
 10
47.20547754891484
 20
25.78800199634479
 30
0.0
 11
47.74899754045768
 21
27.81644621988764
 31
0.0
  0
LINE
  5
600F
330
A
100
AcDbEntity
  8
0
  6
Continuous
 62
     7
100
AcDbLine
 10
48.18366415988624
 20
27.69997765028765
 30
0.0
 11
47.67135182754339
 21
25.78800199634479
 31
0.0
  0
LINE
  5
6010
330
A
100
AcDbEntity
  8
0
  6
Continuous
 62
     7
100
AcDbLine
 10
47.80547754548627
 20
28.26115479040192
 30
0.0
 11
47.80547754548627
 21
28.86115478697334
 31
0.0
  0
LINE
  5
6011
330
A
100
AcDbEntity
  8
0
  6
Continuous
 62
     7
100
AcDbLine
 10
50.8054775283434
 20
28.86115478697334
 30
0.0
 11
50.8054775283434
 21
27.8111547929162
 31
0.0
  0
ARC
  5
6012
330
A
100
AcDbEntity
  8
0
  6
Continuous
 62
     7
100
AcDbCircle
 10
48.32855303302912
 20
27.66115479383049
 30
0.0
 40
0.1499999990857143
100
AcDbArc
 50
90.0
 51
164.9999999999996
  0
ARC
  5
6013
330
A
100
AcDbEntity
  8
0
  6
Continuous
 62
     7
100
AcDbCircle
 10
48.32855303302912
 20
27.66115479383049
 30
0.0
 40
0.5999999965714286
100
AcDbArc
 50
90.0
 51
164.9999999999996
  0
MTEXT
  5
60A9
330
A
100
AcDbEntity
  8
template
 62
   142
370
    30
100
AcDbMText
 10
28.9030474400187
 20
29.9069407563273
 30
0.0
 40
0.25
 41
4.75144822892264
 71
     1
 72
     5
  1
{\fArial|b1|i0|c0|p34;\C142;\c13470976;RECESS MOUNT \PMONTAJE EN CAVIDADES\PMONTAGE ENCASTR\fArial|b0|i0|c0|p34;É}
 73
     1
 44
1.0
1001
ACAD
1000
MTEXTBEGIN
1070
    73
1070
     1
1070
    44
1040
1.0
1070
    74
1070
     0
1000
MTEXTEND
  0
MTEXT
  5
634A
330
A
100
AcDbEntity
  8
template
 62
   142
370
    30
100
AcDbMText
 10
47.89763657706038
 20
30.38133193441939
 30
0.0
 40
0.25
 41
4.75144822892264
 71
     1
 72
     5
  1
{\fArial|b1|i0|c0|p34;\C142;\c13470976;FLUSH MOUNT \PMONTAJE AL RAS\PMONTAGE AFFLEUR\fArial|b0|i0|c0|p34;É}
 73
     1
 44
1.0
1001
ACAD
1000
MTEXTBEGIN
1070
    73
1070
     1
1070
    44
1040
1.0
1070
    74
1070
     0
1000
MTEXTEND
  0
LEADER
  5
639B
330
A
100
AcDbEntity
  8
template
  6
Continuous
 62
   142
 48
4.0
100
AcDbLeader
  3
STANDARD
 73
     0
 74
     0
 75
     1
 40
3.379831741700773
 41
6.24931787175989
 76
     3
 10
44.26724757209148
 20
39.57250671263583
 30
0.0
 10
47.23667450771106
 20
34.3340550208895
 30
0.0
 10
47.41667450771106
 20
34.3340550208895
 30
0.0
340
639C
213
0.0
223
0.125
233
0.0
1001
ACAD
1000
DSTYLE
1002
{
1070
   147
1040
0.09
1070
    77
1070
     0
1002
}
  0
MTEXT
  5
639C
102
{ACAD_REACTORS
330
639B
102
}
330
A
100
AcDbEntity
  8
template
  6
Continuous
 62
   142
 48
4.0
100
AcDbMText
 10
47.50667450771106
 20
34.20905502088949
 30
0.0
 40
0.25
 41
0.0
 71
     4
 72
     1
  1
CUT ALONG THIS LINE FOR \PFLUSH MOUNT INSTALLATION\P\PCORTE A LO LARGO DE ESTA L{\C142;\c13470976;ÍNEA\PPARA MONTAJES AL RAS\P\PDÉCOUPER LE LONG CETTE LIGNE\PPOUR DES MONTAGES AFFLEURÉS}
  7
ARIAL
 73
     1
 44
1.0
1001
ACAD
1000
MTEXTBEGIN
1070
    73
1070
     1
1070
    44
1040
1.0
1070
    74
1070
     0
1000
MTEXTEND
  0
LINE
  5
6971
330
A
100
AcDbEntity
  8
0
  6
Continuous
 62
     7
100
AcDbLine
 10
12.05479507472484
 20
15.866640103609
 30
0.0
 11
12.05479507472484
 21
15.04091609651939
 31
0.0
  0
LINE
  5
6972
330
A
100
AcDbEntity
  8
0
  6
Continuous
 62
     7
100
AcDbLine
 10
8.968512978003815
 20
16.65404167841214
 30
0.0
 11
8.968512978003813
 21
11.24326325523538
 31
0.0
  0
LINE
  5
6973
330
A
100
AcDbEntity
  8
0
  6
Continuous
 62
     7
100
AcDbLine
 10
12.05479507472484
 20
36.73278183589244
 30
0.0
 11
12.05479507472484
 21
38.34590741778524
 31
0.0
  0
LINE
  5
6974
330
A
100
AcDbEntity
  8
0
  6
Continuous
 62
     7
100
AcDbLine
 10
8.968512978003815
 20
36.73278183589244
 30
0.0
 11
8.968512978003815
 21
42.18362712562785
 31
0.0
  0
LINE
  5
6975
330
A
100
AcDbEntity
  8
0
  6
Continuous
 62
     7
100
AcDbLine
 10
8.968512978003815
 20
26.69341175715229
 30
0.0
 11
8.968512978003815
 21
15.88398744028885
 31
0.0
  0
LINE
  5
6976
330
A
100
AcDbEntity
  8
0
  6
Continuous
 62
     7
100
AcDbLine
 10
12.05479507472484
 20
26.69341175715229
 30
0.0
 11
12.05479507472484
 21
15.74174095748017
 31
0.0
  0
LINE
  5
697C
330
A
100
AcDbEntity
  8
0
  6
Continuous
 62
     7
100
AcDbLine
 10
13.28139436957558
 20
39.57250671263583
 30
0.0
 11
63.51061766044745
 21
39.57250671263583
 31
0.0
  0
LINE
  5
697D
330
A
100
AcDbEntity
  8
0
  6
Continuous
 62
     7
100
AcDbLine
 10
13.28139436957558
 20
13.85368688040896
 30
0.0
 11
63.51061766044745
 21
13.85368688040896
 31
0.0
  0
LINE
  5
697E
330
A
100
AcDbEntity
  8
0
  6
Continuous
 62
     7
100
AcDbLine
 10
12.05479507472484
 20
26.69341175715229
 30
0.0
 11
12.05479507472484
 21
36.73278183589244
 31
0.0
  0
LINE
  5
697F
330
A
100
AcDbEntity
  8
0
  6
Continuous
 62
     7
100
AcDbLine
 10
64.73721695529821
 20
15.08028617525954
 30
0.0
 11
64.73721695529821
 21
38.34590741778524
 31
0.0
  0
ARC
  5
6980
330
A
100
AcDbEntity
  8
0
  6
Continuous
 62
     7
100
AcDbCircle
 10
9.246185556934335
 20
42.18362712562785
 30
0.0
 40
0.2769740343211188
100
AcDbArc
 50
89.92802041529989
 51
180.144140021737
  0
ARC
  5
6981
330
A
100
AcDbEntity
  8
0
  6
Continuous
 62
     7
100
AcDbCircle
 10
67.74564147351805
 20
42.18362712562785
 30
0.0
 40
0.2769740343211227
100
AcDbArc
 50
359.855859978263
 51
90.0719795845959
  0
ARC
  5
6982
330
A
100
AcDbEntity
  8
0
  6
Continuous
 62
     7
100
AcDbCircle
 10
67.74564147351805
 20
11.24256646741688
 30
0.0
 40
0.2769740343211188
100
AcDbArc
 50
269.9280204154041
 51
0.144140021737013
  0
ARC
  5
6983
330
A
100
AcDbEntity
  8
0
  6
Continuous
 62
     7
100
AcDbCircle
 10
9.246185556934335
 20
11.24256646741688
 30
0.0
 40
0.2769740343211227
100
AcDbArc
 50
179.855859978263
 51
270.0719795845959
  0
ARC
  5
6984
330
A
100
AcDbEntity
  8
0
  6
Continuous
 62
     7
100
AcDbCircle
 10
63.51061766044745
 20
38.34590741778524
 30
0.0
 40
1.226599294850675
100
AcDbArc
 50
0.0
 51
90.0
  0
ARC
  5
6985
330
A
100
AcDbEntity
  8
0
  6
Continuous
 62
     7
100
AcDbCircle
 10
13.28139436957558
 20
38.34590741778524
 30
0.0
 40
1.226599294850675
100
AcDbArc
 50
90.0
 51
180.0
  0
ARC
  5
6986
330
A
100
AcDbEntity
  8
0
  6
Continuous
 62
     7
100
AcDbCircle
 10
13.28139436957558
 20
15.08028617525954
 30
0.0
 40
1.226599294850675
100
AcDbArc
 50
180.0
 51
270.0
  0
ARC
  5
6987
330
A
100
AcDbEntity
  8
0
  6
Continuous
 62
     7
100
AcDbCircle
 10
63.51061766044745
 20
15.08028617525954
 30
0.0
 40
1.226599294850675
100
AcDbArc
 50
270.0
 51
0.0
  0
LINE
  5
6988
330
A
100
AcDbEntity
  8
0
  6
Continuous
 62
     7
100
AcDbLine
 10
9.246533513989362
 20
42.46095021341321
 30
0.0
 11
67.74564147351805
 21
42.46095021341321
 31
0.0
  0
LINE
  5
698A
330
A
100
AcDbEntity
  8
0
  6
Continuous
 62
     7
100
AcDbLine
 10
8.968512978003815
 20
26.69341175715229
 30
0.0
 11
8.968512978003815
 21
36.73278183589244
 31
0.0
  0
LINE
  5
698B
330
A
100
AcDbEntity
  8
0
  6
Continuous
 62
     7
100
AcDbLine
 10
9.246185556934335
 20
10.96524337963157
 30
0.0
 11
67.74564147351805
 21
10.96524337963157
 31
0.0
  0
LINE
  5
698D
330
A
100
AcDbEntity
  8
0
  6
Continuous
 62
     7
100
AcDbLine
 10
68.02331405244856
 20
11.24256646741688
 30
0.0
 11
68.02331405244856
 21
42.18362712562785
 31
0.0
  0
LINE
  5
6992
330
A
100
AcDbEntity
  8
0
  6
Continuous
 62
     7
100
AcDbLine
 10
13.28139436957558
 20
40.08431773625787
 30
0.0
 11
63.51061766044745
 21
40.08431773625787
 31
0.0
  0
ARC
  5
6993
330
A
100
AcDbEntity
  8
0
  6
Continuous
 62
     7
100
AcDbCircle
 10
13.28139436957558
 20
38.34590741778524
 30
0.0
 40
1.738410318472722
100
AcDbArc
 50
90.0
 51
180.0
  0
LINE
  5
6994
330
A
100
AcDbEntity
  8
0
  6
Continuous
 62
     7
100
AcDbLine
 10
11.54298405110279
 20
36.73278183589244
 30
0.0
 11
11.54298405110279
 21
38.34590741778524
 31
0.0
  0
LINE
  5
6995
330
A
100
AcDbEntity
  8
0
  6
Continuous
 62
     7
100
AcDbLine
 10
11.54298405110279
 20
26.69341175715229
 30
0.0
 11
11.54298405110279
 21
36.73278183589244
 31
0.0
  0
LINE
  5
6996
330
A
100
AcDbEntity
  8
0
  6
Continuous
 62
     7
100
AcDbLine
 10
11.54298405110279
 20
26.69341175715229
 30
0.0
 11
11.54298405110279
 21
15.08028617525954
 31
0.0
  0
ARC
  5
6997
330
A
100
AcDbEntity
  8
0
  6
Continuous
 62
     7
100
AcDbCircle
 10
13.28139436957558
 20
15.08028617525954
 30
0.0
 40
1.738410318472722
100
AcDbArc
 50
180.0
 51
270.0
  0
LINE
  5
6998
330
A
100
AcDbEntity
  8
0
  6
Continuous
 62
     7
100
AcDbLine
 10
13.28139436957558
 20
13.34187585678691
 30
0.0
 11
63.51061766044745
 21
13.34187585678691
 31
0.0
  0
ARC
  5
6999
330
A
100
AcDbEntity
  8
0
  6
Continuous
 62
     7
100
AcDbCircle
 10
63.51061766044745
 20
15.08028617525954
 30
0.0
 40
1.738410318472722
100
AcDbArc
 50
270.0
 51
0.0
  0
LINE
  5
699A
330
A
100
AcDbEntity
  8
0
  6
Continuous
 62
     7
100
AcDbLine
 10
65.24902797892025
 20
15.08028617525954
 30
0.0
 11
65.24902797892025
 21
38.34590741778524
 31
0.0
  0
ARC
  5
699B
330
A
100
AcDbEntity
  8
0
  6
Continuous
 62
     7
100
AcDbCircle
 10
63.51061766044745
 20
38.34590741778524
 30
0.0
 40
1.738410318472722
100
AcDbArc
 50
0.0
 51
90.0
  0
LINE
  5
6B5D
330
A
100
AcDbEntity
  8
template
  6
Continuous
 62
   142
 48
10.0
100
AcDbLine
 10
4.666066735190721
 20
43.66001670944373
 30
0.0
 11
70.66606673519072
 21
43.66001670944375
 31
0.0
  0
LINE
  5
6B61
330
A
100
AcDbEntity
  8
template
  6
Continuous
 62
   142
 48
10.0
100
AcDbLine
 10
4.666066735190721
 20
43.66001670944373
 30
0.0
 11
4.6660667351907
 21
9.660016709443736
 31
0.0
  0
LINE
  5
6B64
330
A
100
AcDbEntity
  8
template
  6
Continuous
 62
   142
 48
10.0
100
AcDbLine
 10
70.66606673519072
 20
43.66001670944377
 30
0.0
 11
70.66606673519074
 21
9.660016709443752
 31
0.0
  0
LINE
  5
6B72
330
A
100
AcDbEntity
  8
template
  6
Continuous
 62
   142
 48
10.0
100
AcDbLine
 10
4.666066735190728
 20
9.660016709443738
 30
0.0
 11
70.66606673519072
 21
9.66001670944375
 31
0.0
  0
LINE
  5
6B73
330
A
100
AcDbEntity
  8
template
  6
Continuous
 62
   142
 48
10.0
100
AcDbLine
 10
4.666066735190723
 20
35.16001670944374
 30
0.0
 11
5.166066735190717
 21
35.16001670944374
 31
0.0
  0
LINE
  5
6B74
330
A
100
AcDbEntity
  8
template
  6
Continuous
 62
   142
 48
10.0
100
AcDbLine
 10
4.666066735190725
 20
26.66001670944374
 30
0.0
 11
5.166066735190711
 21
26.66001670944374
 31
0.0
  0
LINE
  5
6B75
330
A
100
AcDbEntity
  8
template
  6
Continuous
 62
   142
 48
10.0
100
AcDbLine
 10
4.666066735190726
 20
18.16001670944373
 30
0.0
 11
5.166066735190706
 21
18.16001670944373
 31
0.0
  0
LINE
  5
6B78
330
A
100
AcDbEntity
  8
template
  6
Continuous
 62
   142
 48
10.0
100
AcDbLine
 10
70.16606673519072
 20
18.16001670944375
 30
0.0
 11
70.66606673519072
 21
18.16001670944375
 31
0.0
  0
LINE
  5
6B79
330
A
100
AcDbEntity
  8
template
  6
Continuous
 62
   142
 48
10.0
100
AcDbLine
 10
70.16606673519072
 20
26.66001670944376
 30
0.0
 11
70.66606673519072
 21
26.66001670944375
 31
0.0
  0
LINE
  5
6B7A
330
A
100
AcDbEntity
  8
template
  6
Continuous
 62
   142
 48
10.0
100
AcDbLine
 10
70.16606673519072
 20
35.16001670944375
 30
0.0
 11
70.66606673519072
 21
35.16001670944375
 31
0.0
  0
LINE
  5
6B7D
330
A
100
AcDbEntity
  8
template
  6
Continuous
 62
   142
 48
10.0
100
AcDbLine
 10
15.66606673519072
 20
43.66001670944373
 30
0.0
 11
15.66606673519072
 21
43.16001670944374
 31
0.0
  0
LINE
  5
6B7E
330
A
100
AcDbEntity
  8
template
  6
Continuous
 62
   142
 48
10.0
100
AcDbLine
 10
26.66606673519072
 20
43.66001670944372
 30
0.0
 11
26.66606673519072
 21
43.16001670944374
 31
0.0
  0
LINE
  5
6B7F
330
A
100
AcDbEntity
  8
template
  6
Continuous
 62
   142
 48
10.0
100
AcDbLine
 10
37.66606673519073
 20
43.66001670944371
 30
0.0
 11
37.66606673519073
 21
43.16001670944374
 31
0.0
  0
LINE
  5
6B80
330
A
100
AcDbEntity
  8
template
  6
Continuous
 62
   142
 48
10.0
100
AcDbLine
 10
48.66606673519072
 20
43.6600167094437
 30
0.0
 11
48.66606673519073
 21
43.16001670944375
 31
0.0
  0
LINE
  5
6B81
330
A
100
AcDbEntity
  8
template
  6
Continuous
 62
   142
 48
10.0
100
AcDbLine
 10
59.66606673519073
 20
43.6600167094437
 30
0.0
 11
59.66606673519073
 21
43.16001670944374
 31
0.0
  0
LINE
  5
6B82
330
A
100
AcDbEntity
  8
template
  6
Continuous
 62
   142
 48
10.0
100
AcDbLine
 10
59.66606673519071
 20
10.16001670944375
 30
0.0
 11
59.6660667351907
 21
9.660016709443697
 31
0.0
  0
LINE
  5
6B83
330
A
100
AcDbEntity
  8
template
  6
Continuous
 62
   142
 48
10.0
100
AcDbLine
 10
48.66606673519069
 20
10.16001670944374
 30
0.0
 11
48.66606673519069
 21
9.660016709443706
 31
0.0
  0
LINE
  5
6B84
330
A
100
AcDbEntity
  8
template
  6
Continuous
 62
   142
 48
10.0
100
AcDbLine
 10
37.6660667351907
 20
10.16001670944374
 30
0.0
 11
37.6660667351907
 21
9.660016709443715
 31
0.0
  0
LINE
  5
6B85
330
A
100
AcDbEntity
  8
template
  6
Continuous
 62
   142
 48
10.0
100
AcDbLine
 10
26.6660667351907
 20
10.16001670944374
 30
0.0
 11
26.6660667351907
 21
9.660016709443722
 31
0.0
  0
LINE
  5
6B86
330
A
100
AcDbEntity
  8
template
  6
Continuous
 62
   142
 48
10.0
100
AcDbLine
 10
15.6660667351907
 20
10.16001670944374
 30
0.0
 11
15.6660667351907
 21
9.660016709443729
 31
0.0
  0
LEADER
  5
6BD7
330
A
100
AcDbEntity
  8
template
  6
Continuous
 62
   142
 48
4.0
100
AcDbLeader
  3
STANDARD
 73
     0
 74
     0
 75
     1
 40
3.379831741700773
 41
6.24931787175989
 76
     3
 10
26.77492292382157
 20
40.08431773625787
 30
0.0
 10
30.58203667996834
 20
34.03691010628319
 30
0.0
 10
30.76203667996833
 20
34.03691010628319
 30
0.0
340
6BD8
213
0.0
223
-0.125
233
0.0
1001
ACAD
1000
DSTYLE
1002
{
1070
   147
1040
0.09
1070
    77
1070
     0
1002
}
  0
MTEXT
  5
6BD8
102
{ACAD_REACTORS
330
6BD7
102
}
330
A
100
AcDbEntity
  8
template
  6
Continuous
 62
   142
 48
4.0
100
AcDbMText
 10
30.85203667996833
 20
34.16191010628319
 30
0.0
 40
0.25
 41
0.0
 71
     4
 72
     1
  1
\A1;CUT {\C142;\c13470976;ALONG THIS LINE FOR\PRECESS MOUNT INSTALLATION\P\PCORTE A LO LARGO DE ESTA L\A0;ÍNEA\PPARA MONTAJE EN CAVIDADES\P\PDÉCOUPER LE LONG CETTE LIGNE\PPOUR DES MONTAGES ENCASTRÉS}
  7
ARIAL
 73
     1
 44
1.0
1001
ACAD
1000
MTEXTBEGIN
1070
    73
1070
     1
1070
    44
1040
1.0
1070
    74
1070
     0
1000
MTEXTEND
  0
DIMENSION
  5
6C31
330
A
100
AcDbEntity
  8
template
  6
Continuous
 62
   142
 48
4.0
100
AcDbDimension
  2
*D0
 10
21.99186101165208
 20
13.85368688040895
 30
0.0
 11
21.99186101165207
 21
26.7130967965224
 31
0.0
 70
    32
 71
     5
 42
25.71881983222688
  3
STANDARD
100
AcDbAlignedDimension
 13
19.87319545691389
 23
39.57250671263583
 33
0.0
 14
19.87319545691389
 24
13.85368688040895
 34
0.0
 50
90.0
100
AcDbRotatedDimension
  0
DIMENSION
  5
6C40
330
A
100
AcDbEntity
  8
template
  6
Continuous
 62
   142
 48
4.0
100
AcDbDimension
  2
*D1
 10
17.33079675202074
 20
13.34187585678691
 30
0.0
 11
17.33079675202074
 21
26.7130967965224
 31
0.0
 70
    32
 71
     5
 42
26.74244187947097
  3
STANDARD
100
AcDbAlignedDimension
 13
17.18955230329018
 23
40.08431773625787
 33
0.0
 14
17.18955230329018
 24
13.34187585678691
 34
0.0
 50
90.0
100
AcDbRotatedDimension
  0
DIMENSION
  5
6C4F
330
A
100
AcDbEntity
  8
template
  6
Continuous
 62
   142
 48
4.0
100
AcDbDimension
  2
*D2
 10
7.161201932448135
 20
10.96524337963157
 30
0.0
 11
7.161201932448134
 21
26.71309679652239
 31
0.0
 70
    32
 71
     5
 42
31.49570683378164
  3
STANDARD
100
AcDbAlignedDimension
 13
9.246533513989362
 23
42.46095021341321
 33
0.0
 14
9.246185556934335
 24
10.96524337963157
 34
0.0
 50
90.0
100
AcDbRotatedDimension
  0
DIMENSION
  5
6C9C
330
A
100
AcDbEntity
  8
template
  6
Continuous
 62
   142
 48
4.0
100
AcDbDimension
  2
*D3
 10
68.02331405244856
 20
12.02356415086622
 30
0.0
 11
38.49591351522619
 21
12.02356415086622
 31
0.0
 70
    32
 71
     5
 42
59.05480107444475
  3
STANDARD
100
AcDbAlignedDimension
 13
8.968512978003813
 23
12.44677958335292
 33
0.0
 14
68.02331405244856
 24
12.44677958335292
 34
0.0
100
AcDbRotatedDimension
  0
DIMENSION
  5
6CAB
330
A
100
AcDbEntity
  8
template
  6
Continuous
 62
   142
 48
4.0
100
AcDbDimension
  2
*D4
 10
64.73721695529821
 20
20.98162432321365
 30
0.0
 11
38.39600601501152
 21
20.98162432321365
 31
0.0
 70
    32
 71
     5
 42
52.68242188057337
  3
STANDARD
100
AcDbAlignedDimension
 13
12.05479507472484
 23
20.84055253877223
 33
0.0
 14
64.73721695529821
 24
20.84055253877223
 34
0.0
100
AcDbRotatedDimension
  0
DIMENSION
  5
6CBA
330
A
100
AcDbEntity
  8
template
  6
Continuous
 62
   142
 48
4.0
100
AcDbDimension
  2
*D5
 10
65.24902797892025
 20
17.3842930679143
 30
0.0
 11
38.39600601501152
 21
17.3842930679143
 31
0.0
 70
    32
 71
     5
 42
53.70604392781746
  3
STANDARD
100
AcDbAlignedDimension
 13
11.54298405110279
 23
17.87804443220291
 33
0.0
 14
65.24902797892025
 24
17.87804443220291
 34
0.0
100
AcDbRotatedDimension
  0
DIMENSION
  5
6CC9
330
A
100
AcDbEntity
  8
template
  6
Continuous
 62
   142
 48
4.0
100
AcDbDimension
  2
*D6
 10
13.28139436957559
 20
38.34590741778527
 30
0.0
 11
13.87465114744346
 21
37.88292370102511
 31
0.0
 70
   164
 71
     5
 42
1.226599294850664
  3
STANDARD
100
AcDbRadialDimension
 15
12.31441044893594
 25
39.10055165671679
 35
0.0
 40
0.0
1001
ACAD
1000
DSTYLE
1002
{
1070
   279
1070
     1
1070
   288
1070
     1
1002
}
  0
DIMENSION
  5
6CD3
330
A
100
AcDbEntity
  8
template
  6
Continuous
 62
   142
 48
4.0
100
AcDbDimension
  2
*D7
 10
13.28139436957557
 20
38.34590741778526
 30
0.0
 11
10.51112881564785
 21
40.54970135526573
 31
0.0
 70
   164
 71
     5
 42
1.738410318472709
  3
STANDARD
100
AcDbRadialDimension
 15
12.20816976545099
 25
39.71348168797098
 35
0.0
 40
0.0
1001
ACAD
1000
DSTYLE
1002
{
1070
   288
1070
     1
1002
}
  0
CIRCLE
  5
708B
330
A
100
AcDbEntity
  8
0
  6
Continuous
 62
     7
100
AcDbCircle
 10
59.55404338202291
 20
26.69341175715229
 30
0.0
 40
1.181102362204724
  0
DIMENSION
  5
70B5
330
A
100
AcDbEntity
  8
template
  6
Continuous
 62
   142
 48
4.0
100
AcDbDimension
  2
*D8
 10
68.02331405244856
 20
18.65497945339939
 30
0.0
 11
66.63617101568441
 21
18.65497945339939
 31
0.0
 70
    32
 71
     5
 42
2.774286073528315
  3
STANDARD
100
AcDbAlignedDimension
 13
65.24902797892025
 23
18.68379936447581
 33
0.0
 14
68.02331405244856
 24
18.68379936447581
 34
0.0
100
AcDbRotatedDimension
  0
DIMENSION
  5
70C4
330
A
100
AcDbEntity
  8
template
  6
Continuous
 62
   142
 48
4.0
100
AcDbDimension
  2
*D9
 10
68.02331405244856
 20
22.63190551501748
 30
0.0
 11
66.38026550387339
 21
22.63190551501748
 31
0.0
 70
    32
 71
     5
 42
3.28609709715036
  3
STANDARD
100
AcDbAlignedDimension
 13
64.73721695529821
 23
22.63190551501748
 33
0.0
 14
68.02331405244856
 24
22.63190551501748
 34
0.0
100
AcDbRotatedDimension
  0
DIMENSION
  5
70D3
330
A
100
AcDbEntity
  8
template
  6
Continuous
 62
   142
 48
4.0
100
AcDbDimension
  2
*D10
 10
8.968512978003815
 20
18.45006927525946
 30
0.0
 11
10.2557485145533
 21
18.45006927525946
 31
0.0
 70
    32
 71
     5
 42
2.574471073098976
  3
STANDARD
100
AcDbAlignedDimension
 13
11.54298405110279
 23
18.26687602933225
 33
0.0
 14
8.968512978003815
 24
18.26687602933225
 34
0.0
100
AcDbRotatedDimension
  0
DIMENSION
  5
70E2
330
A
100
AcDbEntity
  8
template
  6
Continuous
 62
   142
 48
4.0
100
AcDbDimension
  2
*D11
 10
8.968512978003815
 20
22.44697748456429
 30
0.0
 11
10.51165402636432
 21
22.44697748456429
 31
0.0
 70
    32
 71
     5
 42
3.086282096721021
  3
STANDARD
100
AcDbAlignedDimension
 13
12.05479507472484
 23
22.59686286759597
 33
0.0
 14
8.968512978003815
 24
22.59686286759597
 34
0.0
100
AcDbRotatedDimension
  0
VIEWPORT
  5
641A
102
{ACAD_XDICTIONARY
360
71FB
102
}
330
6413
100
AcDbEntity
 67
     1
  8
0
  6
Continuous
 62
   142
 48
4.0
100
AcDbViewport
 10
145.3250122070312
 20
101.8250000476837
 30
0.0
 40
550.2034496919917
 41
222.18
 68
     1
 69
     1
 12
145.3250122070312
 22
101.8250000476837
 13
0.0
 23
0.0
 14
0.5
 24
0.5
 15
0.5
 25
0.5
 16
0.0
 26
0.0
 36
1.0
 17
0.0
 27
0.0
 37
0.0
 42
50.0
 43
0.0
 44
0.0
 45
222.18
 50
0.0
 51
0.0
 72
   100
 90
   557088
  1

281
     0
 71
     1
 74
     0
110
0.0
120
0.0
130
0.0
111
1.0
121
0.0
131
0.0
112
0.0
122
1.0
132
0.0
 79
     0
146
0.0
  0
VIEWPORT
  5
641C
102
{ACAD_XDICTIONARY
360
71FD
102
}
330
6413
100
AcDbEntity
 67
     1
  8
template
  6
Continuous
 62
   142
 48
4.0
100
AcDbViewport
 10
145.3250061273575
 20
101.8249984979629
 30
0.0
 40
232.5200098037719
 41
162.9199975967407
 68
     2
 69
     2
 12
11.2340093017982
 22
87.49856113919241
 13
0.0
 23
0.0
 14
0.5
 24
0.5
 15
0.5
 25
0.5
 16
0.0
 26
0.0
 36
1.0
 17
0.0
 27
0.0
 37
0.0
 42
50.0
 43
0.0
 44
0.0
 45
48.20725711726906
 50
0.0
 51
0.0
 72
   100
 90
   557088
  1

281
     0
 71
     1
 74
     0
110
0.0
120
0.0
130
0.0
111
1.0
121
0.0
131
0.0
112
0.0
122
1.0
132
0.0
 79
     0
146
0.0
  0
ENDSEC
  0
SECTION
  2
OBJECTS
  0
DICTIONARY
  5
19
330
0
100
AcDbDictionary
281
     1
  3
ACAD_BACKGROUND
350
6410
  3
ACAD_COLOR
350
2A70
  3
ACAD_GROUP
350
1A
  3
ACAD_LAYOUT
350
2A75
  3
ACAD_MATERIAL
350
2A5B
  3
ACAD_MLINESTYLE
350
1B
  3
ACAD_PLOTSETTINGS
350
2A74
  3
ACAD_PLOTSTYLENAME
350
2A59
  3
ACAD_TABLESTYLE
350
2A71
  3
ACAD_VISUALSTYLE
350
2A5F
  3
AcadDim
350
639A
  3
AcDbVariableDictionary
350
469C
  3
DWGPROPS
350
71E9
  0
DICTIONARY
  5
5682
330
7
100
AcDbDictionary
280
     1
281
     1
  0
DICTIONARY
  5
46A5
330
2
100
AcDbDictionary
280
     1
281
     1
  3
ACAD_LAYERFILTERS
360
49AD
  3
ACAD_LAYERSTATES
360
47AE
  3
ACLYDICTIONARY
360
49AC
  0
DICTIONARY
  5
2A7B
330
A
100
AcDbDictionary
280
     1
281
     1
  3
ACAD_SORTENTS
360
2A7C
  0
DICTIONARY
  5
71FB
330
641A
100
AcDbDictionary
280
     1
281
     1
  3
ACAD_XREC_ROUNDTRIP
360
71FC
  0
DICTIONARY
  5
71FD
330
641C
100
AcDbDictionary
280
     1
281
     1
  3
ACAD_XREC_ROUNDTRIP
360
71FE
  0
DICTIONARY
  5
6410
102
{ACAD_REACTORS
330
19
102
}
330
19
100
AcDbDictionary
281
     1
  0
DICTIONARY
  5
2A70
102
{ACAD_REACTORS
330
19
102
}
330
19
100
AcDbDictionary
281
     1
  3
DIC COLOR GUIDE(R)$DIC 181
350
47AD
  0
DICTIONARY
  5
1A
102
{ACAD_REACTORS
330
19
102
}
330
19
100
AcDbDictionary
281
     1
  3
*A1
350
47A9
  3
*A2
350
4F22
  0
DICTIONARY
  5
2A75
102
{ACAD_REACTORS
330
19
102
}
330
19
100
AcDbDictionary
281
     1
  3
Layout1
350
6414
  3
Model
350
2A76
  0
DICTIONARY
  5
2A5B
102
{ACAD_REACTORS
330
19
102
}
330
19
100
AcDbDictionary
281
     1
  3
ByBlock
350
2A5D
  3
ByLayer
350
2A5C
  3
Global
350
2A5E
  0
DICTIONARY
  5
1B
102
{ACAD_REACTORS
330
19
102
}
330
19
100
AcDbDictionary
281
     1
  3
STANDARD
350
1C
  0
DICTIONARY
  5
2A74
102
{ACAD_REACTORS
330
19
102
}
330
19
100
AcDbDictionary
281
     1
  3
Paper 24 x 70
350
64AF
  3
Paper 34 x 66
350
6D31
  3
Setup1
350
47AA
  3
Setup2
350
47AB
  3
template paper size
350
47AC
  0
ACDBDICTIONARYWDFLT
  5
2A59
102
{ACAD_REACTORS
330
19
102
}
330
19
100
AcDbDictionary
281
     1
  3
Normal
350
2A5A
100
AcDbDictionaryWithDefault
340
2A5A
  0
DICTIONARY
  5
2A71
102
{ACAD_REACTORS
330
19
102
}
330
19
100
AcDbDictionary
281
     1
  3
Standard
350
2A72
  0
DICTIONARY
  5
2A5F
102
{ACAD_REACTORS
330
19
102
}
330
19
100
AcDbDictionary
281
     1
  3
2dWireframe
350
2A65
  3
3D Hidden
350
71DA
  3
3dWireframe
350
71D9
  3
Basic
350
2A64
  3
Brighten
350
2A6B
  3
ColorChange
350
2A6F
  3
Conceptual
350
71DB
  3
Dim
350
2A6A
  3
Facepattern
350
2A6E
  3
Flat
350
2A60
  3
FlatWithEdges
350
2A61
  3
Gouraud
350
2A62
  3
GouraudWithEdges
350
2A63
  3
Linepattern
350
2A6D
  3
Realistic
350
71DC
  3
Thicken
350
2A6C
  0
XRECORD
  5
639A
102
{ACAD_REACTORS
330
19
102
}
330
19
100
AcDbXrecord
280
     1
 90
   990106
  3

 60
     0
 61
     0
 62
     1
 63
     3
 64
     0
 65
     0
 66
     0
 67
     3
 68
     1
 69
     0
 70
     0
 71
     0
 72
     0
 40
0.0
170
     0
340
6BD8
  0
DICTIONARY
  5
469C
102
{ACAD_REACTORS
330
19
102
}
330
19
100
AcDbDictionary
281
     1
  3
CTABLESTYLE
350
469D
  3
DIMASSOC
350
71E8
  3
INDEXCTL
350
71E7
  3
SORTENTS
350
71E6
  0
XRECORD
  5
71E9
102
{ACAD_REACTORS
330
19
102
}
330
19
100
AcDbXrecord
280
     1
  1
DWGPROPS COOKIE
  2

  3

  4

  6

  7

  8
jgayle
  9

300
=
301
=
302
=
303
=
304
=
305
=
306
=
307
=
308
=
309
=
 40
0.7057385648148148
 41
2311888.289094722
 42
2455154.425097836
  1

 90
        0
  0
DICTIONARY
  5
49AD
102
{ACAD_REACTORS
330
46A5
102
}
330
46A5
100
AcDbDictionary
281
     1
  0
DICTIONARY
  5
47AE
102
{ACAD_REACTORS
330
46A5
102
}
330
46A5
100
AcDbDictionary
281
     1
  0
DICTIONARY
  5
49AC
102
{ACAD_REACTORS
330
46A5
102
}
330
46A5
100
AcDbDictionary
281
     1
1001
ACAD
1000
<All
  0
SORTENTSTABLE
  5
2A7C
102
{ACAD_REACTORS
330
2A7B
102
}
330
2A7B
100
AcDbSortentsTable
330
A
331
5F80
  5
5F80
331
487A
  5
4888
331
4882
  5
48C0
331
6976
  5
6976
331
5F90
  5
5F90
331
6B75
  5
6B75
331
6CAB
  5
6CAB
331
6B7D
  5
6B7C
331
697E
  5
697E
331
6986
  5
6986
331
5FA0
  5
5FA0
331
6B85
  5
6B7F
331
5FF8
  5
5FF8
331
6996
  5
6996
331
6010
  5
6010
331
487B
  5
4889
331
6CD3
  5
6CD3
331
4883
  5
48CF
331
6C9C
  5
6C9C
331
5F91
  5
5F91
331
488B
  5
490F
331
6B7E
  5
6B7E
331
5F99
  5
5F99
331
697F
  5
697F
331
6987
  5
6987
331
5FF1
  5
5FF1
331
6B86
  5
6B7D
331
5FF9
  5
5FF9
331
5F72
  5
5F72
331
6997
  5
6997
331
4874
  5
4882
331
6011
  5
6011
331
487C
  5
488A
331
60A9
  5
60A9
331
4884
  5
48D0
331
6B7F
  5
6B80
331
5F9A
  5
5F9A
331
6980
  5
6980
331
6988
  5
6988
331
5FF2
  5
5FF2
331
5F6B
  5
5F6B
331
6BD7
  5
6BD7
331
5FFA
  5
5FFA
331
6998
  5
6998
331
600A
  5
600A
331
4875
  5
4883
331
6012
  5
6012
331
487D
  5
488B
331
4885
  5
48D1
331
6971
  5
6971
331
634A
  5
634A
331
6B78
  5
6B76
331
6C4F
  5
6C4F
331
6981
  5
6981
331
6B80
  5
6B82
331
5FF3
  5
5FF3
331
6BD8
  5
6BD8
331
5F74
  5
5F74
331
6999
  5
6999
331
600B
  5
600B
331
4876
  5
4884
331
6013
  5
6013
331
6B61
  5
6B7B
331
487E
  5
488C
331
5F8C
  5
5F8C
331
4886
  5
48D2
331
6972
  5
6972
331
6C40
  5
6C40
331
6B79
  5
6B74
331
6982
  5
6982
331
6B81
  5
6B84
331
639B
  5
639B
331
5FA4
  5
5FA4
331
698A
  5
698A
331
4D7E
  5
4E39
331
5FF4
  5
5FF4
331
6992
  5
6992
331
699A
  5
699A
331
600C
  5
600C
331
4877
  5
4885
331
6C31
  5
6C31
331
487F
  5
488D
331
6B72
  5
6B77
331
4887
  5
48D3
331
6973
  5
6973
331
6B7A
  5
6B65
331
6983
  5
6983
331
6B82
  5
6B85
331
698B
  5
698B
331
639C
  5
639C
331
6993
  5
6993
331
5FF5
  5
5FF5
331
699B
  5
699B
331
600D
  5
600D
331
5F7E
  5
5F7E
331
4878
  5
4886
331
4880
  5
488E
331
6974
  5
6974
331
5F8E
  5
5F8E
331
6B73
  5
6B62
331
697C
  5
697C
331
5F96
  5
5F96
331
6984
  5
6984
331
6B83
  5
6B83
331
5F67
  5
5F67
331
6994
  5
6994
331
5FF6
  5
5FF6
331
6CC9
  5
6CC9
331
600E
  5
600E
331
4879
  5
4887
331
4881
  5
48A7
331
6B64
  5
6B86
331
6975
  5
6975
331
6B74
  5
6B73
331
697D
  5
697D
331
6985
  5
6985
331
6B84
  5
6B81
331
698D
  5
698D
331
6CBA
  5
6CBA
331
5FF7
  5
5FF7
331
6995
  5
6995
331
600F
  5
600F
331
6B5D
  5
6B5D
  0
XRECORD
  5
71FC
102
{ACAD_REACTORS
330
71FB
102
}
330
71FB
100
AcDbXrecord
280
     1
102
SHADEPLOT
 70
     0
  0
XRECORD
  5
71FE
102
{ACAD_REACTORS
330
71FD
102
}
330
71FD
100
AcDbXrecord
280
     1
102
SHADEPLOT
 70
     0
  0
DBCOLOR
  5
47AD
102
{ACAD_REACTORS
330
2A70
102
}
330
2A70
100
AcDbColor
  0
GROUP
  5
47A9
102
{ACAD_REACTORS
330
1A
102
}
330
1A
100
AcDbGroup
300

 70
     0
 71
     1
  0
GROUP
  5
4F22
102
{ACAD_REACTORS
330
1A
102
}
330
1A
100
AcDbGroup
300

 70
     0
 71
     1
  0
LAYOUT
  5
6414
102
{ACAD_XDICTIONARY
360
6421
102
}
102
{ACAD_REACTORS
330
2A75
102
}
330
2A75
100
AcDbPlotSettings
  1

  2
Fax
  4
A4 Small
  6

 40
3.174999952316284
 41
3.174999952316284
 42
3.175003051757812
 43
3.17498779296875
 44
210.0
 45
297.0
 46
0.0
 47
0.0
 48
0.0
 49
0.0
140
0.0
141
0.0
142
1.0
143
1.0
 70
   688
 72
     1
 73
     1
 74
     5
  7
monochrome.ctb
 75
    16
147
1.0
148
0.0
149
0.0
100
AcDbLayout
  1
Layout1
 70
     1
 71
     1
 10
-3.17498779296875
 20
-3.174999952316284
 11
293.8250122070312
 21
206.8250000476837
 12
0.0
 22
0.0
 32
0.0
 14
29.0650012254715
 24
20.3649996995926
 34
0.0
 15
261.5850110292434
 25
183.2849972963333
 35
0.0
146
0.0
 13
0.0
 23
0.0
 33
0.0
 16
1.0
 26
0.0
 36
0.0
 17
0.0
 27
1.0
 37
0.0
 76
     0
330
6413
331
641A
1001
ACAD_PSEXT
1000
Fax
1000
Microsoft Shared Fax Driver
1000
SHRFAX:
1000

1070
     0
  0
LAYOUT
  5
2A76
102
{ACAD_XDICTIONARY
360
71F2
102
}
102
{ACAD_REACTORS
330
2A75
102
}
330
2A75
100
AcDbPlotSettings
  1
Paper 34 x 66
  2
HP DesignJet 500 42.pc3
  4
User258
  6

 40
4.995333194732666
 41
16.97562789916992
 42
4.99530029296875
 43
16.9757080078125
 44
863.5576782226562
 45
1676.315307617187
 46
-5.880980470522391
 47
-18.88328425197646
 48
49.12974605866123
 49
22.31177225853103
140
91.12974605866126
141
94.31177225853103
142
1.0
143
1.0
 70
 11956
 72
     0
 73
     1
 74
     1
  7
monochrome.ctb
 75
    16
147
1.0
148
-117.7166927321974
149
-243.8048564267315
100
AcDbLayout
  1
Model
 70
     1
 71
     0
 10
0.0
 20
0.0
 11
12.0
 21
9.0
 12
0.0
 22
0.0
 32
0.0
 14
0.0
 24
0.0
 34
0.0
 15
0.0
 25
0.0
 35
0.0
146
0.0
 13
0.0
 23
0.0
 33
0.0
 16
1.0
 26
0.0
 36
0.0
 17
0.0
 27
1.0
 37
0.0
 76
     0
330
A
331
15
1001
ACAD_PSEXT
1000
HP DesignJet 500 42.pc3
1000
HP DesignJet 500 42+HPGL2 Card
1000
IP_172.16.4.69
1000

1070
     0
  0
MATERIAL
  5
2A5D
102
{ACAD_XDICTIONARY
360
71EC
102
}
102
{ACAD_REACTORS
330
2A5B
102
}
330
2A5B
100
AcDbMaterial
  1
ByBlock
  0
MATERIAL
  5
2A5C
102
{ACAD_XDICTIONARY
360
71EA
102
}
102
{ACAD_REACTORS
330
2A5B
102
}
330
2A5B
100
AcDbMaterial
  1
ByLayer
  0
MATERIAL
  5
2A5E
102
{ACAD_XDICTIONARY
360
71EE
102
}
102
{ACAD_REACTORS
330
2A5B
102
}
330
2A5B
100
AcDbMaterial
  1
Global
  0
MLINESTYLE
  5
1C
102
{ACAD_REACTORS
330
1B
102
}
330
1B
100
AcDbMlineStyle
  2
STANDARD
 70
     0
  3

 62
     0
 51
90.0
 52
90.0
 71
     2
 49
0.5
 62
   256
  6
BYLAYER
 49
-0.5
 62
   256
  6
BYLAYER
  0
PLOTSETTINGS
  5
64AF
102
{ACAD_XDICTIONARY
360
71FF
102
}
102
{ACAD_REACTORS
330
2A74
102
}
330
2A74
100
AcDbPlotSettings
  1
Paper 24 x 70
  2
HP DesignJet 500 42.pc3
  4
User257
  6

 40
4.995333194732666
 41
16.97562789916992
 42
4.99530029296875
 43
16.9757080078125
 44
609.5576782226562
 45
1777.915283203125
 46
1.406275960349696
 47
8.329263687072156
 48
49.12974605866123
 49
22.31177225853103
140
91.12974605866126
141
94.31177225853103
142
1.0
143
1.0
 70
 11956
 72
     0
 73
     1
 74
     1
  7
monochrome.ctb
 75
    16
147
1.0
148
578.3088696738741
149
-1924.038042661773
1001
ACAD_PSEXT
1000
HP DesignJet 500 42.pc3
1000
HP DesignJet 500 42+HPGL2 Card
1000
IP_172.16.4.69
1000

1070
     0
  0
PLOTSETTINGS
  5
6D31
102
{ACAD_XDICTIONARY
360
7201
102
}
102
{ACAD_REACTORS
330
2A74
102
}
330
2A74
100
AcDbPlotSettings
  1
Paper 34 x 66
  2
HP DesignJet 500 42.pc3
  4
User258
  6

 40
4.995333194732666
 41
16.97562789916992
 42
4.99530029296875
 43
16.9757080078125
 44
863.5576782226562
 45
1676.315307617187
 46
-5.016477632523386
 47
-17.01801414489796
 48
49.12974605866123
 49
22.31177225853103
140
91.12974605866126
141
94.31177225853103
142
1.0
143
1.0
 70
 11956
 72
     0
 73
     1
 74
     1
  7
monochrome.ctb
 75
    16
147
1.0
148
-118.5180950738438
149
-245.3644244198699
1001
ACAD_PSEXT
1000
HP DesignJet 500 42.pc3
1000
HP DesignJet 500 42+HPGL2 Card
1000
IP_172.16.4.69
1000

1070
     0
  0
PLOTSETTINGS
  5
47AA
102
{ACAD_XDICTIONARY
360
71F4
102
}
102
{ACAD_REACTORS
330
2A74
102
}
330
2A74
100
AcDbPlotSettings
  1
Setup1
  2
\\totosrv3\RD-03-HPDJ500
  4
User616
  6

 40
0.0
 41
0.0
 42
0.0
 43
0.0
 44
863.6000366210938
 45
1117.599975585937
 46
-691.9704068398781
 47
-1006.535115846916
 48
49.12974605866123
 49
22.31177225853103
140
91.12974605866126
141
94.31177225853103
142
1.0
143
1.0
 70
 11956
 72
     0
 73
     1
 74
     0
  7
monochrome.ctb
 75
    16
147
1.0
148
-283.0690141168545
149
-416.3630618764871
1001
ACAD_PSEXT
1000
\\totosrv3\RD-03-HPDJ500
1000
HP DesignJet 500 42+HPGL2 Card
1000
R & D/Quality Engineering
1000
IP 172.16.4.69, HP DesignJet 500, S/N
1070
     0
  0
PLOTSETTINGS
  5
47AB
102
{ACAD_XDICTIONARY
360
71F6
102
}
102
{ACAD_REACTORS
330
2A74
102
}
330
2A74
100
AcDbPlotSettings
  1
Setup2
  2
\\totosrv3\RD-03-HPDJ500
  4
User262
  6

 40
4.995333194732666
 41
16.97567367553711
 42
4.995330810546875
 43
16.97567749023437
 44
215.857666015625
 45
279.3153381347656
 46
0.0
 47
0.0
 48
0.0
 49
0.0
140
0.0
141
0.0
142
1.0
143
12.75928976356006
 70
 11952
 72
     0
 73
     1
 74
     0
  7
monochrome.ctb
 75
     0
147
0.0783742683590394
148
-283.0690141168545
149
-416.3630618764871
1001
ACAD_PSEXT
1000
\\totosrv3\RD-03-HPDJ500
1000
HP DesignJet 500 42+HPGL2 Card
1000
R & D/Quality Engineering
1000
IP 172.16.4.69, HP DesignJet 500, S/N
1070
     0
  0
PLOTSETTINGS
  5
47AC
102
{ACAD_XDICTIONARY
360
71F8
102
}
102
{ACAD_REACTORS
330
2A74
102
}
330
2A74
100
AcDbPlotSettings
  1
template paper size
  2
\\totosrv3\RD-03-HPDJ500
  4
User616
  6

 40
0.0
 41
0.0
 42
0.0
 43
0.0
 44
863.6000366210938
 45
1117.599975585937
 46
-691.9704068398781
 47
-1006.535115846916
 48
49.12974605866123
 49
22.31177225853103
140
91.12974605866126
141
94.31177225853103
142
1.0
143
1.0
 70
 11956
 72
     0
 73
     1
 74
     0
  7
monochrome.ctb
 75
    16
147
1.0
148
-283.0690141168545
149
-416.3630618764871
1001
ACAD_PSEXT
1000
\\totosrv3\RD-03-HPDJ500
1000
HP DesignJet 500 42+HPGL2 Card
1000
R & D/Quality Engineering
1000
IP 172.16.4.69, HP DesignJet 500, S/N
1070
     0
  0
ACDBPLACEHOLDER
  5
2A5A
102
{ACAD_REACTORS
330
2A59
102
}
330
2A59
  0
TABLESTYLE
  5
2A72
102
{ACAD_XDICTIONARY
360
71F0
102
}
102
{ACAD_REACTORS
330
2A71
102
}
330
2A71
100
AcDbTableStyle
  3
Standard
 70
     0
 71
     0
 40
1.5
 41
1.5
280
     0
281
     0
  7
STANDARD
140
4.5
170
     2
 62
     0
 63
     7
283
     0
274
    -2
284
     1
 64
     0
275
    -2
285
     1
 65
     0
276
    -2
286
     1
 66
     0
277
    -2
287
     1
 67
     0
278
    -2
288
     1
 68
     0
279
    -2
289
     1
 69
     0
  7
STANDARD
140
6.0
170
     5
 62
     0
 63
     7
283
     0
274
    -2
284
     1
 64
     0
275
    -2
285
     1
 65
     0
276
    -2
286
     1
 66
     0
277
    -2
287
     1
 67
     0
278
    -2
288
     1
 68
     0
279
    -2
289
     1
 69
     0
  7
STANDARD
140
4.5
170
     5
 62
     0
 63
     7
283
     0
274
    -2
284
     1
 64
     0
275
    -2
285
     1
 65
     0
276
    -2
286
     1
 66
     0
277
    -2
287
     1
 67
     0
278
    -2
288
     1
 68
     0
279
    -2
289
     1
 69
     0
  0
VISUALSTYLE
  5
2A65
102
{ACAD_REACTORS
330
2A5F
102
}
330
2A5F
100
AcDbVisualStyle
  2
2dWireframe
 70
     4
 71
     0
 72
     2
 73
     0
 90
        0
 40
-0.6
 41
-30.0
 62
     5
 63
     7
 74
     1
 91
        4
 64
     7
 65
   257
 75
     1
175
     1
 42
1.0
 92
        0
 66
   257
 43
1.0
 76
     1
 77
     6
 78
     2
 67
     7
 79
     5
170
     0
171
     0
290
     0
174
     0
 93
        1
 44
0.0
173
     0
291
     0
 45
0.0
1001
ACAD
1000
AcDbSavedByObjectVersion
1070
     0
  0
VISUALSTYLE
  5
71DA
102
{ACAD_REACTORS
330
2A5F
102
}
330
2A5F
100
AcDbVisualStyle
  2
3D Hidden
 70
     6
 71
     1
 72
     2
 73
     2
 90
        0
 40
-0.6
 41
-30.0
 62
     5
 63
     7
 74
     2
 91
        2
 64
     7
 65
   257
 75
     2
175
     1
 42
40.0
 92
        0
 66
   257
 43
1.0
 76
     1
 77
     6
 78
     2
 67
     7
 79
     3
170
     0
171
     0
290
     0
174
     0
 93
        1
 44
0.0
173
     0
291
     0
 45
0.0
1001
ACAD
1000
AcDbSavedByObjectVersion
1070
     0
  0
VISUALSTYLE
  5
71D9
102
{ACAD_REACTORS
330
2A5F
102
}
330
2A5F
100
AcDbVisualStyle
  2
3dWireframe
 70
     5
 71
     0
 72
     2
 73
     0
 90
        0
 40
-0.6
 41
-30.0
 62
     5
 63
     7
 74
     1
 91
        4
 64
     7
 65
   257
 75
     1
175
     1
 42
1.0
 92
        0
 66
   257
 43
1.0
 76
     1
 77
     6
 78
     2
 67
     7
 79
     5
170
     0
171
     0
290
     0
174
     0
 93
        1
 44
0.0
173
     0
291
     0
 45
0.0
1001
ACAD
1000
AcDbSavedByObjectVersion
1070
     0
  0
VISUALSTYLE
  5
2A64
102
{ACAD_REACTORS
330
2A5F
102
}
330
2A5F
100
AcDbVisualStyle
  2
Basic
 70
     7
 71
     1
 72
     0
 73
     1
 90
        0
 40
-0.6
 41
-30.0
 62
     5
 63
     7
 74
     0
 91
        4
 64
     7
 65
   257
 75
     1
175
     1
 42
1.0
 92
        8
 66
     7
 43
1.0
 76
     1
 77
     6
 78
     2
 67
     7
 79
     5
170
     0
171
     0
290
     0
174
     0
 93
        1
 44
0.0
173
     0
291
     1
 45
0.0
1001
ACAD
1000
AcDbSavedByObjectVersion
1070
     0
  0
VISUALSTYLE
  5
2A6B
102
{ACAD_REACTORS
330
2A5F
102
}
330
2A5F
100
AcDbVisualStyle
  2
Brighten
 70
    12
 71
     2
 72
     2
 73
     0
 90
        0
 40
-0.6
 41
-30.0
 62
     5
 63
     7
 74
     1
 91
        4
 64
     7
 65
   257
 75
     1
175
     1
 42
1.0
 92
        8
 66
     7
 43
1.0
 76
     1
 77
     6
 78
     2
 67
     7
 79
     5
170
     0
171
     0
290
     0
174
     0
 93
        1
 44
50.0
173
     0
291
     1
 45
0.0
1001
ACAD
1000
AcDbSavedByObjectVersion
1070
     0
  0
VISUALSTYLE
  5
2A6F
102
{ACAD_REACTORS
330
2A5F
102
}
330
2A5F
100
AcDbVisualStyle
  2
ColorChange
 70
    16
 71
     2
 72
     2
 73
     3
 90
        0
 40
-0.6
 41
-30.0
 62
     5
 63
     8
 74
     1
 91
        4
 64
     7
 65
   257
 75
     1
175
     1
 42
1.0
 92
        8
 66
     8
 43
1.0
 76
     1
 77
     6
 78
     2
 67
     7
 79
     5
170
     0
171
     0
290
     0
174
     0
 93
        1
 44
0.0
173
     0
291
     1
 45
0.0
1001
ACAD
1000
AcDbSavedByObjectVersion
1070
     0
  0
VISUALSTYLE
  5
71DB
102
{ACAD_REACTORS
330
2A5F
102
}
330
2A5F
100
AcDbVisualStyle
  2
Conceptual
 70
     9
 71
     3
 72
     2
 73
     0
 90
        0
 40
-0.6
 41
-30.0
 62
     5
 63
     7
 74
     2
 91
        2
 64
     7
 65
   257
 75
     1
175
     1
 42
40.0
 92
        8
 66
     7
 43
1.0
 76
     1
 77
     6
 78
     2
 67
     7
 79
     3
170
     0
171
     0
290
     0
174
     0
 93
        1
 44
0.0
173
     0
291
     0
 45
0.0
1001
ACAD
1000
AcDbSavedByObjectVersion
1070
     0
  0
VISUALSTYLE
  5
2A6A
102
{ACAD_REACTORS
330
2A5F
102
}
330
2A5F
100
AcDbVisualStyle
  2
Dim
 70
    11
 71
     2
 72
     2
 73
     0
 90
        0
 40
-0.6
 41
-30.0
 62
     5
 63
     7
 74
     1
 91
        4
 64
     7
 65
   257
 75
     1
175
     1
 42
1.0
 92
        8
 66
     7
 43
1.0
 76
     1
 77
     6
 78
     2
 67
     7
 79
     5
170
     0
171
     0
290
     0
174
     0
 93
        1
 44
-50.0
173
     0
291
     1
 45
0.0
1001
ACAD
1000
AcDbSavedByObjectVersion
1070
     0
  0
VISUALSTYLE
  5
2A6E
102
{ACAD_REACTORS
330
2A5F
102
}
330
2A5F
100
AcDbVisualStyle
  2
Facepattern
 70
    15
 71
     2
 72
     2
 73
     0
 90
        0
 40
-0.6
 41
-30.0
 62
     5
 63
     7
 74
     1
 91
        4
 64
     7
 65
   257
 75
     1
175
     1
 42
1.0
 92
        8
 66
     7
 43
1.0
 76
     1
 77
     6
 78
     2
 67
     7
 79
     5
170
     0
171
     0
290
     0
174
     0
 93
        1
 44
0.0
173
     0
291
     1
 45
0.0
1001
ACAD
1000
AcDbSavedByObjectVersion
1070
     0
  0
VISUALSTYLE
  5
2A60
102
{ACAD_REACTORS
330
2A5F
102
}
330
2A5F
100
AcDbVisualStyle
  2
Flat
 70
     0
 71
     2
 72
     1
 73
     1
 90
        2
 40
-0.6
 41
30.0
 62
     5
 63
     7
 74
     0
 91
        4
 64
     7
 65
   257
 75
     1
175
     1
 42
1.0
 92
        8
 66
     7
 43
1.0
 76
     1
 77
     6
 78
     2
 67
     7
 79
     5
170
     0
171
     0
290
     0
174
     0
 93
       13
 44
0.0
173
     0
291
     1
 45
0.0
1001
ACAD
1000
AcDbSavedByObjectVersion
1070
     0
  0
VISUALSTYLE
  5
2A61
102
{ACAD_REACTORS
330
2A5F
102
}
330
2A5F
100
AcDbVisualStyle
  2
FlatWithEdges
 70
     1
 71
     2
 72
     1
 73
     1
 90
        2
 40
-0.6
 41
30.0
 62
     5
 63
     7
 74
     1
 91
        4
 64
     7
 65
   257
 75
     1
175
     1
 42
1.0
 92
        0
 66
   257
 43
1.0
 76
     1
 77
     6
 78
     2
 67
     7
 79
     5
170
     0
171
     0
290
     0
174
     0
 93
       13
 44
0.0
173
     0
291
     1
 45
0.0
1001
ACAD
1000
AcDbSavedByObjectVersion
1070
     0
  0
VISUALSTYLE
  5
2A62
102
{ACAD_REACTORS
330
2A5F
102
}
330
2A5F
100
AcDbVisualStyle
  2
Gouraud
 70
     2
 71
     2
 72
     2
 73
     1
 90
        2
 40
-0.6
 41
30.0
 62
     5
 63
     7
 74
     0
 91
        4
 64
     7
 65
   257
 75
     1
175
     1
 42
1.0
 92
        0
 66
     7
 43
1.0
 76
     1
 77
     6
 78
     2
 67
     7
 79
     5
170
     0
171
     0
290
     0
174
     0
 93
       13
 44
0.0
173
     0
291
     1
 45
0.0
1001
ACAD
1000
AcDbSavedByObjectVersion
1070
     0
  0
VISUALSTYLE
  5
2A63
102
{ACAD_REACTORS
330
2A5F
102
}
330
2A5F
100
AcDbVisualStyle
  2
GouraudWithEdges
 70
     3
 71
     2
 72
     2
 73
     1
 90
        2
 40
-0.6
 41
30.0
 62
     5
 63
     7
 74
     1
 91
        4
 64
     7
 65
   257
 75
     1
175
     1
 42
1.0
 92
        0
 66
   257
 43
1.0
 76
     1
 77
     6
 78
     2
 67
     7
 79
     5
170
     0
171
     0
290
     0
174
     0
 93
       13
 44
0.0
173
     0
291
     1
 45
0.0
1001
ACAD
1000
AcDbSavedByObjectVersion
1070
     0
  0
VISUALSTYLE
  5
2A6D
102
{ACAD_REACTORS
330
2A5F
102
}
330
2A5F
100
AcDbVisualStyle
  2
Linepattern
 70
    14
 71
     2
 72
     2
 73
     0
 90
        0
 40
-0.6
 41
-30.0
 62
     5
 63
     7
 74
     1
 91
        4
 64
     7
 65
   257
 75
     7
175
     7
 42
1.0
 92
        8
 66
     7
 43
1.0
 76
     1
 77
     6
 78
     2
 67
     7
 79
     5
170
     0
171
     0
290
     0
174
     0
 93
        1
 44
0.0
173
     0
291
     1
 45
0.0
1001
ACAD
1000
AcDbSavedByObjectVersion
1070
     0
  0
VISUALSTYLE
  5
71DC
102
{ACAD_REACTORS
330
2A5F
102
}
330
2A5F
100
AcDbVisualStyle
  2
Realistic
 70
     8
 71
     2
 72
     2
 73
     0
 90
        0
 40
-0.6
 41
-30.0
 62
     5
 63
     7
 74
     1
 91
        0
 64
     7
 65
   257
 75
     1
175
     1
 42
1.0
 92
        8
 66
     8
 43
1.0
 76
     1
 77
     6
 78
     2
 67
     7
 79
     5
170
     0
171
     0
290
     0
174
     0
 93
       13
 44
0.0
173
     0
291
     0
 45
0.0
1001
ACAD
1000
AcDbSavedByObjectVersion
1070
     0
  0
VISUALSTYLE
  5
2A6C
102
{ACAD_REACTORS
330
2A5F
102
}
330
2A5F
100
AcDbVisualStyle
  2
Thicken
 70
    13
 71
     2
 72
     2
 73
     0
 90
        0
 40
-0.6
 41
-30.0
 62
     5
 63
     7
 74
     1
 91
        4
 64
     7
 65
   257
 75
     1
175
     1
 42
1.0
 92
       12
 66
     7
 43
1.0
 76
     1
 77
     6
 78
     2
 67
     7
 79
     5
170
     0
171
     0
290
     0
174
     0
 93
        1
 44
0.0
173
     0
291
     1
 45
0.0
1001
ACAD
1000
AcDbSavedByObjectVersion
1070
     0
  0
DICTIONARYVAR
  5
469D
102
{ACAD_REACTORS
330
469C
102
}
330
469C
100
DictionaryVariables
280
     0
  1
STANDARD
  0
DICTIONARYVAR
  5
71E8
102
{ACAD_REACTORS
330
469C
102
}
330
469C
100
DictionaryVariables
280
     0
  1
1
  0
DICTIONARYVAR
  5
71E7
102
{ACAD_REACTORS
330
469C
102
}
330
469C
100
DictionaryVariables
280
     0
  1
0
  0
DICTIONARYVAR
  5
71E6
102
{ACAD_REACTORS
330
469C
102
}
330
469C
100
DictionaryVariables
280
     0
  1
127
  0
DICTIONARY
  5
6421
330
6414
100
AcDbDictionary
280
     1
281
     1
  3
ACAD_XREC_ROUNDTRIP
360
71FA
  3
ADSK_XREC_LAYOUTTHUMBNAIL
360
6422
  0
DICTIONARY
  5
71F2
330
2A76
100
AcDbDictionary
280
     1
281
     1
  3
ACAD_XREC_ROUNDTRIP
360
71F3
  0
DICTIONARY
  5
71EC
330
2A5D
100
AcDbDictionary
280
     1
281
     1
  3
ACAD_XREC_ROUNDTRIP
360
71ED
  0
DICTIONARY
  5
71EA
330
2A5C
100
AcDbDictionary
280
     1
281
     1
  3
ACAD_XREC_ROUNDTRIP
360
71EB
  0
DICTIONARY
  5
71EE
330
2A5E
100
AcDbDictionary
280
     1
281
     1
  3
ACAD_XREC_ROUNDTRIP
360
71EF
  0
DICTIONARY
  5
71FF
330
64AF
100
AcDbDictionary
280
     1
281
     1
  3
ACAD_XREC_ROUNDTRIP
360
7200
  0
DICTIONARY
  5
7201
330
6D31
100
AcDbDictionary
280
     1
281
     1
  3
ACAD_XREC_ROUNDTRIP
360
7202
  0
DICTIONARY
  5
71F4
330
47AA
100
AcDbDictionary
280
     1
281
     1
  3
ACAD_XREC_ROUNDTRIP
360
71F5
  0
DICTIONARY
  5
71F6
330
47AB
100
AcDbDictionary
280
     1
281
     1
  3
ACAD_XREC_ROUNDTRIP
360
71F7
  0
DICTIONARY
  5
71F8
330
47AC
100
AcDbDictionary
280
     1
281
     1
  3
ACAD_XREC_ROUNDTRIP
360
71F9
  0
DICTIONARY
  5
71F0
330
2A72
100
AcDbDictionary
280
     1
281
     1
  3
ACAD_XREC_ROUNDTRIP
360
71F1
  0
XRECORD
  5
71FA
102
{ACAD_REACTORS
330
6421
102
}
330
6421
100
AcDbXrecord
280
     1
102
SHADEPLOT
 70
     0
102
SHADEPLOTRESLEVEL
 70
     2
102
SHADEPLOTCUSTOMDPI
 70
   300
  0
XRECORD
  5
6422
102
{ACAD_REACTORS
330
6421
102
}
330
6421
100
AcDbXrecord
280
     1
310
28000000B40000007F00000001000800000000004C59000000000000000000000001000000000000FFFFFF0000000000FFFFFF000000000000000000000000000000000000000000000000000000000000000000330000006600000099000000CC000000FF00000000330000333300006633000099330000CC330000FF3300
310
0000660000336600006666000099660000CC660000FF66000000990000339900006699000099990000CC990000FF99000000CC000033CC000066CC000099CC0000CCCC0000FFCC000000FF000033FF000066FF000099FF0000CCFF0000FFFF000000003300330033006600330099003300CC003300FF003300003333003333
310
33006633330099333300CC333300FF33330000663300336633006666330099663300CC663300FF66330000993300339933006699330099993300CC993300FF99330000CC330033CC330066CC330099CC3300CCCC3300FFCC330000FF330033FF330066FF330099FF3300CCFF3300FFFF330000006600330066006600660099
310
006600CC006600FF00660000336600333366006633660099336600CC336600FF33660000666600336666006666660099666600CC666600FF66660000996600339966006699660099996600CC996600FF99660000CC660033CC660066CC660099CC6600CCCC6600FFCC660000FF660033FF660066FF660099FF6600CCFF6600
310
FFFF660000009900330099006600990099009900CC009900FF00990000339900333399006633990099339900CC339900FF33990000669900336699006666990099669900CC669900FF66990000999900339999006699990099999900CC999900FF99990000CC990033CC990066CC990099CC9900CCCC9900FFCC990000FF99
310
0033FF990066FF990099FF9900CCFF9900FFFF99000000CC003300CC006600CC009900CC00CC00CC00FF00CC000033CC003333CC006633CC009933CC00CC33CC00FF33CC000066CC003366CC006666CC009966CC00CC66CC00FF66CC000099CC003399CC006699CC009999CC00CC99CC00FF99CC0000CCCC0033CCCC0066CC
310
CC0099CCCC00CCCCCC00FFCCCC0000FFCC0033FFCC0066FFCC0099FFCC00CCFFCC00FFFFCC000000FF003300FF006600FF009900FF00CC00FF00FF00FF000033FF003333FF006633FF009933FF00CC33FF00FF33FF000066FF003366FF006666FF009966FF00CC66FF00FF66FF000099FF003399FF006699FF009999FF00CC
310
99FF00FF99FF0000CCFF0033CCFF0066CCFF0099CCFF00CCCCFF00FFCCFF0000FFFF0033FFFF0066FFFF0099FFFF00CCFFFF00FFFFFF00000000000D0D0D001A1A1A00282828003535350043434300505050005D5D5D006B6B6B00787878008686860093939300A1A1A100AEAEAE00BBBBBB00C9C9C900D6D6D600E4E4E400
310
F1F1F100FFFFFF0000000000000000000000000000000000000000000000000000000000000000000000000000000000E2E2E2E2E2E2E2E2E2E2E2E2E2E2E2E2E2E2E2E2E2E2E2E2E2E2E2E2E2E2E2E2E2E2E2E2E2E2E2E2E2E2E2E2E2E2E2E2E2E2E2E2E2E2E2E2E2E2E2E2E2E2E2E2E2E2E2E2E2E2E2E2E2E2E2E2E2E2E2
310
E2E2E2E2E2E2E2E2E2E2E2E2E2E2E2E2E2E2E2E2E2E2E2E2E2E2E2E2E2E2E2E2E2E2E2E2E2E2E2E2E2E2E2E2E2E2E2E2E2E2E2E2E2E2E2E2E2E2E2E2E2E2E2E2E2E2E2E2E2E2E2E2E2E2E2E2E2E2E2E2E2E2E2E2E2E2E2E2E2E2E2E2E2E2E2E2E2E2E2E2EFE2F5F5F5F5F5F5F5F5F5F5F5F5F5F5F5F5F5F5F5F5F5F5F5F5F5
310
F5F5F5F5F5F5F5F5F5F5F5F5F5F5F5F5F5F5F5F5F5F5F5F5F5F5F5F5F5F5F5F5F5F5F5F5F5F5F5F5F5F5F5F5F5F5F5F5F5F5F5F5F5F5F5F5F5F5F5F5F5F5F5F5F5F5F5F5F5F5F5F5F5F5F5F5F5F5F5F5F5F5F5F5F5F5F5F5F5F5F5F5F5F5F5F5F5F5F5F5F5F5F5F5F5F5F5F5F5F5F5F5F5F5F5F5F5F5F5F5F5F5F5F5F5F5F5
310
F5F5F5F5F5F5F5F5F5F5F5F5F5F5F5F5F5F5F5F5F5F5F5F5E2E2EFE2E2E2E2E2E2E2E2E2E2F5F5F5F5F5F5F5F5F5E2E2E2E2E2E2E2E2E2E2E2E2E2E2E2E2F5F5F5F5F5F5F5F5F5E2E2E2E2E2E2E2E2E2E2E2E2E2E2E2E2F5F5F5F5F5F5F5F5F5E2E2E2E2E2E2E2E2E2E2E2E2E2E2E2E2F5F5F5F5F5F5F5F5F5E2E2E2E2E2E2
310
E2E2E2E2E2E2E2E2E2E2F5F5F5F5F5F5F5F5F5E2E2E2E2E2E2E2E2E2E2E2E2E2E2E2E2F5F5F5F5F5F5F5F5F5E2E2E2E2E2E2E2E2E2E2E2E2E2E2E2E2F5F5F5F5F5F5F5F5F5E2E2E2E2E2E2E2E2E2E2EFE2E2F5F5F5F5F5F5F5F5F5F5F5F5F5F5F5F5F5F5F5F5F5F5F5F5F5F5F5F5F5F5F5F5F5F5F5F5F5F5F5F5F5F5F5F5F5
310
F5F5F5F5F5F5F5F5F5F5F5F5F5F5F5F5F5F5F5F5F5F5F5F5F5F5F5F5F5F5F5F5F5F5F5F5F5F5F5F5F5F5F5F5F5F5F5F5F5F5F5F5F5F5F5F5F5F5F5F5F5F5F5F5F5F5F5F5F5F5F5F5F5F5F5F5F5F5F5F5F5F5F5F5F5F5F5F5F5F5F5F5F5F5F5F5F5F5F5F5F5F5F5F5F5F5F5F5F5F5F5F5F5F5F5F5F5F5F5F5F5F5F5F5F5F5F5
310
F5F5E2E2E2EFE2E2F5F5F5F5F5F5F5F5F5F5F5F5F5F5F5F5F5F5F5F5F5F5F5F5F5F5F5F5F5F5F5F5F5F5F5F5F5F5F5F5F5F5F5F5F5F5F5F5F5F5F5F5F5F5F5F5F5F5F5F5F5F5F5F5F5F5F5F5F5F5F5F5F5F5F5F5F5F5F5F5F5F5F5F5F5F5F5F5F5F5F5F5F5F5F5F5F5F5F5F5F5F5F5F5F5F5F5F5F5F5F5F5F5F5F5F5F5F5F5
310
F5F5F5F5F5F5F5F5F5F5F5F5F5F5F5F5F5F5F5F5F5F5F5F5F5F5F5F5F5F5F5F5F5F5F5F5F5F5F5F5F5F5F5F5F5F5F5F5F5F5F5F5F5F5F5E2E2E2EFE2E2F5F5F5F5F5F5F5F5F5F5F5F5F5F5F5F5F5F5F5F5F5F5F5F5F5F5F5F5F5F5F5F5F5F5F5F5F5F5F5F5F5F5F5F5F5F5F5F5F5F5F5F5F5F5F5F5F5F5F5F5F5F5F5F5F5F5
310
F5F5F5F5F5F5F5F5F5F5F5F5F5F5F5F5F5F5F5F5F5F5F5F5F5F5F5F5F5F5F5F5F5F5F5F5F5F5F5F5F5F5F5F5F5F5F5F5F5F5F5F5F5F5F5F5F5F5F5F5F5F5F5F5F5F5F5F5F5F5F5F5F5F5F5F5F5F5F5F5F5F5F5F5F5F5F5F5F5F5F5F5F5F5F5F5F5F5F5F5F5F5F5F5F5F5F5F5E2E2E2EFE2E2F5F5F5F5F5F5F5F5F5F5F5F5F5
310
F5F5F5F5F5F5F5F5F5F5F5F5F5F5F5F5F5F5F5F5F5F5F5F5F5F5F5F5F5F5F5F5F5F5F5F5F5F5F5F5F5F5F5F5F5F5F5F5F5F5F5F5F5F5F5F5F5F5F5F5F5F5F5F5F5F5F5F5F5F5F5F5F5F5F5F5F5F5F5F5F5F5F5F5F5F5F5F5F5F5F5F5F5F5F5F5F5F5F5F5F5F5F5F5F5F5F5F5F5F5F5F5F5F5F5F5F5F5F5F5F5F5F5F5F5F5F5
310
F5F5F5F5F5F5F5F5F5F5F5F5F5F5F5F5F5F5F5F5F5F5F5F5F5F5F5F5F5F5F5F5F5F5E2E2E2EFE2E2F5F5F5F5F5F5F5F5F5F5F5F5F5F5F5F5F5F5F5F5F5F5F5F5F5F5F5F5F5F5F5F5F5F5F5F5F5F5F5F5F5F5F5F5F5F5F5F5F5F5F5F5F5F5F5F5F5F5F5F5F5F5F5F5F5F5F5F5F5F5F5F5F5F5F5F5F5F5F5F5F5F5F5F5F5F5F5
310
F5F5F5F5F5F5F5F5F5F5F5F5F5F5F5F5F5F5F5F5F5F5F5F5F5F5F5F5F5F5F5F5F5F5F5F5F5F5F5F5F5F5F5F5F5F5F5F5F5F5F5F5F5F5F5F5F5F5F5F5F5F5F5F5F5F5F5F5F5F5F5F5F5F5F5F5F5F5F5F5F5F5F5F5F5F5F5E2E2E2EFE2E2F5F5F5F5F5F5F5F5F5F5F5F5F5F5F5F5F5F5F5F5F5F5F5F5F5F5F5F5F5F5F5F5F5F5
310
F5F5F5F5F5F5F5F5F5F5F5F5F5F5F5F5F5F5F5F5F5F5F5F5F5F5F5F5F5F5F5F5F5F5F5F5F5F5F5F5F5F5F5F5F5F5F5F5F5F5F5F5F5F5F5F5F5F5F5F5F5F5F5F5F5F5F5F5F5F5F5F5F5F5F5F5F5F5F5F5F5F5F5F5F5F5F5F5F5F5F5F5F5F5F5F5F5F5F5F5F5F5F5F5F5F5F5F5F5F5F5F5F5F5F5F5F5F5F5F5F5F5F5F5F5F5F5
310
F5F5F5F5F5F5F5F5F5F5F5F5F5E2E2E2EFE2E2F5F5F5F5F5F5F5F5F5F5F5F5F5F5F5F5F5F5F5F5F5F5F5F5F5F5F5F5F5F5F5F5F5F5F5F5F5F5F5F5F5F5F5F5F5F5F5F5F5F5F5F5F5F5F5F5F5F5F5F5F5F5F5F5F5F5F5F5F5F5F5F5F5F5F5F5F5F5F5F5F5F5F5F5F5F5F5F5F5F5F5F5F5F5F5F5F5F5F5F5F5F5F5F5F5F5F5F5
310
F5F5F5F5F5F5F5F5F5F5F5F5F5F5F5F5F5F5F5F5F5F5F5F5F5F5F5F5F5F5F5F5F5F5F5F5F5F5F5F5F5F5F5F5F5F5F5F5F5F5F5F5F5F5F5F5F5F5F5F5F5F5F5F5F5F5E2E2E2EFE2F5F5F5F5F5F5F5F5F5F5F5F5F5F5F5F5F5F5F5F5F5F5F5F5F5F5F5F5F5F5F5F5F5F5F5F5F5F5F5F5F5F5F5F5F5F5F5F5F5F5F5F5F5F5F5F5
310
F5F5F5F5F5F5F5F5F5F5F5F5F5F5F5F5F5F5F5F5F5F5F5F5F5F5F5F5F5F5F5F5F5F5F5F5F5F5F5F5F5F5F5F5F5F5F5F5F5F5F5F5F5F5F5F5F5F5F5F5F5F5F5F5F5F5F5F5F5F5F5F5F5F5F5F5F5F5F5F5F5F5F5F5F5F5F5F5F5F5F5F5F5F5F5F5F5F5F5F5F5F5F5F5F5F5F5F5F5F5F5F5F5F5F5F5F5F5F5F5E2E2EFE2F5F5F5
310
F5F5F5F5F5F5F5F5F5F5F5F5F5F5F5F5F5F5F5F5F5F5F5F5F5F5F5F5F5F5F5F5F5F5F5F5F5F5F5F5F5F5F5F5F5F5F5F5F5F5F5F5F5F5F5F5F5F5F5F5F5F5F5F5F5F5F5F5F5F5F5F5F5F5F5F5F5F5F5F5F5F5F5F5F5F5F5F5F5F5F5F5F5F5F5F5F5F5F5F5F5F5F5F5F5F5F5F5F5F5F5F5F5F5F5F5F5F5F5F5F5F5F5F5F5F5F5
310
F5F5F5F5F5F5F5F5F5F5F5F5F5F5F5F5F5F5F5F5F5F5F5F5F5F5F5F5F5F5F5F5F5F5F5F5F5F5F5F5F5F5F5F5F5F5E2E2EFE2F5F5F5F5F5F5F5F5F5F5F5F5F5F5F5F5F5F5F5F5F5F5F5F5F5F5F5F5F5F5F5F5F5F5F5F5F5F5F5F5F5F5F5F5F5F5F5F5F5F5F5F5F5F5F5F5F5F5F5F5F5F5F5F5F5F5F5F5F5F5F5F5F5F5F5F5F5
310
F5F5F5F5F5F5F5F5F5F5F5F5F5F5F5F5F5F5F5F5F5F5F5F5F5F5F5F5F5F5F5F5F5F5F5F5F5F5F5F5F5F5F5F5F5F5F5F5F5F5F5F5F5F5F5F5F5F5F5F5F5F5F5F5F5F5F5F5F5F5F5F5F5F5F5F5F5F5F5F5F5F5F5F5F5F5F5F5F5F5F5F5F5F5F5F5F5F5F5E2E2EFE2F5F5F5F5F5F5F5F5F5F5F5F5F5F5F5F5F5F5F5F5F5F5F5F5
310
F5F5F5F5F5F5F5F5F5F5F5F5F5F5F5F5F5F5F5F5F5F5F5F5F5F5F5F5F5F5F5F5F5F5F5F5F5F5F5F5F5F5F5F5F5F5F5F5F5F5F5F5F5F5F5F5F5F5F5F5F5F5F5F5F5F5F5F5F5F5F5F5F5F5F5F5F5F5F5F5F5F5F5F5F5F5F5F5F5F5F5F5F5F5F5F5F5F5F5F5F5F5F5F5F5F5F5F5F5F5F5F5F5F5F5F5F5F5F5F5F5F5F5F5F5F5F5
310
F5F5F5F5F5F5F5F5F5F5F5F5F5F5F5F5F5F5F5F5F5F5F5F5F5E2E2EFE2F5F5F5F5F5F5F5F5F5F5F5F5F5F5F5F5F5F52020202020202020202020202020202020202020202020202020202020202020202020202020202020202020202020202020202020202020202020202020202020202020202020202020202020202020
310
202020202020202020202020202020202020202020202020202020202020202020202020202020202020202020202020202020202020202020202020F5F5F5F5F5F5F5F5F5F5F5F5F5F5F5F5F5F5E2E2EFE2F5F5F5F5F5F5F5F5F5F5F5F5F5F5F5F5F5F520F5F5F5F5F5F5F5F5F5F5F5F5F5F5F5F5F5F5F5F5F5F5F5F5F5F5
310
F5F5F5F5F5F5F5F5F5F5F5F5F5F5F5F5F5F5F5F5F5F5F5F5F5F5F5F5F5F5F5F5F5F5F5F5F5F5F5F5F5F5F5F5F5F5F5F5F5F5F5F5F5F5F5F5F5F5F5F5F5F5F5F5F5F5F5F5F5F5F5F5F5F5F5F5F5F5F5F5F5F5F5F5F5F5F5F5F5F5F5F5F5F5F5F5F5F5F5F5F5F5F5F5F5F5F5F5F5F5F5F520F5F5F5F5F5F5F5F5F5F5F5F5F5F5
310
F5F5F5F5E2E2EFE2F5F5F5F5F5F5F5F5F5F5F5F5F5F5F5F5F5F520F5F5F5F5F5F5F5F5F5F5F5F5F5F5F5F5F5F5F5F5F5F5F5F5F5F5F5F5F5F5F5F5F5F5F5F5F5F5F5F5F5F5F5F5F5F5F5F5F5F5F5F5F5F5F5F5F5F5F5F5F5F5F5F5F5F5F5F5F5F5F5F5F5F5F5F5F5F5F5F5F5F5F5F5F5F5F5F5F5F5F5F5F5F5F5F5F5F5F5F5
310
F5F5F5F5F5F5F5F5F5F5F5F5F5F5F5F5F5F5F5F5F5F5F5F5F5F5F5F5F5F5F5F5F5F5F5F5F5F520F5F5F5F5F5F5F5F5F5F5F5F5F5F5F5F5F5F5E2E2EFE2F5F5F5F5F5F5F5F5F5F5F5F5F5F5F5F5F5F520F5F5F5F5F5F5F5F5F5F5F5F5F5F5F5F5F5F5F5F5F5F5F5F5F5F5F5F5F5F5F5F5F5F5F5F5F5F5F5F5F5F5F5F5F5F5F5
310
F5F5F5F5F5F5F5F5F5F5F5F5F5F5F5F5F5F5F5F5F5F5F5F5F5F5F5F5F5F5F5F5F5F5F5F5F5F5F5F5F5F5F5F5F5F5F5F5F5F5F5F5F5F5F5F5F5F5F5F5F5F5F5F5F5F5F5F5F5F5F5F5F5F5F5F5F5F5F5F5F5F5F5F5F5F5F5F5F5F5F520F5F5F5F5F5F5F5F5F5F5F5F5F5F5F5F5F5F5E2E2EFE2F5F5F5F5F5F5F5F5F5F5F5F5F5
310
F5F5F5F5F520F5F5F5F5F5F5F5F5F5F5F5F5F5F5F5F5F5F5F5F5F5F5F5F5F5F5F5F5F5F5F5F5F5F5F5F5F5F5F5F5F5F5F5F5F5F5F5F5F5F5F5F5F5F5F5F5F5F5F5F5F5F5F5F5F5F5F5F5F5F5F5F5F5F5F5F5F5F5F5F5F5F5F5F5F5F5F5F5F5F5F5F5F5F5F5F5F5F5F5F5F5F5F5F5F5F5F5F5F5F5F5F5F5F5F5F5F5F5F5F5F5
310
F5F5F5F5F5F5F5F5F5F5F5F5F5F5F5F5F520F5F5F5F5F5F5F5F5F5F5F5F5F5F5F5F5F5F5E2E2EFE2E2F5F5F5F5F5F5F5F5F5F5F5F5F5F5F5F5F520F5F5F5F5F5F5F5F5F5F5F5F5F5F5F5F5F5F5F5F5F5F5F5F5F5F5F5F5F5F5F5F5F5F5F5F5F5F5F5F5F5F5F5F5F5F5F5F5F5F5F5F5F5F5F5F5F5F5F5F5F5F5F5F5F5F5F5F5
310
F5F5F5F5F5F5F5F5F5F5F5F5F5F5F5F5F5F5F5F5F5F5F5F5F5F5F5F5F5F5F5F5F5F5F5F5F5F5F5F5F5F5F5F5F5F5F5F5F5F5F5F5F5F5F5F5F5F5F5F5F5F5F5F5F5F5F5F5F5F520F5F5F5F5F5F5F5F5F5F5F5F5F5F5F5F5F5E2E2E2EFE2E2F5F5F5F5F5F5F5F5F5F5F5F5F5F5F5F5F520F5F5F5F5F5F5F5F5F5F5F5F5F5F5F5
310
F5F5F5F5F5F5F5F5F5F5F5F5F5F5F5F5F5F5F5F5F5F5F5F5F5F5F5F5F5F5F5F5F5F5F5F5F5F5F5F5F5F5F5F5F5F5F5F5F5F5F5F5F5F5F5F5F5F5F5F5F5F5F5F5F5F5F5F5F5F5F5F5F5F5F5F5F5F5F5F5F5F5F5F5F5F5F5F5F5F5F5F5F5F5F5F5F5F5F5F5F5F5F5F5F5F5F5F5F5F5F5F5F5F5F5F5F5F5F5F5F5F5F520F5F5F5
310
F5F5F5F5F5F5F5F5F5F5F5F5F5F5E2E2E2EFE2E2F5F5F5F5F5F5F5F5F5F5F5F5F5F5F5F5F520F5F5F5F5F5F5F5F5F5F5F5F5F5F5F5F5F5F5F5F5F5F5F5F5F5F5F5F5F5F5F5F5F5F5F5F5F5F5F5F5F5F5F5F5F5F5F5F5F5F5F5F5F5F5F5F5F5F5F5F5F5F5F5F5F5F5F5F5F5F5F5F5F5F5F5F5F5F5F5F5F5F5F5F5F5F5F5F5F5
310
F5F5F5F5F5F5F5F5F5F5F5F5F5F5F5F5F5F5F5F5F5F5F5F5F5F5F5F5F5F5F5F5F5F5F5F5F5F5F5F5F5F5F5F5F5F5F5F5F520F5F5F5F5F5F5F5F5F5F5F5F5F5F5F5F5F5E2E2E2EFE2E2F5F5F5F5F5F5F5F5F5F5F5F5F5F5F5F5F520F5F5F5F5F5F5F5F5F5F5F5F5F5F5F5F5F5F5F5F5F5F5F5F5F5F5F5F5F5F5F5F5F5F5F5F5
310
F5F5F5F5F5F5F5F5F5F5F5F5F5F5F5F5F5F5F5F5F5F5F5F5F5F5F5F5F5F5F5F5F5F5F5F5F5F5F5F5F5F5F5F5F5F5F5F5F5F5F5F5F5F5F5F5F5F5F5F5F5F5F5F5F5F5F5F5F5F5F5F5F5F5F5F5F5F5F5F5F5F5F5F5F5F5F5F5F5F5F5F5F5F5F5F5F5F5F5F5F5F520F5F5F5F5F5F5F5F5F5F5F5F5F5F5F5F5F5E2E2E2EFE2E2F5
310
F5F5F5F5F5F5F5F5F5F5F5F5F5F5F5F520F5F5F5F5F5F5F5F5F5F5F5F5F5F5F5F5F5F5F5F5F5F5F5F5F5F5F5F5F5F5F5F5F5F5F5F5F5F5F5F5F5F5F5F5F5F5F5F5F5F5F5F5F5F5F5F5F5F5F5F5F5F5F5F5F5F5F5F5F5F5F5F5F5F5F5F5F5F5F5F5F5F5F5F5F5F5F5F5F5F5F5F5F5F5F5F5F5F5F5F5F5F5F5F5F5F5F5F5F5F5
310
F5F5F5F5F5F5F5F5F5F5F5F5F5F5F5F5F5F5F5F5F5F5F5F5F5F5F5F520F5F5F5F5F5F5F5F5F5F5F5F5F5F5F5F5F5E2E2E2EFE2E2F5F5F5F5F5F5F5F5F5F5F5F5F5F5F5F5F520F5F5F5F5F5F5F5F5F5F5F5F5F5F5F5F5F5F5F5F5F5F5F5F5F5F5F5F5F5F5F5F5F5F5F5F5F5F5F5F5F5F5F5F5F5F5F5F5F5F5F5F5F5F5F5F5F5
310
F5F5F5F5F5F5F5F5F5F5F5F5F5F5F5F5F5F5F5F5F5F5F5F5F5F5F5F5F5F5F5F5F5F5F5F5F5F5F5F5F5F5F5F5F5F5F5F5F5F5F5F5F5F5F5F5F5F5F5F5F5F5F5F5F5F5F5F5F5F5F5F5F5F5F5F5F5F5F5F5F520F5F5F5F5F5F5F5F5F5F5F5F5F5F5F5F5F5E2E2E2EFE2E2F5F5F5F5F5F5F5F5F5F5F5F5F5F5F5F5F520F5F5F5F5
310
F5F5F5F5F5F5F5F5F5F5F5F5F5F5F5F5F5F5F5F5F5F5F5F5F5F5F5F5F5F5F5F5F5F5F5F5F5F5F5F5F5F5F5F5F5F5F5F5F5F5F5F5F5F5F5F5F5F5F5F5F5F5F5F5F5F5F5F5F5F5F5F5F5F5F5F5F5F5F5F5F5F5F5F5F5F5F5F5F5F5F5F5F5F5F5F5F5F5F5F5F5F5F5F5F5F5F5F5F5F5F5F5F5F5F5F5F5F5F5F5F5F5F5F5F5F5F5
310
F5F5F5F5F5F5F520F5F5F5F5F5F5F5F5F5F5F5F5F5F5F5F5F5E2E2E2EFE2E2F5F5F5F5F5F5F5F5F5F5F5F5F5F5F5F5F520F5F5F5F5F5F5F5F5F5F5F5F5F5F5F5F5F5F5F5F5F5F5F5F5F5F5F5F5F5F5F5F5F5F5F5F5F5F5F5F5F5F5F5F5F5F5F5F5F5F5F5F5F5F5F5F5F5F5F5F5F5F5F5F5F5F5F5F5F5F5F5F5F5F5F5F5F5F5
310
F5F5F5F5F5F5F5F5F5F5F5F5F5F5F5F5F5F5F5F5F5F5F5F5F5F5F5F5F5F5F5F5F5F5F5F5F5F5F5F5F5F5F5F5F5F5F5F5F5F5F5F5F5F5F5F5F5F5F5F520F5F5F5F5F5F5F5F5F5F5F5F5F5F5F5F5F5E2E2E2EFE2E2F5F5F5F5F5F5F5F5F5F5F5F5F5F5F5F5F520F5F5F5F5F5F5F5F5F5F5F5F5F5F5F5F5F5F5F5F5F5F5F5F5F5
310
F5F5F5F5F5F5F5F5F5F5F5F5F5F5F5F5F5F5F5F5F5F5F5F5F5F5F5F5F5F5F5F5F5F5F5F5F5F5F5F5F5F5F5F5F5F5F5F5F5F5F5F5F5F5F5F5F5F5F5F5F5F5F5F5F5F5F5F5F5F5F5F5F5F5F5F5F5F5F5F5F5F5F5F5F5F5F5F5F5F5F5F5F5F5F5F5F5F5F5F5F5F5F5F5F5F5F5F5F5F5F5F5F520F5F5F5F5F5F5F5F5F5F5F5F5F5
310
F5F5F5F5E2E2E2EFE2E2F5F5F5F5F5F5F5F5F5F5F5F5F5F5F5F5F520F5F5F5F5F5F5F5F5F5F5F5F5F5F5F5F5F5F5F5F5F5F5F5F5F5F5F5F5F5F5F5F5F5F5F5F5F5F5F5F5F5F5F5F5F5F5F5F5F5F5F5F5F5F5F5F5F5F5F5F5F5F5F5F5F5F5F5F5F5F5F5F5F5F5F5F5F5F5F5F5F5F5F5F5F5F5F5F5F5F5F5F5F5F5F5F5F5F5F5
310
F5F5F5F5F5F5F5F5F5F5F5F5F5F5F5F5F5F5F5F5F5F5F5F5F5F5F5F5F5F5F5F5F5F5F5F5F5F5F520F5F5F5F5F5F5F5F5F5F5F5F5F5F5F5F5F5E2E2E2EFE2E2F5F5F5F5F5F5F5F5F5F5F5F5F5F5F5F5F520F5F5F5F5F5F5F5F5F5F5F5F5F5F5F5F5F5F5F5F5F5F5F5F5F5F5F5F5F5F5F5F5F5F5F5F5F5F5F5F5F5F5F5F5F5F5
310
F5F5F5F5F5F5F5F5F5F5F5F5F5F5F5F5F5F5F5F5F5F5F5F5F5F5F5F5F5F5F5F5F5F5F5F5F5F5F5F5F5F5F5F5F5F5F5F5F5F5F5F5F5F5F5F5F5F5F5F5F5F5F5F5F5F5F5F5F5F5F5F5F5F5F5F5F5F5F5F5F5F5F5F5F5F5F5F5F5F5F5F520F5F5F5F5F5F5F5F5F5F5F5F5F5F5F5F5F5E2E2E2EFE2E2F5F5F5F5F5F5F5F5F5F5F5
310
F5F5F5F5F5F520F5F5F5F5F5F5F5F5F5F5F5F5F5F5F5F5F5F5F5F5F5F5F5F5F5F5F5F5F5F5F5F5F5F5F5F5F5F5F5F5F5F5F5F5F5F5F5F5F5F5F5F5F5F5F5F5F5F5F5F5F5F5F5F5F5F5F5F5F5F5F5F5F5F5F5F5F5F5F5F5F5F5F5F5F5F5F5F5F5F5F5F5F5F5F5F5F5F5F5F5F5F5F5F5F5F5F5F5F5F5F5F5F5F5F5F5F5F5F5F5
310
F5F5F5F5F5F5F5F5F5F5F5F5F5F5F5F5F5F520F5F5F5F5F5F5F5F5F5F5F5F5F5F5F5F5F5E2E2E2EFE2E2F5F5F5F5F5F5F5F5F5F5F5F5F5F5F5F5F520F5F5F5F5F5F5F5F5F5F5F5F5F5F5F5F5F5F5F5F5F5F5F5F5F5F5F5F5F5F5F5F5F5F5F5F5F5F5F5F5F5F5F5F5F5F5F5F5F5F5F5F5F5F5F5F5F5F5F5F5F5F5F5F5F5F5F5
310
F5F5F5F5F5F5F5F5F5F5F5F5F5F5F5F5F5F5F5F5F5F5F5F5F5F5F5F5F5F5F5F5F5F5F5F5F5F5F5F5F5F5F5F5F5F5F5F5F5F5F5F5F5F5F5F5F5F5F5F5F5F5F5F5F5F5F5F5F5F5F520F5F5F5F5F5F5F5F5F5F5F5F5F5F5F5F5F5E2E2E2EFE2E2F5F5F5F5F5F5F5F5F5F5F5F5F5F5F5F5F520F5F5F5F5F5F5F5F5F5F5F5F5F5F5
310
F5F5F5F5F5F5F5F5F5F5F5F5F5F5F5F5F5F5F5F5F5F5F5F5F5F5F5F5F5F5F5F5F5F5F5F5F5F5F5F5F5F5F5F5F5F5F5F5F5F5F5F5F5F5F5F5F5F5F5F5F5F5F5F5F5F5F5F5F5F5F5F5F5F5F5F5F5F5F5F5F5F5F5F5F5F5F5F5F5F5F5F5F5F5F5F5F5F5F5F5F5F5F5F5F5F5F5F5F5F5F5F5F5F5F5F5F5F5F5F5F5F5F5F520F5F5
310
F5F5F5F5F5F5F5F5F5F5F5F5F5F5F5E2E2E2EFE2E2F5F5F5F5F5F5F5F5F5F5F5F5F5F5F5F5F520F5F5F5F5F5F5F5F5F5F5F5F5F5F5F5F5F5F5F5F5F5F5F5F5F5F5F5F5F5F5F5F5F5F5F5F5F5F5F5F5F5F5F5F5F5F5F5F5F5F5F5F5F5F5F5F5F5F5F5F5F5F5F5F5F5F5F5F5F5F5F5F5F5F5F5F5F5F5F5F5F5F5F5F5F5F5F5F5
310
F5F5F5F5F5F5F5F5F5F5F5F5F5F5F5F5F5F5F5F5F5F5F5F5F5F5F5F5F5F5F5F5F5F5F5F5F5F5F5F5F5F5F5F5F5F5F5F5F5F520F5F5F5F5F5F5F5F5F5F5F5F5F5F5F5F5F5E2E2E2EFE2E2F5F5F5F5F5F5F5F5F5F5F5F5F5F5F5F5F520F5F5F5F5F5F5F5F5F5F5F5F5F5F5F5F5F5F5F5F5F5F5F5F5F5F5F5F5F5F5F5F5F5F5F5
310
F5F5F5F5F5F5F5F5F5F5F5F5F5F5F5F5F5F5F5F5F5F5F5F5F5F5F5F5F5F5F5F5F5F5F5F5F5F5F5F5F5F5F5F5F5F5F5F5F5F5F5F5F5F5F5F5F5F5F5F5F5F5F5F5F5F5F5F5F5F5F5F5F5F5F5F5F5F5F5F5F5F5F5F5F5F5F5F5F5F5F5F5F5F5F5F5F5F5F5F5F5F5F520F5F5F5F5F5F5F5F5F5F5F5F5F5F5F5F5F5E2E2E2EFE2F5
310
F5F5F5F5F5F5F5F5F5F5F5F5F5F5F5F5F520F5F5F5F5F5F5F5F5F5F5F5F5F5F5F5F5F5F5F5F5F5F5F5F5F5F5F5F5F5F5F5F5F5F5F5F5F5F5F5F5F5F5F5F5F5F5F5F5F5F5F5F5F5F5F5F5F5F5F5F5F5F5F5F5F5F5F5F5F5F5F5F5F5F5F5F5F5F5F5F5F5F5F5F5F5F5F5F5F5F5F5F5F5F5F5F5F5F5F5F5F5F5F5F5F5F5F5F5F5
310
F5F5F5F5F5F5F5F5F5F5F5F5F5F5F5F5F5F5F5F5F5F5F5F5F5F5F5F5F520F5F5F5F5F5F5F5F5F5F5F5F5F5F5F5F5F5F5E2E2EFE2F5F5F5F5F5F5F5F5F5F5F5F5F5F5F5F5F5F520F5F5F5F5F5F5F5F5F5F5F5F5F5F5F5F5F5F5F5F5F5F5F5F5F5F5F5F5F5F5F5F5F5F5F5F5F5F5F5F5F5F5F5F5F5F5F5F5F5F5F5F5F5F5F5F5
310
F5F5F5F5F5F5F5F5F5F5F5F5F5F5F5F5F5F5F5F5F5F5F5F5F5F5F5F5F5F5F5F5F5F5F5F5F5F5F5F5F5F5F5F5F5F5F5F5F5F5F5F5F5F5F5F5F5F5F5F5F5F5F5F5F5F5F5F5F5F5F5F5F5F5F5F5F5F5F5F5F5F520F5F5F5F5F5F5F5F5F5F5F5F5F5F5F5F5F5F5E2E2EFE2F5F5F5F5F5F5F5F5F5F5F5F5F5F5F5F5F5F520F5F5F5
310
F5F5F5F5F5F5F5F5F5F5F5F5F5F5F5F5F5F5F5F5F5F5F5F5F5F5F5F5F5F5F5F5F5F5F5F5F5F5F5F5F5F5F5F5F5F5F5F5F5F5F5F5F5F5F5F5F5F5F5F5F5F5F5F5F5F5F5F5F5F5F5F5F5F5F5F5F5F5F5F5F5F5F5F5F5F5F5F5F5F5F5F5F5F5F5F5F5F5F5F5F5F5F5F5F5F5F5F5F5F5F5F5F5F5F5F5F5F5F5F5F5F5F5F5F5F5F5
310
F5F5F5F5F5F5F5F520F5F5F5F5F5F5F5F5F5F5F5F5F5F5F5F5F5F5E2E2EFE2F5F5F5F5F5F5F5F5F5F5F5F5F5F5F5F5F5F520F5F5F5F5F5F5F5F5F5F5F5F5F5F5F5F5F5F5F5F5F5F5F5F5F5F5F5F5F5F5F5F5F5F5F5F5F5F5F5F5F5F5F5F5F5F5F5F5F5F5F5F5F5F5F5F5F5F5F5F5F5F5F5F5F5F5F5F5F5F5F5F5F5F5F5F5F5
310
F5F5F5F5F5F5F5F5F5F5F5F5F5F5F5F5F5F5F5F5F5F5F5F5F5F5F5F5F5F5F5F5F5F5F5F5F5F5F5F5F5F5F5F5F5F5F5F5F5F5F5F5F5F5F5F5F5F5F5F5F520F5F5F5F5F5F5F5F5F5F5F5F5F5F5F5F5F5F5E2E2EFE2F5F5F5F5F5F5F5F5F5F5F5F5F5F5F5F5F5F520202020202020202020202020202020202020202020202020
310
20202020202020202020202020202020202020202020202020202020202020202020202020202020202020202020202020202020202020202020202020202020202020202020202020202020202020202020202020202020202020202020202020202020202020202020202020202020202020F5F5F5F5F5F5F5F5F5F5F5F5
310
F5F5F5F5F5F5E2E2EFE2F5F5F5F5F5F5F5F5F5F5F5F5F5F5F5F5F5F52020F5F5F5F5F5F5F5F5F5F5F5F5F5F5F5F520F5F5F5F5F5F5F5F5F5F5F5F5F5F5F5F520F5F5F5F5F5F5F5F5F5F5F5F5F5F5F5F520F5F5F5F5F5F5F5F5F5F5F5F5F5F5F5F520F5F5F5F5F5F5F5F5F5F5F5F5F5F5F5F5F520F5F5F5F5F5F5F5F5F5F5F5
310
F5F5F5F5F520F5F5F5F5F5F5F5F5F5F5F5F5F5F5F5F520F5F5F5F5F5F5F5F5F5F5F5F5F5F5F5F52020F5F5F5F5F5F5F5F5F5F5F5F5F5F5F5F5F5F5E2E2EFE2F5F5F5F5F5F5F5F5F5F5F5F5F5F5F5F5F5F52020F5F5F5F5F5F5F5F5F5F5F5F5F5F5F5F5F5F5F5F5F5F5F5F5F5F5F5F5F5F5F5F5F5F5F5F5F5F5F5F5F5F5F5F5
310
F5F5F5F5F5F5F5F5F5F5F5F5F5F5F5F5F5F5F5F5F5F5F5F5F5F5F5F5F5F5F5F5F5F5F5F5F5F5F5F5F5F5F5F5F5F5F5F5F5F5F5F5F5F5F5F5F5F5F5F5F5F5F5F5F5F5F5F5F5F5F5F5F5F5F5F5F5F5F5F5F5F5F5F5F5F5F5F5F5F5F5F52020F5F5F5F5F5F5F5F5F5F5F5F5F5F5F5F5F5F5E2E2EFE2F5F5F5F5F5F5F5F5F5F5F5
310
F5F5F5F5F5F5F52020F5F5F5F5F5F5F5F5F5202020202020202020202020202020202020202020202020202020202020202020202020202020202020202020202020202020202020202020202020F5202020202020202020202020202020202020202020202020202020202020202020202020202020202020202020202020
310
2020202020202020202020202020F5F5F5F52020F5F5F5F5F5F5F5F5F5F5F5F5F5F5F5F5F5F5E2E2EFE2E2F5F5F5F5F5F5F5F5F5F5F5F5F5F5F5F5F52020F5F5F5F5F5F5F5F5F520F5F5F5F5F5F5F5F5F5F5F5F5F5F5F5F5F5F5F5F5F5F5F5F5F5F5F5F5F5F5F5F5F5F5F5F5F5F5F5F5F5F5F5F5F5F5F5F5F5F5F5F5F5F5F5
310
F5F5F5F5202020F5F5F5F5F5F5F5F5F5F5F5F5F5F5F5F5F5F5F5F5F5F5F5F5F5F5F5F5F5F5F5F5F5F5F5F5F5F5F5F5F5F5F5F5F5F5F5F5F5F5F5F5F5F5F5F5F5F5F520F5F5F5F52020F5F5F5F5F5F5F5F5F5F5F5F5F5F5F5F5F5E2E2E2EFE2E2F5F5F5F5F5F5F5F5F5F5F5F5F5F5F5F5F52020F5F5F5F5F5F5202020201919
310
191919191919191919191919191919191919191919191919191919191919191919191919191919191919191919191919191919191919191919191919191919201919191919191919191919191919191919191919191919191919191919191919191919191919191919191919191919191919191919191920F5F5F5F52020F5
310
F5F5F5F5F5F5F5F5F5F5F5F5F5F5F5F5E2E2E2EFE2E2F5F5F5F5F5F5F5F5F5F5F5F5F5F5F5F5F52020F5F5F5F5F5F52020F519F5F5F519F5F5F519F5F5F5F5F5F5F5F5F5F5F5F5F5F5F5F5F5F5F5F5F5F5F5F5F5F5F5F5F5F5F5F5F5F5F5F5F5F5F5F5F5F5F5F5F5F5F5F5F5F5F5F5F5F5F5F5F520F5F5F5F5F5F5F5F5F5F5
310
F5F5F5F5F5F5F5F5F5F5F5F5F5F5F5F5F5F5F5F5F5F5F5F5F5F5F5F5F5F5F5F5F5F5F5F5F5F5F5F519F519F5F519F5F5F5F52020F5F5F5F5F5F5F5F5F5F5F5F5F5F5F5F5F5E2E2E2EFE2E2F5F5F5F5F5F5F5F5F5F5F5F5F5F5F5F5F52020F5F5F5F5F5F5F520F519F5F5F519F5F5F519F5F5F5F5F5F5F5F5F5F5F5F5F5F5F5
310
F5F5F5F5F5F5F5F5F5F5F5F5F5F5F5F5F5F5F5F5F5F5F5F5F5F5F5F5F5F5F5F5F5F5F5F5F5F5F5F5F5F5F520F5F5F5F5F5F5F5F5F5F5F5F5F5F5F5F5F5F5F5F5F5F5F5F5F5F5F5F5F5F5F5F5F5F5F5F5F5F5F5F5F5F5F5F5F5F5F5F5F519F519F5F519F5F5F5F52020F5F5F5F5F5F5F5F5F5F5F5F5F5F5F5F5F5E2E2E2EFE2
310
E2F5F5F5F5F5F5F5F5F5F5F5F5F5F5F5F5F52020F5F5F5F5F5F5F520F519F5F5F519F5F5F519F5F5F5F5F5F5F5F5F5F5F5F5F5F5F5F5F5F5F5F5F5F5F5F5F5F5F5F5F5F5F5F5F5F5F5F5F5F5F5F5F5F5F5F5F5F5F5F5F5F5F5F5F5F5F5F5F5F5F520F5F5F5F5F5F5F5F5F5F5F5F5F5F5F5F5F5F5F5F5F5F5F5F5F5F5F5F5F5
310
F5F5F5F5F5F5F5F5F5F5F5F5F5F5F5F5F5F5F519F519F5F519F5F5F5F52020F5F5F5F5F5F5F5F5F5F5F5F5F5F5F5F5F5E2E2E2EFE2E2F5F5F5F5F5F5F5F5F5F5F5F5F5F5F5F5F52020F5F5F5F5F5F5F520F519F5F5F519F5F5F519F5F5F5F5F5F5F5F5F5F5F5F5F5F5F5F5F5F5F5F5F5F5F5F5F5F5F5F5F5F5F5F5F5F5F5F5
310
F5202020202020F5F5F5F5F5F5F5F5F5F5F5F5F5F5F5F5F52020F5F5F5F5F5F5F5F5F5F5F5F5F5F5F5F5F5F5F5F5F5F5F5F5F5F5F5F5F5F5F5F5F5F5F5F5F5F5F5F5F5F5F5F5F5F519F519F5F519F5F5F5F52020F5F5F5F5F5F5F5F5F5F5F5F5F5F5F5F5F5E2E2E2EFE2E2F5F5F5F5F5F5F5F5F5F5F5F5F5F5F5F5F52020F5
310
F5F5F5F5F5F520F519F5F5F519F5F5F519F5F5F5F5F5F5F5F5F5F5F5F5F5F5F5F5F5F5F5F5F5F5F5F5F5F5F5F5F5F5F5F5F5F5F5F5F5202020202020F5F5F5F5F5F5F5F5F5F5F5F5F5F5F5F5F5F5F52020202020202020202020202020F5F5F5F5F5F5F5F5F5F5F5F5F5F5F5F5F5F5F5F5F5F5F5F5F5F5F5F5F5F5F5F519F5
310
19F5F519F5F5F5F52020F5F5F5F5F5F5F5F5F5F5F5F5F5F5F5F5F5E2E2E2EFE2E2F5F5F5F5F5F5F5F5F5F5F5F5F5F5F5F5F52020F5F5F5F5F5F5F520F519F5F5F519F5F5F519F5F5F5F5F5F5F5F5F5F5F5F5F5F5F5F5F5F5F5F5F5F5F5F5F5F5F5F5F5F5F5F5F5F5F5F5F5F5F5F5F5F5F5F5F5F5F5F5F5F5F5F5F5F5F5F5F5
310
F5F5F5F5F5F52020202020202020202020202020F5F5F5F5F5F5F5F5F5F5F5F5F5F5F5F5F5F5F5F5F5F5F5F5F5F5F5F5F5F5F519F519F5F519F5F5F5F52020F5F5F5F5F5F5F5F5F5F5F5F5F5F5F5F5F5E2E2E2EFE2E2F5F5F5F5F5F5F5F5F5F5F5F5F5F5F5F5F52020F5F5F5F5F5F5F520F519F5F5F5F519F5F519F5F5F5F5
310
F5F5F5F5F5F5F5F5F5F5F5F5F5F5F5F5F5F5F5F5F5F5F5F5F5F5F5F5F5F5F5F5F5F5F5F5F5F5F5F5F5F5F5F5F5F5F5F5F5F5F5F5F5F5F5F5F5F5F520202020202020202020202020F5F5F5F5F5F5F5F5F5F5F5F5F5F5F5F5F5F5F5F5F5F5F5F5F5F5F5F5F5F5F5F519F519F5F519F5F5F5F52020F5F5F5F5F5F5F5F5F5F5F5
310
F5F5F5F5F5F5E2E2E2EFE2E2F5F5F5F5F5F5F5F5F5F5F5F5F5F5F5F5F52020F5F5F5F5F5F5F520F519F5F5F5F519F5F519F5F5F5F5F5F5F5F5F5F5F5F5F5F5F5F5F5F5F5F5F5F5F5F5F5F5F5F5F5F5F5F5F5F5F5F5202020F520202020202020202020202020F5F5F5F5F5F5F5F5F5F5F5F5F5F5F5F5F5F5F5F5F5F5F5F5F5
310
F5F5F5F5F5F5F5F5F5F5F5F5F5F5F5F5F5F5F5F5F5F5F5F5F5F5F5F5F5F519F519F5F519F5F5F5F52020F5F5F5F5F5F5F5F5F5F5F5F5F5F5F5F5F5E2E2E2EFE2E2F5F5F5F5F5F5F5F5F5F5F5F5F5F5F5F5F52020F5F5F5F5F5F5F520F519F5F5F5F519F5F519F5F5F5F5F5F5F5F5F5F5F5F5F5F5F5F5F5F5F5F5F5F5F5F5F5
310
F5F5F5F5F5F5F5F5F5F5F5F520F52020F52020F52020F52020F52020F5F5F5F5F5F5F5F5F5F5F5F5F5F5F5F5F5F5F5F5F5F5F5F5F5F5F5F5F5F5F5F5F5F5F5F5F5F5F5F5F5F5F5F5F5F5F5F5F5F5F5F5F5F519F5F519F5F519F5F5F5F52020F5F5F5F5F5F5F5F5F5F5F5F5F5F5F5F5F5E2E2E2EFE2E2F5F5F5F5F5F5F5F5F5
310
F5F5F5F5F5F5F5F52020F5F5F5F5F5F5F520F519F5F5F5F519F5F519F5F5F5F5F5F5F5F5F5F5F5F5F5F5F5F5F5F5F5F5F5F5F5F5F5F5F5F5F5F5F5F5F5F5F5202020202020202020202020202020F5202020F5F5F5F5F5F5F5F5F5F5F5F5F5F5F5F5F5F5F5F5F5F5F5F5F5F5F5F5F5F5F5F5F5F5F5F5F5F5E2E2F5F5F5F5F5
310
F5F5F5F5F5F5F5F519F5F519F5F519F5F5F5F52020F5F5F5F5F5F5F5F5F5F5F5F5F5F5F5F5F5E2E2E2EFE2E2F5F5F5F5F5F5F5F5F5F5F5F5F5F5F5F5F52020F5F5F5F5F5F5F520F519F5F5F5F519F5F519F5F5F5F5F5F5F5F5F5F5F5F5F5F5F5F5F5F5F5F5F5F5F5F5F5F5F5F5F5F5F5F5F5F5F52020202020202020F52020
310
2020F52020202020F5F5F5F5F5F5F5F5F5F5F5F5F5F5F5F5F5F5F5F5F5F5F5F5F5F5F5F5F5F5F5F5F5F5F5F5F5F5E2E2F5F5F5F5F5F5F5F5F5F5F5F5F519F5F519F5F519F5F5F5F52020F5F5F5F5F5F5F5F5F5F5F5F5F5F5F5F5F5E2E2E2EFE2E2F5F5F5F5F5F5F5F5F5F5F5F5F5F5F5F5F52020F5F5F5F5F5F5F520F519F5
310
F5F5F519F5F519F5F5F5F5F5F5F5F5F5F5F5F5F5F5F5F5F5F5F5F5F5F5F5E2E2F5F5F5F5F5F5F5F5F5F5F5F5F5F5F5F5F5F5F5F5F5F5F5F5F5F5F5F5F5F5F5F5F5F5F5F5F5F5F5F5F5F5F5F5F5F5F5F5F5F5F5F5F5F5F5F5F5F5F5F5F5F5F5F5F5F5F5F5E2E2F5F5F5F5F5F5F5F5F5F5F5F519F5F519F5F519F5F5F5F52020
310
F5F5F5F5F5F5F5F5F5F5F5F5F5F5F5F5F5E2E2E2EFE2E2F5F5F5F5F5F5F5F5F5F5F5F5F5F5F5F5F52020F5F5F5F5F5F5F520F519F5F5F5F519F5F519F5F5F5F5F5F5F5F5F5F5F5F5F5F5F5F5F5F5F5F5F5F5F5E2E2F5F5F5F5F5F5F5F5F5F5F5F5F5F5F5F5F5F5F5F5F5F5F5F5F5F5F5F5F5F5F5F5F5F5F5F5F5F5F5F5F5F5
310
F5F5F5F5F5F5F5F5F5F5F5F5F5F5F5F5F5F5F5F5F5F5F5F5F5F5E2E2F5F5F5F5F5F5F5F5F5F5F5F519F5F519F5F519F5F5F5F52020F5F5F5F5F5F5F5F5F5F5F5F5F5F5F5F5F5E2E2E2EFE2E2F5F5F5F5F5F5F5F5F5F5F5F5F5F5F5F5F52020F5F5F5F5F5F5F520F519F5F5F5F519F5F519F5F5F5F5F5F5F5F5F5F5F5F5F5F5
310
F5F5F5F5F5F5F5F5F5F5E2E2F5F5F5F5F5F5F5F5F5F5F5F5F5F5F5F5F5F5F5F5F5F5F5F5F5F5F5F5F5F5F5F5F5F5F5F5F5F5F5F5F5F5F5F5F5F5F5F5F5F5F5F5F5F5F5F5F5F5F5F5F5F5F5F5F5F5F5E2E2E2E2E2E2E2F5F5F5F5F5F5F519F5F519F5F519F5F5F5F52020F5F5F5F5F5F5F5F5F5F5F5F5F5F5F5F5F5E2E2E2EF
310
E2F5F5F5F5F5F5F5F5F5F5F5F5F5F5F5F5F5F52020F5F5F5F5F5F5F520F519F5F5F5F519F5F519F5F5F5F5F5F5F5F5F5F5F5F5F5F5F5F5F5F5F5F5F5F5F5F5E2E2F5F5F5F5F5F5F5F5F5F5F5F5F5F5F5F5F5F5F5F5F5F5F5F5F5F5F5F5F5F5F5F5F5F5F5F5F5F5F5F5F5F5F5F5F5F5F5F5F5F5F5F5F5F5F5F5F5F5F5F5F5F5
310
F5F5F5F5F5E2E2E2E2E2E2E2F5F5F5F5F5F5F519F5F519F5F519F5F5F5F52020F5F5F5F5F5F5F5F5F5F5F5F5F5F5F5F5F5F5E2E2EFE2F5F5F5F5F5F5F5F5F5F5F5F5F5F5F5F5F5F52020F5F5F5F5F5F5F520F519F5F5F5F519F5F5F519F5F5F5F5F5F5F5F5F5F5F5F5F5F5F5F5F5F5F5F5F5F5F5E2E2E2E2E2E2E2F5F5F5F5
310
F5F5F5F5F5F5F5F5F5F5F5F5F5F5F5F5F5F5F5F5F5F5F5F5F5F5F5F5F5F5F5F5F5F5F5F5F5F5F5F5F5F5F5F5F5F5F5F5F5F5F5F5F5F5F5F5F5F5202020202020202020F5F5F5F5F519F5F519F5F519F5F5F5F52020F5F5F5F5F5F5F5F5F5F5F5F5F5F5F5F5F5F5E2E2EFE2F5F5F5F5F5F5F5F5F5F5F5F5F5F5F5F5F5F52020
310
F5F5F5F5F5F5F520F519F5F5F5F5F519F5F519F5F5F5F5F5F5F5F5F5F5F5F5F5F5F5F5F5F5F5F5F5F5F5F5E2E2E2E2E2E2F5F5F5F5F5F5F5F5F5F5F5F5F5F5F5F5F5F5F5F5F5F5F5F5F5F5F5F5F5F5F5F5F5F5F5F5F5F5F5F5F5F5F5F5202020202020202020202020F5F5F5F5F5F5202020202020F5F5F5F5F5F5F5F519F5
310
F519F5F519F5F5F5F52020F5F5F5F5F5F5F5F5F5F5F5F5F5F5F5F5F5F5E2E2EFE2F5F5F5F5F5F5F5F5F5F5F5F5F5F5F5F5F5F5202020F5F5F5F5F52020F519F5F5F5F5F519F5F519F5F5F5F5F5F5F5F5F5F5F5F5F5F5F5F5F5F5F5F5F5F5F5F5E2E2E2E2E2E2F5F5F5F5F5F5F5F5F5F5F5F5F5F5F5F5F5F5F5F5F5F5F5F5F5
310
F5F5F5F5F5F5F5F5F5F5F5F5F5F5F5F5F5F5F5202020202020202020202020F5F5F5F5F5F52020202020F5F5F5F5F5F5F5F5F519F5F519F5F519F5F5F5202020F5F5F5F5F5F5F5F5F5F5F5F5F5F5F5F5F5F5E2E2EFE2F5F5F5F5F5F5F5F5F5F5F5F5F5F5F5F5F5F52020F5F5F5F5F5F52020F519F5F5F5F5F519F5F519F5F5
310
F520202020202020202020202020F5F5F5F5F5F5F52020202020202020F5F5F5F5F5F5F5F5F5F5F5F5F5F5F5F5F5F5F5F5F5F5F5F5F5F5F5F5F5F5F5F5F5F5F5F5F5F5F5F5F5F5F5F5F5F5F5F5F5F5F5F5F5F5F5F5F5F5F5F5F5F5F5F5F5F5F5F5F5F5F5F5F5F5F519F5F519F5F519F5F5F5F52020F5F5F5F5F5F5F5F5F5F5
310
F5F5F5F5F5F5F5F5E2E2EFE2F5F5F5F5F5F5F5F5F5F5F5F5F5F5F5F5F5F52020F5F5F5F5F5F5F520F519F5F5F5F5F519F5F519F5F5F5F5202020202020202020202020F5F5F5F5F5F5F5202020202020202020F5F5F5F5F5F5F5F5F5F5F5F5F5F5F5F5F5F5F5F5F5F5F5F5F5F5F5F5F5F5F5F5F5F5F5F5F5F5F5F5F5F5F5F5
310
F5202020202020202020F5F5F5F5F5F5F5F5F5F5F5F5F5F5F5F5F5F5F5F519F5F519F5F519F5F5F5F52020F5F5F5F5F5F5F5F5F5F5F5F5F5F5F5F5F5F5E2E2EFE2F5F5F5F5F5F5F5F5F5F5F5F5F5F5F5F5F5F52020F5F5F5F5F5F5F520F519F5F5F5F5F519F5F519F5F5F5F5F5F5F5F5F5F5F5F5F5F5F5F5F5F5F5F5F5F5F5
310
202020202020F5F5F5F5F5F5F5F5F5F5F5F5F5F5F5F5F5F5F5F5F5F5F5F5F5F5F5F5F5F5F5F5F5F5F5F5F5F5F5F5F5F5F5F5202020202020202020202020202020F5F5F5F5F5F5F5F5F5F5F5F5F5F5F5F5F5F519F519F5F5F519F5F5F5F52020F5F5F5F5F5F5F5F5F5F5F5F5F5F5F5F5F5F5E2E2EFE2F5F5F5F5F5F5F5F5F5
310
F5F5F5F5F5F5F5F5F52020F5F5F5F5F5F5F520F519F5F5F5F5F519F5F5F519F5F5F5F52020202020202020202020F5F5F5F5F5F5F5F5F5F5F5F5F5F5F5F5F5F5F5F5F5F5F5F5F5F5F5F5F5F5F5F5F5F5F5F5F5F5F5F5F5F5F5F5F5F5F5F5F5F5F5F5F5F5F5F5F5F5F5F5F5F5F5F5F5F5F5F5F5F5F5F520F5F5F5F5F5F5F5F5
310
F5F5F5F5F5F5F5F519F5F519F5F5F519F5F5F5F52020F5F5F5F5F5F5F5F5F5F5F5F5F5F5F5F5F5F5E2E2EFE2F5F5F5F5F5F5F5F5F5F5F5F5F5F5F5F5F5F52020F5F5F5F5F5F5F520F519F5F5F5F5F5F519F5F519F5F52020202020202020202020F5F52020F5F5F5F5F5F5F5F5F5F5F5F5F5F5F5F5F5F5F5F5F5F5F5F5F5F5
310
F5F5F5F5F5F5F5F5F5F5F5F5F5F5F5F5F5F5F5F5F5F5F5F5F5F5F5F5F5F5F5F5F5F5F5F5F5F5F5F5F5F5F5F5F52020F5F5F5F5F5F5F5F5F5F5F5F51919F5F519F5F5F5F519F5F5F5F52020F5F5F5F5F5F5F5F5F5F5F5F5F5F5F5F5F5F5E2E2EFE2E2F5F5F5F5F5F5F5F5F5F5F5F5F5F5F5F5F52020F5F5F5F5F5F5F520F519
310
F5F5F5F5F5F519F5F519F5F5F5F5F5F5F5F5F5F5F5F5F5F5F5F5F520F5F5F5F5F5F5F5F5F5F5F5F5F5F5F5F5F5F5F5F5F5F5F5F5F5F5F5F5F5F5F5F5F5F5F5F5F5F5F5F5F5F5F5F5F5F5F5F5F5F5F5F5F5F5F5F5F5F5F5F5F5F5F5F5F5F5F5F5F5F5F5F520F5F5F5F5F5F5F5F5F51919F5F5F519F5F5F5F5F519F5F5F5F520
310
20F5F5F5F5F5F5F5F5F5F5F5F5F5F5F5F5F5E2E2E2EFE2E2F5F5F5F5F5F5F5F5F5F5F5F5F5F5F5F5F52020F5F5F5F5F5F5F520F519F5F5F5F5F5F519F5F5F519F5F5F5F520202020202020202020F5F5F520F5F5F5F5F5F5F5F5F5F5F5F5F5F5F5F5F5F5F5F5F5F5F5F5F5F5F5F5F5F5F5F5F5F5F5F5F5F5F5F5F5F5F5F5F5
310
F5F5F5F5F5F5F5F5F5F5F5F5F5F5F5F5F5F5F5F5F5F5F5F5F5F5F5201919191919191919F5F5F51919F5F5F5F5F5F519F5F5F5F52020F5F5F5F5F5F5F5F5F5F5F5F5F5F5F5F5F5E2E2E2EFE2E2F5F5F5F5F5F5F5F5F5F5F5F5F5F5F5F5F52020F5F5F5F5F5F5F520F519F5F5F5F5F5F519F5F5F519F5F5F5F5F5F5F5F5F5F5
310
F5F5F5F5F5F5F520F5F5F5F5F5F5F5F5F5F5F5F5F5F5F5F5F5F5F5F5F5F5F5F5F5F5F5F5F5F5F5F5F5F5F5F5F5F5F5F5F5F5F5F5F5F5F5F5F5F5F5F5F5F5F5F5F5F5F5F5191919191919191919191919191919191919191919191919F5F5F5F5F5F5F5F519F5F5F5F52020F5F5F5F5F5F5F5F5F5F5F5F5F5F5F5F5F5E2E2E2
310
EFE2E2F5F5F5F5F5F5F5F5F5F5F5F5F5F5F5F5F52020F5F5F5F5F5F5F520F519F5F5F5F5F5F5F519F5F5F519F5F5F5F5F5F5F5F5F5F5F5F5F5F5F5F5F520F5F5F5F5F5F5F5F5F5F5F5F5F5F5F5F5F5F5F5F5F5F5F5F5F5F5F5F5F5F5F5F5F5F5F5F5F5F5F5F5F519F5F5F5F5F5191919191919191919191919191919191919
310
191919191919F5F5F5F5F5F5F5F5F5F5F5F5F5F5F5F5F5F5F5F519F5F5F5F52020F5F5F5F5F5F5F5F5F5F5F5F5F5F5F5F5F5E2E2E2EFE2E2F5F5F5F5F5F5F5F5F5F5F5F5F5F5F5F5F52020F5F5F5F5F5F5F520F519F5F5F5F5F5F5F519F5F5F519F5F5F5F5F5F5F5F5F5F5F5F5F5F5F5F5F5F520F5F5F5F5F5F5F5F5F5F5F5
310
F5F5F5F5F5F5F5F5F5F5F5F5F5F5F5F5F5F5F5F5F5F5F5F5F5F5F5F519191919191919191919191919191919191919F5F5F5F5F5F5F5F5F5F5F5F5F5F5F5F5F5F5F5F5F5F5F5F5F5F5F5F5F5F5F5F519F5F5F5F52020F5F5F5F5F5F5F5F5F5F5F5F5F5F5F5F5F5E2E2E2EFE2E2F5F5F5F5F5F5F5F5F5F5F5F5F5F5F5F5F520
310
20F5F5F5F5F5F5F520F519F5F5F5F5F5F5F5F51919F5F5191919F5F5F5F5F5F5F5F5F5F5F5F5F5F5F5F520F51919191919191919191919191919F5F5F5F5F5F5F5F5F5F5F5F5F5F5F5F5F5F5F5F5F5191919191919191919F5F5F5F5F5F5F5F5F5F5F5F5F5F5F5F5F5F5F5F5F5F5F5F5F5F5F5F5F5F5F5F5F5F5F5F5F5F5F5
310
F5F5F5F5F519F5F5F5F52020F5F5F5F5F5F5F5F5F5F5F5F5F5F5F5F5F5E2E2E2EFE2E2F5F5F5F5F5F5F5F5F5F5F5F5F5F5F5F5F52020F5F5F5F5F5F5F520F519F5F5F5F5F5F5F5F5F5F51919F5F5F5191919191919191919191919191919192019F5F5F5F5F5F5F5F5F5F5F5F5F5F51919F5F5F5F5F5F5F5F5F5F5F5F5F5F5
310
F5F5F5F519F5F519F5F5F5F5F5F5F5F5F5F5F5F5F5F5F5F5F5F5F5F5F5F5F5F5F5F5F5F5F5F5F5F5F5F5F5F5F5F5F5F5F5F5F5F5F5F5F5F5F5F519F5F5F5F52020F5F5F5F5F5F5F5F5F5F5F5F5F5F5F5F5F5E2E2E2EFE2E2F5F5F5F5F5F5F5F5F5F5F5F5F5F5F5F5F52020F5F5F5F5F5F5F520F519F5F5F5F5F5F5F5F5F5F5
310
F5F51919191919F5F5F5F5F5F5F5F5F5F5F5F5F5F5F5201919191919191919191919191919F5F5191919191919191919191919191919191919F5F519F5F5F5F5F5F5F5F5F5F5F5F5F5F5F5F5F5F5F5F5F5F5F5F5F5F5F5F5F5F5F5F5F5F5F5F5F5F5F5F5F5F5F5F5F5F5F5F5F5F5F519F5F5F5F52020F5F5F5F5F5F5F5F5F5
310
F5F5F5F5F5F5F5F5E2E2E2EFE2E2F5F5F5F5F5F5F5F5F5F5F5F5F5F5F5F5F52020F5F5F5F5F5F5F520F519F5F5F5F5F5F5F5F5F5F5F5F5F5F5F5F5F519191919191919191919191919191919F5F5F5F5F5F5F5F5F5F5F5F5F519F5F5F5F5F5F5F5F5F5F5F5F519191919191919191919F5F5F5F5F5F5F5F5F5F5F5F5F5F5F5
310
F5F5F5F5F5F5F5F5F5F5F5F5F5F5F5F5F5F5F5F5F5F5F5F5F5F5F5F52020202020F5F5F5F519F5F5F5F52020F5F5F5F5F5F5F5F5F5F5F5F5F5F5F5F5F5E2E2E2EFE2E2F5F5F5F5F5F5F5F5F5F5F5F5F5F5F5F5F52020F5F5F5F5F5F5F520F519F5F5F5F5F5F5F5F5F5F5F5F5F5F5F5F5F5F5F5F5F5F5F5F5F5F5F5F5F5F5F5
310
F5F5F5F5F5F5F5F5F5F5F5F5F5F5F5F5191919191919191919191919F5F5F5F5F5F5F5F5F5F5F5F5F5F5F5F5F5F5F5F5F5F5F5F5F5F5F5F5F5F5F5F5F5F5F5F5F5F5F5F5F5F5F5F5F5F5F5F5F5F5F5F5F5F5F5F5F5F5F5F5F5F519F5F5F5F52020F5F5F5F5F5F5F5F5F5F5F5F5F5F5F5F5F5E2E2E2EFE2E2F5F5F5F5F5F5F5
310
F5F5F5F5F5F5F5F5F5F52020F5F5F5F5F5F5F520F519F5F5F5F5F5F5F5F5F5F5F5F5F5F5F5F5F5F5F5F5F5F5F5F5F5F5F5F5F5F5F5F5F5F5F5F5F5F5F5F5F5F5F5F5F5F5F5F5F5F5F5F5F5F5F5F5F5F5F5F5F5F5F5F5F5F5F5F5F5F5F5F5F5F5F5F5F5F5F5F5F5F5F5F5F5F5F5F5F5F5F5F5F5F5F5F5F5F5F5F5F5F5F5F5F5
310
F5F5F5F5F5F5F5202020202020F5F5F519F5F5F5F52020F5F5F5F5F5F5F5F5F5F5F5F5F5F5F5F5F5E2E2E2EFE2E2F5F5F5F5F5F5F5F5F5F5F5F5F5F5F5F5F52020F5F5F5F5F5F5F520F519F5F5F5F5F5F5F5F5F5F5F5F5F5F5F5F5F5F5F5F5F5F5F5F5F5F5F5F5F5F5F5F5F5F5F5F5F5F5F5F5F5F5F5F5F5F5F5F5F5F5F5F5
310
F5F5F5F5F5F5F5F5F5F5F5F5F5F5F5F5F5F5F5F5F5F5F5F5F5F5F5F5F5F5F5F5F5F5F5F5F5F5F5F5F5F5F5F5F5F5F5F5F5F5F5F5F5F5F5F5F5F5F5F5F5F5F5F5F5F5F5F5F519F5F5F5F52020F5F5F5F5F5F5F5F5F5F5F5F5F5F5F5F5F5E2E2E2EFE2E2F5F5F5F5F5F5F5F5F5F5F5F5F5F5F5F5F52020F5F5F5F5F5F52020F5
310
19F5F5F5F5F5F5F5F5F5F5F5F5F5F5F5F5F5F5F5F5F5F5F5F5F5F5F5F5F5F5F5F5F5F5F5F5F5F5F5F5F5F5F5F5F5F5F5F5F5F5F5F5F5F5F5F5F5F5F5F5F5F5F5F5F5F5F5F5F5F5F5F5F5F5F5F5F5F5F5F5F5F5F5F5F5F5F5F5F5F5F5F5F5F5F5F5F5F5F5F5F5F5F5F5F5F5F5F5F5F5F5F5F5F5F5F5F5F5F5F5F519F5F5F5F5
310
2020F5F5F5F5F5F5F5F5F5F5F5F5F5F5F5F5F5E2E2E2EFE2E2F5F5F5F5F5F5F5F5F5F5F5F5F5F5F5F5F52020F5F5F5F5F5F52020202020191919191919191919191919191919191919191919191919191919191919191919191919191919191919191919191919191919191919191919191919191919191919191919191919
310
191919191919191919191919191919191919191919191919191919191919191919191919191919191919191919191919F5F5F5F5F52020F5F5F5F5F5F5F5F5F5F5F5F5F5F5F5F5F5E2E2E2EFE2E2F5F5F5F5F5F5F5F5F5F5F5F5F5F5F5F5F52020F5F5F5F5F5F5F5F5F5F5F5F5F5F5F5F5F5F5F5F5F5F5F5F5F5F5F5F5F5F5
310
F5F5F5F5F5F5F5F5F5F5F5F5F5F5F5F5F5F5F5F5F5F5F5F5F5F5F5F5F5F5F5F5F5F5F5F5F5F5F5F5F5F5F5F5F5F5F5F5F5F5F5F5F5F5F5F5F5F5F5F5F5F5F5F5F5F5F5F5F5F5F5F5F5F5F5F5F5F5F5F5F5F5F5F5F5F5F5F5F5F5F5F5F5F5F5F5F5F5F5F5F5F5F5F5F5F52020F5F5F5F5F5F5F5F5F5F5F5F5F5F5F5F5F5E2E2
310
E2EFE2E2F5F5F5F5F5F5F5F5F5F5F5F5F5F5F5F5F52020F5F5F5F5F5F5F5F5F5F5F5F5F5F5F5F520F5F5F5F5F5F5F5F5F5F5F5F5F5F5F5F520F5F5F5F5F5F5F5F5F5F5F5F5F5F5F5F520F5F5F5F5F5F5F5F5F5F5F5F5F5F5F5F520F5F5F5F5F5F5F5F5F5F5F5F5F5F5F5F5F520F5F5F5F5F5F5F5F5F5F5F5F5F5F5F5F520F5
310
F5F5F5F5F5F5F5F5F5F5F5F5F5F5F520F5F5F5F5F5F5F5F5F5F5F5F5F5F5F5F52020F5F5F5F5F5F5F5F5F5F5F5F5F5F5F5F5F5E2E2E2EFE2F5F5F5F5F5F5F5F5F5F5F5F5F5F5F5F5F5F52020202020202020202020202020202020202020202020202020202020202020202020202020202020202020202020202020202020
310
202020202020202020202020202020202020202020202020202020202020202020202020202020202020202020202020202020202020202020202020202020202020202020202020202020202020202020202020202020F5F5F5F5F5F5F5F5F5F5F5F5F5F5F5F5F5F5E2E2EFE2F5F5F5F5F5F5F5F5F5F5F5F5F5F5F5F5F5F5
310
20F5F5F5F5F5F5F5F5F5F5F5F5F5F5F5F5F5F5F5F5F5F5F5F5F5F5F5F5F5F5F5F5F5F5F5F5F5F5F5F5F5F5F5F5F5F5F5F5F5F5F5F5F5F5F5F5F5F5F5F5F5F5F5F5F5F5F5F5F5F5F5F5F5F5F5F5F5F5F5F5F5F5F5F5F5F5F5F5F5F5F5F5F5F5F5F5F5F5F5F5F5F5F5F5F5F5F5F5F5F5F5F5F5F5F5F5F5F5F5F5F5F5F5F5F5F5
310
F5F5F5F5F5F5F5F5F5F5F5F520F5F5F5F5F5F5F5F5F5F5F5F5F5F5F5F5F5F5E2E2EFE2F5F5F5F5F5F5F5F5F5F5F5F5F5F5F5F5F5F520F5F5F5F5F5F5F5F5F5F5F5F5F5F5F5F5F5F5F5F5F5F5F5F5F5F5F5F5F5F5F5F5F5F5F5F5F5F5F5F5F5F5F5F5F5F5F5F5F5F5F5F5F5F5F5F5F5F5F5F5F5F5F5F5F5F5F5F5F5F5F5F5F5
310
F5F5F5F5F5F5F5F5F5F5F5F5F5F5F5F5F5F5F5F5F5F5F5F5F5F5F5F5F5F5F5F5F5F5F5F5F5F5F5F5F5F5F5F5F5F5F5F5F5F5F5F5F5F5F5F5F5F5F5F5F5F5F5F5F520F5F5F5F5F5F5F5F5F5F5F5F5F5F5F5F5F5F5E2E2EFE2F5F5F5F5F5F5F5F5F5F5F5F5F5F5F5F5F5F520F5F5F5F5F5F5F5F5F5F5F5F5F5F5F5F5F5F5F5F5
310
F5F5F5F5F5F5F5F5F5F5F5F5F5F5F5F5F5F5F5F5F5F5F5F5F5F5F5F5F5F5F5F5F5F5F5F5F5F519F5F5F5F5F5F5F5F5F5F5F5F5F5F5F5F5F5F5F5F5F5F5F5F5F5F5F5F5F5F5F5F5F5F5F5F5F5F5F5F5F5F5F5F5F5F5F5F5F5F5F5F5F5F5F5F5F5F5F5F5F5F5F5F5F5F5F5F5F5F5F5F5F5F5F5F5F5F5F520F5F5F5F5F5F5F5F5
310
F5F5F5F5F5F5F5F5F5F5E2E2EFE2F5F5F5F5F5F5F5F5F5F5F5F5F5F5F5F5F5F520F5F5F5F5F5F5F5F5F5F5F5F5F5F5F5F5F5F5F5F5F5F5F5F5F5F5F5F5F5F5F5F5F5F5F5F5F5F5F5F5F5F5F5F5F5F5F5F5F5F5F5F5F5F5F5F5F5F5F5F5F5F5F5F5F5F5F5F5F5F5F5F5F5F5F5F5F5F5F5F5F5F5F5F5F5F5F5F5F5F5F5F5F5F5
310
F5F5F5F5F5F5F5F5F5F5F5F5F5F5F5F5F5F5F5F5F5F5F5F5F5F5F5F5F5F5F5F5F5F5F5F5F5F5F5F5F5F5F5F520F5F5F5F5F5F5F5F5F5F5F5F5F5F5F5F5F5F5E2E2EFE2F5F5F5F5F5F5F5F5F5F5F5F5F5F5F5F5F5F520F5F5F5F5F5F5F5F5F5F5F5F5F5F5F5F5F5F5F5F5F5F5F5F5F5F5F5F5F5F5F5F5F5F5F5F5F5F5F5F5F5
310
F5F5F5F5F5F5F5F5F5F5F5F5F5F5F5F5F5F5F5F5F5F5F5F5F5F5F5F5F5F5F5F5F5F5F5F5F5F5F5F5F5F5F5F5F5F5F5F5F5F5F5F5F5F5F5F5F5F5F5F5F5F5F5F5F5F5F5F5F5F5F5F5F5F5F5F5F5F5F5F5F5F5F5F5F5F5F5F5F5F5F5F5F5F5F5F5F520F5F5F5F5F5F5F5F5F5F5F5F5F5F5F5F5F5F5E2E2EFE2F5F5F5F5F5F5F5
310
F5F5F5F5F5F5F5F5F5F5F520F5F5F5F5F5F5F5F5F5F5F5F5F5F5F5F5F5F5F5F5F5F5F5F5F5F5F5F5F5F5F5F5F5F5F5F5F5F5F5F5F5F5F5F5F5F5F5F5F5F5F5F5F5F5F5F5F5F5F5F5F5F5F5F5F5F5F5F5F5F5F5F5F5F5F5F5F5F5F5F5F5F5F5F5F5F5F5F5F5F5F5F5F5F5F5F5F5F5F5F5F5F5F5F5F5F5F5F5F5F5F5F5F5F5F5
310
F5F5F5F5F5F5F5F5F5F5F5F5F5F5F5F5F5F5F5F5F5F5F520F5F5F5F5F5F5F5F5F5F5F5F5F5F5F5F5F5F5E2E2EFE2F5F5F5F5F5F5F5F5F5F5F5F5F5F5F5F5F5F520F5F5F5F5F5F5F5F5F5F5F5F5F5F5F5F5F5F5F5F5F5F5F5F5F5F5F5F5F5F5F5F5F5F5F5F5F5F5F5F5F5F5F5F5F5F5F5F5F5F5F5F5F5F5F5F5F5F5F5F5F5F5
310
F5F5F5F5F5F5F5F5F5F5F5F5F5F5F5F5F5F5F5F5F5F5F5F5F5F5F5F5F5F5F5F5F5F5F5F5F5F5F5F5F5F5F5F5F5F5F5F5F5F5F5F5F5F5F5F5F5F5F5F5F5F5F5F5F5F5F5F5F5F5F5F5F5F5F5F520F5F5F5F5F5F5F5F5F5F5F5F5F5F5F5F5F5F5E2E2EFE2E2F5F5F5F5F5F5F5F5F5F5F5F5F5F5F5F5F520F5F5F5F5F5F5F5F5F5
310
F5F5F5F5F5F5F5F5F5F5F5F5F5F5F5F5F5F5F5F5F5F5F5F5F5F5F5F5F5F5F5F5F5F5F5F5F5F5F5F5F5F5F5F5F5F5F5F5F5F5F5F5F5F5F5F5F5F5F5F5F5F5F5F5F5F5F5F5F5F5F5F5F5F5F5F5F5F5F5F5F5F5F5F5F5F5F5F5F5F5F5F5F5F5F5F5F5F5F5F5F5F5F5F5F5F5F5F5F5F5F5F5F5F5F5F5F5F5F5F5F5F5F5F5F5F5F5
310
F5F520F5F5F5F5F5F5F5F5F5F5F5F5F5F5F5F5F5E2E2E2EFE2E2F5F5F5F5F5F5F5F5F5F5F5F5F5F5F5F5F520F5F5F5F5F5F5F5F5F5F5F5F5F5F5F5F5F5F5F5F5F5F5F5F5F5F5F5F5F5F5F5F5F5F5F5F5F5F5F5F5F5F5F5F5F5F5F5F5F5F5F5F5F5F5F5F5F5F5F5F5F5F5F5F5F5F5F5F5F5F5F5F5F5F5F5F5F5F5F5F5F5F5F5
310
F5F5F5F5F5F5F5F5F5F5F5F5F5F5F5F5F5F5F5F5F5F5F5F5F5F5F5F5F5F5F5F5F5F5F5F5F5F5F5F5F5F5F5F5F5F5F5F5F5F5F5F5F5F5F520F5F5F5F5F5F5F5F5F5F5F5F5F5F5F5F5F5E2E2E2EFE2E2F5F5F5F5F5F5F5F5F5F5F5F5F5F5F5F5F520F5F5F5F5F5F5F5F5F5F5F5F5F5F5F5F5F5F5F5F5F5F5F5F5F5F5F5F5F5F5
310
F5F5F5F5F5F5F5F5F5F5F5F5F5F5F5F5F5F5F5F5F5F5F5F5F5F5F5F5F5F5F5F5F5F5F5F5F5F5F5F5F5F5F5F5F5F5F5F5F5F5F5F5F5F5F5F5F5F5F5F5F5F5F5F5F5F5F5F5F5F5F5F5F5F5F5F5F5F5F5F5F5F5F5F5F5F5F5F5F5F5F5F5F5F5F5F5F5F5F5F5F5F5F5F5F5F5F5F520F5F5F5F5F5F5F5F5F5F5F5F5F5F5F5F5F5E2
310
E2E2EFE2E2F5F5F5F5F5F5F5F5F5F5F5F5F5F5F5F5F520F5F5F5F5F5F5F5F5F5F5F5F5F5F5F5F5F5F5F5F5F5F5F5F5F5F5F5F5F5F5F5F5F5F5F5F5F5F5F5F5F5F5F5F5F5F5F5F5F5F5F5F5F5F5F5F5F5F5F5F5F5F5F5F5F5F5F5F5F5F5F5F5F5F5F5F5F5F5F5F5F5F5F5F5F5F5F5F5F5F5F5F5F5F5F5F5F5F5F5F5F5F5F5F5
310
F5F5F5F5F5F5F5F5F5F5F5F5F5F5F5F5F5F5F5F5F5F5F5F5F5F5F5F5F5F5F5F5F5F520F5F5F5F5F5F5F5F5F5F5F5F5F5F5F5F5F5E2E2E2EFE2E2F5F5F5F5F5F5F5F5F5F5F5F5F5F5F5F5F520F5F5F5F5F5F5F5F5F5F5F5F5F5F5F5F5F5F5F5F5F5F5F5F5F5F5F5F5F5F5F5F5F5F5F5F5F5F5F5F5F5F5F5F5F5F5F5F5F5F5F5
310
F5F5F5F5F5F5F5F5F5F5F5F5F5F5F5F5F5F5F5F5F5F5F5F5F5F5F5F5F5F5F5F5F5F5F5F5F5F5F5F5F5F5F5F5F5F5F5F5F5F5F5F5F5F5F5F5F5F5F5F5F5F5F5F5F5F5F5F5F5F5F5F5F5F5F5F5F5F5F5F5F5F5F5F5F5F5F520F5F5F5F5F5F5F5F5F5F5F5F5F5F5F5F5F5E2E2E2EFE2E2F5F5F5F5F5F5F5F5F5F5F5F5F5F5F5F5
310
F520F5F5F5F5F5F5F5F5F5F5F5F5F5F5F5F5F5F5F5F5F5F5F5F5F5F5F5F5F5F5F5F5F5F5F5F5F5F5F5F5F5F5F5F5F5F5F5F5F5F5F5F5F5F5F5F5F5F5F5F5F5F5F5F5F5F5F5F5F5F5F5F5F5F5F5F5F5F5F5F5F5F5F5F5F5F5F5F5F5F5F5F5F5F5F5F5F5F5F5F5F5F5F5F5F5F5F5F5F5F5F5F5F5F5F5F5F5F5F5F5F5F5F5F5F5
310
F5F5F5F5F5F5F5F5F5F5F5F5F520F5F5F5F5F5F5F5F5F5F5F5F5F5F5F5F5F5E2E2E2EFE2E2F5F5F5F5F5F5F5F5F5F5F5F5F5F5F5F5F520F5F5F5F5F5F5F5F5F5F5F5F5F5F5F5F5F5F5F5F5F5F5F5F5F5F5F5F5F5F5F5F5F5F5F5F5F5F5F5F5F5F5F5F5F5F5F5F5F5F5F5F5F5F5F5F5F5F5F5F5F5F5F5F5F5F5F5F5F5F5F5F5
310
F5F5F5F5F5F5F5F5F5F5F5F5F5F5F5F5F5F5F5F5F5F5F5F5F5F5F5F5F5F5F5F5F5F5F5F5F5F5F5F5F5F5F5F5F5F5F5F5F5F5F5F5F5F5F5F5F5F5F5F5F5F5F5F5F5F520F5F5F5F5F5F5F5F5F5F5F5F5F5F5F5F5F5E2E2E2EFE2E2F5F5F5F5F5F5F5F5F5F5F5F5F5F5F5F5F520F5F5F5F5F5F5F5F5F5F5F5F5F5F5F5F5F5F5F5
310
F5F5F5F5F5F5F5F5F5F5F5F5F5F5F5F5F5F5F5F5F5F5F5F5F5F5F5F5F5F5F5F5F5F5F5F5F5F5F5F5F5F5F5F5F5F5F5F5F5F5F5F5F5F5F5F5F5F5F5F5F5F5F5F5F5F5F5F5F5F5F5F5F5F5F5F5F5F5F5F5F5F5F5F5F5F5F5F5F5F5F5F5F5F5F5F5F5F5F5F5F5F5F5F5F5F5F5F5F5F5F5F5F5F5F5F5F5F5F520F5F5F5F5F5F5F5
310
F5F5F5F5F5F5F5F5F5F5E2E2E2EFE2E2F5F5F5F5F5F5F5F5F5F5F5F5F5F5F5F5F520F5F5F5F5F5F5F5F5F5F5F5F5F5F5F5F5F5F5F5F5F5F5F5F5F5F5F5F5F5F5F5F5F5F5F5F5F5F5F5F5F5F5F5F5F5F5F5F5F5F5F5F5F5F5F5F5F5F5F5F5F5F5F5F5F5F5F5F5F5F5F5F5F5F5F5F5F5F5F5F5F5F5F5F5F5F5F5F5F5F5F5F5F5
310
F5F5F5F5F5F5F5F5F5F5F5F5F5F5F5F5F5F5F5F5F5F5F5F5F5F5F5F5F5F5F5F5F5F5F5F5F5F5F5F5F5F5F5F5F520F5F5F5F5F5F5F5F5F5F5F5F5F5F5F5F5F5E2E2E2EFE2E2F5F5F5F5F5F5F5F5F5F5F5F5F5F5F5F5F520F5F5F5F5F5F5F5F5F5F5F5F5F5F5F5F5F5F5F5F5F5F5F5F5F5F5F5F5F5F5F5F5F5F5F5F5F5F5F5F5
310
F5F5F5F5F5F5F5F5F5F5F5F5F5F5F5F5F5F5F5F5F5F5F5F5F5F5F5F5F5F5F5F5F5F5F5F5F5F5F5F5F5F5F5F5F5F5F5F5F5F5F5F5F5F5F5F5F5F5F5F5F5F5F5F5F5F5F5F5F5F5F5F5F5F5F5F5F5F5F5F5F5F5F5F5F5F5F5F5F5F5F5F5F5F5F5F5F5F520F5F5F5F5F5F5F5F5F5F5F5F5F5F5F5F5F5E2E2E2EFE2E2F5F5F5F5F5
310
F5F5F5F5F5F5F5F5F5F5F5F520F5F5F5F5F5F5F5F5F5F5F5F5F5F5F5F5F5F5F5F5F5F5F5F5F5F5F5F5F5F5F5F5F5F5F5F5F5F5F5F5F5F5F5F5F5F5F5F5F5F5F5F5F5F5F5F5F5F5F5F5F5F5F5F5F5F5F5F5F5F5F5F5F5F5F5F5F5F5F5F5F5F5F5F5F5F5F5F5F5F5F5F5F5F5F5F5F5F5F5F5F5F5F5F5F5F5F5F5F5F5F5F5F5F5
310
F5F5F5F5F5F5F5F5F5F5F5F5F5F5F5F5F5F5F5F5F5F5F5F520F5F5F5F5F5F5F5F5F5F5F5F5F5F5F5F5F5E2E2E2EFE2E2F5F5F5F5F5F5F5F5F5F5F5F5F5F5F5F5F520F5F5F5F5F5F5F5F5F5F5F5F5F5F5F5F5F5F5F5F5F5F5F5F5F5F5F5F5F5F5F5F5F5F5F5F5F5F5F5F5F5F5F5F5F5F5F5F5F5F5F5F5F5F5F5F5F5F5F5F5F5
310
F5F5F5F5F5F5F5F5F5F5F5F5F5F5F5F5F5F5F5F5F5F5F5F5F5F5F5F5F5F5F5F5F5F5F5F5F5F5F5F5F5F5F5F5F5F5F5F5F5F5F5F5F5F5F5F5F5F5F5F5F5F5F5F5F5F5F5F5F5F5F5F5F5F5F5F5F520F5F5F5F5F5F5F5F5F5F5F5F5F5F5F5F5F5E2E2E2EFE2E2F5F5F5F5F5F5F5F5F5F5F5F5F5F5F5F5F520F5F5F5F5F5F5F5F5
310
F5F5F5F5F5F5F5F5F5F5F5F5F5F5F5F5F5F5F5F5F5F5F5F5F5F5F5F5F5F5F5F5F5F5F5F5F5F5F5F5F5F5F5F5F5F5F5F5F5F5F5F5F5F5F5F5F5F5F5F5F5F5F5F5F5F5F5F5F5F5F5F5F5F5F5F5F5F5F5F5F5F5F5F5F5F5F5F5F5F5F5F5F5F5F5F5F5F5F5F5F5F5F5F5F5F5F5F5F5F5F5F5F5F5F5F5F5F5F5F5F5F5F5F5F5F5F5
310
F5F5F520F5F5F5F5F5F5F5F5F5F5F5F5F5F5F5F5F5E2E2E2EFE2E2F5F5F5F5F5F5F5F5F5F5F5F5F5F5F5F5F520F5F5F5F5F5F5F5F5F5F5F5F5F5F5F5F5F5F5F5F5F5F5F5F5F5F5F5F5F5F5F5F5F5F5F5F5F5F5F5F5F5F5F5F5F5F5F5F5F5F5F5F5F5F5F5F5F5F5F5F5F5F5F5F5F5F5F5F5F5F5F5F5F5F5F5F5F5F5F5F5F5F5
310
F5F5F5F5F5F5F5F5F5F5F5F5F5F5F5F5F5F5F5F5F5F5F5F5F5F5F5F5F5F5F5F5F5F5F5F5F5F5F5F5F5F5F5F5F5F5F5F5F5F5F5F5F5F5F5F520F5F5F5F5F5F5F5F5F5F5F5F5F5F5F5F5F5E2E2E2EFE2E2F5F5F5F5F5F5F5F5F5F5F5F5F5F5F5F5F520F5F5F5F5F5F5F5F5F5F5F5F5F5F5F5F5F5F5F5F5F5F5F5F5F5F5F5F5F5
310
F5F5F5F5F5F5F5F5F5F5F5F5F5F5F5F5F5F5F5F5F5F5F5F5F5F5F5F5F5F5F5F5F5F5F5F5F5F5F5F5F5F5F5F5F5F5F5F5F5F5F5F5F5F5F5F5F5F5F5F5F5F5F5F5F5F5F5F5F5F5F5F5F5F5F5F5F5F5F5F5F5F5F5F5F5F5F5F5F5F5F5F5F5F5F5F5F5F5F5F5F5F5F5F5F5F5F5F5F520F5F5F5F5F5F5F5F5F5F5F5F5F5F5F5F5F5
310
E2E2E2EFE2E2F5F5F5F5F5F5F5F5F5F5F5F5F5F5F5F5F520F5F5F5F5F5F5F5F5F5F5F5F5F5F5F5F5F5F5F5F5F5F5F5F5F5F5F5F5F5F5F5F5F5F5F5F5F5F5F5F5F5F5F5F5F5F5F5F5F5F5F5F5F5F5F5F5F5F5F5F5F5F5F5F5F5F5F5F5F5F5F5F5F5F5F5F5F5F5F5F5F5F5F5F5F5F5F5F5F5F5F5F5F5F5F5F5F5F5F5F5F5F5F5
310
F5F5F5F5F5F5F5F5F5F5F5F5F5F5F5F5F5F5F5F5F5F5F5F5F5F5F5F5F5F5F5F5F5F5F520F5F5F5F5F5F5F5F5F5F5F5F5F5F5F5F5F5E2E2E2EFE2F5F5F5F5F5F5F5F5F5F5F5F5F5F5F5F5F5F520F5F5F5F5F5F5F5F5F5F5F5F5F5F5F5F5F5F5F5F5F5F5F5F5F5F5F5F5F5F5F5F5F5F5F5F5F5F5F5F5F5F5F5F5F5F5F5F5F5F5
310
F5F5F5F5F5F5F5F5F5F5F5F5F5F5F5F5F5F5F5F5F5F5F5F5F5F5F5F5F5F5F5F5F5F5F5F5F5F5F5F5F5F5F5F5F5F5F5F5F5F5F5F5F5F5F5F5F5F5F5F5F5F5F5F5F5F5F5F5F5F5F5F5F5F5F5F5F5F5F5F5F5F5F5F5F5F5F5F520F5F5F5F5F5F5F5F5F5F5F5F5F5F5F5F5F5F5E2E2EFE2F5F5F5F5F5F5F5F5F5F5F5F5F5F5F5F5
310
F5F520F5F5F5F5F5F5F5F5F5F5F5F5F5F5F5F5F5F5F5F5F5F5F5F5F5F5F5F5F5F5F5F5F5F5F5F5F5F5F5F5F5F5F5F5F5F5F5F5F5F5F5F5F5F5F5F5F5F5F5F5F5F5F5F5F5F5F5F5F5F5F5F5F5F5F5F5F5F5F5F5F5F5F5F5F5F5F5F5F5F5F5F5F5F5F5F5F5F5F5F5F5F5F5F5F5F5F5F5F5F5F5F5F5F5F5F5F5F5F5F5F5F5F5F5
310
F5F5F5F5F5F5F5F5F5F5F5F5F5F520F5F5F5F5F5F5F5F5F5F5F5F5F5F5F5F5F5F5E2E2EFE2F5F5F5F5F5F5F5F5F5F5F5F5F5F5F5F5F5F520F5F5F5F5F5F5F5F5F5F5F5F5F5F5F5F5F5F5F5F5F5F5F5F5F5F5F5F5F5F5F5F5F5F5F5F5F5F5F5F5F5F5F5F5F5F5F5F5F5F5F5F5F5F5F5F5F5F5F5F5F5F5F5F5F5F5F5F5F5F5F5
310
F5F5F5F5F5F5F5F5F5F5F5F5F5F5F5F5F5F5F5F5F5F5F5F5F5F5F5F5F5F5F5F5F5F5F5F5F5F5F5F5F5F5F5F5F5F5F5F5F5F5F5F5F5F5F5F5F5F5F5F5F5F5F5F5F5F5F520F5F5F5F5F5F5F5F5F5F5F5F5F5F5F5F5F5F5E2E2EFE2F5F5F5F5F5F5F5F5F5F5F5F5F5F5F5F5F5F520F5F5F5F5F5F5F5F5F5F5F5F5F5F5F5F5F5F5
310
F5F5F5F5F5F5F5F5F5F5F5F5F5F5F5F5F5F5F5F5F5F5F5F5F5F5F5F5F5F5F5F5F5F5F5F5F5F5F5F5F5F5F5F5F5F5F5F5F5F5F5F5F5F5F5F5F5F5F5F5F5F5F5F5F5F5F5F5F5F5F5F5F5F5F5F5F5F5F5F5F5F5F5F5F5F5F5F5F5F5F5F5F5F5F5F5F5F5F5F5F5F5F5F5F5F5F5F5F5F5F5F5F5F5F5F5F5F5F5F520F5F5F5F5F5F5
310
F5F5F5F5F5F5F5F5F5F5F5F5E2E2EFE2F5F5F5F5F5F5F5F5F5F5F5F5F5F5F5F5F5F5202020202020202020202020202020202020202020202020202020202020202020202020202020202020202020202020202020202020202020202020202020202020202020202020202020202020202020202020202020202020202020
310
2020202020202020202020202020202020202020202020202020202020202020202020202020202020202020202020F5F5F5F5F5F5F5F5F5F5F5F5F5F5F5F5F5F5E2E2EFE2F5F5F5F5F5F5F5F5F5F5F5F5F5F5F5F5F5F5F5F5F5F5F5F5F5F5F5F5F5F5F5F5F5F5F5F5F5F5F5F5F5F5F5F5F5F5F5F5F5F5F5F5F5F5F5F5F5F5
310
F5F5F5F5F5F5F5F5F5F5F5F5F5F5F5F5F5F5F5F5F5F5F5F5F5F5F5F5F5F5F5F5F5F5F5F5F5F5F5F5F5F5F5F5F5F5F5F5F5F5F5F5F5F5F5F5F5F5F5F5F5F5F5F5F5F5F5F5F5F5F5F5F5F5F5F5F5F5F5F5F5F5F5F5F5F5F5F5F5F5F5F5F5F5F5F5F5F5F5F5F5F5F5F5F5F5F5F5F5F5F5F5F5F5F5F5F5F5E2E2EFE2F5F5F5F5F5
310
F5F5F5F5F5F5F5F5F5F5F5F5F5F5F5F5F5F5F5F5F5F5F5F5F5F5F5F5F5F5F5F5F5F5F5F5F5F5F5F5F5F5F5F5F5F5F5F5F5F5F5F5F5F5F5F5F5F5F5F5F5F5F5F5F5F5F5F5F5F5F5F5F5F5F5F5F5F5F5F5F5F5F5F5F5F5F5F5F5F5F5F5F5F5F5F5F5F5F5F5F5F5F5F5F5F5F5F5F5F5F5F5F5F5F5F5F5F5F5F5F5F5F5F5F5F5F5
310
F5F5F5F5F5F5F5F5F5F5F5F5F5F5F5F5F5F5F5F5F5F5F5F5F5F5F5F5F5F5F5F5F5F5F5F5F5F5F5F5F5F5F5F5E2E2EFE2F5F5F5F5F5F5F5F5F5F5F5F5F5F5F5F5F5F5F5F5F5F5F5F5F5F5F5F5F5F5F5F5F5F5F5F5F5F5F5F5F5F5F5F5F5F5F5F5F5F5F5F5F5F5F5F5F5F5F5F5F5F5F5F5F5F5F5F5F5F5F5F5F5F5F5F5F5F5F5
310
F5F5F5F5F5F5F5F5F5F5F5F5F5F5F5F5F5F5F5F5F5F5F5F5F5F5F5F5F5F5F5F5F5F5F5F5F5F5F5F5F5F5F5F5F5F5F5F5F5F5F5F5F5F5F5F5F5F5F5F5F5F5F5F5F5F5F5F5F5F5F5F5F5F5F5F5F5F5F5F5F5F5F5F5F5F5F5F5F5F5F5F5F5F5F5F5F5E2E2EFE2F5F5F5F5F5F5F5F5F5F5F5F5F5F5F5F5F5F5F5F5F5F5F5F5F5F5
310
F5F5F5F5F5F5F5F5F5F5F5F5F5F5F5F5F5F5F5F5F5F5F5F5F5F5F5F5F5F5F5F5F5F5F5F5F5F5F5F5F5F5F5F5F5F5F5F5F5F5F5F5F5F5F5F5F5F5F5F5F5F5F5F5F5F5F5F5F5F5F5F5F5F5F5F5F5F5F5F5F5F5F5F5F5F5F5F5F5F5F5F5F5F5F5F5F5F5F5F5F5F5F5F5F5F5F5F5F5F5F5F5F5F5F5F5F5F5F5F5F5F5F5F5F5F5F5
310
F5F5F5F5F5F5F5F5F5F5F5F5F5F5F5F5F5F5F5F5F5F5F5E2E2EFE2E2F5F5F5F5F5F5F5F5F5F5F5F5F5F5F5F5F5F5F5F5F5F5F5F5F5F5F5F5F5F5F5F5F5F5F5F5F5F5F5F5F5F5F5F5F5F5F5F5F5F5F5F5F5F5F5F5F5F5F5F5F5F5F5F5F5F5F5F5F5F5F5F5F5F5F5F5F5F5F5F5F5F5F5F5F5F5F5F5F5F5F5F5F5F5F5F5F5F5F5
310
F5F5F5F5F5F5F5F5F5F5F5F5F5F5F5F5F5F5F5F5F5F5F5F5F5F5F5F5F5F5F5F5F5F5F5F5F5F5F5F5F5F5F5F5F5F5F5F5F5F5F5F5F5F5F5F5F5F5F5F5F5F5F5F5F5F5F5F5F5F5F5F5F5F5F5E2E2E2EFE2E2F5F5F5F5F5F5F5F5F5F5F5F5F5F5F5F5F5F5F5F5F5F5F5F5F5F5F5F5F5F5F5F5F5F5F5F5F5F5F5F5F5F5F5F5F5F5
310
F5F5F5F5F5F5F5F5F5F5F5F5F5F5F5F5F5F5F5F5F5F5F5F5F5F5F5F5F5F5F5F5F5F5F5F5F5F5F5F5F5F5F5F5F5F5F5F5F5F5F5F5F5F5F5F5F5F5F5F5F5F5F5F5F5F5F5F5F5F5F5F5F5F5F5F5F5F5F5F5F5F5F5F5F5F5F5F5F5F5F5F5F5F5F5F5F5F5F5F5F5F5F5F5F5F5F5F5F5F5F5F5F5F5F5F5F5F5F5F5F5F5F5F5F5F5F5
310
F5E2E2E2EFE2E2F5F5F5F5F5F5F5F5F5F5F5F5F5F5F5F5F5F5F5F5F5F5F5F5F5F5F5F5F5F5F5F5F5F5F5F5F5F5F5F5F5F5F5F5F5F5F5F5F5F5F5F5F5F5F5F5F5F5F5F5F5F5F5F5F5F5F5F5F5F5F5F5F5F5F5F5F5F5F5F5F5F5F5F5F5F5F5F5F5F5F5F5F5F5F5F5F5F5F5F5F5F5F5F5F5F5F5F5F5F5F5F5F5F5F5F5F5F5F5F5
310
F5F5F5F5F5F5F5F5F5F5F5F5F5F5F5F5F5F5F5F5F5F5F5F5F5F5F5F5F5F5F5F5F5F5F5F5F5F5F5F5F5F5F5F5F5F5F5F5F5F5F5F5F5F5E2E2E2EFE2E2F5F5F5F5F5F5F5F5F5F5F5F5F5F5F5F5F5F5F5F5F5F5F5F5F5F5F5F5F5F5F5F5F5F5F5F5F5F5F5F5F5F5F5F5F5F5F5F5F5F5F5F5F5F5F5F5F5F5F5F5F5F5F5F5F5F5F5
310
F5F5F5F5F5F5F5F5F5F5F5F5F5F5F5F5F5F5F5F5F5F5F5F5F5F5F5F5F5F5F5F5F5F5F5F5F5F5F5F5F5F5F5F5F5F5F5F5F5F5F5F5F5F5F5F5F5F5F5F5F5F5F5F5F5F5F5F5F5F5F5F5F5F5F5F5F5F5F5F5F5F5F5F5F5F5F5F5F5F5F5F5F5F5F5F5F5F5F5F5F5F5F5F5F5F5F5E2E2E2EFE2E2F5F5F5F5F5F5F5F5F5F5F5F5F5F5
310
F5F5F5F5F5F5F5F5F5F5F5F5F5F5F5F5F5F5F5F5F5F5F5F5F5F5F5F5F5F5F5F5F5F5F5F5F5F5F5F5F5F5F5F5F5F5F5F5F5F5F5F5F5F5F5F5F5F5F5F5F5F5F5F5F5F5F5F5F5F5F5F5F5F5F5F5F5F5F5F5F5F5F5F5F5F5F5F5F5F5F5F5F5F5F5F5F5F5F5F5F5F5F5F5F5F5F5F5F5F5F5F5F5F5F5F5F5F5F5F5F5F5F5F5F5F5F5
310
F5F5F5F5F5F5F5F5F5F5F5F5F5F5F5F5F5F5F5F5F5F5F5F5F5F5F5F5F5F5F5F5F5E2E2E2EFE2E2F5F5F5F5F5F5F5F5F5F5F5F5F5F5F5F5F5F5F5F5F5F5F5F5F5F5F5F5F5F5F5F5F5F5F5F5F5F5F5F5F5F5F5F5F5F5F5F5F5F5F5F5F5F5F5F5F5F5F5F5F5F5F5F5F5F5F5F5F5F5F5F5F5F5F5F5F5F5F5F5F5F5F5F5F5F5F5F5
310
F5F5F5F5F5F5F5F5F5F5F5F5F5F5F5F5F5F5F5F5F5F5F5F5F5F5F5F5F5F5F5F5F5F5F5F5F5F5F5F5F5F5F5F5F5F5F5F5F5F5F5F5F5F5F5F5F5F5F5F5F5F5F5F5F5F5F5F5F5F5F5F5F5F5F5F5F5F5F5F5F5F5F5F5F5F5E2E2E2EFE2E2F5F5F5F5F5F5F5F5F5F5F5F5F5F5F5F5F5F5F5F5F5F5F5F5F5F5F5F5F5F5F5F5F5F5F5
310
F5F5F5F5F5F5F5F5F5F5F5F5F5F5F5F5F5F5F5F5F5F5F5F5F5F5F5F5F5F5F5F5F5F5F5F5F5F5F5F5F5F5F5F5F5F5F5F5F5F5F5F5F5F5F5F5F5F5F5F5F5F5F5F5F5F5F5F5F5F5F5F5F5F5F5F5F5F5F5F5F5F5F5F5F5F5F5F5F5F5F5F5F5F5F5F5F5F5F5F5F5F5F5F5F5F5F5F5F5F5F5F5F5F5F5F5F5F5F5F5F5F5F5F5F5F5F5
310
F5F5F5F5F5F5F5F5F5F5F5F5E2E2E2EFE2E2E2E2E2E2E2E2E2E2F5F5F5F5F5F5F5F5F5E2E2E2E2E2E2E2E2E2E2E2E2E2E2E2E2F5F5F5F5F5F5F5F5F5E2E2E2E2E2E2E2E2E2E2E2E2E2E2E2E2F5F5F5F5F5F5F5F5F5E2E2E2E2E2E2E2E2E2E2E2E2E2E2E2E2F5F5F5F5F5F5F5F5F5E2E2E2E2E2E2E2E2E2E2E2E2E2E2E2E2F5
310
F5F5F5F5F5F5F5F5E2E2E2E2E2E2E2E2E2E2E2E2E2E2E2E2F5F5F5F5F5F5F5F5F5E2E2E2E2E2E2E2E2E2E2E2E2E2E2E2E2F5F5F5F5F5F5F5F5F5E2E2E2E2E2E2E2E2E2E2EFE2F5F5F5F5F5F5F5F5F5F5F5F5F5F5F5F5F5F5F5F5F5F5F5F5F5F5F5F5F5F5F5F5F5F5F5F5F5F5F5F5F5F5F5F5F5F5F5F5F5F5F5F5F5F5F5F5F5
310
F5F5F5F5F5F5F5F5F5F5F5F5F5F5F5F5F5F5F5F5F5F5F5F5F5F5F5F5F5F5F5F5F5F5F5F5F5F5F5F5F5F5F5F5F5F5F5F5F5F5F5F5F5F5F5F5F5F5F5F5F5F5F5F5F5F5F5F5F5F5F5F5F5F5F5F5F5F5F5F5F5F5F5F5F5F5F5F5F5F5F5F5F5F5F5F5F5F5F5F5F5F5F5F5F5F5F5F5F5F5F5F5F5F5F5F5F5F5F5E2EFEFE2E2E2E2E2
310
E2E2E2E2E2E2E2E2E2E2E2E2E2E2E2E2E2E2E2E2E2E2E2E2E2E2E2E2E2E2E2E2E2E2E2E2E2E2E2E2E2E2E2E2E2E2E2E2E2E2E2E2E2E2E2E2E2E2E2E2E2E2E2E2E2E2E2E2E2E2E2E2E2E2E2E2E2E2E2E2E2E2E2E2E2E2E2E2E2E2E2E2E2E2E2E2E2E2E2E2E2E2E2E2E2E2E2E2E2E2E2E2E2E2E2E2E2E2E2E2E2E2E2E2E2E2E2
310
E2E2E2E2E2E2E2E2E2E2E2E2E2E2E2E2E2E2E2E2E2E2E2E2E2E2E2E2E2E2E2E2E2E2E2E2E2E2E2E2E2E2E2E2E2E2EFEF
  0
XRECORD
  5
71F3
102
{ACAD_REACTORS
330
71F2
102
}
330
71F2
100
AcDbXrecord
280
     1
102
SHADEPLOT
 70
     0
102
SHADEPLOTRESLEVEL
 70
     2
102
SHADEPLOTCUSTOMDPI
 70
   300
  0
XRECORD
  5
71ED
102
{ACAD_REACTORS
330
71EC
102
}
330
71EC
100
AcDbXrecord
280
     1
102
MATERIAL
148
0.0
149
0.0
149
0.0
 93
        0
 94
       63
282
     0
 72
     1
 77
     1
171
     1
175
     1
179
     1
273
     0
  0
XRECORD
  5
71EB
102
{ACAD_REACTORS
330
71EA
102
}
330
71EA
100
AcDbXrecord
280
     1
102
MATERIAL
148
0.0
149
0.0
149
0.0
 93
        0
 94
       63
282
     0
 72
     1
 77
     1
171
     1
175
     1
179
     1
273
     0
  0
XRECORD
  5
71EF
102
{ACAD_REACTORS
330
71EE
102
}
330
71EE
100
AcDbXrecord
280
     1
102
MATERIAL
148
0.0
149
0.0
149
0.0
 93
        0
 94
       63
282
     0
 72
     1
 77
     1
171
     1
175
     1
179
     1
273
     0
  0
XRECORD
  5
7200
102
{ACAD_REACTORS
330
71FF
102
}
330
71FF
100
AcDbXrecord
280
     1
102
SHADEPLOT
 70
     0
102
SHADEPLOTRESLEVEL
 70
     2
102
SHADEPLOTCUSTOMDPI
 70
   300
  0
XRECORD
  5
7202
102
{ACAD_REACTORS
330
7201
102
}
330
7201
100
AcDbXrecord
280
     1
102
SHADEPLOT
 70
     0
102
SHADEPLOTRESLEVEL
 70
     2
102
SHADEPLOTCUSTOMDPI
 70
   300
  0
XRECORD
  5
71F5
102
{ACAD_REACTORS
330
71F4
102
}
330
71F4
100
AcDbXrecord
280
     1
102
SHADEPLOT
 70
     0
102
SHADEPLOTRESLEVEL
 70
     2
102
SHADEPLOTCUSTOMDPI
 70
   300
  0
XRECORD
  5
71F7
102
{ACAD_REACTORS
330
71F6
102
}
330
71F6
100
AcDbXrecord
280
     1
102
SHADEPLOT
 70
     0
102
SHADEPLOTRESLEVEL
 70
     2
102
SHADEPLOTCUSTOMDPI
 70
   300
  0
XRECORD
  5
71F9
102
{ACAD_REACTORS
330
71F8
102
}
330
71F8
100
AcDbXrecord
280
     1
102
SHADEPLOT
 70
     0
102
SHADEPLOTRESLEVEL
 70
     2
102
SHADEPLOTCUSTOMDPI
 70
   300
  0
XRECORD
  5
71F1
102
{ACAD_REACTORS
330
71F0
102
}
330
71F0
100
AcDbXrecord
280
     1
102
ACAD_ROUNDTRIP_PRE2007_TABLESTYLE
 90
      512
 91
        0
  1

 92
      512
 93
        0
  2

 94
      512
 95
        0
  3

  0
ENDSEC
  0
EOF
